  0
SECTION
  2
HEADER
  9
$ACADVER
  1
AC1015
  9
$ACADMAINTVER
 70
     6
  9
$DWGCODEPAGE
  3
ANSI_949
  9
$INSBASE
 10
0.0
 20
0.0
 30
0.0
  9
$EXTMIN
 10
-199.0039061313234
 20
-49.97073246008785
 30
0.0
  9
$EXTMAX
 10
132.5503333333333
 20
85.20259975857408
 30
0.0
  9
$LIMMIN
 10
0.0
 20
0.0
  9
$LIMMAX
 10
420.0
 20
297.0
  9
$ORTHOMODE
 70
     1
  9
$REGENMODE
 70
     1
  9
$FILLMODE
 70
     1
  9
$QTEXTMODE
 70
     0
  9
$MIRRTEXT
 70
     1
  9
$LTSCALE
 40
1.0
  9
$ATTMODE
 70
     1
  9
$TEXTSIZE
 40
3.5
  9
$TRACEWID
 40
1.0
  9
$TEXTSTYLE
  7
Standard
  9
$CLAYER
  8
0
  9
$CELTYPE
  6
ByLayer
  9
$CECOLOR
 62
   256
  9
$CELTSCALE
 40
1.0
  9
$DISPSILH
 70
     0
  9
$DIMSCALE
 40
1.0
  9
$DIMASZ
 40
3.302
  9
$DIMEXO
 40
1.0
  9
$DIMDLI
 40
3.75
  9
$DIMRND
 40
0.0
  9
$DIMDLE
 40
0.0
  9
$DIMEXE
 40
1.0
  9
$DIMTP
 40
0.0
  9
$DIMTM
 40
0.0
  9
$DIMTXT
 40
3.5
  9
$DIMCEN
 40
2.5
  9
$DIMTSZ
 40
0.0
  9
$DIMTOL
 70
     0
  9
$DIMLIM
 70
     0
  9
$DIMTIH
 70
     1
  9
$DIMTOH
 70
     1
  9
$DIMSE1
 70
     0
  9
$DIMSE2
 70
     0
  9
$DIMTAD
 70
     1
  9
$DIMZIN
 70
     0
  9
$DIMBLK
  1

  9
$DIMASO
 70
     1
  9
$DIMSHO
 70
     1
  9
$DIMPOST
  1

  9
$DIMAPOST
  1

  9
$DIMALT
 70
     0
  9
$DIMALTD
 70
     3
  9
$DIMALTF
 40
0.0393700787401575
  9
$DIMLFAC
 40
1.0
  9
$DIMTOFL
 70
     1
  9
$DIMTVP
 40
0.0
  9
$DIMTIX
 70
     0
  9
$DIMSOXD
 70
     0
  9
$DIMSAH
 70
     0
  9
$DIMBLK1
  1

  9
$DIMBLK2
  1

  9
$DIMSTYLE
  2
ISO-25
  9
$DIMCLRD
 70
     0
  9
$DIMCLRE
 70
     0
  9
$DIMCLRT
 70
     0
  9
$DIMTFAC
 40
1.0
  9
$DIMGAP
 40
1.524
  9
$DIMJUST
 70
     0
  9
$DIMSD1
 70
     0
  9
$DIMSD2
 70
     0
  9
$DIMTOLJ
 70
     0
  9
$DIMTZIN
 70
     0
  9
$DIMALTZ
 70
     0
  9
$DIMALTTZ
 70
     0
  9
$DIMUPT
 70
     0
  9
$DIMDEC
 70
     2
  9
$DIMTDEC
 70
     2
  9
$DIMALTU
 70
     2
  9
$DIMALTTD
 70
     3
  9
$DIMTXSTY
  7
Standard
  9
$DIMAUNIT
 70
     0
  9
$DIMADEC
 70
     2
  9
$DIMALTRND
 40
0.0
  9
$DIMAZIN
 70
     0
  9
$DIMDSEP
 70
    44
  9
$DIMATFIT
 70
     3
  9
$DIMFRAC
 70
     0
  9
$DIMLDRBLK
  1

  9
$DIMLUNIT
 70
     2
  9
$DIMLWD
 70
    -2
  9
$DIMLWE
 70
    -2
  9
$DIMTMOVE
 70
     0
  9
$LUNITS
 70
     2
  9
$LUPREC
 70
     2
  9
$SKETCHINC
 40
1.0
  9
$FILLETRAD
 40
10.0
  9
$AUNITS
 70
     0
  9
$AUPREC
 70
     2
  9
$MENU
  1
.
  9
$ELEVATION
 40
0.0
  9
$PELEVATION
 40
0.0
  9
$THICKNESS
 40
0.0
  9
$LIMCHECK
 70
     0
  9
$CHAMFERA
 40
0.0
  9
$CHAMFERB
 40
0.0
  9
$CHAMFERC
 40
0.0
  9
$CHAMFERD
 40
0.0
  9
$SKPOLY
 70
     0
  9
$TDCREATE
 40
2458268.77396647
  9
$TDUCREATE
 40
2458268.39896647
  9
$TDUPDATE
 40
2458270.367726852
  9
$TDUUPDATE
 40
2458269.992726852
  9
$TDINDWG
 40
0.0010617477
  9
$TDUSRTIMER
 40
2458269.991665324
  9
$USRTIMER
 70
     1
  9
$ANGBASE
 50
0.0
  9
$ANGDIR
 70
     0
  9
$PDMODE
 70
     0
  9
$PDSIZE
 40
-1.0
  9
$PLINEWID
 40
0.0
  9
$SPLFRAME
 70
     0
  9
$SPLINETYPE
 70
     6
  9
$SPLINESEGS
 70
     8
  9
$HANDSEED
  5
164
  9
$SURFTAB1
 70
     6
  9
$SURFTAB2
 70
     6
  9
$SURFTYPE
 70
     6
  9
$SURFU
 70
     6
  9
$SURFV
 70
     6
  9
$UCSBASE
  2

  9
$UCSNAME
  2

  9
$UCSORG
 10
0.0
 20
0.0
 30
0.0
  9
$UCSXDIR
 10
1.0
 20
0.0
 30
0.0
  9
$UCSYDIR
 10
0.0
 20
1.0
 30
0.0
  9
$UCSORTHOREF
  2

  9
$UCSORTHOVIEW
 70
     0
  9
$UCSORGTOP
 10
0.0
 20
0.0
 30
0.0
  9
$UCSORGBOTTOM
 10
0.0
 20
0.0
 30
0.0
  9
$UCSORGLEFT
 10
0.0
 20
0.0
 30
0.0
  9
$UCSORGRIGHT
 10
0.0
 20
0.0
 30
0.0
  9
$UCSORGFRONT
 10
0.0
 20
0.0
 30
0.0
  9
$UCSORGBACK
 10
0.0
 20
0.0
 30
0.0
  9
$PUCSBASE
  2

  9
$PUCSNAME
  2

  9
$PUCSORG
 10
0.0
 20
0.0
 30
0.0
  9
$PUCSXDIR
 10
1.0
 20
0.0
 30
0.0
  9
$PUCSYDIR
 10
0.0
 20
1.0
 30
0.0
  9
$PUCSORTHOREF
  2

  9
$PUCSORTHOVIEW
 70
     0
  9
$PUCSORGTOP
 10
0.0
 20
0.0
 30
0.0
  9
$PUCSORGBOTTOM
 10
0.0
 20
0.0
 30
0.0
  9
$PUCSORGLEFT
 10
0.0
 20
0.0
 30
0.0
  9
$PUCSORGRIGHT
 10
0.0
 20
0.0
 30
0.0
  9
$PUCSORGFRONT
 10
0.0
 20
0.0
 30
0.0
  9
$PUCSORGBACK
 10
0.0
 20
0.0
 30
0.0
  9
$USERI1
 70
     0
  9
$USERI2
 70
     0
  9
$USERI3
 70
     0
  9
$USERI4
 70
     0
  9
$USERI5
 70
     0
  9
$USERR1
 40
0.0
  9
$USERR2
 40
0.0
  9
$USERR3
 40
0.0
  9
$USERR4
 40
0.0
  9
$USERR5
 40
0.0
  9
$WORLDVIEW
 70
     1
  9
$SHADEDGE
 70
     3
  9
$SHADEDIF
 70
    70
  9
$TILEMODE
 70
     1
  9
$MAXACTVP
 70
    64
  9
$PINSBASE
 10
0.0
 20
0.0
 30
0.0
  9
$PLIMCHECK
 70
     0
  9
$PEXTMIN
 10
1.000000000000000E+20
 20
1.000000000000000E+20
 30
1.000000000000000E+20
  9
$PEXTMAX
 10
-1.000000000000000E+20
 20
-1.000000000000000E+20
 30
-1.000000000000000E+20
  9
$PLIMMIN
 10
0.0
 20
0.0
  9
$PLIMMAX
 10
0.0
 20
0.0
  9
$UNITMODE
 70
     0
  9
$VISRETAIN
 70
     1
  9
$PLINEGEN
 70
     0
  9
$PSLTSCALE
 70
     1
  9
$TREEDEPTH
 70
  3020
  9
$CMLSTYLE
  2
Standard
  9
$CMLJUST
 70
     0
  9
$CMLSCALE
 40
20.0
  9
$PROXYGRAPHICS
 70
     1
  9
$MEASUREMENT
 70
     1
  9
$CELWEIGHT
370
    -1
  9
$ENDCAPS
280
     0
  9
$JOINSTYLE
280
     0
  9
$LWDISPLAY
290
     1
  9
$INSUNITS
 70
     4
  9
$HYPERLINKBASE
  1

  9
$STYLESHEET
  1

  9
$XEDIT
290
     1
  9
$CEPSNTYPE
380
     0
  9
$PSTYLEMODE
290
     1
  9
$FINGERPRINTGUID
  2
{82826AB9-6FAE-4CA6-B3A1-FFB51E378B9A}
  9
$VERSIONGUID
  2
{FAEB1C32-E019-11D5-929B-00C0DF256EC4}
  9
$EXTNAMES
290
     1
  9
$PSVPSCALE
 40
0.0
  9
$OLESTARTUP
290
     0
  0
ENDSEC
  0
SECTION
  2
CLASSES
  0
CLASS
  1
ACDBDICTIONARYWDFLT
  2
AcDbDictionaryWithDefault
  3
ObjectDBX Classes
 90
        0
280
     0
281
     0
  0
CLASS
  1
VISUALSTYLE
  2
AcDbVisualStyle
  3
ObjectDBX Classes
 90
     4095
280
     0
281
     0
  0
CLASS
  1
MATERIAL
  2
AcDbMaterial
  3
ObjectDBX Classes
 90
     1153
280
     0
281
     0
  0
CLASS
  1
SCALE
  2
AcDbScale
  3
ObjectDBX Classes
 90
     1153
280
     0
281
     0
  0
CLASS
  1
SUN
  2
AcDbSun
  3
SCENEOE
 90
     1153
280
     0
281
     0
  0
CLASS
  1
ACDBPLACEHOLDER
  2
AcDbPlaceHolder
  3
ObjectDBX Classes
 90
        0
280
     0
281
     0
  0
CLASS
  1
LAYOUT
  2
AcDbLayout
  3
ObjectDBX Classes
 90
        0
280
     0
281
     0
  0
CLASS
  1
TABLESTYLE
  2
AcDbTableStyle
  3
ObjectDBX Classes
 90
     4095
280
     0
281
     0
  0
CLASS
  1
MLEADERSTYLE
  2
AcDbMLeaderStyle
  3
ACDB_MLEADERSTYLE_CLASS
 90
     4095
280
     0
281
     0
  0
CLASS
  1
RASTERVARIABLES
  2
AcDbRasterVariables
  3
ISM
 90
        0
280
     0
281
     0
  0
ENDSEC
  0
SECTION
  2
TABLES
  0
TABLE
  2
VPORT
  5
8
330
0
100
AcDbSymbolTable
 70
     1
  0
VPORT
  5
29
330
8
100
AcDbSymbolTableRecord
100
AcDbViewportTableRecord
  2
*Active
 70
     0
 10
0.0
 20
0.0
 11
1.0
 21
1.0
 12
189.3423734517921
 22
-74.88411735871131
 13
0.0
 23
0.0
 14
10.0
 24
10.0
 15
10.0
 25
10.0
 16
0.0
 26
0.0
 36
1.0
 17
0.0
 27
0.0
 37
0.0
 40
406.652213748219
 41
1.627413127413127
 42
50.0
 43
0.0
 44
0.0
 50
0.0
 51
0.0
 71
    16
 72
  2000
 73
     1
 74
     3
 75
     0
 76
     0
 77
     0
 78
     0
281
     0
 65
     1
110
0.0
120
0.0
130
0.0
111
1.0
121
0.0
131
0.0
112
0.0
122
1.0
132
0.0
 79
     0
146
0.0
  0
ENDTAB
  0
TABLE
  2
LTYPE
  5
5
330
0
100
AcDbSymbolTable
 70
     6
  0
LTYPE
  5
14
330
5
100
AcDbSymbolTableRecord
100
AcDbLinetypeTableRecord
  2
ByBlock
 70
     0
  3

 72
    65
 73
     0
 40
0.0
  0
LTYPE
  5
15
330
5
100
AcDbSymbolTableRecord
100
AcDbLinetypeTableRecord
  2
ByLayer
 70
     0
  3

 72
    65
 73
     0
 40
0.0
  0
LTYPE
  5
16
330
5
100
AcDbSymbolTableRecord
100
AcDbLinetypeTableRecord
  2
Continuous
 70
     0
  3
Solid line
 72
    65
 73
     0
 40
0.0
  0
LTYPE
  5
6A
330
5
100
AcDbSymbolTableRecord
100
AcDbLinetypeTableRecord
  2
HIDDEN
 70
     0
  3
Hidden __ __ __ __ __ __ __ __ __ __ __ __ __ __
 72
    65
 73
     2
 40
1.905
 49
1.27
 74
     0
 49
-0.635
 74
     0
  0
LTYPE
  5
6B
330
5
100
AcDbSymbolTableRecord
100
AcDbLinetypeTableRecord
  2
PHANTOM
 70
     0
  3
Phantom ______  __  __  ______  __  __  ______
 72
    65
 73
     6
 40
12.7
 49
6.35
 74
     0
 49
-1.27
 74
     0
 49
1.27
 74
     0
 49
-1.27
 74
     0
 49
1.27
 74
     0
 49
-1.27
 74
     0
  0
LTYPE
  5
6C
330
5
100
AcDbSymbolTableRecord
100
AcDbLinetypeTableRecord
  2
CENTER
 70
     0
  3
Center ____ _ ____ _ ____ _ ____ _ ____ _ ____
 72
    65
 73
     4
 40
10.16
 49
6.35
 74
     0
 49
-1.27
 74
     0
 49
1.27
 74
     0
 49
-1.27
 74
     0
  0
LTYPE
  5
6D
330
5
100
AcDbSymbolTableRecord
100
AcDbLinetypeTableRecord
  2
CENTERX2
 70
     0
  3
Center (2x) ________  __  ________  __  _____
 72
    65
 73
     4
 40
20.32
 49
12.7
 74
     0
 49
-2.54
 74
     0
 49
2.54
 74
     0
 49
-2.54
 74
     0
  0
LTYPE
  5
6E
330
5
100
AcDbSymbolTableRecord
100
AcDbLinetypeTableRecord
  2
DOT2
 70
     0
  3
Dot (.5x) ........................................
 72
    65
 73
     2
 40
0.635
 49
0.0
 74
     0
 49
-0.635
 74
     0
  0
ENDTAB
  0
TABLE
  2
LAYER
  5
2
330
0
100
AcDbSymbolTable
 70
    17
  0
LAYER
  5
10
330
2
100
AcDbSymbolTableRecord
100
AcDbLayerTableRecord
  2
0
 70
     0
 62
     7
  6
Continuous
370
    -3
390
F
  0
LAYER
  5
6F
330
2
100
AcDbSymbolTableRecord
100
AcDbLayerTableRecord
  2
FORMAT
 70
     0
 62
     2
  6
Continuous
370
    -3
390
F
  0
LAYER
  5
70
330
2
100
AcDbSymbolTableRecord
100
AcDbLayerTableRecord
  2
외형선
 70
     0
 62
   100
  6
Continuous
370
    30
390
F
  0
LAYER
  5
71
330
2
100
AcDbSymbolTableRecord
100
AcDbLayerTableRecord
  2
숨은선
 70
     0
 62
     2
  6
HIDDEN
370
    15
390
F
  0
LAYER
  5
72
330
2
100
AcDbSymbolTableRecord
100
AcDbLayerTableRecord
  2
중심선
 70
     0
 62
     1
  6
CENTERX2
370
    -3
390
F
  0
LAYER
  5
73
330
2
100
AcDbSymbolTableRecord
100
AcDbLayerTableRecord
  2
파단선
 70
     0
 62
     4
  6
Continuous
370
    -3
390
F
  0
LAYER
  5
74
330
2
100
AcDbSymbolTableRecord
100
AcDbLayerTableRecord
  2
해칭선
 70
     0
 62
     4
  6
Continuous
370
    -3
390
F
  0
LAYER
  5
75
330
2
100
AcDbSymbolTableRecord
100
AcDbLayerTableRecord
  2
가는실선
 70
     0
 62
     4
  6
Continuous
370
    -3
390
F
  0
LAYER
  5
76
330
2
100
AcDbSymbolTableRecord
100
AcDbLayerTableRecord
  2
치수_보조선
 70
     0
 62
     4
  6
Continuous
370
    -3
390
F
  0
LAYER
  5
77
330
2
100
AcDbSymbolTableRecord
100
AcDbLayerTableRecord
  2
치수문자_일반주서
 70
     0
 62
     7
  6
Continuous
370
    15
390
F
  0
LAYER
  5
78
330
2
100
AcDbSymbolTableRecord
100
AcDbLayerTableRecord
  2
개별주서
 70
     0
 62
   100
  6
Continuous
370
    30
390
F
  0
LAYER
  5
79
330
2
100
AcDbSymbolTableRecord
100
AcDbLayerTableRecord
  2
중간선
 70
     0
 62
     2
  6
Continuous
370
    15
390
F
  0
LAYER
  5
7A
330
2
100
AcDbSymbolTableRecord
100
AcDbLayerTableRecord
  2
윤곽선
 70
     0
 62
     3
  6
Continuous
370
    40
390
F
  0
LAYER
  5
7B
330
2
100
AcDbSymbolTableRecord
100
AcDbLayerTableRecord
  2
중심마크
 70
     0
 62
   100
  6
Continuous
370
    30
390
F
  0
LAYER
  5
7C
330
2
100
AcDbSymbolTableRecord
100
AcDbLayerTableRecord
  2
가상선
 70
     0
 62
     4
  6
PHANTOM
370
    -3
390
F
  0
LAYER
  5
7D
330
2
100
AcDbSymbolTableRecord
100
AcDbLayerTableRecord
  2
특수지정선
 70
     0
 62
     5
  6
CENTERX2
370
    60
390
F
  0
LAYER
  5
15A
330
2
100
AcDbSymbolTableRecord
100
AcDbLayerTableRecord
  2
Defpoints
 70
     0
 62
     7
  6
Continuous
290
     0
370
    -3
390
F
  0
ENDTAB
  0
TABLE
  2
STYLE
  5
3
330
0
100
AcDbSymbolTable
 70
     2
  0
STYLE
  5
11
330
3
100
AcDbSymbolTableRecord
100
AcDbTextStyleTableRecord
  2
Standard
 70
     0
 40
0.0
 41
1.0
 50
0.0
 71
     0
 42
3.5
  3
txt
  4

  0
STYLE
  5
93
330
3
100
AcDbSymbolTableRecord
100
AcDbTextStyleTableRecord
  2
SLDTEXTSTYLE0
 70
     0
 40
0.0
 41
0.75
 50
0.0
 71
     0
 42
3.5
  3
TXT
  4

  0
ENDTAB
  0
TABLE
  2
VIEW
  5
6
330
0
100
AcDbSymbolTable
 70
     0
  0
ENDTAB
  0
TABLE
  2
UCS
  5
7
330
0
100
AcDbSymbolTable
 70
     0
  0
ENDTAB
  0
TABLE
  2
APPID
  5
9
330
0
100
AcDbSymbolTable
 70
     1
  0
APPID
  5
12
330
9
100
AcDbSymbolTableRecord
100
AcDbRegAppTableRecord
  2
ACAD
 70
     0
  0
ENDTAB
  0
TABLE
  2
DIMSTYLE
  5
A
330
0
100
AcDbSymbolTable
 70
     3
100
AcDbDimStyleTable
  0
DIMSTYLE
105
27
330
A
100
AcDbSymbolTableRecord
100
AcDbDimStyleTableRecord
  2
ISO-25
 70
     0
 41
2.5
 42
0.625
 43
3.75
 44
1.25
 73
     0
 74
     0
 77
     1
 78
     8
140
2.5
141
2.5
143
0.03937007874016
147
0.625
171
     3
172
     1
178
     0
271
     2
272
     2
274
     3
278
    44
283
     0
284
     8
340
11
  0
DIMSTYLE
105
100
102
{ACAD_REACTORS
330
FF
330
10D
102
}
330
A
100
AcDbSymbolTableRecord
100
AcDbDimStyleTableRecord
  2
SLDDIMSTYLE0
 70
     0
 41
3.302
 44
0.0
 45
0.000000001
 73
     0
 74
     0
 77
     1
 78
    12
 79
     3
140
3.5
147
0.875
172
     1
173
     1
178
     0
271
     2
272
     2
276
     2
284
    12
289
     0
340
93
  0
DIMSTYLE
105
11B
102
{ACAD_REACTORS
330
11A
330
125
102
}
330
A
100
AcDbSymbolTableRecord
100
AcDbDimStyleTableRecord
  2
SLDDIMSTYLE1
 70
     0
 41
3.302
 44
0.0
 45
0.000000001
 73
     0
 74
     0
 77
     1
 78
    12
 79
     3
140
3.5
147
0.875
173
     1
178
     0
271
     2
272
     2
276
     2
284
    12
340
93
  0
ENDTAB
  0
TABLE
  2
BLOCK_RECORD
  5
1
330
0
100
AcDbSymbolTable
 70
     7
  0
BLOCK_RECORD
  5
1F
330
1
100
AcDbSymbolTableRecord
100
AcDbBlockTableRecord
  2
*Model_Space
340
22
  0
BLOCK_RECORD
  5
1B
330
1
100
AcDbSymbolTableRecord
100
AcDbBlockTableRecord
  2
*Paper_Space
340
1E
  0
BLOCK_RECORD
  5
23
330
1
100
AcDbSymbolTableRecord
100
AcDbBlockTableRecord
  2
*Paper_Space0
340
26
  0
BLOCK_RECORD
  5
7E
330
1
100
AcDbSymbolTableRecord
100
AcDbBlockTableRecord
  2
블럭10
340
0
102
{BLKREFS
331
F8
102
}
  0
BLOCK_RECORD
  5
101
330
1
100
AcDbSymbolTableRecord
100
AcDbBlockTableRecord
  2
_D
340
0
  0
BLOCK_RECORD
  5
10E
330
1
100
AcDbSymbolTableRecord
100
AcDbBlockTableRecord
  2
_D_1
340
0
  0
BLOCK_RECORD
  5
11C
330
1
100
AcDbSymbolTableRecord
100
AcDbBlockTableRecord
  2
_D_2
340
0
  0
BLOCK_RECORD
  5
126
330
1
100
AcDbSymbolTableRecord
100
AcDbBlockTableRecord
  2
_D_3
340
0
  0
BLOCK_RECORD
  5
12F
330
1
100
AcDbSymbolTableRecord
100
AcDbBlockTableRecord
  2
SW_DOWELSYMBOL_0
340
0
102
{BLKREFS
331
135
102
}
  0
ENDTAB
  0
ENDSEC
  0
SECTION
  2
BLOCKS
  0
BLOCK
  5
20
330
1F
100
AcDbEntity
  8
0
100
AcDbBlockBegin
  2
*Model_Space
 70
     0
 10
0.0
 20
0.0
 30
0.0
  3
*Model_Space
  1
*Model_Space
  0
ENDBLK
  5
21
330
1F
100
AcDbEntity
  8
0
100
AcDbBlockEnd
  0
BLOCK
  5
1C
330
1B
100
AcDbEntity
 67
     1
  8
0
100
AcDbBlockBegin
  2
*Paper_Space
 70
     0
 10
0.0
 20
0.0
 30
0.0
  3
*Paper_Space
  1
*Paper_Space
  0
ENDBLK
  5
1D
330
1B
100
AcDbEntity
 67
     1
  8
0
100
AcDbBlockEnd
  0
BLOCK
  5
24
330
23
100
AcDbEntity
  8
0
100
AcDbBlockBegin
  2
*Paper_Space0
 70
     0
 10
0.0
 20
0.0
 30
0.0
  3
*Paper_Space0
  1
*Paper_Space0
  0
ENDBLK
  5
25
330
23
100
AcDbEntity
  8
0
100
AcDbBlockEnd
  0
BLOCK
  5
7F
330
7E
100
AcDbEntity
  8
0
100
AcDbBlockBegin
  2
블럭10
 70
     2
 10
0.0
 20
0.0
 30
0.0
  3
블럭10
  1
블럭10
  0
ELLIPSE
  5
81
330
7E
100
AcDbEntity
  8
중심선
100
AcDbEllipse
 10
20.54032771741204
 20
12.0471743016438
 30
0.0
 11
6.600054785286829
 21
-1.261213355974178E-13
 31
0.0
210
0.0
220
0.0
230
1.0
 40
0.636358354079598
 41
0.9219305317359503
 42
6.513795318482858
  0
ELLIPSE
  5
82
330
7E
100
AcDbEntity
  8
중심선
100
AcDbEllipse
 10
20.54032771746488
 20
12.04717430159265
 30
0.0
 11
3.960054785062283
 21
1.540847449632565E-10
 31
0.0
210
0.0
220
0.0
230
1.0
 40
0.3939339440162632
 41
1.131841032648279
 42
5.62031148352944
  0
LINE
  5
83
330
7E
100
AcDbEntity
  8
중심선
100
AcDbLine
 10
2.268634060543552
 20
16.24717430164393
 30
0.0
 11
5.714909304380834
 21
16.24717430164393
 31
0.0
  0
LINE
  5
84
330
7E
100
AcDbEntity
  8
중심선
100
AcDbLine
 10
5.245725140726316
 20
7.84717430164391
 30
0.0
 11
8.692000384563599
 21
7.84717430164391
 31
0.0
  0
LINE
  5
85
330
7E
100
AcDbEntity
  8
중심선
100
AcDbLine
 10
15.74043728645272
 20
16.24717430164393
 30
0.0
 11
8.692000384563599
 21
7.84717430164391
 31
0.0
  0
LINE
  5
86
330
7E
100
AcDbEntity
  8
중심선
100
AcDbLine
 10
0.1404042013395286
 20
13.71084872107135
 30
0.0
 11
3.58671253028996
 21
13.71088815037384
 31
0.0
  0
LINE
  5
87
330
7E
100
AcDbEntity
  8
중심선
100
AcDbLine
 10
2.750260043222114
 20
10.84717430164391
 30
0.0
 11
6.196535287059397
 21
10.84717430164391
 31
0.0
  0
LINE
  5
88
330
7E
100
AcDbEntity
  8
중심선
100
AcDbLine
 10
12.29416204261559
 20
16.24717430164393
 30
0.0
 11
5.245725140726316
 21
7.84717430164391
 31
0.0
  0
LINE
  5
89
330
7E
100
AcDbEntity
  8
중심선
100
AcDbLine
 10
10.72767329541681
 20
16.24717430164393
 30
0.0
 11
6.196535287059397
 21
10.84717430164391
 31
0.0
  0
LINE
  5
8A
330
7E
100
AcDbEntity
  8
중심선
100
AcDbLine
 10
7.28139805157953
 20
16.24717430164393
 30
0.0
 11
2.750260043222114
 21
10.84717430164391
 31
0.0
  0
LINE
  5
8B
330
7E
100
AcDbEntity
  8
중심선
100
AcDbLine
 10
5.714909304380834
 20
16.24717430164393
 30
0.0
 11
3.58671253028996
 21
13.71088815037384
 31
0.0
  0
LINE
  5
8C
330
7E
100
AcDbEntity
  8
중심선
100
AcDbLine
 10
2.268634060543552
 20
16.24717430164393
 30
0.0
 11
0.1404042013395286
 21
13.71084872107135
 31
0.0
  0
LINE
  5
8D
330
7E
100
AcDbEntity
  8
중심선
100
AcDbLine
 10
7.28139805157953
 20
16.24717430164393
 30
0.0
 11
10.72767329541681
 21
16.24717430164393
 31
0.0
  0
LINE
  5
8E
330
7E
100
AcDbEntity
  8
중심선
100
AcDbLine
 10
12.29416204261559
 20
16.24717430164393
 30
0.0
 11
15.74043728645272
 21
16.24717430164393
 31
0.0
  0
LINE
  5
8F
330
7E
100
AcDbEntity
  8
중심선
100
AcDbLine
 10
19.22036997980202
 20
11.08717430171403
 30
0.0
 11
23.66174974927406
 21
11.08717430171406
 31
0.0
  0
LINE
  5
90
330
7E
100
AcDbEntity
  8
중심선
100
AcDbLine
 10
19.22039502424796
 20
13.00717430171391
 30
0.0
 11
19.22036997980202
 21
11.08717430171403
 31
0.0
  0
LINE
  5
91
330
7E
100
AcDbEntity
  8
중심선
100
AcDbLine
 10
19.22039502424796
 20
13.00717430171391
 30
0.0
 11
26.96566020931264
 21
13.00717430171391
 31
0.0
  0
LINE
  5
92
330
7E
100
AcDbEntity
  8
중심선
100
AcDbLine
 10
22.22332737316547
 20
13.45928029700563
 30
0.0
 11
24.52862924686651
 21
15.39360700705356
 31
0.0
  0
ATTDEF
  5
94
330
7E
100
AcDbEntity
  8
FORMAT
 62
     2
100
AcDbText
 10
-22.43790845388143
 20
2.075366912832191
 30
0.0
 40
4.233333333333333
  1
SEME75200110300E [ 6 FLUTE ]
 41
0.75
  7
SLDTEXTSTYLE0
 11
-22.43790845388143
 21
-0.0412997538344756
 31
0.0
100
AcDbAttributeDefinition
  3

  2
AUTOATTR0
 70
     0
 74
     1
  0
ENDBLK
  5
80
330
7E
100
AcDbEntity
  8
0
100
AcDbBlockEnd
  0
BLOCK
  5
102
330
101
100
AcDbEntity
  8
0
100
AcDbBlockBegin
  2
_D
 70
     0
 10
0.0
 20
0.0
 30
0.0
  3
_D
  1
_D
  0
LINE
  5
104
330
101
100
AcDbEntity
  8
치수문자_일반주서
 62
     0
370
    -2
100
AcDbLine
 10
-176.0624999999999
 20
9.955891588661059
 30
0.0
 11
-194.6289061313234
 21
9.955891588660986
 31
0.0
  0
LINE
  5
105
330
101
100
AcDbEntity
  8
치수문자_일반주서
 62
     0
370
    -2
100
AcDbLine
 10
-176.0624999999999
 20
-10.0441084113389
 30
0.0
 11
-194.6289061313234
 21
-10.04410841133897
 31
0.0
  0
LINE
  5
106
330
101
100
AcDbEntity
  8
치수문자_일반주서
 62
     0
370
    -2
100
AcDbLine
 10
-194.6289061313234
 20
6.653891588660986
 30
0.0
 11
-194.6289061313234
 21
-6.742108411338975
 31
0.0
  0
SOLID
  5
107
330
101
100
AcDbEntity
  8
치수문자_일반주서
 62
     0
100
AcDbTrace
 10
-194.0785727979901
 20
6.653891588660988
 30
0.0
 11
-195.1792394646567
 21
6.653891588660985
 31
0.0
 12
-194.6289061313234
 22
9.955891588660986
 32
0.0
 13
-194.6289061313234
 23
9.955891588660986
 33
0.0
  0
SOLID
  5
108
330
101
100
AcDbEntity
  8
치수문자_일반주서
 62
     0
100
AcDbTrace
 10
-195.1792394646567
 20
-6.742108411338977
 30
0.0
 11
-194.07857279799
 21
-6.742108411338974
 31
0.0
 12
-194.6289061313234
 22
-10.04410841133897
 32
0.0
 13
-194.6289061313234
 23
-10.04410841133897
 33
0.0
  0
MTEXT
  5
109
330
101
100
AcDbEntity
  8
치수문자_일반주서
 62
     0
100
AcDbMText
 10
-199.0039061313234
 20
-0.0441084113389523
 30
0.0
 40
3.5
 41
0.0
 71
     2
 72
     1
  1
\A1;%%c20
  7
SLDTEXTSTYLE0
 11
-2.842170943040407E-15
 21
1.0
 31
0.0
 73
     1
 44
1.0
  0
POINT
  5
10A
330
101
100
AcDbEntity
  8
Defpoints
 62
     0
100
AcDbPoint
 10
-175.9999999999999
 20
9.955891588661059
 30
0.0
  0
POINT
  5
10B
330
101
100
AcDbEntity
  8
Defpoints
 62
     0
100
AcDbPoint
 10
-175.9999999999999
 20
-10.0441084113389
 30
0.0
  0
POINT
  5
10C
330
101
100
AcDbEntity
  8
Defpoints
 62
     0
100
AcDbPoint
 10
-194.6289061313234
 20
-10.04410841133897
 30
0.0
  0
ENDBLK
  5
103
330
101
100
AcDbEntity
  8
0
100
AcDbBlockEnd
  0
BLOCK
  5
10F
330
10E
100
AcDbEntity
  8
0
100
AcDbBlockBegin
  2
_D_1
 70
     0
 10
0.0
 20
0.0
 30
0.0
  3
_D_1
  1
_D_1
  0
LINE
  5
111
330
10E
100
AcDbEntity
  8
치수문자_일반주서
 62
     0
370
    -2
100
AcDbLine
 10
122.0625000000001
 20
9.95589158866108
 30
0.0
 11
131.9999999999999
 21
9.955891588661117
 31
0.0
  0
LINE
  5
112
330
10E
100
AcDbEntity
  8
치수문자_일반주서
 62
     0
370
    -2
100
AcDbLine
 10
122.0625000000001
 20
-10.04410841133892
 30
0.0
 11
132.0
 21
-10.04410841133889
 31
0.0
  0
LINE
  5
113
330
10E
100
AcDbEntity
  8
치수문자_일반주서
 62
     0
370
    -2
100
AcDbLine
 10
131.9999999999999
 20
6.653891588661118
 30
0.0
 11
132.0
 21
-6.742108411338886
 31
0.0
  0
SOLID
  5
114
330
10E
100
AcDbEntity
  8
치수문자_일반주서
 62
     0
100
AcDbTrace
 10
132.5503333333332
 20
6.65389158866112
 30
0.0
 11
131.4496666666666
 21
6.653891588661116
 31
0.0
 12
131.9999999999999
 22
9.955891588661117
 32
0.0
 13
131.9999999999999
 23
9.955891588661117
 33
0.0
  0
SOLID
  5
115
330
10E
100
AcDbEntity
  8
치수문자_일반주서
 62
     0
100
AcDbTrace
 10
131.4496666666666
 20
-6.742108411338888
 30
0.0
 11
132.5503333333333
 21
-6.742108411338885
 31
0.0
 12
132.0
 22
-10.04410841133889
 32
0.0
 13
132.0
 23
-10.04410841133889
 33
0.0
  0
MTEXT
  5
116
330
10E
100
AcDbEntity
  8
치수문자_일반주서
 62
     0
100
AcDbMText
 10
127.6249999999999
 20
1.274753088853052
 30
0.0
 40
3.5
 41
0.0
 71
     2
 72
     1
  1
\A1;%%c20
  7
SLDTEXTSTYLE0
 11
-2.842170943040400E-15
 21
1.0
 31
0.0
 73
     1
 44
1.0
  0
POINT
  5
117
330
10E
100
AcDbEntity
  8
Defpoints
 62
     0
100
AcDbPoint
 10
122.0000000000001
 20
9.95589158866108
 30
0.0
  0
POINT
  5
118
330
10E
100
AcDbEntity
  8
Defpoints
 62
     0
100
AcDbPoint
 10
122.0000000000001
 20
-10.04410841133892
 30
0.0
  0
POINT
  5
119
330
10E
100
AcDbEntity
  8
Defpoints
 62
     0
100
AcDbPoint
 10
132.0
 20
-10.04410841133889
 30
0.0
  0
ENDBLK
  5
110
330
10E
100
AcDbEntity
  8
0
100
AcDbBlockEnd
  0
BLOCK
  5
11D
330
11C
100
AcDbEntity
  8
0
100
AcDbBlockBegin
  2
_D_2
 70
     0
 10
0.0
 20
0.0
 30
0.0
  3
_D_2
  1
_D_2
  0
LINE
  5
11F
330
11C
100
AcDbEntity
  8
치수문자_일반주서
 62
     0
370
    -2
100
AcDbLine
 10
12.00000000000009
 20
9.235714745979337
 30
0.0
 11
12.00000000000009
 21
52.66805536462115
 31
0.0
  0
LINE
  5
120
330
11C
100
AcDbEntity
  8
치수문자_일반주서
 62
     0
370
    -2
100
AcDbLine
 10
122.0000000000001
 20
9.945417097704457
 30
0.0
 11
122.0000000000001
 21
52.66805536462115
 31
0.0
  0
LINE
  5
121
330
11C
100
AcDbEntity
  8
치수문자_일반주서
 62
     0
370
    -2
100
AcDbLine
 10
15.30200000000008
 20
52.66805536462115
 30
0.0
 11
118.6980000000001
 21
52.66805536462115
 31
0.0
  0
SOLID
  5
122
330
11C
100
AcDbEntity
  8
치수문자_일반주서
 62
     0
100
AcDbTrace
 10
15.30200000000008
 20
53.21838869795448
 30
0.0
 11
15.30200000000008
 21
52.11772203128781
 31
0.0
 12
12.00000000000009
 22
52.66805536462115
 32
0.0
 13
12.00000000000009
 23
52.66805536462115
 33
0.0
  0
SOLID
  5
123
330
11C
100
AcDbEntity
  8
치수문자_일반주서
 62
     0
100
AcDbTrace
 10
118.6980000000001
 20
52.11772203128781
 30
0.0
 11
118.6980000000001
 21
53.21838869795448
 31
0.0
 12
122.0000000000001
 22
52.66805536462115
 32
0.0
 13
122.0000000000001
 23
52.66805536462115
 33
0.0
  0
MTEXT
  5
124
330
11C
100
AcDbEntity
  8
치수문자_일반주서
 62
     0
100
AcDbMText
 10
57.0174865405441
 20
57.04305536462115
 30
0.0
 40
3.5
 41
0.0
 71
     2
 72
     1
  1
\A1;110
  7
SLDTEXTSTYLE0
 73
     1
 44
1.0
  0
POINT
  5
15D
330
11C
100
AcDbEntity
  8
Defpoints
 62
     0
100
AcDbPoint
 10
12.00000000000009
 20
9.173214745979337
 30
0.0
  0
POINT
  5
15E
330
11C
100
AcDbEntity
  8
Defpoints
 62
     0
100
AcDbPoint
 10
122.0000000000001
 20
9.882917097704457
 30
0.0
  0
POINT
  5
15F
330
11C
100
AcDbEntity
  8
Defpoints
 62
     0
100
AcDbPoint
 10
122.0000000000001
 20
52.66805536462114
 30
0.0
  0
ENDBLK
  5
11E
330
11C
100
AcDbEntity
  8
0
100
AcDbBlockEnd
  0
BLOCK
  5
127
330
126
100
AcDbEntity
  8
0
100
AcDbBlockBegin
  2
_D_3
 70
     0
 10
0.0
 20
0.0
 30
0.0
  3
_D_3
  1
_D_3
  0
LINE
  5
129
330
126
100
AcDbEntity
  8
치수문자_일반주서
 62
     0
370
    -2
100
AcDbLine
 10
122.0000000000001
 20
9.945417097704457
 30
0.0
 11
122.0000000000001
 21
80.82759975857408
 31
0.0
  0
LINE
  5
12A
330
126
100
AcDbEntity
  8
치수문자_일반주서
 62
     0
370
    -2
100
AcDbLine
 10
-177.9999999999999
 20
8.018391588661082
 30
0.0
 11
-177.9999999999999
 21
80.82759975857408
 31
0.0
  0
LINE
  5
12B
330
126
100
AcDbEntity
  8
치수문자_일반주서
 62
     0
370
    -2
100
AcDbLine
 10
118.6980000000001
 20
80.82759975857408
 30
0.0
 11
-174.698
 21
80.82759975857408
 31
0.0
  0
SOLID
  5
12C
330
126
100
AcDbEntity
  8
치수문자_일반주서
 62
     0
100
AcDbTrace
 10
118.6980000000001
 20
80.27726642524075
 30
0.0
 11
118.6980000000001
 21
81.37793309190741
 31
0.0
 12
122.0000000000001
 22
80.82759975857408
 32
0.0
 13
122.0000000000001
 23
80.82759975857408
 33
0.0
  0
SOLID
  5
12D
330
126
100
AcDbEntity
  8
치수문자_일반주서
 62
     0
100
AcDbTrace
 10
-174.698
 20
81.37793309190741
 30
0.0
 11
-174.698
 21
80.27726642524075
 31
0.0
 12
-177.9999999999999
 22
80.82759975857408
 32
0.0
 13
-177.9999999999999
 23
80.82759975857408
 33
0.0
  0
MTEXT
  5
12E
330
126
100
AcDbEntity
  8
치수문자_일반주서
 62
     0
100
AcDbMText
 10
-18.70551040471835
 20
85.20259975857408
 30
0.0
 40
3.5
 41
0.0
 71
     2
 72
     1
  1
\A1;300
  7
SLDTEXTSTYLE0
 73
     1
 44
1.0
  0
POINT
  5
160
330
126
100
AcDbEntity
  8
Defpoints
 62
     0
100
AcDbPoint
 10
122.0000000000001
 20
9.882917097704457
 30
0.0
  0
POINT
  5
161
330
126
100
AcDbEntity
  8
Defpoints
 62
     0
100
AcDbPoint
 10
-177.9999999999999
 20
7.955891588661082
 30
0.0
  0
POINT
  5
162
330
126
100
AcDbEntity
  8
Defpoints
 62
     0
100
AcDbPoint
 10
-177.9999999999999
 20
80.82759975857407
 30
0.0
  0
ENDBLK
  5
128
330
126
100
AcDbEntity
  8
0
100
AcDbBlockEnd
  0
BLOCK
  5
130
330
12F
100
AcDbEntity
  8
0
100
AcDbBlockBegin
  2
SW_DOWELSYMBOL_0
 70
     0
 10
0.0
 20
0.0
 30
0.0
  3
SW_DOWELSYMBOL_0
  1
SW_DOWELSYMBOL_0
  0
CIRCLE
  5
132
330
12F
100
AcDbEntity
  8
외형선
 62
     0
100
AcDbCircle
 10
0.0
 20
0.0
 30
0.0
 40
2.999999999999995
  0
HATCH
  5
133
330
12F
100
AcDbEntity
  8
0
  6
Continuous
 62
     0
370
    30
100
AcDbHatch
 10
0.0
 20
0.0
 30
0.0
210
0.0
220
0.0
230
1.0
  2
SOLID
 70
     1
 71
     0
 91
        1
 92
        0
 93
        3
 72
     2
 10
0.0
 20
0.0
 40
2.999999999999995
 50
0.0
 51
90.0
 73
     1
 72
     1
 10
0.0
 20
2.999999999999995
 11
0.0
 21
0.0
 72
     1
 10
0.0
 20
0.0
 11
3.000000000000003
 21
0.0
 97
        0
 75
     0
 76
     1
 98
        1
 10
0.0
 20
0.0
  0
HATCH
  5
134
330
12F
100
AcDbEntity
  8
0
  6
Continuous
 62
     0
370
    30
100
AcDbHatch
 10
0.0
 20
0.0
 30
0.0
210
0.0
220
0.0
230
1.0
  2
SOLID
 70
     1
 71
     0
 91
        1
 92
        0
 93
        3
 72
     2
 10
0.0
 20
0.0
 40
2.999999999999995
 50
180.0
 51
270.0000000000008
 73
     1
 72
     1
 10
0.0
 20
-2.999999999999995
 11
0.0
 21
0.0
 72
     1
 10
0.0
 20
0.0
 11
-3.000000000000003
 21
0.0
 97
        0
 75
     0
 76
     1
 98
        1
 10
0.0
 20
0.0
  0
ENDBLK
  5
131
330
12F
100
AcDbEntity
  8
0
100
AcDbBlockEnd
  0
ENDSEC
  0
SECTION
  2
ENTITIES
  0
LINE
  5
95
330
1F
100
AcDbEntity
  8
0
  6
Continuous
 62
   131
370
    15
100
AcDbLine
 10
71.89288229988381
 20
1.728426179852921
 30
0.0
 11
71.65241309006177
 21
1.957441749060084
 31
0.0
  0
LINE
  5
96
330
1F
100
AcDbEntity
  8
0
  6
Continuous
 62
   131
370
    15
100
AcDbLine
 10
67.43779522898467
 20
-1.863407072278853
 30
0.0
 11
67.62928456756646
 21
-2.045910762662094
 31
0.0
  0
LINE
  5
97
330
1F
100
AcDbEntity
  8
0
  6
Continuous
 62
   131
370
    15
100
AcDbLine
 10
36.065813957301
 20
-1.904434771432021
 30
0.0
 11
36.21238731481739
 21
-2.044959934779108
 31
0.0
  0
LINE
  5
98
330
1F
100
AcDbEntity
  8
0
  6
Continuous
 62
   131
370
    15
100
AcDbLine
 10
40.40588106096652
 20
1.795431159769461
 30
0.0
 11
40.24027243414923
 21
1.953739730836923
 31
0.0
  0
LINE
  5
99
330
1F
100
AcDbEntity
  8
0
  6
Continuous
 62
   131
370
    15
100
AcDbLine
 10
98.86260300850384
 20
-1.871500946042
 30
0.0
 11
99.04402262316285
 21
-2.044746631253068
 31
0.0
  0
LINE
  5
9A
330
1F
100
AcDbEntity
  8
0
  6
Continuous
 62
   131
370
    15
100
AcDbLine
 10
19.54835707212564
 20
1.71225699746842
 30
0.0
 11
19.29358678317243
 21
1.955241187705981
 31
0.0
  0
LINE
  5
9B
330
1F
100
AcDbEntity
  8
0
  6
Continuous
 62
   131
370
    15
100
AcDbLine
 10
82.71606503048139
 20
1.391791929811252
 30
0.0
 11
82.12345823611034
 21
1.957182233920548
 31
0.0
  0
LINE
  5
9C
330
1F
100
AcDbEntity
  8
0
  6
Continuous
 62
   131
370
    15
100
AcDbLine
 10
77.79541641929328
 20
-1.754182049976114
 30
0.0
 11
78.09812435175655
 21
-2.044012938342729
 31
0.0
  0
LINE
  5
9D
330
1F
100
AcDbEntity
  8
0
  6
Continuous
 62
   131
370
    15
100
AcDbLine
 10
50.86516013004513
 20
1.806046341656576
 30
0.0
 11
50.70733821766541
 21
1.957371752051129
 31
0.0
  0
LINE
  5
9E
330
1F
100
AcDbEntity
  8
0
  6
Continuous
 62
   131
370
    15
100
AcDbLine
 10
109.3441152315669
 20
-1.882221685448091
 30
0.0
 11
109.5122857862064
 21
-2.042286910687706
 31
0.0
  0
LINE
  5
9F
330
1F
100
AcDbEntity
  8
0
  6
Continuous
 62
   131
370
    15
100
AcDbLine
 10
45.87794853234871
 20
-1.269876177087703
 30
0.0
 11
46.68436276814015
 21
-2.046129874685464
 31
0.0
  0
LINE
  5
A0
330
1F
100
AcDbEntity
  8
0
  6
Continuous
 62
   131
370
    15
100
AcDbLine
 10
30.15646838039032
 20
1.583780368199883
 30
0.0
 11
29.76827835384702
 21
1.954135796257185
 31
0.0
  0
LINE
  5
A1
330
1F
100
AcDbEntity
  8
0
  6
Continuous
 62
   131
370
    15
100
AcDbLine
 10
92.75628337126238
 20
1.804346524194503
 30
0.0
 11
92.59845992291892
 21
1.955776656981329
 31
0.0
  0
LINE
  5
A2
330
1F
100
AcDbEntity
  8
0
  6
Continuous
 62
     1
370
    15
100
AcDbLine
 10
119.5710592927192
 20
-1.652328816049221
 30
0.0
 11
120.0646118910832
 21
-2.121451710684712
 31
0.0
  0
LINE
  5
A3
330
1F
100
AcDbEntity
  8
0
  6
Continuous
 62
   131
370
    15
100
AcDbLine
 10
56.94223669126356
 20
-1.842224698867849
 30
0.0
 11
57.15368933593464
 21
-2.043923651868435
 31
0.0
  0
LINE
  5
A4
330
1F
100
AcDbEntity
  8
0
  6
Continuous
 62
     1
370
    15
100
AcDbLine
 10
89.37279194497387
 20
-10.04410841133892
 30
0.0
 11
91.79116116803698
 21
-10.04410841133892
 31
0.0
  0
LINE
  5
A5
330
1F
100
AcDbEntity
  8
0
  6
Continuous
 62
     1
370
    15
100
AcDbLine
 10
26.54481233876538
 20
-10.04410841133892
 30
0.0
 11
28.96057675545151
 21
-10.04410841133892
 31
0.0
  0
LINE
  5
A6
330
1F
100
AcDbEntity
  8
0
  6
Continuous
 62
     1
370
    15
100
AcDbLine
 10
60.37946801080798
 20
9.95589158866108
 30
0.0
 11
57.96058749254539
 21
9.95589158866108
 31
0.0
  0
LINE
  5
A7
330
1F
100
AcDbEntity
  8
0
  6
Continuous
 62
     1
370
    15
100
AcDbLine
 10
122.0000000000001
 20
9.95589158866108
 30
0.0
 11
120.7921255748329
 21
9.95589158866108
 31
0.0
  0
LINE
  5
A8
330
1F
100
AcDbEntity
  8
0
  6
Continuous
 62
     1
370
    15
100
AcDbLine
 10
120.7921255748329
 20
-10.04410841133892
 30
0.0
 11
122.0000000000001
 21
-10.04410841133892
 31
0.0
  0
LINE
  5
A9
330
1F
100
AcDbEntity
  8
0
  6
Continuous
 62
     1
370
    15
100
AcDbLine
 10
57.96058749254536
 20
-10.04410841133892
 30
0.0
 11
60.37946801080807
 21
-10.04410841133892
 31
0.0
  0
LINE
  5
AA
330
1F
100
AcDbEntity
  8
0
  6
Continuous
 62
     1
370
    15
100
AcDbLine
 10
28.9605767554516
 20
9.95589158866108
 30
0.0
 11
26.54481233876538
 21
9.95589158866108
 31
0.0
  0
LINE
  5
AB
330
1F
100
AcDbEntity
  8
0
  6
Continuous
 62
     1
370
    15
100
AcDbLine
 10
91.79116116803698
 20
9.95589158866108
 30
0.0
 11
89.37279194497381
 21
9.95589158866108
 31
0.0
  0
LINE
  5
AC
330
1F
100
AcDbEntity
  8
0
  6
Continuous
 62
     1
370
    15
100
AcDbLine
 10
68.43252607774363
 20
-10.04410841133892
 30
0.0
 11
70.85004293326162
 21
-10.04410841133892
 31
0.0
  0
LINE
  5
AD
330
1F
100
AcDbEntity
  8
0
  6
Continuous
 62
     1
370
    15
100
AcDbLine
 10
39.43165514035431
 20
9.95589158866108
 30
0.0
 11
37.01500456423278
 21
9.95589158866108
 31
0.0
  0
LINE
  5
AE
330
1F
100
AcDbEntity
  8
0
  6
Continuous
 62
     1
370
    15
100
AcDbLine
 10
102.2655818185742
 20
9.95589158866108
 30
0.0
 11
99.84622299478963
 21
9.95589158866108
 31
0.0
  0
LINE
  5
AF
330
1F
100
AcDbEntity
  8
0
  6
Continuous
 62
     1
370
    15
100
AcDbLine
 10
110.320760530268
 20
-10.04410841133892
 30
0.0
 11
112.7374637957544
 21
-10.04410841133892
 31
0.0
  0
LINE
  5
B0
330
1F
100
AcDbEntity
  8
0
  6
Continuous
 62
     1
370
    15
100
AcDbLine
 10
47.48630483432487
 20
-10.04410841133892
 30
0.0
 11
49.90548807178422
 21
-10.04410841133892
 31
0.0
  0
LINE
  5
B1
330
1F
100
AcDbEntity
  8
0
  6
Continuous
 62
     1
370
    15
100
AcDbLine
 10
18.48862711406662
 20
9.95589158866108
 30
0.0
 11
16.07116132815588
 21
9.95589158866108
 31
0.0
  0
LINE
  5
B2
330
1F
100
AcDbEntity
  8
0
  6
Continuous
 62
     1
370
    15
100
AcDbLine
 10
81.31975625159615
 20
9.95589158866108
 30
0.0
 11
78.90240997092656
 21
9.95589158866108
 31
0.0
  0
LINE
  5
B3
330
1F
100
AcDbEntity
  8
0
  6
Continuous
 62
     1
370
    15
100
AcDbLine
 10
78.90240997092661
 20
-10.04410841133892
 30
0.0
 11
81.31975625159615
 21
-10.04410841133892
 31
0.0
  0
LINE
  5
B4
330
1F
100
AcDbEntity
  8
0
  6
Continuous
 62
     1
370
    15
100
AcDbLine
 10
16.07116132815591
 20
-10.04410841133892
 30
0.0
 11
18.48862711406659
 21
-10.04410841133892
 31
0.0
  0
LINE
  5
B5
330
1F
100
AcDbEntity
  8
0
  6
Continuous
 62
     1
370
    15
100
AcDbLine
 10
49.90548807178425
 20
9.95589158866108
 30
0.0
 11
47.48630483432498
 21
9.95589158866108
 31
0.0
  0
LINE
  5
B6
330
1F
100
AcDbEntity
  8
0
  6
Continuous
 62
     1
370
    15
100
AcDbLine
 10
112.7374637957544
 20
9.95589158866108
 30
0.0
 11
110.3207605302681
 21
9.95589158866108
 31
0.0
  0
LINE
  5
B7
330
1F
100
AcDbEntity
  8
0
  6
Continuous
 62
     1
370
    15
100
AcDbLine
 10
99.84622299478957
 20
-10.04410841133892
 30
0.0
 11
102.2655818185741
 21
-10.04410841133892
 31
0.0
  0
LINE
  5
B8
330
1F
100
AcDbEntity
  8
0
  6
Continuous
 62
     1
370
    15
100
AcDbLine
 10
37.01500456423275
 20
-10.04410841133892
 30
0.0
 11
39.43165514035425
 21
-10.04410841133892
 31
0.0
  0
LINE
  5
B9
330
1F
100
AcDbEntity
  8
0
  6
Continuous
 62
     1
370
    15
100
AcDbLine
 10
70.85004293326156
 20
9.95589158866108
 30
0.0
 11
68.4325260777436
 21
9.95589158866108
 31
0.0
  0
LINE
  5
BA
330
1F
100
AcDbEntity
  8
0
  6
Continuous
 62
   131
370
    15
100
AcDbLine
 10
-175.9999999999999
 20
-10.04410841133892
 30
0.0
 11
11.00007003449088
 21
-10.04410841133892
 31
0.0
  0
LINE
  5
BB
330
1F
100
AcDbEntity
  8
0
  6
Continuous
 62
   131
370
    15
100
AcDbLine
 10
11.00007003449088
 20
9.955891588661073
 30
0.0
 11
-175.9999999999999
 21
9.955891588661073
 31
0.0
  0
LINE
  5
BC
330
1F
100
AcDbEntity
  8
0
  6
Continuous
 62
   131
370
    15
100
AcDbLine
 10
-175.9999999999999
 20
9.955891588661077
 30
0.0
 11
-177.9999999999999
 21
7.955891588661082
 31
0.0
  0
LINE
  5
BD
330
1F
100
AcDbEntity
  8
0
  6
Continuous
 62
   131
370
    15
100
AcDbLine
 10
-177.9999999999999
 20
-8.044108411338925
 30
0.0
 11
-175.9999999999999
 21
-10.04410841133892
 31
0.0
  0
LINE
  5
BE
330
1F
100
AcDbEntity
  8
0
  6
Continuous
 62
     1
370
    15
100
AcDbLine
 10
122.0000000000001
 20
5.933011652079468
 30
0.0
 11
122.0000000000001
 21
9.882917097704457
 31
0.0
  0
SPLINE
  5
BF
330
1F
100
AcDbEntity
  8
0
  6
Continuous
 62
     1
370
    15
100
AcDbSpline
210
0.0
220
0.0
230
1.0
 70
     8
 71
     3
 72
    12
 73
     8
 74
     0
 42
0.000000001
 43
0.00000001
 40
0.0
 40
0.0
 40
0.0
 40
0.0
 40
0.244721722088568
 40
0.4895282959355203
 40
0.7343875520568178
 40
0.9792649516746791
 40
1.0
 40
1.0
 40
1.0
 40
1.0
 10
12.00000000000003
 20
-8.011447610754995
 30
0.0
 10
12.85782820182888
 20
-8.478102905880817
 30
0.0
 10
14.57378203814079
 20
-9.411575298370584
 30
0.0
 10
17.14866060801194
 20
-10.06871822396325
 30
0.0
 10
19.7243053655294
 20
-10.04078896673572
 30
0.0
 10
21.51436917655857
 20
-9.717354300625093
 30
0.0
 10
22.44572633243558
 20
-9.256536154437928
 30
0.0
 10
22.51843277290854
 20
-9.220562364036283
 30
0.0
  0
SPLINE
  5
C0
330
1F
100
AcDbEntity
  8
0
  6
Continuous
 62
     1
370
    15
100
AcDbSpline
210
0.0
220
0.0
230
1.0
 70
     8
 71
     3
 72
    20
 73
    16
 74
     0
 42
0.000000001
 43
0.00000001
 40
0.0
 40
0.0
 40
0.0
 40
0.0
 40
0.0767274095275904
 40
0.1550254128306379
 40
0.2333555011504489
 40
0.3116753084698514
 40
0.3899440934300399
 40
0.468229014499531
 40
0.5465555527792719
 40
0.6248813887261924
 40
0.7031642119890074
 40
0.7814347421278016
 40
0.8597555684800716
 40
0.9380852716372806
 40
1.0
 40
1.0
 40
1.0
 40
1.0
 10
49.90548807178425
 20
9.948543441414227
 30
0.0
 10
50.81160997505449
 20
9.879930132626738
 30
0.0
 10
52.64240190448677
 20
9.741299015194945
 30
0.0
 10
55.39905938709282
 20
8.5841665258671
 30
0.0
 10
58.17519105517027
 20
6.816899647379087
 30
0.0
 10
60.95090813632882
 20
4.509513539466095
 30
0.0
 10
63.72461312747077
 20
1.857038740266957
 30
0.0
 10
66.49895436250071
 20
-0.9416300897335188
 30
0.0
 10
69.27493720386616
 20
-3.670934561176835
 30
0.0
 10
72.05089438852656
 20
-6.123253358425318
 30
0.0
 10
74.82515110947213
 20
-8.109181525678839
 30
0.0
 10
77.59892994588341
 20
-9.48389435195702
 30
0.0
 10
80.37466889250959
 20
-10.1143185163475
 30
0.0
 10
82.95728682206709
 20
-10.05947566401889
 30
0.0
 10
84.61389476241769
 20
-9.45330538724791
 30
0.0
 10
85.34524950868982
 20
-9.185694990021577
 30
0.0
  0
SPLINE
  5
C1
330
1F
100
AcDbEntity
  8
0
  6
Continuous
 62
     1
370
    15
100
AcDbSpline
210
0.0
220
0.0
230
1.0
 70
     8
 71
     3
 72
    11
 73
     7
 74
     0
 42
0.000000001
 43
0.00000001
 40
0.0
 40
0.0
 40
0.0
 40
0.0
 40
0.1010954830596304
 40
0.4008025748628423
 40
0.700491339255294
 40
1.0
 40
1.0
 40
1.0
 40
1.0
 10
112.7374637957544
 20
9.869997045710527
 30
0.0
 10
113.0495538781178
 20
9.893630518530188
 30
0.0
 10
114.2868644365596
 20
9.987327649919173
 30
0.0
 10
116.4501604244497
 20
9.356078030663538
 30
0.0
 10
119.2259845248959
 20
8.056092790509192
 30
0.0
 10
121.0755134822324
 20
6.661046831116046
 30
0.0
 10
122.0000000000001
 20
5.963733509251364
 30
0.0
  0
SPLINE
  5
C2
330
1F
100
AcDbEntity
  8
0
  6
Continuous
 62
     1
370
    15
100
AcDbSpline
210
0.0
220
0.0
230
1.0
 70
     8
 71
     3
 72
     9
 73
     5
 74
     0
 42
0.000000001
 43
0.00000001
 40
0.0
 40
0.0
 40
0.0
 40
0.0
 40
0.5301079988017642
 40
1.0
 40
1.0
 40
1.0
 40
1.0
 10
122.0000000000002
 20
9.882917097704457
 30
0.0
 10
121.075520775471
 20
9.933207639856997
 30
0.0
 10
119.3315757178243
 20
10.02807612376257
 30
0.0
 10
117.5868438988755
 20
9.410447779237412
 30
0.0
 10
116.7670083729154
 20
9.120229160431734
 30
0.0
  0
SPLINE
  5
C3
330
1F
100
AcDbEntity
  8
0
  6
Continuous
 62
     1
370
    15
100
AcDbSpline
210
0.0
220
0.0
230
1.0
 70
     8
 71
     3
 72
    21
 73
    17
 74
     0
 42
0.000000001
 43
0.00000001
 40
0.0
 40
0.0
 40
0.0
 40
0.0
 40
0.019020107538321
 40
0.0972795604885571
 40
0.1755736404276149
 40
0.2539012036208601
 40
0.3322198902516787
 40
0.410488282043114
 40
0.488768966622721
 40
0.5670926627113269
 40
0.6454170611135689
 40
0.7236998434425391
 40
0.8019664901030442
 40
0.8802841577288368
 40
0.9586121060741617
 40
1.0
 40
1.0
 40
1.0
 40
1.0
 10
89.37279194497381
 20
-9.97349776206892
 30
0.0
 10
89.14807054115252
 20
-9.994816332564252
 30
0.0
 10
87.99871850136702
 20
-10.1038515293344
 30
0.0
 10
85.92562617674969
 20
-9.537374367381267
 30
0.0
 10
83.1507683863924
 20
-8.28344048768058
 30
0.0
 10
80.374691922258
 20
-6.337466177963174
 30
0.0
 10
77.59892377768335
 20
-3.926761859940624
 30
0.0
 10
74.8251527700451
 20
-1.21378509843419
 30
0.0
 10
72.05089391341028
 20
1.587228300590396
 30
0.0
 10
69.27493744273679
 20
4.263207751407993
 30
0.0
 10
66.49895388239256
 20
6.610270971661192
 30
0.0
 10
63.72461480798773
 20
8.445958721044006
 30
0.0
 10
60.95090189365115
 20
9.64148076487373
 30
0.0
 10
58.17521436363796
 20
10.06068498632616
 30
0.0
 10
55.83510422652284
 20
9.872410112110686
 30
0.0
 10
54.42091490919964
 20
9.274484642636573
 30
0.0
 10
53.93200453321231
 20
9.067771183192342
 30
0.0
  0
SPLINE
  5
C4
330
1F
100
AcDbEntity
  8
0
  6
Continuous
 62
     1
370
    15
100
AcDbSpline
210
0.0
220
0.0
230
1.0
 70
     8
 71
     3
 72
    13
 73
     9
 74
     0
 42
0.000000001
 43
0.00000001
 40
0.0
 40
0.0
 40
0.0
 40
0.0
 40
0.1147177052034861
 40
0.2918000111108298
 40
0.4688942401976575
 40
0.6459753479897437
 40
0.8230183561990295
 40
1.0
 40
1.0
 40
1.0
 40
1.0
 10
26.54481233876541
 20
-9.951997286937832
 30
0.0
 10
25.98856750811498
 20
-9.961631311969791
 30
0.0
 10
24.57368348932962
 20
-9.98613675867814
 30
0.0
 10
22.30029396007666
 20
-9.239506739782788
 30
0.0
 10
19.72430916207108
 20
-7.899676512227224
 30
0.0
 10
17.14865959586405
 20
-6.010306223487426
 30
0.0
 10
14.57378229105274
 20
-3.741291736928782
 30
0.0
 10
12.85782828612318
 20
-2.050916610351374
 30
0.0
 10
12.00000000000006
 20
-1.205875546563319
 30
0.0
  0
SPLINE
  5
C5
330
1F
100
AcDbEntity
  8
0
  6
Continuous
 62
   131
370
    15
100
AcDbSpline
210
0.0
220
0.0
230
1.0
 70
    24
 71
     3
 72
    15
 73
    11
 74
     0
 42
0.000000001
 43
0.00000001
 40
0.0
 40
0.0
 40
0.0
 40
0.0
 40
0.028802515897536
 40
0.1721592983848944
 40
0.3155160808722592
 40
0.4588728633596424
 40
0.6022296458470195
 40
0.7455864283343905
 40
0.8889432108217699
 40
1.0
 40
1.0
 40
1.0
 40
1.0
 10
12.00000000000009
 20
-1.028257378615964
 30
0.0
 10
12.00000000000014
 20
-1.031476221823835
 30
0.0
 10
12.00000000000037
 20
-1.050715992066457
 30
0.0
 10
11.99999999999977
 20
-1.38747813872928
 30
0.0
 10
12.00000000000011
 20
-2.19430344389545
 30
0.0
 10
11.99999999999994
 20
-3.333793946905736
 30
0.0
 10
12.00000000000023
 20
-4.659023213363065
 30
0.0
 10
11.99999999999989
 20
-6.018578255431883
 30
0.0
 10
12.00000000000006
 20
-7.190488653144836
 30
0.0
 10
12.00000000000003
 20
-7.761979868230593
 30
0.0
 10
12.00000000000003
 20
-8.011447610754995
 30
0.0
  0
SPLINE
  5
C6
330
1F
100
AcDbEntity
  8
0
  6
Continuous
 62
     1
370
    15
100
AcDbSpline
210
0.0
220
0.0
230
1.0
 70
     8
 71
     3
 72
    21
 73
    17
 74
     0
 42
0.000000001
 43
0.00000001
 40
0.0
 40
0.0
 40
0.0
 40
0.0
 40
0.0348654442146534
 40
0.1075495456389443
 40
0.1802287534786666
 40
0.2585065821713071
 40
0.3367614800680322
 40
0.4150682362576082
 40
0.4933879532977093
 40
0.5716782631695811
 40
0.6499271867150799
 40
0.7282251548431696
 40
0.8065456511915328
 40
0.8848462975356957
 40
0.9630961939696162
 40
1.0
 40
1.0
 40
1.0
 40
1.0
 10
18.48862711406662
 20
9.873242801979957
 30
0.0
 10
18.90050406128785
 20
9.890251698601258
 30
0.0
 10
20.1710221783116
 20
9.942719095608402
 30
0.0
 10
22.30031023513033
 20
9.319303536635385
 30
0.0
 10
24.94214968730466
 20
8.04849973310383
 30
0.0
 10
27.65033491510522
 20
6.122281682171201
 30
0.0
 10
30.42384273470574
 20
3.686914952845573
 30
0.0
 10
33.1995064040415
 20
0.9641513298764237
 30
0.0
 10
35.97562913026331
 20
-1.835344394407971
 30
0.0
 10
38.75062326216664
 20
-4.497621816095373
 30
0.0
 10
41.52397302476186
 20
-6.82071511795349
 30
0.0
 10
44.29927191122496
 20
-8.621622010271746
 30
0.0
 10
47.07541661930918
 20
-9.776807313661152
 30
0.0
 10
49.85085808632084
 20
-10.14891949955937
 30
0.0
 10
52.13539713068678
 20
-9.936540760766187
 30
0.0
 10
53.49597443018149
 20
-9.345425329605964
 30
0.0
 10
53.93200453321236
 20
-9.15598800587019
 30
0.0
  0
SPLINE
  5
C7
330
1F
100
AcDbEntity
  8
0
  6
Continuous
 62
     1
370
    15
100
AcDbSpline
210
0.0
220
0.0
230
1.0
 70
     8
 71
     3
 72
    21
 73
    17
 74
     0
 42
0.000000001
 43
0.00000001
 40
0.0
 40
0.0
 40
0.0
 40
0.0
 40
0.0516541415551797
 40
0.1299341716008539
 40
0.2081795808715303
 40
0.2864763448282668
 40
0.3647915549710045
 40
0.4430828367858187
 40
0.5213262546124816
 40
0.5996129978467295
 40
0.6779277461410556
 40
0.7562281310299245
 40
0.8344765043583431
 40
0.9127510812050474
 40
0.9910632032604932
 40
1.0
 40
1.0
 40
1.0
 40
1.0
 10
81.31975625159615
 20
9.869588600721041
 30
0.0
 10
81.93021430117713
 20
9.871390275233688
 30
0.0
 10
83.46579999830178
 20
9.875922323937763
 30
0.0
 10
85.925567999305
 20
9.011627088757391
 30
0.0
 10
88.69899342591563
 20
7.455040477299178
 30
0.0
 10
91.47444592751691
 20
5.295407578265953
 30
0.0
 10
94.25059949105125
 20
2.735033268415335
 30
0.0
 10
97.02583712286389
 20
-0.0397835593179687
 30
0.0
 10
99.79917657079739
 20
-2.815604093054459
 30
0.0
 10
102.5742342551906
 20
-5.378074774071635
 30
0.0
 10
105.3503720930564
 20
-7.533962101940103
 30
0.0
 10
108.1259663994874
 20
-9.11173563049586
 30
0.0
 10
110.8995120125616
 20
-10.01449910194885
 30
0.0
 10
113.6740494650083
 20
-10.08549125070002
 30
0.0
 10
115.6303508323734
 20
-9.7746595399791
 30
0.0
 10
116.661399371144
 20
-9.26105395551774
 30
0.0
 10
116.7670083729153
 20
-9.208445983109577
 30
0.0
  0
SPLINE
  5
C8
330
1F
100
AcDbEntity
  8
0
  6
Continuous
 62
     1
370
    15
100
AcDbSpline
210
0.0
220
0.0
230
1.0
 70
     8
 71
     3
 72
    21
 73
    17
 74
     0
 42
0.000000001
 43
0.00000001
 40
0.0
 40
0.0
 40
0.0
 40
0.0
 40
0.0441797155917512
 40
0.1224875252712511
 40
0.2008001238503169
 40
0.2790751769921837
 40
0.3573240264563158
 40
0.435624887797384
 40
0.5139401126313122
 40
0.5922273322347533
 40
0.670471226166976
 40
0.7487629843786012
 40
0.8270786710637487
 40
0.9053759114506553
 40
0.9836217968390085
 40
0.9999999999999999
 40
0.9999999999999999
 40
0.9999999999999999
 40
0.9999999999999999
 10
120.7921255748329
 20
-9.949642822025092
 30
0.0
 10
120.2702262944764
 20
-9.962777837511245
 30
0.0
 10
118.8232692365719
 20
-9.999194449065872
 30
0.0
 10
116.4501078470117
 20
-9.211287460085995
 30
0.0
 10
113.6740828423656
 20
-7.721101816319475
 30
0.0
 10
110.8995030731741
 20
-5.607939472433735
 30
0.0
 10
108.1259688010531
 20
-3.077896480684307
 30
0.0
 10
105.350371431147
 20
-0.3141802724391127
 30
0.0
 10
102.5742345000148
 20
2.469920490934054
 30
0.0
 10
99.79917625342648
 20
5.061352235231523
 30
0.0
 10
97.02583814736047
 20
7.264100722352151
 30
0.0
 10
94.25059570722675
 20
8.902577211098604
 30
0.0
 10
91.47446004059805
 20
9.872513744069396
 30
0.0
 10
88.69894078726747
 20
10.02498484953144
 30
0.0
 10
86.65680664733088
 20
9.731239266758912
 30
0.0
 10
85.53876757883887
 20
9.190988561424978
 30
0.0
 10
85.34524950868976
 20
9.097478167343732
 30
0.0
  0
SPLINE
  5
C9
330
1F
100
AcDbEntity
  8
0
  6
Continuous
 62
     1
370
    15
100
AcDbSpline
210
0.0
220
0.0
230
1.0
 70
     8
 71
     3
 72
    20
 73
    16
 74
     0
 42
0.000000001
 43
0.00000001
 40
0.0
 40
0.0
 40
0.0
 40
0.0
 40
0.072266741977207
 40
0.1505583395833981
 40
0.2288128012101456
 40
0.3071180157079448
 40
0.3854430813680181
 40
0.4637456174934965
 40
0.5419991061750622
 40
0.6202939835975292
 40
0.6986182699038754
 40
0.7769295946035472
 40
0.8551890579848893
 40
0.9334714534999609
 40
1.0
 40
1.0
 40
1.0
 40
1.0
 10
57.96058749254536
 20
-10.01676375749943
 30
0.0
 10
57.10662867110548
 20
-9.964527690817118
 30
0.0
 10
55.32751674892793
 20
-9.855700652944892
 30
0.0
 10
52.62421685095694
 20
-8.755014887386153
 30
0.0
 10
49.85082661613214
 20
-7.023893832341424
 30
0.0
 10
47.0754250568225
 20
-4.741852284454607
 30
0.0
 10
44.29926964965136
 20
-2.104864955055211
 30
0.0
 10
41.52397363466653
 20
0.6907479920265203
 30
0.0
 10
38.75062308218637
 20
3.430861916485795
 30
0.0
 10
35.97562924017302
 20
5.904442426476141
 30
0.0
 10
33.19950614442024
 20
7.921934541730456
 30
0.0
 10
30.42384366281541
 20
9.334108217234869
 30
0.0
 10
27.65033146426214
 20
10.01310302414859
 30
0.0
 10
25.01487891056328
 20
9.983437788100838
 30
0.0
 10
23.30430073407709
 20
9.400264852184092
 30
0.0
 10
22.51843277290854
 20
9.132345541358442
 30
0.0
  0
SPLINE
  5
CA
330
1F
100
AcDbEntity
  8
0
  6
Continuous
 62
     1
370
    15
100
AcDbSpline
210
0.0
220
0.0
230
1.0
 70
     8
 71
     3
 72
    15
 73
    11
 74
     0
 42
0.000000001
 43
0.00000001
 40
0.0
 40
0.0
 40
0.0
 40
0.0
 40
0.1226670575495346
 40
0.2453766471450209
 40
0.3681126437938885
 40
0.4908577348922318
 40
0.6135945619621013
 40
0.7457860457333735
 40
0.877938805181466
 40
1.0
 40
1.0
 40
1.0
 40
1.0
 10
12.00000000000006
 20
1.205875546563255
 30
0.0
 10
12.85782822622988
 20
0.3463917887089911
 30
0.0
 10
14.57378211135213
 20
-1.372873733680499
 30
0.0
 10
17.14866031502186
 20
-3.885914696559143
 30
0.0
 10
19.72430646452807
 20
-6.140276356114081
 30
0.0
 10
22.30030403136766
 20
-7.993200132750392
 30
0.0
 10
24.94215064683985
 20
-9.359599869239396
 30
0.0
 10
27.65033810565987
 20
-10.07603831379615
 30
0.0
 10
30.35264184943952
 20
-10.10255721342436
 30
0.0
 10
32.13154639448413
 20
-9.505662402891046
 30
0.0
 10
32.98568996367837
 20
-9.21906250335027
 30
0.0
  0
SPLINE
  5
CB
330
1F
100
AcDbEntity
  8
0
  6
Continuous
 62
     1
370
    15
100
AcDbSpline
210
0.0
220
0.0
230
1.0
 70
     8
 71
     3
 72
    21
 73
    17
 74
     0
 42
0.000000001
 43
0.00000001
 40
0.0
 40
0.0
 40
0.0
 40
0.0
 40
0.0161322702323014
 40
0.0944003691541319
 40
0.1726846040438293
 40
0.2510104557789952
 40
0.3293356051874967
 40
0.4076177422889056
 40
0.485887586374045
 40
0.5642077262318057
 40
0.6425367428166989
 40
0.7208322755261135
 40
0.7990931806041939
 40
0.8774054505386731
 40
0.9557361703122565
 40
1.0
 40
1.0
 40
1.0
 40
1.0
 10
60.37946801080801
 20
9.8931087433014
 30
0.0
 10
60.57007296379038
 20
9.912567952398021
 30
0.0
 10
61.68542608303775
 20
10.02643639718085
 30
0.0
 10
63.72456278334485
 20
9.481289260286403
 30
0.0
 10
66.49896783686813
 20
8.255863877912503
 30
0.0
 10
69.2749336840034
 20
6.329966090750361
 30
0.0
 10
72.05089498997961
 20
3.934040030261051
 30
0.0
 10
74.82515222051666
 20
1.228714617427449
 30
0.0
 10
77.59892489987513
 20
-1.573149660451324
 30
0.0
 10
80.37468798019887
 20
-4.257358443803884
 30
0.0
 10
83.15078303049182
 20
-6.620014357526001
 30
0.0
 10
85.92557157860125
 20
-8.477205269258738
 30
0.0
 10
88.69899948595193
 20
-9.698304986387392
 30
0.0
 10
91.47441808100021
 20
-10.14746733589913
 30
0.0
 10
93.84843582919154
 20
-9.975442491747227
 30
0.0
 10
95.29670108204996
 20
-9.37426164082436
 30
0.0
 10
95.81960986369546
 20
-9.157200059263781
 30
0.0
  0
SPLINE
  5
CC
330
1F
100
AcDbEntity
  8
0
  6
Continuous
 62
     1
370
    15
100
AcDbSpline
210
0.0
220
0.0
230
1.0
 70
     8
 71
     3
 72
    21
 73
    17
 74
     0
 42
0.000000001
 43
0.00000001
 40
0.0
 40
0.0
 40
0.0
 40
0.0
 40
0.0013351787246232
 40
0.0795960877648334
 40
0.1579048714931292
 40
0.2362375888984914
 40
0.3145518559942357
 40
0.3928147569236434
 40
0.4711122863674793
 40
0.5494433005407182
 40
0.627765437760444
 40
0.7060372779248812
 40
0.7843214114190895
 40
0.8626485583173109
 40
0.9409764075601112
 40
1.0
 40
1.0
 40
1.0
 40
1.0
 10
99.84622299478951
 20
-10.0376942197983
 30
0.0
 10
99.8304502359727
 20
-10.03982780895959
 30
0.0
 10
98.89016421139723
 20
-10.16702078095987
 30
0.0
 10
97.02591910577257
 20
-9.71501795193524
 30
0.0
 10
94.25057741012344
 20
-8.642937821570593
 30
0.0
 10
91.47445221788485
 20
-6.821733738191874
 30
0.0
 10
88.69899034509032
 20
-4.506720425911674
 30
0.0
 10
85.92557403451062
 20
-1.842661271432727
 30
0.0
 10
83.15078234909927
 20
0.9564163304830935
 30
0.0
 10
80.37468824827005
 20
3.679370492567686
 30
0.0
 10
77.59892450922095
 20
6.11756609497218
 30
0.0
 10
74.82515351440625
 20
8.083326259099588
 30
0.0
 10
72.05089020279576
 20
9.433102674024246
 30
0.0
 10
69.27495154921402
 20
10.0343474338034
 30
0.0
 10
66.7265072785832
 20
9.958383029184345
 30
0.0
 10
65.10423125271785
 20
9.351271356793168
 30
0.0
 10
64.40709580366385
 20
9.090379214142784
 30
0.0
  0
SPLINE
  5
CD
330
1F
100
AcDbEntity
  8
0
  6
Continuous
 62
     1
370
    15
100
AcDbSpline
210
0.0
220
0.0
230
1.0
 70
     8
 71
     3
 72
    17
 73
    13
 74
     0
 42
0.000000001
 43
0.00000001
 40
0.0
 40
0.0
 40
0.0
 40
0.0
 40
0.0415349506763773
 40
0.1524979478564062
 40
0.2634425821659551
 40
0.3743137438964237
 40
0.485217393867901
 40
0.5881889448304302
 40
0.6911674289999649
 40
0.7941382832707173
 40
0.8970869830234797
 40
1.0
 40
1.0
 40
1.0
 40
1.0
 10
37.01500456423275
 20
-9.954091263373158
 30
0.0
 10
36.66864675219813
 20
-9.977506915491476
 30
0.0
 10
35.39697422823514
 20
-10.06347882198502
 30
0.0
 10
33.19947134603987
 20
-9.413766012161053
 30
0.0
 10
30.42385225131011
 20
-8.060530724989423
 30
0.0
 10
27.65033187826791
 20
-6.044015512801463
 30
0.0
 10
24.94215218332624
 20
-3.640741169900851
 30
0.0
 10
22.30030363262719
 20
-1.046362100836211
 30
0.0
 10
19.72430657132873
 20
1.551195363624066
 30
0.0
 10
17.14866028654899
 20
4.033434926322547
 30
0.0
 10
14.57378211846694
 20
6.284463980724432
 30
0.0
 10
12.85782822860119
 20
7.412632952290824
 30
0.0
 10
12.00000000000006
 20
7.97661966321424
 30
0.0
  0
SPLINE
  5
CE
330
1F
100
AcDbEntity
  8
0
  6
Continuous
 62
   131
370
    15
100
AcDbSpline
210
0.0
220
0.0
230
1.0
 70
    24
 71
     3
 72
    19
 73
    15
 74
     0
 42
0.000000001
 43
0.00000001
 40
0.0
 40
0.0
 40
0.0
 40
0.0
 40
0.1370394689375564
 40
0.2164642124052515
 40
0.2958889558729332
 40
0.3776170222817923
 40
0.4570417657494778
 40
0.5387698321583397
 40
0.6181945756260352
 40
0.6999226420349083
 40
0.7793473855026
 40
0.8610754519114701
 40
0.9405001953791585
 40
1.0
 40
1.0
 40
1.0
 40
1.0
 10
12.0
 20
7.976619663214807
 30
0.0
 10
11.99999999999991
 20
7.697865623790731
 30
0.0
 10
11.9999999999998
 20
7.257552522269519
 30
0.0
 10
12.00000000000023
 20
6.511946970092675
 30
0.0
 10
12.00000000000006
 20
5.870651457136136
 30
0.0
 10
11.99999999999983
 20
5.20239377959976
 30
0.0
 10
12.00000000000031
 20
4.52263389180481
 30
0.0
 10
11.99999999999994
 20
3.862219062780083
 30
0.0
 10
12.00000000000026
 20
3.228039534784612
 30
0.0
 10
12.00000000000006
 20
2.649753999445188
 30
0.0
 10
12.0
 20
2.132059903783741
 30
0.0
 10
12.00000000000023
 20
1.703675369397714
 30
0.0
 10
12.00000000000006
 20
1.383503868531536
 30
0.0
 10
11.99999999999997
 20
1.259139424247347
 30
0.0
 10
12.0
 20
1.205875546563373
 30
0.0
  0
LINE
  5
CF
330
1F
100
AcDbEntity
  8
0
  6
Continuous
 62
     1
370
    15
100
AcDbLine
 10
122.0000000000001
 20
-9.971133920382295
 30
0.0
 11
122.0000000000001
 21
-6.005239895097533
 31
0.0
  0
SPLINE
  5
D0
330
1F
100
AcDbEntity
  8
0
  6
Continuous
 62
     1
370
    15
100
AcDbSpline
210
0.0
220
0.0
230
1.0
 70
     8
 71
     3
 72
    21
 73
    17
 74
     0
 42
0.000000001
 43
0.00000001
 40
0.0
 40
0.0
 40
0.0
 40
0.0
 40
0.0412808402827477
 40
0.1195836794164365
 40
0.1978994787523233
 40
0.2761858723909846
 40
0.3544308817734971
 40
0.4327249332852954
 40
0.5110415118904618
 40
0.5893382414843638
 40
0.6675842237066322
 40
0.745867337884407
 40
0.8241825309776679
 40
0.9024874450255524
 40
0.9807413464166197
 40
1.0
 40
1.0
 40
1.0
 40
1.0
 10
28.9605767554516
 20
9.86012467938002
 30
0.0
 10
29.44819225381235
 20
9.876536031341088
 30
0.0
 10
30.86073267292861
 20
9.92407696893491
 30
0.0
 10
33.19951282216414
 20
9.164693188529325
 30
0.0
 10
35.97562745103292
 20
7.700545948536485
 30
0.0
 10
38.75062356284988
 20
5.606068026675862
 30
0.0
 10
41.52397349971923
 20
3.088475358678791
 30
0.0
 10
44.2992697085956
 20
0.32956123328288
 30
0.0
 10
47.07542495605773
 20
-2.457604438042705
 30
0.0
 10
49.85082696005057
 20
-5.059717641566666
 30
0.0
 10
52.62421557664288
 20
-7.280032559339283
 30
0.0
 10
55.39908096342515
 20
-8.941940680855168
 30
0.0
 10
58.17517622978389
 20
-9.938035531489671
 30
0.0
 10
60.95094584268963
 20
-10.12178542749439
 30
0.0
 10
63.02750187358004
 20
-9.836679148490559
 30
0.0
 10
64.17956436065356
 20
-9.287131307057615
 30
0.0
 10
64.40709580366394
 20
-9.178596036820622
 30
0.0
  0
SPLINE
  5
D1
330
1F
100
AcDbEntity
  8
0
  6
Continuous
 62
     1
370
    15
100
AcDbSpline
210
0.0
220
0.0
230
1.0
 70
     8
 71
     3
 72
    18
 73
    14
 74
     0
 42
0.000000001
 43
0.00000001
 40
0.0
 40
0.0
 40
0.0
 40
0.0
 40
0.081407368065048
 40
0.1732752633158852
 40
0.2650869944096432
 40
0.3569495640375706
 40
0.4488449951267762
 40
0.5407235720299547
 40
0.6325411179667662
 40
0.7243894114148876
 40
0.8162817608450275
 40
0.9081684909592427
 40
1.0
 40
1.0
 40
1.0
 40
1.0
 10
91.79116116803698
 20
9.917120075634351
 30
0.0
 10
92.61106362257053
 20
9.874472695128691
 30
0.0
 10
94.35622277805544
 20
9.783697913158761
 30
0.0
 10
97.02583832775994
 20
8.718163510601022
 30
0.0
 10
99.79917621090144
 20
7.010772634032524
 30
0.0
 10
102.5742344896408
 20
4.745124351377269
 30
0.0
 10
105.3503715152197
 20
2.118092711576795
 30
0.0
 10
108.1259684753052
 20
-0.6756843523838284
 30
0.0
 10
110.8995042914111
 20
-3.420765088207725
 30
0.0
 10
113.6740782922517
 20
-5.910765576451467
 30
0.0
 10
116.4501248369671
 20
-7.937211836736774
 30
0.0
 10
119.2259934153026
 20
-9.414312970437393
 30
0.0
 10
121.0755164451074
 20
-9.785564133315653
 30
0.0
 10
122.0000000000001
 20
-9.971133920382295
 30
0.0
  0
SPLINE
  5
D2
330
1F
100
AcDbEntity
  8
0
  6
Continuous
 62
     1
370
    15
100
AcDbSpline
210
0.0
220
0.0
230
1.0
 70
     8
 71
     3
 72
    17
 73
    13
 74
     0
 42
0.000000001
 43
0.00000001
 40
0.0
 40
0.0
 40
0.0
 40
0.0
 40
0.1059598540986051
 40
0.2119834250733411
 40
0.3180134798998807
 40
0.4239927006992404
 40
0.5299364434601072
 40
0.6359506068463041
 40
0.7419842174474203
 40
0.8479799108273247
 40
0.953916944127267
 40
1.0
 40
1.0
 40
1.0
 40
1.0
 10
122.0000000000002
 20
-6.051950331929154
 30
0.0
 10
121.0755164461779
 20
-5.26777679753326
 30
0.0
 10
119.2259934185145
 20
-3.69895818139572
 30
0.0
 10
116.4501248241094
 20
-0.9437003940295311
 30
0.0
 10
113.6740783404613
 20
1.847546709097109
 30
0.0
 10
110.8995041115512
 20
4.502803221669899
 30
0.0
 10
108.1259691465167
 20
6.809131952991612
 30
0.0
 10
105.3503690081412
 20
8.587984052652565
 30
0.0
 10
102.5742438464842
 20
9.717416802246937
 30
0.0
 10
99.79914131301885
 20
10.0592483142861
 30
0.0
 10
97.54860794489989
 20
9.832726425707744
 30
0.0
 10
96.22181203550721
 20
9.246646342583835
 30
0.0
 10
95.81960986369552
 20
9.068983236585938
 30
0.0
  0
SPLINE
  5
D3
330
1F
100
AcDbEntity
  8
0
  6
Continuous
 62
     1
370
    15
100
AcDbSpline
210
0.0
220
0.0
230
1.0
 70
     8
 71
     3
 72
    21
 73
    17
 74
     0
 42
0.000000001
 43
0.00000001
 40
0.0
 40
0.0
 40
0.0
 40
0.0
 40
0.0545492901875705
 40
0.1328189672033398
 40
0.2110725112519147
 40
0.2893770677243619
 40
0.3676919031952473
 40
0.4459746598971325
 40
0.524220284813072
 40
0.6025166568689082
 40
0.6808328778453702
 40
0.7591265718313347
 40
0.83737122391196
 40
0.9156572600597553
 40
0.9939727017704971
 40
1.0
 40
1.0
 40
1.0
 40
1.0
 10
68.43252607774366
 20
-9.962892567761571
 30
0.0
 10
67.7878609032472
 20
-9.95912654040982
 30
0.0
 10
66.21820229954838
 20
-9.949956854395587
 30
0.0
 10
63.72462113504031
 20
-9.054479323139336
 30
0.0
 10
60.95090725204815
 20
-7.472800147320408
 30
0.0
 10
58.17518657568326
 20
-5.295349518257204
 30
0.0
 10
55.39907818837622
 20
-2.723430424363592
 30
0.0
 10
52.62421633438845
 20
0.0553332688518292
 30
0.0
 10
49.85082670202209
 20
2.827024209845357
 30
0.0
 10
47.07542523026541
 20
5.377669793548217
 30
0.0
 10
44.29926886984359
 20
7.515198287151845
 30
0.0
 10
41.52397657866632
 20
9.068994155427669
 30
0.0
 10
38.75061209064819
 20
9.945451441340959
 30
0.0
 10
35.97567029525305
 20
9.984297000774253
 30
0.0
 10
34.05356942695849
 20
9.668583555559328
 30
0.0
 10
33.05691299432783
 20
9.166710516041368
 30
0.0
 10
32.98568996367845
 20
9.130845680672431
 30
0.0
  0
SPLINE
  5
D4
330
1F
100
AcDbEntity
  8
0
  6
Continuous
 62
     1
370
    15
100
AcDbSpline
210
0.0
220
0.0
230
1.0
 70
     8
 71
     3
 72
    19
 73
    15
 74
     0
 42
0.000000001
 43
0.00000001
 40
0.0
 40
0.0
 40
0.0
 40
0.0
 40
0.0818388757847824
 40
0.1637061273608729
 40
0.245590996735945
 40
0.3274819335877777
 40
0.4093673569887039
 40
0.4975605739474995
 40
0.5857279554852957
 40
0.673953764163304
 40
0.7621941754321275
 40
0.8504014545508762
 40
0.9385621049712833
 40
1.0
 40
1.0
 40
1.0
 40
1.0
 10
12.00000000000003
 20
9.173214745979353
 30
0.0
 10
12.85782822760817
 20
8.781258137166757
 30
0.0
 10
14.57378211548746
 20
7.997209017394498
 30
0.0
 10
17.14866029847246
 20
6.128226488489098
 30
0.0
 10
19.72430652660407
 20
3.895671761284941
 30
0.0
 10
22.30030379960641
 20
1.391434049655769
 30
0.0
 10
24.94215153989654
 20
-1.27083538307168
 30
0.0
 10
27.65033448609384
 20
-3.918114900280286
 30
0.0
 10
30.42384254320038
 20
-6.334638934792311
 30
0.0
 10
33.19950760038378
 20
-8.267290921584966
 30
0.0
 10
35.97562453658105
 20
-9.577974528670133
 30
0.0
 10
38.7506404293988
 20
-10.13327163247688
 30
0.0
 10
41.24323188451811
 20
-10.02553954195022
 30
0.0
 10
42.81221580480428
 20
-9.418636617721965
 30
0.0
 10
43.45657413801462
 20
-9.169390623789242
 30
0.0
  0
SPLINE
  5
D5
330
1F
100
AcDbEntity
  8
0
  6
Continuous
 62
     1
370
    15
100
AcDbSpline
210
0.0
220
0.0
230
1.0
 70
     8
 71
     3
 72
    21
 73
    17
 74
     0
 42
0.000000001
 43
0.00000001
 40
0.0
 40
0.0
 40
0.0
 40
0.0
 40
0.0338834475568413
 40
0.1121547395895369
 40
0.1904137403090158
 40
0.2687230298332287
 40
0.3470411948548079
 40
0.4253258806397056
 40
0.5035759435905197
 40
0.5818773642817364
 40
0.6601972322560492
 40
0.7384931704792909
 40
0.8167412418676493
 40
0.8950326412403904
 40
0.9733520473388232
 40
0.9999999999999999
 40
0.9999999999999999
 40
0.9999999999999999
 40
0.9999999999999999
 10
70.8500429332615
 20
9.861510214751886
 30
0.0
 10
71.2504539236167
 20
9.883515891311733
 30
0.0
 10
72.575820543313
 20
9.956355023750096
 30
0.0
 10
74.82513224934661
 20
9.266818741492221
 30
0.0
 10
77.59893021860813
 20
7.870495806258337
 30
0.0
 10
80.37468668886854
 20
5.824410101794284
 30
0.0
 10
83.15078287477883
 20
3.341152429280069
 30
0.0
 10
85.92557349092343
 20
0.5957840846421203
 30
0.0
 10
88.69899199381138
 20
-2.19867854637037
 30
0.0
 10
91.4744461614415
 20
-4.827142370688597
 30
0.0
 10
94.25059998832552
 20
-7.090858450783712
 30
0.0
 10
97.02583490129251
 20
-8.811872233629805
 30
0.0
 10
99.79918495641303
 20
-9.875251107920702
 30
0.0
 10
102.5742029085975
 20
-10.13839891724277
 30
0.0
 10
104.7399944873648
 20
-9.879921125080516
 30
0.0
 10
105.9802841937334
 20
-9.309538409605901
 30
0.0
 10
106.2951552333788
 20
-9.164735951200427
 30
0.0
  0
SPLINE
  5
D6
330
1F
100
AcDbEntity
  8
0
  6
Continuous
 62
     1
370
    15
100
AcDbSpline
210
0.0
220
0.0
230
1.0
 70
     8
 71
     3
 72
    20
 73
    16
 74
     0
 42
0.000000001
 43
0.00000001
 40
0.0
 40
0.0
 40
0.0
 40
0.0
 40
0.0619276380051451
 40
0.1402350639398063
 40
0.2185568545715351
 40
0.2968506376248721
 40
0.3751010913746496
 40
0.4533994134166791
 40
0.5317216659383478
 40
0.6100254706152736
 40
0.6882779159881415
 40
0.7665649852492306
 40
0.8448855347663199
 40
0.9231972085158154
 40
1.0
 40
1.0
 40
1.0
 40
1.0
 10
110.320760530268
 20
-9.98076917666954
 30
0.0
 10
109.589332538765
 20
-9.959703906161975
 30
0.0
 10
107.9330147062122
 20
-9.91200162569889
 30
0.0
 10
105.3503747413693
 20
-8.933507046145795
 30
0.0
 10
102.5742335476099
 20
-7.288673978301752
 30
0.0
 10
99.79917675346726
 20
-5.066473164512011
 30
0.0
 10
97.02583709917587
 20
-2.465216990150565
 30
0.0
 10
94.2505994029718
 20
0.3218870482562815
 30
0.0
 10
91.47444630361582
 20
3.080773533709412
 30
0.0
 10
88.69899201040403
 20
5.600672829793458
 30
0.0
 10
85.92557328262362
 20
7.688511770701369
 30
0.0
 10
83.15078369199395
 20
9.187791408220377
 30
0.0
 10
80.37468362718323
 20
9.966620373001673
 30
0.0
 10
77.6161778501988
 20
10.03218510348047
 30
0.0
 10
75.78406165827471
 20
9.441783624625133
 30
0.0
 10
74.87691455467504
 20
9.149454462388915
 30
0.0
  0
SPLINE
  5
D7
330
1F
100
AcDbEntity
  8
0
  6
Continuous
 62
     1
370
    15
100
AcDbSpline
210
0.0
220
0.0
230
1.0
 70
     8
 71
     3
 72
    21
 73
    17
 74
     0
 42
0.000000001
 43
0.00000001
 40
0.0
 40
0.0
 40
0.0
 40
0.0
 40
0.0115712061762044
 40
0.0897942746079228
 40
0.167994842843676
 40
0.2461464275065555
 40
0.324339347012688
 40
0.402561637105577
 40
0.4807709824707808
 40
0.5589285340530054
 40
0.637108987906053
 40
0.7096977853917372
 40
0.782291470374546
 40
0.8548797767341103
 40
0.9274524654808024
 40
1.0
 40
1.0
 40
1.0
 40
1.0
 10
47.48630483432487
 20
-9.995753959225494
 30
0.0
 10
47.34941416086184
 20
-10.01122549885175
 30
0.0
 10
46.28712224962814
 20
-10.13128693900342
 30
0.0
 10
44.29922707521368
 20
-9.617408975471804
 30
0.0
 10
41.52398502914022
 20
-8.437949527177041
 30
0.0
 10
38.75062004212293
 20
-6.543046590560326
 30
0.0
 10
35.97563000288437
 20
-4.171007179961538
 30
0.0
 10
33.1995061356798
 20
-1.477877630935391
 30
0.0
 10
30.42384293541556
 20
1.323254942491476
 30
0.0
 10
27.6503343807357
 20
4.021043227612505
 30
0.0
 10
24.94215156589158
 20
6.350081876236535
 30
0.0
 10
22.30030379286038
 20
8.167781106975422
 30
0.0
 10
19.72430652841109
 20
9.401742745898833
 30
0.0
 10
17.1486602979908
 20
10.00097124869805
 30
0.0
 10
14.5737821156078
 20
9.98131284406036
 30
0.0
 10
12.8578282276483
 20
9.419329676769042
 30
0.0
 10
12.00000000000006
 20
9.138386798438606
 30
0.0
  0
LINE
  5
D8
330
1F
100
AcDbEntity
  8
0
  6
Continuous
 62
     1
370
    15
100
AcDbLine
 10
122.0000000000001
 20
-3.963291999791913
 30
0.0
 11
122.0000000000001
 21
3.875075177114259
 31
0.0
  0
SPLINE
  5
D9
330
1F
100
AcDbEntity
  8
0
  6
Continuous
 62
     1
370
    15
100
AcDbSpline
210
0.0
220
0.0
230
1.0
 70
     8
 71
     3
 72
    21
 73
    17
 74
     0
 42
0.000000001
 43
0.00000001
 40
0.0
 40
0.0
 40
0.0
 40
0.0
 40
0.0590363860327083
 40
0.137333275613425
 40
0.2156526931040909
 40
0.2939522608639887
 40
0.3722010794127194
 40
0.450487031262947
 40
0.5288050631914842
 40
0.6071128157020416
 40
0.6853695537066318
 40
0.763642425336891
 40
0.8419569077717723
 40
0.9202706879819348
 40
0.9985414621284076
 40
0.9999999999999999
 40
0.9999999999999999
 40
0.9999999999999999
 40
0.9999999999999999
 10
39.43165514035431
 20
9.884808357474082
 30
0.0
 10
40.12894547467275
 20
9.870981000539944
 30
0.0
 10
41.75101572830374
 20
9.838815138967911
 30
0.0
 10
44.29926130296425
 20
8.893131741263161
 30
0.0
 10
47.07542725454385
 20
7.272851148136921
 30
0.0
 10
49.85082617117919
 20
5.067994592994667
 30
0.0
 10
52.62421643525161
 20
2.477653049621596
 30
0.0
 10
55.39907831599814
 20
-0.3065019512794607
 30
0.0
 10
58.17518596402854
 20
-3.070330100281804
 30
0.0
 10
60.95090956997191
 20
-5.602101701067523
 30
0.0
 10
63.72461248023492
 20
-7.710863418277009
 30
0.0
 10
66.49895551850588
 20
-9.226812014125912
 30
0.0
 10
69.2749332251559
 20
-10.06164595301029
 30
0.0
 10
72.05090914288076
 20
-10.0496630780135
 30
0.0
 10
73.91786288072504
 20
-9.728342384107242
 30
0.0
 10
74.85968521322593
 20
-9.246486180170129
 30
0.0
 10
74.8769145546751
 20
-9.237671285066748
 30
0.0
  0
SPLINE
  5
DA
330
1F
100
AcDbEntity
  8
0
  6
Continuous
 62
     1
370
    15
100
AcDbSpline
210
0.0
220
0.0
230
1.0
 70
     8
 71
     3
 72
    15
 73
    11
 74
     0
 42
0.000000001
 43
0.00000001
 40
0.0
 40
0.0
 40
0.0
 40
0.0
 40
0.0156271278087847
 40
0.1562994054150412
 40
0.2969458828622744
 40
0.4374989349352358
 40
0.5780990548808372
 40
0.7187666151252574
 40
0.8594255733971925
 40
1.0
 40
1.0
 40
1.0
 40
1.0
 10
102.2655818185741
 20
9.918028802545123
 30
0.0
 10
102.3683772215185
 20
9.93032907084677
 30
0.0
 10
103.3965162728016
 20
10.05335389316329
 30
0.0
 10
105.3504209884298
 20
9.558196855217709
 30
0.0
 10
108.1259552300142
 20
8.408242329987996
 30
0.0
 10
110.8995078406588
 20
6.534143165599469
 30
0.0
 10
113.6740773409146
 20
4.176275824172711
 30
0.0
 10
116.4501250906962
 20
1.495844886997502
 30
0.0
 10
119.2259933519163
 20
-1.322323368426793
 30
0.0
 10
121.0755164239829
 20
-3.083145542262611
 30
0.0
 10
122.0000000000001
 20
-3.963291999791911
 30
0.0
  0
SPLINE
  5
DB
330
1F
100
AcDbEntity
  8
0
  6
Continuous
 62
     1
370
    15
100
AcDbSpline
210
0.0
220
0.0
230
1.0
 70
     8
 71
     3
 72
    13
 73
     9
 74
     0
 42
0.000000001
 43
0.00000001
 40
0.0
 40
0.0
 40
0.0
 40
0.0
 40
0.1766371521480938
 40
0.3533805215766784
 40
0.5301346997132145
 40
0.7068041365307889
 40
0.8834144307633107
 40
0.9999999999999999
 40
0.9999999999999999
 40
0.9999999999999999
 40
0.9999999999999999
 10
122.0000000000002
 20
3.875075177114259
 30
0.0
 10
121.0755165467002
 20
4.69684385035737
 30
0.0
 10
119.2259937201419
 20
6.340875351287337
 30
0.0
 10
116.450123616723
 20
8.235449284676811
 30
0.0
 10
113.674082867462
 20
9.525656047527367
 30
0.0
 10
110.8994872222192
 20
10.05021753782284
 30
0.0
 10
108.4407475052575
 20
9.92366551433913
 30
0.0
 10
106.9055906421163
 20
9.317537963771052
 30
0.0
 10
106.2951552333788
 20
9.07651912852258
 30
0.0
  0
SPLINE
  5
DC
330
1F
100
AcDbEntity
  8
0
  6
Continuous
 62
     1
370
    15
100
AcDbSpline
210
0.0
220
0.0
230
1.0
 70
     8
 71
     3
 72
    21
 73
    17
 74
     0
 42
0.000000001
 43
0.00000001
 40
0.0
 40
0.0
 40
0.0
 40
0.0
 40
0.0367795503592673
 40
0.1150369522168477
 40
0.193306645136527
 40
0.2716193435258115
 40
0.3499327441301178
 40
0.4282045345046082
 40
0.5064601914762981
 40
0.5847668622492463
 40
0.6630838122981758
 40
0.7413686827119467
 40
0.8196164203371766
 40
0.8979149064725265
 40
0.9762332420644426
 40
1.0
 40
1.0
 40
1.0
 40
1.0
 10
78.90240997092656
 20
-9.948336431538692
 30
0.0
 10
78.46777196032255
 20
-9.968657155690352
 30
0.0
 10
77.10833630738279
 20
-10.03221514240884
 30
0.0
 10
74.82517842813573
 20
-9.316031921894513
 30
0.0
 10
72.05088706980953
 20
-7.893111659586257
 30
0.0
 10
69.27493914201293
 20
-5.82794623485486
 30
0.0
 10
66.49895393081718
 20
-3.331527467292088
 30
0.0
 10
63.72461291736752
 20
-0.5803276140026262
 30
0.0
 10
60.95090940829846
 20
2.211623570713272
 30
0.0
 10
58.17518617347417
 20
4.830048837920348
 30
0.0
 10
55.39907764001259
 20
7.076750866292157
 30
0.0
 10
52.62421892811636
 20
8.774991797906546
 30
0.0
 10
49.85081687749621
 20
9.812315869606744
 30
0.0
 10
47.07546196635283
 20
10.04460418679476
 30
0.0
 10
44.94358687171851
 20
9.775151730547565
 30
0.0
 10
43.73739218938377
 20
9.212229524724442
 30
0.0
 10
43.45657413801473
 20
9.0811738011114
 30
0.0
  0
SPLINE
  5
DD
330
1F
100
AcDbEntity
  8
0
  6
Continuous
 62
     1
370
    15
100
AcDbSpline
210
0.0
220
0.0
230
1.0
 70
     8
 71
     3
 72
     9
 73
     5
 74
     0
 42
0.000000001
 43
0.00000001
 40
0.0
 40
0.0
 40
0.0
 40
0.0
 40
0.3678091161703613
 40
1.0
 40
1.0
 40
1.0
 40
1.0
 10
16.07116132815591
 20
-9.963553864262659
 30
0.0
 10
15.57195395888536
 20
-9.976371641710498
 30
0.0
 10
14.21470818295592
 20
-10.01122063507232
 30
0.0
 10
12.85781530670147
 20
-9.530506631747574
 30
0.0
 10
12.00000000000006
 20
-9.22660362111642
 30
0.0
  0
LINE
  5
DE
330
1F
100
AcDbEntity
  8
0
  6
Continuous
 62
   131
370
    15
100
AcDbLine
 10
122.0000000000001
 20
9.882917097704457
 30
0.0
 11
122.0000000000001
 21
9.95589158866108
 31
0.0
  0
LINE
  5
DF
330
1F
100
AcDbEntity
  8
0
  6
Continuous
 62
   131
370
    15
100
AcDbLine
 10
12.0
 20
-1.205875546563495
 30
0.0
 11
12.00000000000003
 21
1.205875546563212
 31
0.0
  0
LINE
  5
E0
330
1F
100
AcDbEntity
  8
0
  6
Continuous
 62
   131
370
    15
100
AcDbLine
 10
122.0000000000001
 20
-10.04410841133892
 30
0.0
 11
122.0000000000001
 21
-9.971133920382295
 31
0.0
  0
LINE
  5
E1
330
1F
100
AcDbEntity
  8
0
  6
Continuous
 62
     1
370
    15
100
AcDbLine
 10
122.0000000000001
 20
-6.051950331929154
 30
0.0
 11
122.0000000000001
 21
-3.963291999791913
 31
0.0
  0
LINE
  5
E2
330
1F
100
AcDbEntity
  8
0
  6
Continuous
 62
     1
370
    15
100
AcDbLine
 10
122.0000000000001
 20
3.875075177114259
 30
0.0
 11
122.0000000000001
 21
5.963733509251362
 31
0.0
  0
LINE
  5
E3
330
1F
100
AcDbEntity
  8
0
  6
Continuous
 62
   131
370
    15
100
AcDbLine
 10
12.0
 20
-9.226603621117162
 30
0.0
 11
12.00000000000003
 21
-8.011447610754995
 31
0.0
  0
LINE
  5
E4
330
1F
100
AcDbEntity
  8
0
  6
Continuous
 62
   131
370
    15
100
AcDbLine
 10
12.0
 20
7.976619663214807
 30
0.0
 11
12.00000000000003
 21
9.173214745979354
 31
0.0
  0
LINE
  5
E5
330
1F
100
AcDbEntity
  8
0
  6
Continuous
 62
   131
370
    15
100
AcDbLine
 10
11.00007003449088
 20
-10.04410841133892
 30
0.0
 11
11.00007003449088
 21
-8.785427852415422
 31
0.0
  0
SPLINE
  5
E6
330
1F
100
AcDbEntity
  8
0
  6
Continuous
 62
   131
370
    15
100
AcDbSpline
210
0.0
220
0.0
230
1.0
 70
     8
 71
     3
 72
     8
 73
     4
 74
     0
 42
0.000000001
 43
0.00000001
 40
0.0
 40
0.0
 40
0.0
 40
0.0
 40
1.0
 40
1.0
 40
1.0
 40
1.0
 10
12.00000000000011
 20
-9.261431568657201
 30
0.0
 10
11.66854885235946
 20
-9.390455989046275
 30
0.0
 10
11.33440937887323
 20
-9.50448775799048
 30
0.0
 10
11.00007003449088
 20
-9.602539485283234
 30
0.0
  0
LINE
  5
E7
330
1F
100
AcDbEntity
  8
0
  6
Continuous
 62
   131
370
    15
100
AcDbLine
 10
11.00007003449088
 20
9.514321604891633
 30
0.0
 11
11.00007003449088
 21
9.955891588661073
 31
0.0
  0
SPLINE
  5
E8
330
1F
100
AcDbEntity
  8
0
  6
Continuous
 62
   131
370
    15
100
AcDbSpline
210
0.0
220
0.0
230
1.0
 70
     8
 71
     3
 72
     8
 73
     4
 74
     0
 42
0.000000001
 43
0.00000001
 40
0.0
 40
0.0
 40
0.0
 40
0.0
 40
1.0
 40
1.0
 40
1.0
 40
1.0
 10
12.00000000000011
 20
9.17321474597933
 30
0.0
 10
11.66854885235946
 20
9.302239166368407
 30
0.0
 10
11.33440937887323
 20
9.416270935312616
 30
0.0
 10
11.00007003449088
 20
9.514322662605373
 30
0.0
  0
SPLINE
  5
E9
330
1F
100
AcDbEntity
  8
0
  6
Continuous
 62
   131
370
    15
100
AcDbSpline
210
0.0
220
0.0
230
1.0
 70
     8
 71
     3
 72
     8
 73
     4
 74
     0
 42
0.000000001
 43
0.00000001
 40
0.0
 40
0.0
 40
0.0
 40
0.0
 40
1.0
 40
1.0
 40
1.0
 40
1.0
 10
12.00000000000006
 20
7.976619663214244
 30
0.0
 10
11.66854885235941
 20
8.175308344314216
 30
0.0
 10
11.33440937887323
 20
8.361183955066117
 30
0.0
 10
11.00007003449085
 20
8.532737965879345
 30
0.0
  0
SPLINE
  5
EA
330
1F
100
AcDbEntity
  8
0
  6
Continuous
 62
   131
370
    15
100
AcDbSpline
210
0.0
220
0.0
230
1.0
 70
     8
 71
     3
 72
     8
 73
     4
 74
     0
 42
0.000000001
 43
0.00000001
 40
0.0
 40
0.0
 40
0.0
 40
0.0
 40
1.0
 40
1.0
 40
1.0
 40
1.0
 10
12.00000000000011
 20
1.205875546563239
 30
0.0
 10
11.66854885235946
 20
1.535952045489026
 30
0.0
 10
11.33440937887323
 20
1.864839003264731
 30
0.0
 10
11.00007003449088
 20
2.190053775801017
 30
0.0
  0
SPLINE
  5
EB
330
1F
100
AcDbEntity
  8
0
  6
Continuous
 62
   131
370
    15
100
AcDbSpline
210
0.0
220
0.0
230
1.0
 70
     8
 71
     3
 72
     8
 73
     4
 74
     0
 42
0.000000001
 43
0.00000001
 40
0.0
 40
0.0
 40
0.0
 40
0.0
 40
1.0
 40
1.0
 40
1.0
 40
1.0
 10
12.00000000000006
 20
-1.205875546563303
 30
0.0
 10
11.66854885235941
 20
-0.8754425363560943
 30
0.0
 10
11.33440937887323
 20
-0.5421840977807455
 30
0.0
 10
11.00007003449085
 20
-0.2085808723266306
 30
0.0
  0
LINE
  5
EC
330
1F
100
AcDbEntity
  8
0
  6
Continuous
 62
   131
370
    15
100
AcDbLine
 10
11.00007003449088
 20
-7.368379748618086
 30
0.0
 11
11.00007003449088
 21
-0.2085821134285769
 31
0.0
  0
SPLINE
  5
ED
330
1F
100
AcDbEntity
  8
0
  6
Continuous
 62
   131
370
    15
100
AcDbSpline
210
0.0
220
0.0
230
1.0
 70
     8
 71
     3
 72
     8
 73
     4
 74
     0
 42
0.000000001
 43
0.00000001
 40
0.0
 40
0.0
 40
0.0
 40
0.0
 40
1.0
 40
1.0
 40
1.0
 40
1.0
 10
12.00000000000011
 20
-8.011447610755019
 30
0.0
 10
11.66854885235946
 20
-7.810395532218308
 30
0.0
 10
11.33440937887323
 20
-7.595540343386812
 30
0.0
 10
11.00007003449088
 20
-7.368377298143283
 30
0.0
  0
SPLINE
  5
EE
330
1F
100
AcDbEntity
  8
0
  6
Continuous
 62
   131
370
    15
100
AcDbSpline
210
0.0
220
0.0
230
1.0
 70
     8
 71
     3
 72
     8
 73
     4
 74
     0
 42
0.000000001
 43
0.00000001
 40
0.0
 40
0.0
 40
0.0
 40
0.0
 40
1.0
 40
1.0
 40
1.0
 40
1.0
 10
12.00000000000006
 20
-9.226603621116409
 30
0.0
 10
11.66854885235941
 20
-9.094859292009172
 30
0.0
 10
11.33440937887323
 20
-8.94747646418572
 30
0.0
 10
11.00007003449085
 20
-8.785427249544831
 30
0.0
  0
LINE
  5
EF
330
1F
100
AcDbEntity
  8
0
  6
Continuous
 62
   131
370
    15
100
AcDbLine
 10
-175.9999999999999
 20
-0.0441084113389214
 30
0.0
 11
-175.9999999999999
 21
9.955891588661073
 31
0.0
  0
LINE
  5
F0
330
1F
100
AcDbEntity
  8
0
  6
Continuous
 62
   131
370
    15
100
AcDbLine
 10
-175.9999999999999
 20
-10.04410841133892
 30
0.0
 11
-175.9999999999999
 21
-0.0441084113389214
 31
0.0
  0
LINE
  5
F1
330
1F
100
AcDbEntity
  8
0
  6
Continuous
 62
   131
370
    15
100
AcDbLine
 10
11.00007003449088
 20
2.190050267612476
 30
0.0
 11
11.00007003449088
 21
8.532737327647993
 31
0.0
  0
LINE
  5
F2
330
1F
100
AcDbEntity
  8
0
  6
Continuous
 62
   131
370
    15
100
AcDbLine
 10
-177.9999999999999
 20
-0.0441084113389214
 30
0.0
 11
-177.9999999999999
 21
7.955891588661082
 31
0.0
  0
LINE
  5
F3
330
1F
100
AcDbEntity
  8
0
  6
Continuous
 62
   131
370
    15
100
AcDbLine
 10
-177.9999999999999
 20
-8.044108411338925
 30
0.0
 11
-177.9999999999999
 21
-0.0441084113389214
 31
0.0
  0
SPLINE
  5
F4
330
1F
100
AcDbEntity
  8
0
  6
Continuous
 62
   131
370
    15
100
AcDbSpline
210
0.0
220
0.0
230
1.0
 70
    24
 71
     3
 72
    14
 73
    10
 74
     0
 42
0.000000001
 43
0.00000001
 40
0.0
 40
0.0
 40
0.0
 40
0.0
 40
0.1218473628695515
 40
0.2788477420827299
 40
0.4358481212959093
 40
0.5928485005090783
 40
0.7498488797222614
 40
0.9068492589354419
 40
1.0
 40
1.0
 40
1.0
 40
1.0
 10
12.00000000000009
 20
-8.01144761075501
 30
0.0
 10
12.00000000000003
 20
-7.761504643485848
 30
0.0
 10
12.0
 20
-7.189510055904339
 30
0.0
 10
11.99999999999994
 20
-6.016407175077939
 30
0.0
 10
12.0000000000004
 20
-4.658150440531376
 30
0.0
 10
11.99999999999977
 20
-3.328054952793686
 30
0.0
 10
12.00000000000003
 20
-2.207697369967559
 30
0.0
 10
11.99999999999972
 20
-1.450148473514333
 30
0.0
 10
11.99999999999997
 20
-1.272156003297551
 30
0.0
 10
12.0
 20
-1.205875546563254
 30
0.0
  0
SPLINE
  5
F5
330
1F
100
AcDbEntity
  8
0
  6
Continuous
 62
   131
370
    15
100
AcDbSpline
210
0.0
220
0.0
230
1.0
 70
    24
 71
     3
 72
    15
 73
    11
 74
     0
 42
0.000000001
 43
0.00000001
 40
0.0
 40
0.0
 40
0.0
 40
0.0
 40
0.1042439576319693
 40
0.2454155103571287
 40
0.3865870630822789
 40
0.5277586158074418
 40
0.6689301685326021
 40
0.8101017212577634
 40
0.9512732739829183
 40
1.0
 40
1.0
 40
1.0
 40
1.0
 10
12.00000000000003
 20
1.039099515681713
 30
0.0
 10
12.00000000000003
 20
1.053273847610872
 30
0.0
 10
12.0
 20
1.086643656119553
 30
0.0
 10
12.0000000000004
 20
1.661107819470138
 30
0.0
 10
11.99999999999989
 20
2.609765325568476
 30
0.0
 10
12.0
 20
3.84212931170099
 30
0.0
 10
11.9999999999998
 20
5.201406371389652
 30
0.0
 10
12.00000000000009
 20
6.534422110393399
 30
0.0
 10
12.00000000000006
 20
7.452181263029644
 30
0.0
 10
12.00000000000014
 20
7.869530440666942
 30
0.0
 10
12.00000000000014
 20
7.976619663206924
 30
0.0
  0
LINE
  5
F6
330
1F
100
AcDbEntity
  8
중심선
 62
     1
100
AcDbLine
 10
-185.2025927748895
 20
-0.0441084113389271
 30
0.0
 11
129.0000000000001
 21
-0.0441084113388252
 31
0.0
  0
CIRCLE
  5
F7
330
1F
100
AcDbEntity
  8
외형선
100
AcDbCircle
 10
0.0
 20
0.0
 30
0.0
 40
3.000000000000018
  0
INSERT
  5
F8
330
1F
100
AcDbEntity
  8
0
  6
Continuous
 62
     7
100
AcDbBlockReference
 66
     1
  2
블럭10
 10
-22.93944368806589
 20
-52.04609937292004
 30
0.0
  0
ATTRIB
  5
F9
330
F8
100
AcDbEntity
  8
FORMAT
 62
     2
100
AcDbText
 10
-45.37735214194733
 20
-49.97073246008785
 30
0.0
 40
4.233333333333333
  1
SEME75200110300E [ 6 FLUTE ]
 41
0.75
  7
SLDTEXTSTYLE0
 11
-45.37735214194733
 21
-52.08739912675452
 31
0.0
100
AcDbAttribute
  2
AUTOATTR0
 70
     0
 74
     1
  0
SEQEND
  5
FA
330
F8
100
AcDbEntity
  8
0
  6
Continuous
 62
     7
  0
HATCH
  5
FB
330
1F
100
AcDbEntity
  8
중심선
100
AcDbHatch
 10
0.0
 20
0.0
 30
0.0
210
0.0
220
0.0
230
1.0
  2
SOLID
 70
     1
 71
     0
 91
        1
 92
        0
 93
        4
 72
     1
 10
-17.22453438368504
 20
-35.7989250712761
 11
-20.67080962752232
 21
-35.7989250712761
 72
     1
 10
-20.67080962752232
 20
-35.7989250712761
 11
-22.79903948672635
 21
-38.3352506518487
 72
     1
 10
-22.79903948672635
 20
-38.3352506518487
 11
-19.35273115777591
 21
-38.33521122254621
 72
     1
 10
-19.35273115777591
 20
-38.33521122254621
 11
-17.22453438368504
 21
-35.7989250712761
 97
        0
 75
     0
 76
     1
 98
        1
 10
0.0
 20
0.0
  0
HATCH
  5
FC
330
1F
100
AcDbEntity
  8
중심선
100
AcDbHatch
 10
0.0
 20
0.0
 30
0.0
210
0.0
220
0.0
230
1.0
  2
SOLID
 70
     1
 71
     0
 91
        1
 92
        0
 93
        4
 72
     1
 10
-12.21177039264909
 20
-35.7989250712761
 11
-15.65804563648637
 21
-35.7989250712761
 72
     1
 10
-15.65804563648637
 20
-35.7989250712761
 11
-20.18918364484376
 21
-41.19892507127612
 72
     1
 10
-20.18918364484376
 20
-41.19892507127612
 11
-16.74290840100648
 21
-41.19892507127612
 72
     1
 10
-16.74290840100648
 20
-41.19892507127612
 11
-12.21177039264909
 21
-35.7989250712761
 97
        0
 75
     0
 76
     1
 98
        1
 10
0.0
 20
0.0
  0
HATCH
  5
FD
330
1F
100
AcDbEntity
  8
중심선
100
AcDbHatch
 10
0.0
 20
0.0
 30
0.0
210
0.0
220
0.0
230
1.0
  2
SOLID
 70
     1
 71
     0
 91
        1
 92
        0
 93
        4
 72
     1
 10
-7.199006401613195
 20
-35.79892507127613
 11
-10.64528164545031
 21
-35.7989250712761
 72
     1
 10
-10.64528164545031
 20
-35.7989250712761
 11
-17.69371854733956
 21
-44.19892507127612
 72
     1
 10
-17.69371854733956
 20
-44.19892507127612
 11
-14.24744330350228
 21
-44.19892507127612
 72
     1
 10
-14.24744330350228
 20
-44.19892507127612
 11
-7.199006401613195
 21
-35.79892507127613
 97
        0
 75
     0
 76
     1
 98
        1
 10
0.0
 20
0.0
  0
HATCH
  5
FE
330
1F
100
AcDbEntity
  8
중심선
100
AcDbHatch
 10
0.0
 20
0.0
 30
0.0
210
0.0
220
0.0
230
1.0
  2
SOLID
 70
     1
 71
     0
 91
        1
 92
        0
 93
        6
 72
     3
 10
-2.399115970600996
 20
-39.99892507132738
 11
3.960054785062284
 21
1.540850780301639E-10
 40
0.3939339440162633
 50
17.09539180608433
 51
320.0019657685079
 73
     0
 72
     1
 10
-0.7161163149004002
 20
-38.58681907591441
 11
1.589185558800638
 21
-36.65249236586649
 72
     3
 10
-2.399115970653842
 20
-39.99892507127625
 11
6.600054785286829
 21
-1.249000902703301E-13
 40
0.6363583540795982
 50
39.99873849337408
 51
368.4976242363725
 73
     1
 72
     1
 10
4.026216521246767
 20
-39.03892507120613
 11
-3.71904866381792
 21
-39.0389250712061
 72
     1
 10
-3.71904866381792
 20
-39.0389250712061
 11
-3.719073708263854
 21
-40.95892507120602
 72
     1
 10
-3.719073708263854
 20
-40.95892507120602
 11
0.7223060612081831
 21
-40.95892507120599
 97
        0
 75
     0
 76
     1
 98
        1
 10
0.0
 20
0.0
  0
DIMENSION
  5
FF
330
1F
100
AcDbEntity
  8
치수문자_일반주서
100
AcDbDimension
  2
_D
 10
-194.6289061313234
 20
-10.04410841133897
 30
0.0
 11
-194.6289061313234
 21
-0.0441084113389399
 31
0.0
 70
   160
  1
%%c<>
 71
     2
 42
19.99999999999996
 52
-270.0
  3
SLDDIMSTYLE0
100
AcDbAlignedDimension
 13
-175.9999999999999
 23
9.955891588661059
 33
0.0
 14
-175.9999999999999
 24
-10.0441084113389
 34
0.0
 50
90.0000000000002
100
AcDbRotatedDimension
  0
DIMENSION
  5
10D
330
1F
100
AcDbEntity
  8
치수문자_일반주서
100
AcDbDimension
  2
_D_1
 10
132.0
 20
-10.04410841133889
 30
0.0
 11
131.9999999999999
 21
1.274753088853064
 31
0.0
 70
   160
  1
%%c<>
 71
     2
 42
20.0
 52
-270.0
  3
SLDDIMSTYLE0
100
AcDbAlignedDimension
 13
122.0000000000001
 23
9.95589158866108
 33
0.0
 14
122.0000000000001
 24
-10.04410841133892
 34
0.0
 50
90.0000000000002
100
AcDbRotatedDimension
  0
DIMENSION
  5
11A
330
1F
100
AcDbEntity
  8
치수문자_일반주서
100
AcDbDimension
  2
_D_2
 10
122.0000000000001
 20
52.66805536462115
 30
0.0
 11
57.0174865405441
 21
52.66805536462115
 31
0.0
 70
   160
  1
<>
 71
     2
 42
110.0
  3
SLDDIMSTYLE1
100
AcDbAlignedDimension
 13
12.00000000000009
 23
9.173214745979337
 33
0.0
 14
122.0000000000001
 24
9.882917097704457
 34
0.0
 50
-0.0000000000000037
100
AcDbRotatedDimension
  0
DIMENSION
  5
125
330
1F
100
AcDbEntity
  8
치수문자_일반주서
100
AcDbDimension
  2
_D_3
 10
-177.9999999999999
 20
80.82759975857408
 30
0.0
 11
-18.70551040471835
 21
80.82759975857408
 31
0.0
 70
   160
  1
<>
 71
     2
 42
300.0
  3
SLDDIMSTYLE1
100
AcDbAlignedDimension
 13
122.0000000000001
 23
9.882917097704457
 33
0.0
 14
-177.9999999999999
 24
7.955891588661082
 34
0.0
 50
0.0000000000000054
100
AcDbRotatedDimension
  0
INSERT
  5
135
330
1F
100
AcDbEntity
  8
외형선
100
AcDbBlockReference
  2
SW_DOWELSYMBOL_0
 10
0.0
 20
0.0
 30
0.0
  0
ENDSEC
  0
SECTION
  2
OBJECTS
  0
DICTIONARY
  5
C
330
0
100
AcDbDictionary
281
     1
  3
ACAD_GROUP
350
D
  3
ACAD_IMAGE_VARS
350
159
  3
ACAD_LAYOUT
350
1A
  3
ACAD_MLINESTYLE
350
17
  3
ACAD_PLOTSETTINGS
350
19
  3
ACAD_PLOTSTYLENAME
350
E
  3
ACAD_SCALELIST
350
47
  3
APPDATA
350
157
  3
DWGPROPS
350
163
  0
DICTIONARY
  5
D
102
{ACAD_REACTORS
330
C
102
}
330
C
100
AcDbDictionary
281
     1
  0
RASTERVARIABLES
  5
159
102
{ACAD_REACTORS
330
C
102
}
330
C
100
AcDbRasterVariables
 90
        0
 70
     1
 71
     1
 72
     1
  0
DICTIONARY
  5
1A
102
{ACAD_REACTORS
330
C
102
}
330
C
100
AcDbDictionary
281
     1
  3
Layout1
350
1E
  3
Layout2
350
26
  3
Model
350
22
  0
DICTIONARY
  5
17
102
{ACAD_REACTORS
330
C
102
}
330
C
100
AcDbDictionary
281
     1
  3
Standard
350
18
  0
DICTIONARY
  5
19
102
{ACAD_REACTORS
330
C
102
}
330
C
100
AcDbDictionary
281
     1
  0
ACDBDICTIONARYWDFLT
  5
E
102
{ACAD_REACTORS
330
C
102
}
330
C
100
AcDbDictionary
281
     1
  3
Normal
350
F
100
AcDbDictionaryWithDefault
340
F
  0
DICTIONARY
  5
47
102
{ACAD_REACTORS
330
C
102
}
330
C
100
AcDbDictionary
281
     1
  3
A0
350
48
  3
A1
350
49
  3
A2
350
4A
  3
A3
350
4B
  3
A4
350
4C
  3
A5
350
4D
  3
A6
350
4E
  3
A7
350
4F
  3
A8
350
50
  3
A9
350
51
  3
B0
350
52
  3
B1
350
53
  3
B2
350
54
  3
B3
350
55
  3
B4
350
56
  3
B5
350
57
  3
B6
350
58
  3
B7
350
59
  3
B8
350
5A
  3
B9
350
5B
  3
C0
350
5C
  3
C1
350
5D
  3
C2
350
5E
  3
C3
350
5F
  3
C4
350
60
  3
C5
350
61
  3
C6
350
62
  3
C7
350
63
  3
C8
350
64
  3
C9
350
65
  3
D0
350
66
  3
D1
350
67
  3
D2
350
68
  0
DICTIONARY
  5
157
102
{ACAD_REACTORS
330
C
102
}
330
C
100
AcDbDictionary
281
     1
  0
XRECORD
  5
163
102
{ACAD_REACTORS
330
C
102
}
330
C
100
AcDbXrecord
280
     1
  1
DWGPROPS COOKIE
  2

  3

  4

  6

  7

  8
12016016
  9

300
=
301
=
302
=
303
=
304
=
305
=
306
=
307
=
308
=
309
=
 40
0.0
 41
2458268.39896647
 42
2458269.992726852
  1

 90
        0
  0
LAYOUT
  5
1E
102
{ACAD_REACTORS
330
1A
102
}
330
1A
100
AcDbPlotSettings
  1

  2
none_device
  4

  6

 40
0.0
 41
0.0
 42
0.0
 43
0.0
 44
0.0
 45
0.0
 46
0.0
 47
0.0
 48
0.0
 49
0.0
140
0.0
141
0.0
142
1.0
143
1.0
 70
   688
 72
     1
 73
     0
 74
     5
  7

 75
    16
147
1.0
148
0.0
149
0.0
100
AcDbLayout
  1
Layout1
 70
     1
 71
     1
 10
0.0
 20
0.0
 11
420.0
 21
297.0
 12
0.0
 22
0.0
 32
0.0
 14
1.000000000000000E+20
 24
1.000000000000000E+20
 34
1.000000000000000E+20
 15
-1.000000000000000E+20
 25
-1.000000000000000E+20
 35
-1.000000000000000E+20
146
0.0
 13
0.0
 23
0.0
 33
0.0
 16
1.0
 26
0.0
 36
0.0
 17
0.0
 27
1.0
 37
0.0
 76
     0
330
1B
  0
LAYOUT
  5
26
102
{ACAD_REACTORS
330
1A
102
}
330
1A
100
AcDbPlotSettings
  1

  2
none_device
  4

  6

 40
0.0
 41
0.0
 42
0.0
 43
0.0
 44
0.0
 45
0.0
 46
0.0
 47
0.0
 48
0.0
 49
0.0
140
0.0
141
0.0
142
1.0
143
1.0
 70
   688
 72
     1
 73
     0
 74
     5
  7

 75
    16
147
1.0
148
0.0
149
0.0
100
AcDbLayout
  1
Layout2
 70
     1
 71
     2
 10
0.0
 20
0.0
 11
0.0
 21
0.0
 12
0.0
 22
0.0
 32
0.0
 14
0.0
 24
0.0
 34
0.0
 15
0.0
 25
0.0
 35
0.0
146
0.0
 13
0.0
 23
0.0
 33
0.0
 16
1.0
 26
0.0
 36
0.0
 17
0.0
 27
1.0
 37
0.0
 76
     0
330
23
  0
LAYOUT
  5
22
102
{ACAD_REACTORS
330
1A
102
}
330
1A
100
AcDbPlotSettings
  1

  2
none_device
  4
ANSI_A_(11.00_x_8.50_Inches)
  6

 40
6.35
 41
19.05
 42
6.35000508
 43
19.05000254
 44
279.4
 45
215.9
 46
49.3306565415723
 47
74.46584669578343
 48
0.0
 49
0.0
140
0.0
141
0.0
142
0.0327820376558431
143
1.0
 70
  1696
 72
     0
 73
     0
 74
     0
  7

 75
     0
147
0.0235690232323232
148
0.0
149
0.0
100
AcDbLayout
  1
Model
 70
     1
 71
     0
 10
0.0
 20
0.0
 11
420.0
 21
297.0
 12
0.0
 22
0.0
 32
0.0
 14
-199.0039061313234
 24
-49.97073246008785
 34
0.0
 15
132.5503333333333
 25
85.20259975857408
 35
0.0
146
0.0
 13
0.0
 23
0.0
 33
0.0
 16
1.0
 26
0.0
 36
0.0
 17
0.0
 27
1.0
 37
0.0
 76
     0
330
1F
331
29
  0
MLINESTYLE
  5
18
102
{ACAD_REACTORS
330
17
102
}
330
17
100
AcDbMlineStyle
  2
Standard
 70
     0
  3

 62
   256
 51
90.0
 52
90.0
 71
     2
 49
0.5
 62
   256
  6
BYLAYER
 49
-0.5
 62
   256
  6
BYLAYER
  0
ACDBPLACEHOLDER
  5
F
102
{ACAD_REACTORS
330
E
102
}
330
E
  0
SCALE
  5
48
102
{ACAD_REACTORS
330
47
102
}
330
47
100
AcDbScale
 70
     0
300
1:1
140
1.0
141
1.0
290
     1
  0
SCALE
  5
49
102
{ACAD_REACTORS
330
47
102
}
330
47
100
AcDbScale
 70
     0
300
1:2
140
1.0
141
2.0
290
     0
  0
SCALE
  5
4A
102
{ACAD_REACTORS
330
47
102
}
330
47
100
AcDbScale
 70
     0
300
1:4
140
1.0
141
4.0
290
     0
  0
SCALE
  5
4B
102
{ACAD_REACTORS
330
47
102
}
330
47
100
AcDbScale
 70
     0
300
1:5
140
1.0
141
5.0
290
     0
  0
SCALE
  5
4C
102
{ACAD_REACTORS
330
47
102
}
330
47
100
AcDbScale
 70
     0
300
1:8
140
1.0
141
8.0
290
     0
  0
SCALE
  5
4D
102
{ACAD_REACTORS
330
47
102
}
330
47
100
AcDbScale
 70
     0
300
1:10
140
1.0
141
10.0
290
     0
  0
SCALE
  5
4E
102
{ACAD_REACTORS
330
47
102
}
330
47
100
AcDbScale
 70
     0
300
1:16
140
1.0
141
16.0
290
     0
  0
SCALE
  5
4F
102
{ACAD_REACTORS
330
47
102
}
330
47
100
AcDbScale
 70
     0
300
1:20
140
1.0
141
20.0
290
     0
  0
SCALE
  5
50
102
{ACAD_REACTORS
330
47
102
}
330
47
100
AcDbScale
 70
     0
300
1:30
140
1.0
141
30.0
290
     0
  0
SCALE
  5
51
102
{ACAD_REACTORS
330
47
102
}
330
47
100
AcDbScale
 70
     0
300
1:40
140
1.0
141
40.0
290
     0
  0
SCALE
  5
52
102
{ACAD_REACTORS
330
47
102
}
330
47
100
AcDbScale
 70
     0
300
1:50
140
1.0
141
50.0
290
     0
  0
SCALE
  5
53
102
{ACAD_REACTORS
330
47
102
}
330
47
100
AcDbScale
 70
     0
300
1:100
140
1.0
141
100.0
290
     0
  0
SCALE
  5
54
102
{ACAD_REACTORS
330
47
102
}
330
47
100
AcDbScale
 70
     0
300
2:1
140
2.0
141
1.0
290
     0
  0
SCALE
  5
55
102
{ACAD_REACTORS
330
47
102
}
330
47
100
AcDbScale
 70
     0
300
4:1
140
4.0
141
1.0
290
     0
  0
SCALE
  5
56
102
{ACAD_REACTORS
330
47
102
}
330
47
100
AcDbScale
 70
     0
300
8:1
140
8.0
141
1.0
290
     0
  0
SCALE
  5
57
102
{ACAD_REACTORS
330
47
102
}
330
47
100
AcDbScale
 70
     0
300
10:1
140
10.0
141
1.0
290
     0
  0
SCALE
  5
58
102
{ACAD_REACTORS
330
47
102
}
330
47
100
AcDbScale
 70
     0
300
100:1
140
100.0
141
1.0
290
     0
  0
SCALE
  5
59
102
{ACAD_REACTORS
330
47
102
}
330
47
100
AcDbScale
 70
     0
300
1/128" = 1'-0"
140
0.0078125
141
12.0
290
     0
  0
SCALE
  5
5A
102
{ACAD_REACTORS
330
47
102
}
330
47
100
AcDbScale
 70
     0
300
1/64" = 1'-0"
140
0.015625
141
12.0
290
     0
  0
SCALE
  5
5B
102
{ACAD_REACTORS
330
47
102
}
330
47
100
AcDbScale
 70
     0
300
1/32" = 1'-0"
140
0.03125
141
12.0
290
     0
  0
SCALE
  5
5C
102
{ACAD_REACTORS
330
47
102
}
330
47
100
AcDbScale
 70
     0
300
1/16" = 1'-0"
140
0.0625
141
12.0
290
     0
  0
SCALE
  5
5D
102
{ACAD_REACTORS
330
47
102
}
330
47
100
AcDbScale
 70
     0
300
3/32" = 1'-0"
140
0.09375
141
12.0
290
     0
  0
SCALE
  5
5E
102
{ACAD_REACTORS
330
47
102
}
330
47
100
AcDbScale
 70
     0
300
1/8" = 1'-0"
140
0.125
141
12.0
290
     0
  0
SCALE
  5
5F
102
{ACAD_REACTORS
330
47
102
}
330
47
100
AcDbScale
 70
     0
300
3/16" = 1'-0"
140
0.1875
141
12.0
290
     0
  0
SCALE
  5
60
102
{ACAD_REACTORS
330
47
102
}
330
47
100
AcDbScale
 70
     0
300
1/4" = 1'-0"
140
0.25
141
12.0
290
     0
  0
SCALE
  5
61
102
{ACAD_REACTORS
330
47
102
}
330
47
100
AcDbScale
 70
     0
300
3/8" = 1'-0"
140
0.375
141
12.0
290
     0
  0
SCALE
  5
62
102
{ACAD_REACTORS
330
47
102
}
330
47
100
AcDbScale
 70
     0
300
1/2" = 1'-0"
140
0.5
141
12.0
290
     0
  0
SCALE
  5
63
102
{ACAD_REACTORS
330
47
102
}
330
47
100
AcDbScale
 70
     0
300
3/4" = 1'-0"
140
0.75
141
12.0
290
     0
  0
SCALE
  5
64
102
{ACAD_REACTORS
330
47
102
}
330
47
100
AcDbScale
 70
     0
300
1" = 1'-0"
140
1.0
141
12.0
290
     0
  0
SCALE
  5
65
102
{ACAD_REACTORS
330
47
102
}
330
47
100
AcDbScale
 70
     0
300
1-1/2" = 1'-0"
140
1.5
141
12.0
290
     0
  0
SCALE
  5
66
102
{ACAD_REACTORS
330
47
102
}
330
47
100
AcDbScale
 70
     0
300
3" = 1'-0"
140
3.0
141
12.0
290
     0
  0
SCALE
  5
67
102
{ACAD_REACTORS
330
47
102
}
330
47
100
AcDbScale
 70
     0
300
6" = 1'-0"
140
6.0
141
12.0
290
     0
  0
SCALE
  5
68
102
{ACAD_REACTORS
330
47
102
}
330
47
100
AcDbScale
 70
     0
300
1'-0" = 1'-0"
140
12.0
141
12.0
290
     0
  0
ENDSEC
  0
EOF
