  0
SECTION
  2
HEADER
  9
$ACADVER
  1
AC1015
  9
$ACADMAINTVER
 70
     6
  9
$DWGCODEPAGE
  3
ANSI_949
  9
$INSBASE
 10
0.0
 20
0.0
 30
0.0
  9
$EXTMIN
 10
-149.0039061313235
 20
-49.97073246008785
 30
0.0
  9
$EXTMAX
 10
132.5503333333334
 20
85.20259975857482
 30
0.0
  9
$LIMMIN
 10
0.0
 20
0.0
  9
$LIMMAX
 10
420.0
 20
297.0
  9
$ORTHOMODE
 70
     1
  9
$REGENMODE
 70
     1
  9
$FILLMODE
 70
     1
  9
$QTEXTMODE
 70
     0
  9
$MIRRTEXT
 70
     1
  9
$LTSCALE
 40
1.0
  9
$ATTMODE
 70
     1
  9
$TEXTSIZE
 40
3.5
  9
$TRACEWID
 40
1.0
  9
$TEXTSTYLE
  7
Standard
  9
$CLAYER
  8
0
  9
$CELTYPE
  6
ByLayer
  9
$CECOLOR
 62
   256
  9
$CELTSCALE
 40
1.0
  9
$DISPSILH
 70
     0
  9
$DIMSCALE
 40
1.0
  9
$DIMASZ
 40
3.302
  9
$DIMEXO
 40
1.0
  9
$DIMDLI
 40
3.75
  9
$DIMRND
 40
0.0
  9
$DIMDLE
 40
0.0
  9
$DIMEXE
 40
1.0
  9
$DIMTP
 40
0.0
  9
$DIMTM
 40
0.0
  9
$DIMTXT
 40
3.5
  9
$DIMCEN
 40
2.5
  9
$DIMTSZ
 40
0.0
  9
$DIMTOL
 70
     0
  9
$DIMLIM
 70
     0
  9
$DIMTIH
 70
     1
  9
$DIMTOH
 70
     1
  9
$DIMSE1
 70
     0
  9
$DIMSE2
 70
     0
  9
$DIMTAD
 70
     1
  9
$DIMZIN
 70
     0
  9
$DIMBLK
  1

  9
$DIMASO
 70
     1
  9
$DIMSHO
 70
     1
  9
$DIMPOST
  1

  9
$DIMAPOST
  1

  9
$DIMALT
 70
     0
  9
$DIMALTD
 70
     3
  9
$DIMALTF
 40
0.0393700787401575
  9
$DIMLFAC
 40
1.0
  9
$DIMTOFL
 70
     1
  9
$DIMTVP
 40
0.0
  9
$DIMTIX
 70
     0
  9
$DIMSOXD
 70
     0
  9
$DIMSAH
 70
     0
  9
$DIMBLK1
  1

  9
$DIMBLK2
  1

  9
$DIMSTYLE
  2
ISO-25
  9
$DIMCLRD
 70
     0
  9
$DIMCLRE
 70
     0
  9
$DIMCLRT
 70
     0
  9
$DIMTFAC
 40
1.0
  9
$DIMGAP
 40
1.524
  9
$DIMJUST
 70
     0
  9
$DIMSD1
 70
     0
  9
$DIMSD2
 70
     0
  9
$DIMTOLJ
 70
     0
  9
$DIMTZIN
 70
     0
  9
$DIMALTZ
 70
     0
  9
$DIMALTTZ
 70
     0
  9
$DIMUPT
 70
     0
  9
$DIMDEC
 70
     2
  9
$DIMTDEC
 70
     2
  9
$DIMALTU
 70
     2
  9
$DIMALTTD
 70
     3
  9
$DIMTXSTY
  7
Standard
  9
$DIMAUNIT
 70
     0
  9
$DIMADEC
 70
     2
  9
$DIMALTRND
 40
0.0
  9
$DIMAZIN
 70
     0
  9
$DIMDSEP
 70
    44
  9
$DIMATFIT
 70
     3
  9
$DIMFRAC
 70
     0
  9
$DIMLDRBLK
  1

  9
$DIMLUNIT
 70
     2
  9
$DIMLWD
 70
    -2
  9
$DIMLWE
 70
    -2
  9
$DIMTMOVE
 70
     0
  9
$LUNITS
 70
     2
  9
$LUPREC
 70
     2
  9
$SKETCHINC
 40
1.0
  9
$FILLETRAD
 40
10.0
  9
$AUNITS
 70
     0
  9
$AUPREC
 70
     2
  9
$MENU
  1
.
  9
$ELEVATION
 40
0.0
  9
$PELEVATION
 40
0.0
  9
$THICKNESS
 40
0.0
  9
$LIMCHECK
 70
     0
  9
$CHAMFERA
 40
0.0
  9
$CHAMFERB
 40
0.0
  9
$CHAMFERC
 40
0.0
  9
$CHAMFERD
 40
0.0
  9
$SKPOLY
 70
     0
  9
$TDCREATE
 40
2458268.773778808
  9
$TDUCREATE
 40
2458268.398778808
  9
$TDUPDATE
 40
2458270.368528472
  9
$TDUUPDATE
 40
2458269.993528472
  9
$TDINDWG
 40
0.0007890625
  9
$TDUSRTIMER
 40
2458269.992739502
  9
$USRTIMER
 70
     1
  9
$ANGBASE
 50
0.0
  9
$ANGDIR
 70
     0
  9
$PDMODE
 70
     0
  9
$PDSIZE
 40
-1.0
  9
$PLINEWID
 40
0.0
  9
$SPLFRAME
 70
     0
  9
$SPLINETYPE
 70
     6
  9
$SPLINESEGS
 70
     8
  9
$HANDSEED
  5
156
  9
$SURFTAB1
 70
     6
  9
$SURFTAB2
 70
     6
  9
$SURFTYPE
 70
     6
  9
$SURFU
 70
     6
  9
$SURFV
 70
     6
  9
$UCSBASE
  2

  9
$UCSNAME
  2

  9
$UCSORG
 10
0.0
 20
0.0
 30
0.0
  9
$UCSXDIR
 10
1.0
 20
0.0
 30
0.0
  9
$UCSYDIR
 10
0.0
 20
1.0
 30
0.0
  9
$UCSORTHOREF
  2

  9
$UCSORTHOVIEW
 70
     0
  9
$UCSORGTOP
 10
0.0
 20
0.0
 30
0.0
  9
$UCSORGBOTTOM
 10
0.0
 20
0.0
 30
0.0
  9
$UCSORGLEFT
 10
0.0
 20
0.0
 30
0.0
  9
$UCSORGRIGHT
 10
0.0
 20
0.0
 30
0.0
  9
$UCSORGFRONT
 10
0.0
 20
0.0
 30
0.0
  9
$UCSORGBACK
 10
0.0
 20
0.0
 30
0.0
  9
$PUCSBASE
  2

  9
$PUCSNAME
  2

  9
$PUCSORG
 10
0.0
 20
0.0
 30
0.0
  9
$PUCSXDIR
 10
1.0
 20
0.0
 30
0.0
  9
$PUCSYDIR
 10
0.0
 20
1.0
 30
0.0
  9
$PUCSORTHOREF
  2

  9
$PUCSORTHOVIEW
 70
     0
  9
$PUCSORGTOP
 10
0.0
 20
0.0
 30
0.0
  9
$PUCSORGBOTTOM
 10
0.0
 20
0.0
 30
0.0
  9
$PUCSORGLEFT
 10
0.0
 20
0.0
 30
0.0
  9
$PUCSORGRIGHT
 10
0.0
 20
0.0
 30
0.0
  9
$PUCSORGFRONT
 10
0.0
 20
0.0
 30
0.0
  9
$PUCSORGBACK
 10
0.0
 20
0.0
 30
0.0
  9
$USERI1
 70
     0
  9
$USERI2
 70
     0
  9
$USERI3
 70
     0
  9
$USERI4
 70
     0
  9
$USERI5
 70
     0
  9
$USERR1
 40
0.0
  9
$USERR2
 40
0.0
  9
$USERR3
 40
0.0
  9
$USERR4
 40
0.0
  9
$USERR5
 40
0.0
  9
$WORLDVIEW
 70
     1
  9
$SHADEDGE
 70
     3
  9
$SHADEDIF
 70
    70
  9
$TILEMODE
 70
     1
  9
$MAXACTVP
 70
    64
  9
$PINSBASE
 10
0.0
 20
0.0
 30
0.0
  9
$PLIMCHECK
 70
     0
  9
$PEXTMIN
 10
1.000000000000000E+20
 20
1.000000000000000E+20
 30
1.000000000000000E+20
  9
$PEXTMAX
 10
-1.000000000000000E+20
 20
-1.000000000000000E+20
 30
-1.000000000000000E+20
  9
$PLIMMIN
 10
0.0
 20
0.0
  9
$PLIMMAX
 10
0.0
 20
0.0
  9
$UNITMODE
 70
     0
  9
$VISRETAIN
 70
     1
  9
$PLINEGEN
 70
     0
  9
$PSLTSCALE
 70
     1
  9
$TREEDEPTH
 70
  3020
  9
$CMLSTYLE
  2
Standard
  9
$CMLJUST
 70
     0
  9
$CMLSCALE
 40
20.0
  9
$PROXYGRAPHICS
 70
     1
  9
$MEASUREMENT
 70
     1
  9
$CELWEIGHT
370
    -1
  9
$ENDCAPS
280
     0
  9
$JOINSTYLE
280
     0
  9
$LWDISPLAY
290
     1
  9
$INSUNITS
 70
     4
  9
$HYPERLINKBASE
  1

  9
$STYLESHEET
  1

  9
$XEDIT
290
     1
  9
$CEPSNTYPE
380
     0
  9
$PSTYLEMODE
290
     1
  9
$FINGERPRINTGUID
  2
{8BE39061-AFBF-4D4D-A65F-EC8B7F724F27}
  9
$VERSIONGUID
  2
{FAEB1C32-E019-11D5-929B-00C0DF256EC4}
  9
$EXTNAMES
290
     1
  9
$PSVPSCALE
 40
0.0
  9
$OLESTARTUP
290
     0
  0
ENDSEC
  0
SECTION
  2
CLASSES
  0
CLASS
  1
ACDBDICTIONARYWDFLT
  2
AcDbDictionaryWithDefault
  3
ObjectDBX Classes
 90
        0
280
     0
281
     0
  0
CLASS
  1
VISUALSTYLE
  2
AcDbVisualStyle
  3
ObjectDBX Classes
 90
     4095
280
     0
281
     0
  0
CLASS
  1
MATERIAL
  2
AcDbMaterial
  3
ObjectDBX Classes
 90
     1153
280
     0
281
     0
  0
CLASS
  1
SCALE
  2
AcDbScale
  3
ObjectDBX Classes
 90
     1153
280
     0
281
     0
  0
CLASS
  1
SUN
  2
AcDbSun
  3
SCENEOE
 90
     1153
280
     0
281
     0
  0
CLASS
  1
ACDBPLACEHOLDER
  2
AcDbPlaceHolder
  3
ObjectDBX Classes
 90
        0
280
     0
281
     0
  0
CLASS
  1
LAYOUT
  2
AcDbLayout
  3
ObjectDBX Classes
 90
        0
280
     0
281
     0
  0
CLASS
  1
TABLESTYLE
  2
AcDbTableStyle
  3
ObjectDBX Classes
 90
     4095
280
     0
281
     0
  0
CLASS
  1
MLEADERSTYLE
  2
AcDbMLeaderStyle
  3
ACDB_MLEADERSTYLE_CLASS
 90
     4095
280
     0
281
     0
  0
CLASS
  1
RASTERVARIABLES
  2
AcDbRasterVariables
  3
ISM
 90
        0
280
     0
281
     0
  0
ENDSEC
  0
SECTION
  2
TABLES
  0
TABLE
  2
VPORT
  5
8
330
0
100
AcDbSymbolTable
 70
     1
  0
VPORT
  5
29
330
8
100
AcDbSymbolTableRecord
100
AcDbViewportTableRecord
  2
*Active
 70
     0
 10
0.0
 20
0.0
 11
1.0
 21
1.0
 12
139.9027977827869
 22
-20.19938544912959
 13
0.0
 23
0.0
 14
10.0
 24
10.0
 15
10.0
 25
10.0
 16
0.0
 26
0.0
 36
1.0
 17
0.0
 27
0.0
 37
0.0
 40
276.3560236676144
 41
1.627413127413127
 42
50.0
 43
0.0
 44
0.0
 50
0.0
 51
0.0
 71
    16
 72
  2000
 73
     1
 74
     3
 75
     0
 76
     0
 77
     0
 78
     0
281
     0
 65
     1
110
0.0
120
0.0
130
0.0
111
1.0
121
0.0
131
0.0
112
0.0
122
1.0
132
0.0
 79
     0
146
0.0
  0
ENDTAB
  0
TABLE
  2
LTYPE
  5
5
330
0
100
AcDbSymbolTable
 70
     6
  0
LTYPE
  5
14
330
5
100
AcDbSymbolTableRecord
100
AcDbLinetypeTableRecord
  2
ByBlock
 70
     0
  3

 72
    65
 73
     0
 40
0.0
  0
LTYPE
  5
15
330
5
100
AcDbSymbolTableRecord
100
AcDbLinetypeTableRecord
  2
ByLayer
 70
     0
  3

 72
    65
 73
     0
 40
0.0
  0
LTYPE
  5
16
330
5
100
AcDbSymbolTableRecord
100
AcDbLinetypeTableRecord
  2
Continuous
 70
     0
  3
Solid line
 72
    65
 73
     0
 40
0.0
  0
LTYPE
  5
6A
330
5
100
AcDbSymbolTableRecord
100
AcDbLinetypeTableRecord
  2
HIDDEN
 70
     0
  3
Hidden __ __ __ __ __ __ __ __ __ __ __ __ __ __
 72
    65
 73
     2
 40
1.905
 49
1.27
 74
     0
 49
-0.635
 74
     0
  0
LTYPE
  5
6B
330
5
100
AcDbSymbolTableRecord
100
AcDbLinetypeTableRecord
  2
PHANTOM
 70
     0
  3
Phantom ______  __  __  ______  __  __  ______
 72
    65
 73
     6
 40
12.7
 49
6.35
 74
     0
 49
-1.27
 74
     0
 49
1.27
 74
     0
 49
-1.27
 74
     0
 49
1.27
 74
     0
 49
-1.27
 74
     0
  0
LTYPE
  5
6C
330
5
100
AcDbSymbolTableRecord
100
AcDbLinetypeTableRecord
  2
CENTER
 70
     0
  3
Center ____ _ ____ _ ____ _ ____ _ ____ _ ____
 72
    65
 73
     4
 40
10.16
 49
6.35
 74
     0
 49
-1.27
 74
     0
 49
1.27
 74
     0
 49
-1.27
 74
     0
  0
LTYPE
  5
6D
330
5
100
AcDbSymbolTableRecord
100
AcDbLinetypeTableRecord
  2
CENTERX2
 70
     0
  3
Center (2x) ________  __  ________  __  _____
 72
    65
 73
     4
 40
20.32
 49
12.7
 74
     0
 49
-2.54
 74
     0
 49
2.54
 74
     0
 49
-2.54
 74
     0
  0
LTYPE
  5
6E
330
5
100
AcDbSymbolTableRecord
100
AcDbLinetypeTableRecord
  2
DOT2
 70
     0
  3
Dot (.5x) ........................................
 72
    65
 73
     2
 40
0.635
 49
0.0
 74
     0
 49
-0.635
 74
     0
  0
ENDTAB
  0
TABLE
  2
LAYER
  5
2
330
0
100
AcDbSymbolTable
 70
    17
  0
LAYER
  5
10
330
2
100
AcDbSymbolTableRecord
100
AcDbLayerTableRecord
  2
0
 70
     0
 62
     7
  6
Continuous
370
    -3
390
F
  0
LAYER
  5
6F
330
2
100
AcDbSymbolTableRecord
100
AcDbLayerTableRecord
  2
FORMAT
 70
     0
 62
     2
  6
Continuous
370
    -3
390
F
  0
LAYER
  5
70
330
2
100
AcDbSymbolTableRecord
100
AcDbLayerTableRecord
  2
외형선
 70
     0
 62
   100
  6
Continuous
370
    30
390
F
  0
LAYER
  5
71
330
2
100
AcDbSymbolTableRecord
100
AcDbLayerTableRecord
  2
숨은선
 70
     0
 62
     2
  6
HIDDEN
370
    15
390
F
  0
LAYER
  5
72
330
2
100
AcDbSymbolTableRecord
100
AcDbLayerTableRecord
  2
중심선
 70
     0
 62
     1
  6
CENTERX2
370
    -3
390
F
  0
LAYER
  5
73
330
2
100
AcDbSymbolTableRecord
100
AcDbLayerTableRecord
  2
파단선
 70
     0
 62
     4
  6
Continuous
370
    -3
390
F
  0
LAYER
  5
74
330
2
100
AcDbSymbolTableRecord
100
AcDbLayerTableRecord
  2
해칭선
 70
     0
 62
     4
  6
Continuous
370
    -3
390
F
  0
LAYER
  5
75
330
2
100
AcDbSymbolTableRecord
100
AcDbLayerTableRecord
  2
가는실선
 70
     0
 62
     4
  6
Continuous
370
    -3
390
F
  0
LAYER
  5
76
330
2
100
AcDbSymbolTableRecord
100
AcDbLayerTableRecord
  2
치수_보조선
 70
     0
 62
     4
  6
Continuous
370
    -3
390
F
  0
LAYER
  5
77
330
2
100
AcDbSymbolTableRecord
100
AcDbLayerTableRecord
  2
치수문자_일반주서
 70
     0
 62
     7
  6
Continuous
370
    15
390
F
  0
LAYER
  5
78
330
2
100
AcDbSymbolTableRecord
100
AcDbLayerTableRecord
  2
개별주서
 70
     0
 62
   100
  6
Continuous
370
    30
390
F
  0
LAYER
  5
79
330
2
100
AcDbSymbolTableRecord
100
AcDbLayerTableRecord
  2
중간선
 70
     0
 62
     2
  6
Continuous
370
    15
390
F
  0
LAYER
  5
7A
330
2
100
AcDbSymbolTableRecord
100
AcDbLayerTableRecord
  2
윤곽선
 70
     0
 62
     3
  6
Continuous
370
    40
390
F
  0
LAYER
  5
7B
330
2
100
AcDbSymbolTableRecord
100
AcDbLayerTableRecord
  2
중심마크
 70
     0
 62
   100
  6
Continuous
370
    30
390
F
  0
LAYER
  5
7C
330
2
100
AcDbSymbolTableRecord
100
AcDbLayerTableRecord
  2
가상선
 70
     0
 62
     4
  6
PHANTOM
370
    -3
390
F
  0
LAYER
  5
7D
330
2
100
AcDbSymbolTableRecord
100
AcDbLayerTableRecord
  2
특수지정선
 70
     0
 62
     5
  6
CENTERX2
370
    60
390
F
  0
LAYER
  5
14D
330
2
100
AcDbSymbolTableRecord
100
AcDbLayerTableRecord
  2
Defpoints
 70
     0
 62
     7
  6
Continuous
290
     0
370
    -3
390
F
  0
ENDTAB
  0
TABLE
  2
STYLE
  5
3
330
0
100
AcDbSymbolTable
 70
     2
  0
STYLE
  5
11
330
3
100
AcDbSymbolTableRecord
100
AcDbTextStyleTableRecord
  2
Standard
 70
     0
 40
0.0
 41
1.0
 50
0.0
 71
     0
 42
3.5
  3
txt
  4

  0
STYLE
  5
93
330
3
100
AcDbSymbolTableRecord
100
AcDbTextStyleTableRecord
  2
SLDTEXTSTYLE0
 70
     0
 40
0.0
 41
0.75
 50
0.0
 71
     0
 42
3.5
  3
TXT
  4

  0
ENDTAB
  0
TABLE
  2
VIEW
  5
6
330
0
100
AcDbSymbolTable
 70
     0
  0
ENDTAB
  0
TABLE
  2
UCS
  5
7
330
0
100
AcDbSymbolTable
 70
     0
  0
ENDTAB
  0
TABLE
  2
APPID
  5
9
330
0
100
AcDbSymbolTable
 70
     1
  0
APPID
  5
12
330
9
100
AcDbSymbolTableRecord
100
AcDbRegAppTableRecord
  2
ACAD
 70
     0
  0
ENDTAB
  0
TABLE
  2
DIMSTYLE
  5
A
330
0
100
AcDbSymbolTable
 70
     3
100
AcDbDimStyleTable
  0
DIMSTYLE
105
27
330
A
100
AcDbSymbolTableRecord
100
AcDbDimStyleTableRecord
  2
ISO-25
 70
     0
 41
2.5
 42
0.625
 43
3.75
 44
1.25
 73
     0
 74
     0
 77
     1
 78
     8
140
2.5
141
2.5
143
0.03937007874016
147
0.625
171
     3
172
     1
178
     0
271
     2
272
     2
274
     3
278
    44
283
     0
284
     8
340
11
  0
DIMSTYLE
105
F3
102
{ACAD_REACTORS
330
F2
330
100
102
}
330
A
100
AcDbSymbolTableRecord
100
AcDbDimStyleTableRecord
  2
SLDDIMSTYLE0
 70
     0
 41
3.302
 44
0.0
 45
0.000000001
 73
     0
 74
     0
 77
     1
 78
    12
 79
     3
140
3.5
147
0.875
172
     1
173
     1
178
     0
271
     2
272
     2
276
     2
284
    12
289
     0
340
93
  0
DIMSTYLE
105
10E
102
{ACAD_REACTORS
330
10D
330
118
102
}
330
A
100
AcDbSymbolTableRecord
100
AcDbDimStyleTableRecord
  2
SLDDIMSTYLE1
 70
     0
 41
3.302
 44
0.0
 45
0.000000001
 73
     0
 74
     0
 77
     1
 78
    12
 79
     3
140
3.5
147
0.875
173
     1
178
     0
271
     2
272
     2
276
     2
284
    12
340
93
  0
ENDTAB
  0
TABLE
  2
BLOCK_RECORD
  5
1
330
0
100
AcDbSymbolTable
 70
     7
  0
BLOCK_RECORD
  5
1F
330
1
100
AcDbSymbolTableRecord
100
AcDbBlockTableRecord
  2
*Model_Space
340
22
  0
BLOCK_RECORD
  5
1B
330
1
100
AcDbSymbolTableRecord
100
AcDbBlockTableRecord
  2
*Paper_Space
340
1E
  0
BLOCK_RECORD
  5
23
330
1
100
AcDbSymbolTableRecord
100
AcDbBlockTableRecord
  2
*Paper_Space0
340
26
  0
BLOCK_RECORD
  5
7E
330
1
100
AcDbSymbolTableRecord
100
AcDbBlockTableRecord
  2
블럭10
340
0
102
{BLKREFS
331
EB
102
}
  0
BLOCK_RECORD
  5
F4
330
1
100
AcDbSymbolTableRecord
100
AcDbBlockTableRecord
  2
_D
340
0
  0
BLOCK_RECORD
  5
101
330
1
100
AcDbSymbolTableRecord
100
AcDbBlockTableRecord
  2
_D_1
340
0
  0
BLOCK_RECORD
  5
10F
330
1
100
AcDbSymbolTableRecord
100
AcDbBlockTableRecord
  2
_D_2
340
0
  0
BLOCK_RECORD
  5
119
330
1
100
AcDbSymbolTableRecord
100
AcDbBlockTableRecord
  2
_D_3
340
0
  0
BLOCK_RECORD
  5
122
330
1
100
AcDbSymbolTableRecord
100
AcDbBlockTableRecord
  2
SW_DOWELSYMBOL_0
340
0
102
{BLKREFS
331
128
102
}
  0
ENDTAB
  0
ENDSEC
  0
SECTION
  2
BLOCKS
  0
BLOCK
  5
20
330
1F
100
AcDbEntity
  8
0
100
AcDbBlockBegin
  2
*Model_Space
 70
     0
 10
0.0
 20
0.0
 30
0.0
  3
*Model_Space
  1
*Model_Space
  0
ENDBLK
  5
21
330
1F
100
AcDbEntity
  8
0
100
AcDbBlockEnd
  0
BLOCK
  5
1C
330
1B
100
AcDbEntity
 67
     1
  8
0
100
AcDbBlockBegin
  2
*Paper_Space
 70
     0
 10
0.0
 20
0.0
 30
0.0
  3
*Paper_Space
  1
*Paper_Space
  0
ENDBLK
  5
1D
330
1B
100
AcDbEntity
 67
     1
  8
0
100
AcDbBlockEnd
  0
BLOCK
  5
24
330
23
100
AcDbEntity
  8
0
100
AcDbBlockBegin
  2
*Paper_Space0
 70
     0
 10
0.0
 20
0.0
 30
0.0
  3
*Paper_Space0
  1
*Paper_Space0
  0
ENDBLK
  5
25
330
23
100
AcDbEntity
  8
0
100
AcDbBlockEnd
  0
BLOCK
  5
7F
330
7E
100
AcDbEntity
  8
0
100
AcDbBlockBegin
  2
블럭10
 70
     2
 10
0.0
 20
0.0
 30
0.0
  3
블럭10
  1
블럭10
  0
ELLIPSE
  5
81
330
7E
100
AcDbEntity
  8
중심선
100
AcDbEllipse
 10
20.54032771741204
 20
12.0471743016438
 30
0.0
 11
6.600054785286829
 21
-1.261213355974178E-13
 31
0.0
210
0.0
220
0.0
230
1.0
 40
0.636358354079598
 41
0.9219305317359503
 42
6.513795318482858
  0
ELLIPSE
  5
82
330
7E
100
AcDbEntity
  8
중심선
100
AcDbEllipse
 10
20.54032771746488
 20
12.04717430159265
 30
0.0
 11
3.960054785062283
 21
1.540847449632565E-10
 31
0.0
210
0.0
220
0.0
230
1.0
 40
0.3939339440162632
 41
1.131841032648279
 42
5.62031148352944
  0
LINE
  5
83
330
7E
100
AcDbEntity
  8
중심선
100
AcDbLine
 10
2.268634060543552
 20
16.24717430164393
 30
0.0
 11
5.714909304380834
 21
16.24717430164393
 31
0.0
  0
LINE
  5
84
330
7E
100
AcDbEntity
  8
중심선
100
AcDbLine
 10
5.245725140726316
 20
7.84717430164391
 30
0.0
 11
8.692000384563599
 21
7.84717430164391
 31
0.0
  0
LINE
  5
85
330
7E
100
AcDbEntity
  8
중심선
100
AcDbLine
 10
15.74043728645272
 20
16.24717430164393
 30
0.0
 11
8.692000384563599
 21
7.84717430164391
 31
0.0
  0
LINE
  5
86
330
7E
100
AcDbEntity
  8
중심선
100
AcDbLine
 10
0.1404042013395286
 20
13.71084872107135
 30
0.0
 11
3.58671253028996
 21
13.71088815037384
 31
0.0
  0
LINE
  5
87
330
7E
100
AcDbEntity
  8
중심선
100
AcDbLine
 10
2.750260043222114
 20
10.84717430164391
 30
0.0
 11
6.196535287059397
 21
10.84717430164391
 31
0.0
  0
LINE
  5
88
330
7E
100
AcDbEntity
  8
중심선
100
AcDbLine
 10
12.29416204261559
 20
16.24717430164393
 30
0.0
 11
5.245725140726316
 21
7.84717430164391
 31
0.0
  0
LINE
  5
89
330
7E
100
AcDbEntity
  8
중심선
100
AcDbLine
 10
10.72767329541681
 20
16.24717430164393
 30
0.0
 11
6.196535287059397
 21
10.84717430164391
 31
0.0
  0
LINE
  5
8A
330
7E
100
AcDbEntity
  8
중심선
100
AcDbLine
 10
7.28139805157953
 20
16.24717430164393
 30
0.0
 11
2.750260043222114
 21
10.84717430164391
 31
0.0
  0
LINE
  5
8B
330
7E
100
AcDbEntity
  8
중심선
100
AcDbLine
 10
5.714909304380834
 20
16.24717430164393
 30
0.0
 11
3.58671253028996
 21
13.71088815037384
 31
0.0
  0
LINE
  5
8C
330
7E
100
AcDbEntity
  8
중심선
100
AcDbLine
 10
2.268634060543552
 20
16.24717430164393
 30
0.0
 11
0.1404042013395286
 21
13.71084872107135
 31
0.0
  0
LINE
  5
8D
330
7E
100
AcDbEntity
  8
중심선
100
AcDbLine
 10
7.28139805157953
 20
16.24717430164393
 30
0.0
 11
10.72767329541681
 21
16.24717430164393
 31
0.0
  0
LINE
  5
8E
330
7E
100
AcDbEntity
  8
중심선
100
AcDbLine
 10
12.29416204261559
 20
16.24717430164393
 30
0.0
 11
15.74043728645272
 21
16.24717430164393
 31
0.0
  0
LINE
  5
8F
330
7E
100
AcDbEntity
  8
중심선
100
AcDbLine
 10
19.22036997980202
 20
11.08717430171403
 30
0.0
 11
23.66174974927406
 21
11.08717430171406
 31
0.0
  0
LINE
  5
90
330
7E
100
AcDbEntity
  8
중심선
100
AcDbLine
 10
19.22039502424796
 20
13.00717430171391
 30
0.0
 11
19.22036997980202
 21
11.08717430171403
 31
0.0
  0
LINE
  5
91
330
7E
100
AcDbEntity
  8
중심선
100
AcDbLine
 10
19.22039502424796
 20
13.00717430171391
 30
0.0
 11
26.96566020931264
 21
13.00717430171391
 31
0.0
  0
LINE
  5
92
330
7E
100
AcDbEntity
  8
중심선
100
AcDbLine
 10
22.22332737316547
 20
13.45928029700563
 30
0.0
 11
24.52862924686651
 21
15.39360700705356
 31
0.0
  0
ATTDEF
  5
94
330
7E
100
AcDbEntity
  8
FORMAT
 62
     2
100
AcDbText
 10
-22.43790845388143
 20
2.075366912832191
 30
0.0
 40
4.233333333333333
  1
SEME75200110250E [ 6 FLUTE ]
 41
0.75
  7
SLDTEXTSTYLE0
 11
-22.43790845388143
 21
-0.0412997538344756
 31
0.0
100
AcDbAttributeDefinition
  3

  2
AUTOATTR0
 70
     0
 74
     1
  0
ENDBLK
  5
80
330
7E
100
AcDbEntity
  8
0
100
AcDbBlockEnd
  0
BLOCK
  5
F5
330
F4
100
AcDbEntity
  8
0
100
AcDbBlockBegin
  2
_D
 70
     0
 10
0.0
 20
0.0
 30
0.0
  3
_D
  1
_D
  0
LINE
  5
F7
330
F4
100
AcDbEntity
  8
치수문자_일반주서
 62
     0
370
    -2
100
AcDbLine
 10
-126.0625
 20
9.955891588661794
 30
0.0
 11
-144.6289061313235
 21
9.955891588661721
 31
0.0
  0
LINE
  5
F8
330
F4
100
AcDbEntity
  8
치수문자_일반주서
 62
     0
370
    -2
100
AcDbLine
 10
-126.0625
 20
-10.04410841133817
 30
0.0
 11
-144.6289061313234
 21
-10.04410841133824
 31
0.0
  0
LINE
  5
F9
330
F4
100
AcDbEntity
  8
치수문자_일반주서
 62
     0
370
    -2
100
AcDbLine
 10
-144.6289061313235
 20
6.653891588661722
 30
0.0
 11
-144.6289061313234
 21
-6.74210841133824
 31
0.0
  0
SOLID
  5
FA
330
F4
100
AcDbEntity
  8
치수문자_일반주서
 62
     0
100
AcDbTrace
 10
-144.0785727979901
 20
6.653891588661724
 30
0.0
 11
-145.1792394646568
 21
6.65389158866172
 31
0.0
 12
-144.6289061313235
 22
9.955891588661721
 32
0.0
 13
-144.6289061313235
 23
9.955891588661721
 33
0.0
  0
SOLID
  5
FB
330
F4
100
AcDbEntity
  8
치수문자_일반주서
 62
     0
100
AcDbTrace
 10
-145.1792394646567
 20
-6.742108411338242
 30
0.0
 11
-144.0785727979901
 21
-6.742108411338238
 31
0.0
 12
-144.6289061313234
 22
-10.04410841133824
 32
0.0
 13
-144.6289061313234
 23
-10.04410841133824
 33
0.0
  0
MTEXT
  5
FC
330
F4
100
AcDbEntity
  8
치수문자_일반주서
 62
     0
100
AcDbMText
 10
-149.0039061313234
 20
-0.0441084113382169
 30
0.0
 40
3.5
 41
0.0
 71
     2
 72
     1
  1
\A1;%%c20
  7
SLDTEXTSTYLE0
 11
-2.842170943040407E-15
 21
1.0
 31
0.0
 73
     1
 44
1.0
  0
POINT
  5
FD
330
F4
100
AcDbEntity
  8
Defpoints
 62
     0
100
AcDbPoint
 10
-126.0
 20
9.955891588661794
 30
0.0
  0
POINT
  5
FE
330
F4
100
AcDbEntity
  8
Defpoints
 62
     0
100
AcDbPoint
 10
-126.0
 20
-10.04410841133817
 30
0.0
  0
POINT
  5
FF
330
F4
100
AcDbEntity
  8
Defpoints
 62
     0
100
AcDbPoint
 10
-144.6289061313234
 20
-10.04410841133824
 30
0.0
  0
ENDBLK
  5
F6
330
F4
100
AcDbEntity
  8
0
100
AcDbBlockEnd
  0
BLOCK
  5
102
330
101
100
AcDbEntity
  8
0
100
AcDbBlockBegin
  2
_D_1
 70
     0
 10
0.0
 20
0.0
 30
0.0
  3
_D_1
  1
_D_1
  0
LINE
  5
104
330
101
100
AcDbEntity
  8
치수문자_일반주서
 62
     0
370
    -2
100
AcDbLine
 10
122.0625
 20
9.955891588661816
 30
0.0
 11
132.0
 21
9.955891588661853
 31
0.0
  0
LINE
  5
105
330
101
100
AcDbEntity
  8
치수문자_일반주서
 62
     0
370
    -2
100
AcDbLine
 10
122.0625
 20
-10.04410841133819
 30
0.0
 11
132.0
 21
-10.04410841133815
 31
0.0
  0
LINE
  5
106
330
101
100
AcDbEntity
  8
치수문자_일반주서
 62
     0
370
    -2
100
AcDbLine
 10
132.0
 20
6.653891588661853
 30
0.0
 11
132.0
 21
-6.742108411338151
 31
0.0
  0
SOLID
  5
107
330
101
100
AcDbEntity
  8
치수문자_일반주서
 62
     0
100
AcDbTrace
 10
132.5503333333333
 20
6.653891588661855
 30
0.0
 11
131.4496666666666
 21
6.653891588661851
 31
0.0
 12
132.0
 22
9.955891588661853
 32
0.0
 13
132.0
 23
9.955891588661853
 33
0.0
  0
SOLID
  5
108
330
101
100
AcDbEntity
  8
치수문자_일반주서
 62
     0
100
AcDbTrace
 10
131.4496666666667
 20
-6.742108411338153
 30
0.0
 11
132.5503333333334
 21
-6.742108411338149
 31
0.0
 12
132.0
 22
-10.04410841133815
 32
0.0
 13
132.0
 23
-10.04410841133815
 33
0.0
  0
MTEXT
  5
109
330
101
100
AcDbEntity
  8
치수문자_일반주서
 62
     0
100
AcDbMText
 10
127.625
 20
1.274753088853787
 30
0.0
 40
3.5
 41
0.0
 71
     2
 72
     1
  1
\A1;%%c20
  7
SLDTEXTSTYLE0
 11
-2.842170943040400E-15
 21
1.0
 31
0.0
 73
     1
 44
1.0
  0
POINT
  5
10A
330
101
100
AcDbEntity
  8
Defpoints
 62
     0
100
AcDbPoint
 10
122.0
 20
9.955891588661816
 30
0.0
  0
POINT
  5
10B
330
101
100
AcDbEntity
  8
Defpoints
 62
     0
100
AcDbPoint
 10
122.0
 20
-10.04410841133819
 30
0.0
  0
POINT
  5
10C
330
101
100
AcDbEntity
  8
Defpoints
 62
     0
100
AcDbPoint
 10
132.0
 20
-10.04410841133815
 30
0.0
  0
ENDBLK
  5
103
330
101
100
AcDbEntity
  8
0
100
AcDbBlockEnd
  0
BLOCK
  5
110
330
10F
100
AcDbEntity
  8
0
100
AcDbBlockBegin
  2
_D_2
 70
     0
 10
0.0
 20
0.0
 30
0.0
  3
_D_2
  1
_D_2
  0
LINE
  5
112
330
10F
100
AcDbEntity
  8
치수문자_일반주서
 62
     0
370
    -2
100
AcDbLine
 10
12.00000000000003
 20
9.235714745980072
 30
0.0
 11
12.00000000000003
 21
52.66805536462188
 31
0.0
  0
LINE
  5
113
330
10F
100
AcDbEntity
  8
치수문자_일반주서
 62
     0
370
    -2
100
AcDbLine
 10
122.0
 20
9.945417097705192
 30
0.0
 11
122.0
 21
52.66805536462188
 31
0.0
  0
LINE
  5
114
330
10F
100
AcDbEntity
  8
치수문자_일반주서
 62
     0
370
    -2
100
AcDbLine
 10
15.30200000000003
 20
52.66805536462188
 30
0.0
 11
118.698
 21
52.66805536462188
 31
0.0
  0
SOLID
  5
115
330
10F
100
AcDbEntity
  8
치수문자_일반주서
 62
     0
100
AcDbTrace
 10
15.30200000000003
 20
53.21838869795521
 30
0.0
 11
15.30200000000003
 21
52.11772203128854
 31
0.0
 12
12.00000000000003
 22
52.66805536462188
 32
0.0
 13
12.00000000000003
 23
52.66805536462188
 33
0.0
  0
SOLID
  5
116
330
10F
100
AcDbEntity
  8
치수문자_일반주서
 62
     0
100
AcDbTrace
 10
118.698
 20
52.11772203128854
 30
0.0
 11
118.698
 21
53.21838869795521
 31
0.0
 12
122.0
 22
52.66805536462188
 32
0.0
 13
122.0
 23
52.66805536462188
 33
0.0
  0
MTEXT
  5
117
330
10F
100
AcDbEntity
  8
치수문자_일반주서
 62
     0
100
AcDbMText
 10
57.01748654054406
 20
57.04305536462188
 30
0.0
 40
3.5
 41
0.0
 71
     2
 72
     1
  1
\A1;110
  7
SLDTEXTSTYLE0
 73
     1
 44
1.0
  0
POINT
  5
14F
330
10F
100
AcDbEntity
  8
Defpoints
 62
     0
100
AcDbPoint
 10
12.00000000000003
 20
9.173214745980072
 30
0.0
  0
POINT
  5
150
330
10F
100
AcDbEntity
  8
Defpoints
 62
     0
100
AcDbPoint
 10
122.0
 20
9.882917097705192
 30
0.0
  0
POINT
  5
151
330
10F
100
AcDbEntity
  8
Defpoints
 62
     0
100
AcDbPoint
 10
122.0
 20
52.66805536462187
 30
0.0
  0
ENDBLK
  5
111
330
10F
100
AcDbEntity
  8
0
100
AcDbBlockEnd
  0
BLOCK
  5
11A
330
119
100
AcDbEntity
  8
0
100
AcDbBlockBegin
  2
_D_3
 70
     0
 10
0.0
 20
0.0
 30
0.0
  3
_D_3
  1
_D_3
  0
LINE
  5
11C
330
119
100
AcDbEntity
  8
치수문자_일반주서
 62
     0
370
    -2
100
AcDbLine
 10
122.0
 20
9.945417097705192
 30
0.0
 11
122.0
 21
80.82759975857482
 31
0.0
  0
LINE
  5
11D
330
119
100
AcDbEntity
  8
치수문자_일반주서
 62
     0
370
    -2
100
AcDbLine
 10
-128.0
 20
8.018391588661817
 30
0.0
 11
-128.0
 21
80.82759975857482
 31
0.0
  0
LINE
  5
11E
330
119
100
AcDbEntity
  8
치수문자_일반주서
 62
     0
370
    -2
100
AcDbLine
 10
118.698
 20
80.82759975857482
 30
0.0
 11
-124.698
 21
80.82759975857482
 31
0.0
  0
SOLID
  5
11F
330
119
100
AcDbEntity
  8
치수문자_일반주서
 62
     0
100
AcDbTrace
 10
118.698
 20
80.27726642524149
 30
0.0
 11
118.698
 21
81.37793309190815
 31
0.0
 12
122.0
 22
80.82759975857482
 32
0.0
 13
122.0
 23
80.82759975857482
 33
0.0
  0
SOLID
  5
120
330
119
100
AcDbEntity
  8
치수문자_일반주서
 62
     0
100
AcDbTrace
 10
-124.698
 20
81.37793309190815
 30
0.0
 11
-124.698
 21
80.27726642524149
 31
0.0
 12
-128.0
 22
80.82759975857482
 32
0.0
 13
-128.0
 23
80.82759975857482
 33
0.0
  0
MTEXT
  5
121
330
119
100
AcDbEntity
  8
치수문자_일반주서
 62
     0
100
AcDbMText
 10
4.745407996067939
 20
85.20259975857482
 30
0.0
 40
3.5
 41
0.0
 71
     2
 72
     1
  1
\A1;250
  7
SLDTEXTSTYLE0
 73
     1
 44
1.0
  0
POINT
  5
152
330
119
100
AcDbEntity
  8
Defpoints
 62
     0
100
AcDbPoint
 10
122.0
 20
9.882917097705192
 30
0.0
  0
POINT
  5
153
330
119
100
AcDbEntity
  8
Defpoints
 62
     0
100
AcDbPoint
 10
-128.0
 20
7.955891588661817
 30
0.0
  0
POINT
  5
154
330
119
100
AcDbEntity
  8
Defpoints
 62
     0
100
AcDbPoint
 10
-128.0
 20
80.8275997585748
 30
0.0
  0
ENDBLK
  5
11B
330
119
100
AcDbEntity
  8
0
100
AcDbBlockEnd
  0
BLOCK
  5
123
330
122
100
AcDbEntity
  8
0
100
AcDbBlockBegin
  2
SW_DOWELSYMBOL_0
 70
     0
 10
0.0
 20
0.0
 30
0.0
  3
SW_DOWELSYMBOL_0
  1
SW_DOWELSYMBOL_0
  0
CIRCLE
  5
125
330
122
100
AcDbEntity
  8
외형선
 62
     0
100
AcDbCircle
 10
0.0
 20
0.0
 30
0.0
 40
3.000000000000008
  0
HATCH
  5
126
330
122
100
AcDbEntity
  8
0
  6
Continuous
 62
     0
370
    30
100
AcDbHatch
 10
0.0
 20
0.0
 30
0.0
210
0.0
220
0.0
230
1.0
  2
SOLID
 70
     1
 71
     0
 91
        1
 92
        0
 93
        3
 72
     2
 10
0.0
 20
0.0
 40
3.000000000000008
 50
0.0
 51
90.0
 73
     1
 72
     1
 10
0.0
 20
3.000000000000008
 11
0.0
 21
0.0
 72
     1
 10
0.0
 20
0.0
 11
3.000000000000003
 21
0.0
 97
        0
 75
     0
 76
     1
 98
        1
 10
0.0
 20
0.0
  0
HATCH
  5
127
330
122
100
AcDbEntity
  8
0
  6
Continuous
 62
     0
370
    30
100
AcDbHatch
 10
0.0
 20
0.0
 30
0.0
210
0.0
220
0.0
230
1.0
  2
SOLID
 70
     1
 71
     0
 91
        1
 92
        0
 93
        3
 72
     2
 10
0.0
 20
0.0
 40
3.000000000000008
 50
180.0
 51
270.0000000000008
 73
     1
 72
     1
 10
0.0
 20
-3.000000000000008
 11
0.0
 21
0.0
 72
     1
 10
0.0
 20
0.0
 11
-3.000000000000003
 21
0.0
 97
        0
 75
     0
 76
     1
 98
        1
 10
0.0
 20
0.0
  0
ENDBLK
  5
124
330
122
100
AcDbEntity
  8
0
100
AcDbBlockEnd
  0
ENDSEC
  0
SECTION
  2
ENTITIES
  0
LINE
  5
95
330
1F
100
AcDbEntity
  8
0
  6
Continuous
 62
     1
370
    15
100
AcDbLine
 10
82.44606531631452
 20
1.64721664574933
 30
0.0
 11
82.12374169827639
 21
1.956904578884337
 31
0.0
  0
LINE
  5
96
330
1F
100
AcDbEntity
  8
0
  6
Continuous
 62
     1
370
    15
100
AcDbLine
 10
46.54112085367804
 20
-1.908347737587558
 30
0.0
 11
46.68259175167221
 21
-2.044398144588762
 31
0.0
  0
LINE
  5
97
330
1F
100
AcDbEntity
  8
0
  6
Continuous
 62
     1
370
    15
100
AcDbLine
 10
89.37634410039054
 20
-10.04410841133819
 30
0.0
 11
91.79389024965938
 21
-10.04410841133819
 31
0.0
  0
LINE
  5
98
330
1F
100
AcDbEntity
  8
0
  6
Continuous
 62
     1
370
    15
100
AcDbLine
 10
26.54517764360772
 20
-10.04410841133819
 30
0.0
 11
28.96293465569029
 21
-10.04410841133819
 31
0.0
  0
LINE
  5
99
330
1F
100
AcDbEntity
  8
0
  6
Continuous
 62
     1
370
    15
100
AcDbLine
 10
60.37538822932636
 20
9.955891588661816
 30
0.0
 11
57.95762315850298
 21
9.955891588661816
 31
0.0
  0
LINE
  5
9A
330
1F
100
AcDbEntity
  8
0
  6
Continuous
 62
     1
370
    15
100
AcDbLine
 10
122.0
 20
9.955891588661816
 30
0.0
 11
120.7911901377815
 21
9.955891588661816
 31
0.0
  0
LINE
  5
9B
330
1F
100
AcDbEntity
  8
0
  6
Continuous
 62
     1
370
    15
100
AcDbLine
 10
120.7911901377814
 20
-10.04410841133819
 30
0.0
 11
122.0
 21
-10.04410841133819
 31
0.0
  0
LINE
  5
9C
330
1F
100
AcDbEntity
  8
0
  6
Continuous
 62
     1
370
    15
100
AcDbLine
 10
57.95762315850298
 20
-10.04410841133819
 30
0.0
 11
60.37538822932642
 21
-10.04410841133819
 31
0.0
  0
LINE
  5
9D
330
1F
100
AcDbEntity
  8
0
  6
Continuous
 62
     1
370
    15
100
AcDbLine
 10
28.96293465569038
 20
9.955891588661816
 30
0.0
 11
26.54517764360769
 21
9.955891588661816
 31
0.0
  0
LINE
  5
9E
330
1F
100
AcDbEntity
  8
0
  6
Continuous
 62
     1
370
    15
100
AcDbLine
 10
91.79389024965944
 20
9.955891588661816
 30
0.0
 11
89.37634410039048
 21
9.955891588661816
 31
0.0
  0
LINE
  5
9F
330
1F
100
AcDbEntity
  8
0
  6
Continuous
 62
     1
370
    15
100
AcDbLine
 10
68.43143699750819
 20
-10.04410841133819
 30
0.0
 11
70.84905243297983
 21
-10.04410841133819
 31
0.0
  0
LINE
  5
A0
330
1F
100
AcDbEntity
  8
0
  6
Continuous
 62
     1
370
    15
100
AcDbLine
 10
39.43277423329226
 20
9.955891588661816
 30
0.0
 11
37.01515788379979
 21
9.955891588661816
 31
0.0
  0
LINE
  5
A1
330
1F
100
AcDbEntity
  8
0
  6
Continuous
 62
     1
370
    15
100
AcDbLine
 10
102.2655693223732
 20
9.955891588661816
 30
0.0
 11
99.84762614453506
 21
9.955891588661816
 31
0.0
  0
LINE
  5
A2
330
1F
100
AcDbEntity
  8
0
  6
Continuous
 62
     1
370
    15
100
AcDbLine
 10
110.3204950593398
 20
-10.04410841133819
 30
0.0
 11
112.7376767467874
 21
-10.04410841133819
 31
0.0
  0
LINE
  5
A3
330
1F
100
AcDbEntity
  8
0
  6
Continuous
 62
     1
370
    15
100
AcDbLine
 10
47.48819089122573
 20
-10.04410841133819
 30
0.0
 11
49.9055837023965
 21
-10.04410841133819
 31
0.0
  0
LINE
  5
A4
330
1F
100
AcDbEntity
  8
0
  6
Continuous
 62
     1
370
    15
100
AcDbLine
 10
18.48973560107557
 20
9.955891588661816
 30
0.0
 11
16.072705253159
 21
9.955891588661816
 31
0.0
  0
LINE
  5
A5
330
1F
100
AcDbEntity
  8
0
  6
Continuous
 62
     1
370
    15
100
AcDbLine
 10
81.32030024030071
 20
9.955891588661816
 30
0.0
 11
78.90229881085993
 21
9.955891588661816
 31
0.0
  0
LINE
  5
A6
330
1F
100
AcDbEntity
  8
0
  6
Continuous
 62
     1
370
    15
100
AcDbLine
 10
78.90229881085999
 20
-10.04410841133819
 30
0.0
 11
81.32030024030068
 21
-10.04410841133819
 31
0.0
  0
LINE
  5
A7
330
1F
100
AcDbEntity
  8
0
  6
Continuous
 62
     1
370
    15
100
AcDbLine
 10
16.07270525315909
 20
-10.04410841133819
 30
0.0
 11
18.48973560107559
 21
-10.04410841133819
 31
0.0
  0
LINE
  5
A8
330
1F
100
AcDbEntity
  8
0
  6
Continuous
 62
     1
370
    15
100
AcDbLine
 10
49.9055837023965
 20
9.955891588661816
 30
0.0
 11
47.48819089122578
 21
9.955891588661816
 31
0.0
  0
LINE
  5
A9
330
1F
100
AcDbEntity
  8
0
  6
Continuous
 62
     1
370
    15
100
AcDbLine
 10
112.7376767467875
 20
9.955891588661816
 30
0.0
 11
110.3204950593398
 21
9.955891588661816
 31
0.0
  0
LINE
  5
AA
330
1F
100
AcDbEntity
  8
0
  6
Continuous
 62
     1
370
    15
100
AcDbLine
 10
99.847626144535
 20
-10.04410841133819
 30
0.0
 11
102.2655693223731
 21
-10.04410841133819
 31
0.0
  0
LINE
  5
AB
330
1F
100
AcDbEntity
  8
0
  6
Continuous
 62
     1
370
    15
100
AcDbLine
 10
37.01515788379967
 20
-10.04410841133819
 30
0.0
 11
39.43277423329221
 21
-10.04410841133819
 31
0.0
  0
LINE
  5
AC
330
1F
100
AcDbEntity
  8
0
  6
Continuous
 62
     1
370
    15
100
AcDbLine
 10
70.84905243297978
 20
9.955891588661816
 30
0.0
 11
68.43143699750813
 21
9.955891588661816
 31
0.0
  0
LINE
  5
AD
330
1F
100
AcDbEntity
  8
0
  6
Continuous
 62
   131
370
    15
100
AcDbLine
 10
-126.0
 20
-10.04410841133818
 30
0.0
 11
11.00007003323037
 21
-10.04410841133818
 31
0.0
  0
LINE
  5
AE
330
1F
100
AcDbEntity
  8
0
  6
Continuous
 62
   131
370
    15
100
AcDbLine
 10
11.00007003323037
 20
9.955891588661808
 30
0.0
 11
-126.0
 21
9.955891588661808
 31
0.0
  0
LINE
  5
AF
330
1F
100
AcDbEntity
  8
0
  6
Continuous
 62
   131
370
    15
100
AcDbLine
 10
-126.0
 20
9.955891588661812
 30
0.0
 11
-128.0
 21
7.955891588661817
 31
0.0
  0
LINE
  5
B0
330
1F
100
AcDbEntity
  8
0
  6
Continuous
 62
   131
370
    15
100
AcDbLine
 10
-128.0
 20
-8.04410841133819
 30
0.0
 11
-126.0
 21
-10.04410841133818
 31
0.0
  0
LINE
  5
B1
330
1F
100
AcDbEntity
  8
0
  6
Continuous
 62
     1
370
    15
100
AcDbLine
 10
122.0
 20
5.933011652080204
 30
0.0
 11
122.0
 21
9.882917097705192
 31
0.0
  0
SPLINE
  5
B2
330
1F
100
AcDbEntity
  8
0
  6
Continuous
 62
     1
370
    15
100
AcDbSpline
210
0.0
220
0.0
230
1.0
 70
     8
 71
     3
 72
    12
 73
     8
 74
     0
 42
0.000000001
 43
0.00000001
 40
0.0
 40
0.0
 40
0.0
 40
0.0
 40
0.2040938049106064
 40
0.4081786616081696
 40
0.6122554558692442
 40
0.8163250769237473
 40
1.0
 40
1.0
 40
1.0
 40
1.0
 10
12.0
 20
-8.011447610754285
 30
0.0
 10
12.7154440892119
 20
-8.408153987434924
 30
0.0
 10
14.1463008999705
 20
-9.201549347749031
 30
0.0
 10
16.2924815179863
 20
-9.876180680443028
 30
0.0
 10
18.43853798839966
 20
-10.11573044149612
 30
0.0
 10
20.51301658858497
 20
-9.931113574786737
 30
0.0
 10
21.87213041455648
 20
-9.452047402950008
 30
0.0
 10
22.51594379946644
 20
-9.22511334651394
 30
0.0
  0
SPLINE
  5
B3
330
1F
100
AcDbEntity
  8
0
  6
Continuous
 62
     1
370
    15
100
AcDbSpline
210
0.0
220
0.0
230
1.0
 70
     8
 71
     3
 72
    24
 73
    20
 74
     0
 42
0.000000001
 43
0.00000001
 40
0.0
 40
0.0
 40
0.0
 40
0.0
 40
0.0114598397854508
 40
0.0766983485757277
 40
0.1419380909015446
 40
0.2071789772748574
 40
0.272420917965765
 40
0.3376638230212455
 40
0.4029076022839891
 40
0.4681521654113401
 40
0.5333974218943109
 40
0.5986432810766882
 40
0.6638896521742023
 40
0.7291364442937569
 40
0.7943835664527089
 40
0.859630927598201
 40
0.9248784366265138
 40
0.9901260024024504
 40
1.0
 40
1.0
 40
1.0
 40
1.0
 10
49.90558370239653
 20
9.91727372059883
 30
0.0
 10
50.04097198376284
 20
9.9294655250532
 30
0.0
 10
50.94709788008542
 20
10.01106276247666
 30
0.0
 10
52.62399896757027
 20
9.644310140951738
 30
0.0
 10
54.93629986334314
 20
8.80284584856898
 30
0.0
 10
57.24866376868751
 20
7.442157302401435
 30
0.0
 10
59.56108313893348
 20
5.695834221868221
 30
0.0
 10
61.87355394084189
 20
3.640450589260892
 30
0.0
 10
64.18607118475056
 20
1.389820535851837
 30
0.0
 10
66.49863012319152
 20
-0.937418077009419
 30
0.0
 10
68.81122593104836
 20
-3.217026003014837
 30
0.0
 10
71.12385379298154
 20
-5.327797028569654
 30
0.0
 10
73.43650888030582
 20
-7.157029394589674
 30
0.0
 10
75.74918636280931
 20
-8.608438199299323
 30
0.0
 10
78.06188139137463
 20
-9.600621148594888
 30
0.0
 10
80.3745891624721
 20
-10.09612899936819
 30
0.0
 10
82.68730468437438
 20
-10.01117916703769
 30
0.0
 10
84.345779673114
 20
-9.690865249677367
 30
0.0
 10
85.23334816061255
 20
-9.268160559769138
 30
0.0
 10
85.35001039073218
 20
-9.212600146684075
 30
0.0
  0
SPLINE
  5
B4
330
1F
100
AcDbEntity
  8
0
  6
Continuous
 62
     1
370
    15
100
AcDbSpline
210
0.0
220
0.0
230
1.0
 70
     8
 71
     3
 72
    12
 73
     8
 74
     0
 42
0.000000001
 43
0.00000001
 40
0.0
 40
0.0
 40
0.0
 40
0.0
 40
0.0014524692081058
 40
0.2510966477983549
 40
0.5007361900751465
 40
0.7503707543538349
 40
1.0
 40
1.0
 40
1.0
 40
1.0
 10
112.7376767467875
 20
9.954351801199874
 30
0.0
 10
112.7421612638918
 20
9.95486473995642
 30
0.0
 10
113.5174253490903
 20
10.04353939245547
 30
0.0
 10
115.0634369410501
 20
9.734096519794173
 30
0.0
 10
117.3756919838012
 20
8.986362383091418
 30
0.0
 10
119.6878774023873
 20
7.71639693383718
 30
0.0
 10
121.2292979410212
 20
6.547950501646561
 30
0.0
 10
122.0
 20
5.963733509252101
 30
0.0
  0
SPLINE
  5
B5
330
1F
100
AcDbEntity
  8
0
  6
Continuous
 62
     1
370
    15
100
AcDbSpline
210
0.0
220
0.0
230
1.0
 70
     8
 71
     3
 72
    10
 73
     6
 74
     0
 42
0.000000001
 43
0.00000001
 40
0.0
 40
0.0
 40
0.0
 40
0.0
 40
0.4414679411092427
 40
0.8829452881907304
 40
1.0
 40
1.0
 40
1.0
 40
1.0
 10
122.0
 20
9.882917097705192
 30
0.0
 10
121.2292976505762
 20
9.917560248157454
 30
0.0
 10
119.6878765310463
 20
9.98684728717336
 30
0.0
 10
117.9420850963458
 20
9.649504536031591
 30
0.0
 10
116.9669927591038
 20
9.20186827981443
 30
0.0
 10
116.7626371617725
 20
9.108054626447885
 30
0.0
  0
SPLINE
  5
B6
330
1F
100
AcDbEntity
  8
0
  6
Continuous
 62
     1
370
    15
100
AcDbSpline
210
0.0
220
0.0
230
1.0
 70
     8
 71
     3
 72
    23
 73
    19
 74
     0
 42
0.000000001
 43
0.00000001
 40
0.0
 40
0.0
 40
0.0
 40
0.0
 40
0.0582180704378006
 40
0.123464069789481
 40
0.1887101035400093
 40
0.2539560805442471
 40
0.3192019096691375
 40
0.3844474998130988
 40
0.4496927599254109
 40
0.5149375990255683
 40
0.5801819262226109
 40
0.645425650734396
 40
0.7106686819068422
 40
0.775910929233087
 40
0.8411523023725928
 40
0.9063927111701722
 40
0.9716320656749113
 40
1.0
 40
1.0
 40
1.0
 40
1.0
 10
89.37634410039051
 20
-10.01848971767697
 30
0.0
 10
88.68847665341796
 20
-9.987804627449082
 30
0.0
 10
87.2297042509614
 20
-9.922730225413702
 30
0.0
 10
85.00002333231647
 20
-9.17496807331076
 30
0.0
 10
82.68730477073827
 20
-7.962321427856898
 30
0.0
 10
80.37458913933226
 20
-6.314934671832727
 30
0.0
 10
78.0618813975705
 20
-4.337204475263658
 30
0.0
 10
75.74918636116577
 20
-2.12996191355786
 30
0.0
 10
73.43650888068446
 20
0.1880786780259556
 30
0.0
 10
71.12385379311048
 20
2.493807028686473
 30
0.0
 10
68.81122593015401
 20
4.664426728364971
 30
0.0
 10
66.49863012663955
 20
6.584210186797325
 30
0.0
 10
64.18607117185316
 20
8.151640087227943
 30
0.0
 10
61.87355398898266
 20
9.280679323549576
 30
0.0
 10
59.56108295927096
 20
9.920911113441493
 30
0.0
 10
57.24866443918252
 20
10.00211906808884
 30
0.0
 10
55.3719119911615
 20
9.720288992108589
 30
0.0
 10
54.26597423820989
 20
9.2408173119223
 30
0.0
 10
53.93081690232761
 20
9.095512162031767
 30
0.0
  0
SPLINE
  5
B7
330
1F
100
AcDbEntity
  8
0
  6
Continuous
 62
     1
370
    15
100
AcDbSpline
210
0.0
220
0.0
230
1.0
 70
     8
 71
     3
 72
    14
 73
    10
 74
     0
 42
0.000000001
 43
0.00000001
 40
0.0
 40
0.0
 40
0.0
 40
0.0
 40
0.1147373205135242
 40
0.2622692137732417
 40
0.4098050009820902
 40
0.5573453292196099
 40
0.7048908436149047
 40
0.8524421870724564
 40
1.0
 40
1.0
 40
1.0
 40
1.0
 10
26.54517764360772
 20
-9.990503114687431
 30
0.0
 10
25.98879311750947
 20
-9.98530171715216
 30
0.0
 10
24.71699653412858
 20
-9.97341224269005
 30
0.0
 10
22.73035845740908
 20
-9.386599532809289
 30
0.0
 10
20.58447247627569
 20
-8.386604013623566
 30
0.0
 10
18.43854080181552
 20
-6.98746613485994
 30
0.0
 10
16.292480767699
 20
-5.273245047692239
 30
0.0
 10
14.14630108755517
 20
-3.321732514716053
 30
0.0
 10
12.7154441517411
 20
-1.911171510191989
 30
0.0
 10
12.00000000000011
 20
-1.205875546562708
 30
0.0
  0
SPLINE
  5
B8
330
1F
100
AcDbEntity
  8
0
  6
Continuous
 62
   131
370
    15
100
AcDbSpline
210
0.0
220
0.0
230
1.0
 70
    24
 71
     3
 72
    15
 73
    11
 74
     0
 42
0.000000001
 43
0.00000001
 40
0.0
 40
0.0
 40
0.0
 40
0.0
 40
0.0288230349249204
 40
0.1721767886341208
 40
0.3155305423433232
 40
0.458884296052522
 40
0.6022380497617159
 40
0.7455918034709293
 40
0.8889455571801235
 40
1.0
 40
1.0
 40
1.0
 40
1.0
 10
11.99999999999994
 20
-1.028246917356186
 30
0.0
 10
11.99999999999991
 20
-1.031467207299615
 30
0.0
 10
12.0
 20
-1.050703876247722
 30
0.0
 10
12.00000000000003
 20
-1.387473917232012
 30
0.0
 10
11.99999999999991
 20
-2.194304575043083
 30
0.0
 10
11.99999999999997
 20
-3.333793643809248
 30
0.0
 10
12.00000000000017
 20
-4.659023294598583
 30
0.0
 10
12.0
 20
-6.018578233583609
 30
0.0
 10
11.99999999999991
 20
-7.1904886571965
 30
0.0
 10
11.99999999999997
 20
-7.761979869461323
 30
0.0
 10
12.00000000000003
 20
-8.011447610754294
 30
0.0
  0
SPLINE
  5
B9
330
1F
100
AcDbEntity
  8
0
  6
Continuous
 62
     1
370
    15
100
AcDbSpline
210
0.0
220
0.0
230
1.0
 70
     8
 71
     3
 72
    23
 73
    19
 74
     0
 42
0.000000001
 43
0.00000001
 40
0.0
 40
0.0
 40
0.0
 40
0.0
 40
0.0591108891841209
 40
0.119664090565926
 40
0.1802156937518593
 40
0.2454631208546259
 40
0.310709808428386
 40
0.3759556660430523
 40
0.4412006034445788
 40
0.5064445305739385
 40
0.5716873575860085
 40
0.6369289948683559
 40
0.7021693530599198
 40
0.7674083430695661
 40
0.8326467185811385
 40
0.8978864169602487
 40
0.9631274381534134
 40
0.9999999999999999
 40
0.9999999999999999
 40
0.9999999999999999
 40
0.9999999999999999
 10
18.48973560107559
 20
9.950550642915122
 30
0.0
 10
19.18798957084942
 20
9.910368817386491
 30
0.0
 10
20.60153498406035
 20
9.829024725366743
 30
0.0
 10
22.73035526292485
 20
9.134604517600048
 30
0.0
 10
24.93145131332885
 20
8.020452496328168
 30
0.0
 10
27.18870274435596
 20
6.462407599139421
 30
0.0
 10
29.50119715544595
 20
4.522495651864688
 30
0.0
 10
31.81370307580907
 20
2.338718247565116
 30
0.0
 10
34.12614516335925
 20
0.0283001776825685
 30
0.0
 10
36.43853752491678
 20
-2.286000485392077
 30
0.0
 10
38.75087037051721
 20
-4.480947984995931
 30
0.0
 10
41.06314012546576
 20
-6.439563923407114
 30
0.0
 10
43.37534233224173
 20
-8.05814054604634
 30
0.0
 10
45.68747989097376
 20
-9.248450072401047
 30
0.0
 10
47.99959099226534
 20
-9.954912821180018
 30
0.0
 10
50.31176159136949
 20
-10.11090228025591
 30
0.0
 10
52.28884108166231
 20
-9.85908251603553
 30
0.0
 10
53.49520617977969
 20
-9.362898029741686
 30
0.0
 10
53.93081690232758
 20
-9.183728984708136
 30
0.0
  0
SPLINE
  5
BA
330
1F
100
AcDbEntity
  8
0
  6
Continuous
 62
     1
370
    15
100
AcDbSpline
210
0.0
220
0.0
230
1.0
 70
     8
 71
     3
 72
    23
 73
    19
 74
     0
 42
0.000000001
 43
0.00000001
 40
0.0
 40
0.0
 40
0.0
 40
0.0
 40
0.0385689973489625
 40
0.1038206207484775
 40
0.1690722097461973
 40
0.2343236731965015
 40
0.2995749199804906
 40
0.3648258590253819
 40
0.4300763993238673
 40
0.4953264499534534
 40
0.5605759200957601
 40
0.6258247190557573
 40
0.691072756280961
 40
0.7563199413805448
 40
0.8215661841443936
 40
0.8868113945620484
 40
0.9520554828415805
 40
1.0
 40
1.0
 40
1.0
 40
1.0
 10
81.32030024030071
 20
9.891338974330582
 30
0.0
 10
81.77596820215273
 20
9.898574662848324
 30
0.0
 10
83.00254223586778
 20
9.918051800577825
 30
0.0
 10
85.00002344008395
 20
9.355398729456512
 30
0.0
 10
87.31274017454162
 20
8.291897980835422
 30
0.0
 10
89.62545031639443
 20
6.760886702513462
 30
0.0
 10
91.93814891169889
 20
4.873914185554055
 30
0.0
 10
94.25083114577144
 20
2.723402713944838
 30
0.0
 10
96.56349217130067
 20
0.4260060588558079
 30
0.0
 10
98.87612715530456
 20
-1.896527017444416
 30
0.0
 10
101.1887312700042
 20
-4.120416527055431
 30
0.0
 10
103.5012996891727
 20
-6.127194024466954
 30
0.0
 10
105.8138276186438
 20
-7.810421802970273
 30
0.0
 10
108.1263101846929
 20
-9.078962057211449
 30
0.0
 10
110.4387428567311
 20
-9.871007712558766
 30
0.0
 10
112.7511198748874
 20
-10.1230544733261
 30
0.0
 10
114.8590825787549
 20
-9.920961520461706
 30
0.0
 10
116.1962420972637
 20
-9.411900085868353
 30
0.0
 10
116.7626371617726
 20
-9.19627144912426
 30
0.0
  0
SPLINE
  5
BB
330
1F
100
AcDbEntity
  8
0
  6
Continuous
 62
     1
370
    15
100
AcDbSpline
210
0.0
220
0.0
230
1.0
 70
     8
 71
     3
 72
    23
 73
    19
 74
     0
 42
0.000000001
 43
0.00000001
 40
0.0
 40
0.0
 40
0.0
 40
0.0
 40
0.03113228246647
 40
0.096375407875084
 40
0.1616198343060732
 40
0.2268654724586108
 40
0.2921122327759264
 40
0.3573600254639595
 40
0.422608760510114
 40
0.4878583477021298
 40
0.5531086966470342
 40
0.6183597167901927
 40
0.6836113174344199
 40
0.7488634077591768
 40
0.8141158968398123
 40
0.8793686936668588
 40
0.9446217071653651
 40
0.9999999999999999
 40
0.9999999999999999
 40
0.9999999999999999
 40
0.9999999999999999
 10
120.7911901377815
 20
-9.97748397012147
 30
0.0
 10
120.4234235313276
 20
-9.991307918545342
 30
0.0
 10
119.2849378858242
 20
-10.0341023609133
 30
0.0
 10
117.3756910409368
 20
-9.532523340133945
 30
0.0
 10
115.0634385629062
 20
-8.527861170307991
 30
0.0
 10
112.7511202930662
 20
-7.042640035924428
 30
0.0
 10
110.438742744678
 20
-5.192574180614823
 30
0.0
 10
108.1263102147177
 20
-3.06632646022491
 30
0.0
 10
105.8138276106005
 20
-0.7797202691234029
 30
0.0
 10
103.5012996913209
 20
1.546208437176626
 30
0.0
 10
101.1887312694549
 20
3.787461614828388
 30
0.0
 10
98.87612715535361
 20
5.82467456878909
 30
0.0
 10
96.56349217165398
 20
7.549693533804806
 30
0.0
 10
94.25083114430898
 20
8.86945543022737
 30
0.0
 10
91.9381489171959
 20
9.718240271096624
 30
0.0
 10
89.62545029586907
 20
10.03386430422702
 30
0.0
 10
87.42940238129565
 20
9.871545991282124
 30
0.0
 10
86.0042541315048
 20
9.359464780809322
 30
0.0
 10
85.35001039073218
 20
9.1243833240077
 30
0.0
  0
SPLINE
  5
BC
330
1F
100
AcDbEntity
  8
0
  6
Continuous
 62
     1
370
    15
100
AcDbSpline
210
0.0
220
0.0
230
1.0
 70
     8
 71
     3
 72
    24
 73
    20
 74
     0
 42
0.000000001
 43
0.00000001
 40
0.0
 40
0.0
 40
0.0
 40
0.0
 40
0.0200033584978615
 40
0.08524660003272
 40
0.1504886974787833
 40
0.2157295613447748
 40
0.2809691023999044
 40
0.3462073205906851
 40
0.4114461532780567
 40
0.4766863541440482
 40
0.5419278340977391
 40
0.6071705037782824
 40
0.6724142735734621
 40
0.7376590536383739
 40
0.8029047539142065
 40
0.8681512841471298
 40
0.9333985539072776
 40
0.9939500110744595
 40
1.0
 40
1.0
 40
1.0
 40
1.0
 10
57.95762315850298
 20
-9.987357322864549
 30
0.0
 10
57.72130002155352
 20
-10.00351343957569
 30
0.0
 10
56.71418194504831
 20
-10.07236457872337
 30
0.0
 10
54.93630107925632
 20
-9.652085669814669
 30
0.0
 10
52.6239972703966
 20
-8.738157532350447
 30
0.0
 10
50.31176103110953
 20
-7.322777376007304
 30
0.0
 10
47.99959114236485
 20
-5.530292811687756
 30
0.0
 10
45.68747985081784
 20
-3.442975993066736
 30
0.0
 10
43.37534234276588
 20
-1.175478488552295
 30
0.0
 10
41.06314012352654
 20
1.152462365539948
 30
0.0
 10
38.75087036774978
 20
3.416656688691047
 30
0.0
 10
36.43853753792635
 20
5.496714632779559
 30
0.0
 10
34.12614511408739
 20
7.281565580173442
 30
0.0
 10
31.81370325989123
 20
8.677343650404206
 30
0.0
 10
29.50119646837634
 20
9.605402767322806
 30
0.0
 10
27.18870530859564
 20
10.03246943560845
 30
0.0
 10
24.93144203443535
 20
9.879306200403562
 30
0.0
 10
23.37413864249196
 20
9.545836966605162
 30
0.0
 10
22.58740927423582
 20
9.170950705277036
 30
0.0
 10
22.51594379946638
 20
9.136896523837565
 30
0.0
  0
SPLINE
  5
BD
330
1F
100
AcDbEntity
  8
0
  6
Continuous
 62
     1
370
    15
100
AcDbSpline
210
0.0
220
0.0
230
1.0
 70
     8
 71
     3
 72
    17
 73
    13
 74
     0
 42
0.000000001
 43
0.00000001
 40
0.0
 40
0.0
 40
0.0
 40
0.0
 40
0.1022597262538938
 40
0.204514969070294
 40
0.3067661722611488
 40
0.4090137813686828
 40
0.5112582434768176
 40
0.6135000070211524
 40
0.7236706988397124
 40
0.833840141958885
 40
0.9440081836868977
 40
1.0
 40
1.0
 40
1.0
 40
1.0
 10
11.99999999999994
 20
1.205875546564018
 30
0.0
 10
12.71544414764927
 20
0.4906005001826966
 30
0.0
 10
14.14630107528016
 20
-0.9399182323262216
 30
0.0
 10
16.29248081679521
 20
-3.05997397815822
 30
0.0
 10
18.43854061771489
 20
-5.037548285954569
 30
0.0
 10
20.58447316354909
 20
-6.787015658599159
 30
0.0
 10
22.73035589251953
 20
-8.227290102201342
 30
0.0
 10
24.93145108558447
 20
-9.318149517769363
 30
0.0
 10
27.18870298890177
 20
-9.979688314982937
 30
0.0
 10
29.50119641662664
 20
-10.10313392062288
 30
0.0
 10
31.43465002297201
 20
-9.837324001087826
 30
0.0
 10
32.59723900883168
 20
-9.347690859068955
 30
0.0
 10
32.98900311907653
 20
-9.18269644181359
 30
0.0
  0
SPLINE
  5
BE
330
1F
100
AcDbEntity
  8
0
  6
Continuous
 62
     1
370
    15
100
AcDbSpline
210
0.0
220
0.0
230
1.0
 70
     8
 71
     3
 72
    23
 73
    19
 74
     0
 42
0.000000001
 43
0.00000001
 40
0.0
 40
0.0
 40
0.0
 40
0.0
 40
0.0422697628415522
 40
0.1075158431256745
 40
0.1727627073020495
 40
0.2380102648584975
 40
0.3032584251356081
 40
0.3685070973459098
 40
0.4337561905931006
 40
0.4990056138913286
 40
0.5642552761845254
 40
0.6295050863657584
 40
0.6947549532966164
 40
0.7600047858266054
 40
0.8252544928125581
 40
0.8905039831380284
 40
0.9557531657326844
 40
1.0
 40
1.0
 40
1.0
 40
1.0
 10
60.37538822932636
 20
9.89497754813638
 30
0.0
 10
60.87477363863077
 20
9.897366815498312
 30
0.0
 10
62.14499234147242
 20
9.903444069724546
 30
0.0
 10
64.1860715998259
 20
9.308518128956962
 30
0.0
 10
66.49863001196412
 20
8.216311221288416
 30
0.0
 10
68.81122596087634
 20
6.66293826551288
 30
0.0
 10
71.12385378489846
 20
4.7581982638248
 30
0.0
 10
73.4365088828098
 20
2.596236793843763
 30
0.0
 10
75.74918636087675
 20
0.2941019907276573
 30
0.0
 10
78.06188139660138
 20
-2.02614887006497
 30
0.0
 10
80.37458914349769
 20
-4.240872840767135
 30
0.0
 10
82.68730475504553
 20
-6.232066571191821
 30
0.0
 10
85.00002339092181
 20
-7.894159562140551
 30
0.0
 10
87.31274017495274
 20
-9.136955334216774
 30
0.0
 10
89.62545036391221
 20
-9.900645933008
 30
0.0
 10
91.93814872121773
 20
-10.1208302226745
 30
0.0
 10
94.00270166474145
 20
-9.900835765633861
 30
0.0
 10
95.29635090114708
 20
-9.394929686240136
 30
0.0
 10
95.81910857767001
 20
-9.190495378113845
 30
0.0
  0
SPLINE
  5
BF
330
1F
100
AcDbEntity
  8
0
  6
Continuous
 62
     1
370
    15
100
AcDbSpline
210
0.0
220
0.0
230
1.0
 70
     8
 71
     3
 72
    23
 73
    19
 74
     0
 42
0.000000001
 43
0.00000001
 40
0.0
 40
0.0
 40
0.0
 40
0.0
 40
0.0274103272842455
 40
0.0926601708900269
 40
0.1579105041631524
 40
0.2231612361814191
 40
0.2884122759378099
 40
0.3536635323598263
 40
0.4189149143288597
 40
0.4841663306995787
 40
0.5494176903193257
 40
0.6146689020475258
 40
0.6799198747750813
 40
0.7451705174437611
 40
0.8104207390655538
 40
0.875670448742001
 40
0.9409195556834709
 40
0.9999999999999999
 40
0.9999999999999999
 40
0.9999999999999999
 40
0.9999999999999999
 10
99.84762614453497
 20
-9.979046213850179
 30
0.0
 10
99.52379505393462
 20
-9.994637949981794
 30
0.0
 10
98.42908925624864
 20
-10.04734556340959
 30
0.0
 10
96.56349175726619
 20
-9.574303656098
 30
0.0
 10
94.25083125645982
 20
-8.599495790366586
 30
0.0
 10
91.93814888298398
 20
-7.13730113078663
 30
0.0
 10
89.62545032056555
 20
-5.305992076310885
 30
0.0
 10
87.31274018657176
 20
-3.192238394810055
 30
0.0
 10
85.00002338779241
 20
-0.9114819959902332
 30
0.0
 10
82.68730475594414
 20
1.415615757930579
 30
0.0
 10
80.37458914303285
 20
3.664966082336809
 30
0.0
 10
78.06188139756271
 20
5.716786256797979
 30
0.0
 10
75.74918635749636
 20
7.462106864007135
 30
0.0
 10
73.4365088953697
 20
8.806931844922413
 30
0.0
 10
71.12385373803956
 20
9.683683069392037
 30
0.0
 10
68.81122613575003
 20
10.03068163613136
 30
0.0
 10
66.57149897666305
 20
9.890033086948959
 30
0.0
 10
65.10265510140066
 20
9.378148795990846
 30
0.0
 10
64.40467181501337
 20
9.134905326980808
 30
0.0
  0
SPLINE
  5
C0
330
1F
100
AcDbEntity
  8
0
  6
Continuous
 62
     1
370
    15
100
AcDbSpline
210
0.0
220
0.0
230
1.0
 70
     8
 71
     3
 72
    19
 73
    15
 74
     0
 42
0.000000001
 43
0.00000001
 40
0.0
 40
0.0
 40
0.0
 40
0.0
 40
0.0230494543253174
 40
0.1154843053770585
 40
0.2079205877399042
 40
0.3003581738220116
 40
0.3927969357552435
 40
0.4852367454220603
 40
0.5710237093235218
 40
0.6568129374816545
 40
0.7426048061607898
 40
0.8283996904911175
 40
0.9141979643092528
 40
1.0
 40
1.0
 40
1.0
 40
1.0
 10
37.01515788379967
 20
-9.994159133565962
 30
0.0
 10
36.82295444037982
 20
-10.00916831032889
 30
0.0
 10
35.859960660087
 20
-10.08436854406476
 30
0.0
 10
34.12614412642161
 20
-9.688478708043812
 30
0.0
 10
31.81370335697446
 20
-8.805860257086646
 30
0.0
 10
29.50119706774289
 20
-7.414206563812863
 30
0.0
 10
27.18870281399862
 20
-5.641599311179782
 30
0.0
 10
24.93145112871028
 20
-3.617563399899265
 30
0.0
 10
22.73035588133042
 20
-1.472217613771659
 30
0.0
 10
20.58447316654731
 20
0.6843607849929025
 30
0.0
 10
18.43854061691192
 20
2.809378350728667
 30
0.0
 10
16.29248081700948
 20
4.796477526238052
 30
0.0
 10
14.14630107522676
 20
6.587969270599919
 30
0.0
 10
12.71544414763156
 20
7.513729434080764
 30
0.0
 10
12.00000000000011
 20
7.976619663214901
 30
0.0
  0
SPLINE
  5
C1
330
1F
100
AcDbEntity
  8
0
  6
Continuous
 62
   131
370
    15
100
AcDbSpline
210
0.0
220
0.0
230
1.0
 70
    24
 71
     3
 72
    19
 73
    15
 74
     0
 42
0.000000001
 43
0.00000001
 40
0.0
 40
0.0
 40
0.0
 40
0.0
 40
0.1370394689375585
 40
0.2164642124052468
 40
0.2958889558729344
 40
0.3776170222817983
 40
0.4570417657494865
 40
0.5387698321583523
 40
0.6181945756260385
 40
0.6999226420349023
 40
0.7793473855025862
 40
0.8610754519114466
 40
0.9405001953791409
 40
1.0
 40
1.0
 40
1.0
 40
1.0
 10
12.00000000000006
 20
7.976619663215484
 30
0.0
 10
12.00000000000003
 20
7.697865623791415
 30
0.0
 10
11.99999999999989
 20
7.257552522270231
 30
0.0
 10
12.0
 20
6.51194697009336
 30
0.0
 10
11.99999999999991
 20
5.870651457136734
 30
0.0
 10
12.0
 20
5.202393779600278
 30
0.0
 10
12.00000000000014
 20
4.522633891805258
 30
0.0
 10
11.99999999999986
 20
3.86221906278051
 30
0.0
 10
12.00000000000014
 20
3.228039534785056
 30
0.0
 10
11.99999999999994
 20
2.649753999445697
 30
0.0
 10
12.00000000000009
 20
2.132059903784308
 30
0.0
 10
12.00000000000014
 20
1.703675369398245
 30
0.0
 10
12.00000000000003
 20
1.383503868532151
 30
0.0
 10
12.00000000000003
 20
1.259139424247949
 30
0.0
 10
12.0
 20
1.205875546563963
 30
0.0
  0
LINE
  5
C2
330
1F
100
AcDbEntity
  8
0
  6
Continuous
 62
     1
370
    15
100
AcDbLine
 10
122.0
 20
-9.97113392038156
 30
0.0
 11
122.0
 21
-6.005239895096798
 31
0.0
  0
SPLINE
  5
C3
330
1F
100
AcDbEntity
  8
0
  6
Continuous
 62
     1
370
    15
100
AcDbSpline
210
0.0
220
0.0
230
1.0
 70
     8
 71
     3
 72
    24
 73
    20
 74
     0
 42
0.000000001
 43
0.00000001
 40
0.0
 40
0.0
 40
0.0
 40
0.0
 40
0.0151872565236046
 40
0.080433475519866
 40
0.1456787742978908
 40
0.2109230627981531
 40
0.2761662511750324
 40
0.3414082498155996
 40
0.4066489693582987
 40
0.471888320711502
 40
0.5371270575632279
 40
0.6023671172898186
 40
0.6676084998377905
 40
0.7328511159756397
 40
0.7980948762113802
 40
0.863339690811158
 40
0.9285854698179893
 40
0.9938321230705924
 40
0.9999999999999999
 40
0.9999999999999999
 40
0.9999999999999999
 40
0.9999999999999999
 10
28.96293465569035
 20
9.908238657811628
 30
0.0
 10
29.14236112409012
 20
9.922743537629064
 30
0.0
 10
30.09262455259133
 20
9.999563066811373
 30
0.0
 10
31.81369986557979
 20
9.610456681381232
 30
0.0
 10
34.12614602357529
 20
8.737011083768987
 30
0.0
 10
36.43853729421517
 20
7.352318903854471
 30
0.0
 10
38.7508704331272
 20
5.585607398663036
 30
0.0
 10
41.06314010572174
 20
3.516068798900765
 30
0.0
 10
43.37534234860911
 20
1.257870682208709
 30
0.0
 10
45.68747984524889
 20
-1.069854769766545
 30
0.0
 10
47.99959115879783
 20
-3.342907030542416
 30
0.0
 10
50.31176097094489
 20
-5.44042753716108
 30
0.0
 10
52.62399749462791
 20
-7.25044049011909
 30
0.0
 10
54.93630024247433
 20
-8.677795328857352
 30
0.0
 10
57.24866372514323
 20
-9.641965816621084
 30
0.0
 10
59.56108293396473
 20
-10.10850473215306
 30
0.0
 10
61.87355480428066
 20
-9.989508513974556
 30
0.0
 10
63.48808923981368
 20
-9.666335985992655
 30
0.0
 10
64.33180260754794
 20
-9.25835808132918
 30
0.0
 10
64.4046718150134
 20
-9.22312214965717
 30
0.0
  0
SPLINE
  5
C4
330
1F
100
AcDbEntity
  8
0
  6
Continuous
 62
     1
370
    15
100
AcDbSpline
210
0.0
220
0.0
230
1.0
 70
     8
 71
     3
 72
    21
 73
    17
 74
     0
 42
0.000000001
 43
0.00000001
 40
0.0
 40
0.0
 40
0.0
 40
0.0
 40
0.0047757299507788
 40
0.0813365882587691
 40
0.1578969787057977
 40
0.234456794609812
 40
0.3110159294109179
 40
0.3875742766939522
 40
0.4641317302110046
 40
0.5406881839038431
 40
0.6172435319262692
 40
0.6937976686663466
 40
0.770350488768548
 40
0.8469018871557625
 40
0.9234517590511702
 40
1.0
 40
1.0
 40
1.0
 40
1.0
 10
91.79389024965941
 20
9.940309570618451
 30
0.0
 10
91.8419773820229
 20
9.945448662266235
 30
0.0
 10
92.66096072612008
 20
10.03297374967444
 30
0.0
 10
94.25083080674118
 20
9.705479829452964
 30
0.0
 10
96.56349226210047
 20
8.92911034200578
 30
0.0
 10
98.87612713113235
 20
7.61629633706506
 30
0.0
 10
101.1887312758943
 20
5.91137371312378
 30
0.0
 10
103.5012996897843
 20
3.885179575461957
 30
0.0
 10
105.8138276103074
 20
1.650920088906506
 30
0.0
 10
108.1263102174263
 20
-0.6738157781482335
 30
0.0
 10
110.4387427341363
 20
-2.965124790432204
 30
0.0
 10
112.7511203325231
 20
-5.100200696435964
 30
0.0
 10
115.0634384156242
 20
-6.968809259660429
 30
0.0
 10
117.3756915905931
 20
-8.458596870843316
 30
0.0
 10
119.6878775006861
 20
-9.538372492960777
 30
0.0
 10
121.2292979737872
 20
-9.826881135730705
 30
0.0
 10
122.0
 20
-9.97113392038156
 30
0.0
  0
SPLINE
  5
C5
330
1F
100
AcDbEntity
  8
0
  6
Continuous
 62
     1
370
    15
100
AcDbSpline
210
0.0
220
0.0
230
1.0
 70
     8
 71
     3
 72
    19
 73
    15
 74
     0
 42
0.000000001
 43
0.00000001
 40
0.0
 40
0.0
 40
0.0
 40
0.0
 40
0.0883168198403035
 40
0.1766355213700317
 40
0.2649559840754564
 40
0.353278087071304
 40
0.4416017091258338
 40
0.5299267286860885
 40
0.6182530239032822
 40
0.7065804726583469
 40
0.7949089525875865
 40
0.8832383411084656
 40
0.9715685154454792
 40
1.0
 40
1.0
 40
1.0
 40
1.0
 10
122.0
 20
-6.051950331928419
 30
0.0
 10
121.229297973788
 20
-5.404729801050658
 30
0.0
 10
119.6878775006884
 20
-4.110274949531981
 30
0.0
 10
117.3756915905843
 20
-1.86644678641187
 30
0.0
 10
115.0634384156571
 20
0.4514578626468772
 30
0.0
 10
112.7511203324008
 20
2.749142567272798
 30
0.0
 10
110.4387427345924
 20
4.896542743100781
 30
0.0
 10
108.1263102157247
 20
6.781197242538171
 30
0.0
 10
105.8138276166584
 20
8.303039159628822
 30
0.0
 10
103.5012996660815
 20
9.378067326862393
 30
0.0
 10
101.1887313643559
 20
9.96064752212003
 30
0.0
 10
98.87612680098432
 20
9.976289292349993
 30
0.0
 10
97.08624917886233
 20
9.674536284962244
 30
0.0
 10
96.0672379836195
 20
9.214337130739507
 30
0.0
 10
95.8191085776701
 20
9.102278555437476
 30
0.0
  0
SPLINE
  5
C6
330
1F
100
AcDbEntity
  8
0
  6
Continuous
 62
     1
370
    15
100
AcDbSpline
210
0.0
220
0.0
230
1.0
 70
     8
 71
     3
 72
    23
 73
    19
 74
     0
 42
0.000000001
 43
0.00000001
 40
0.0
 40
0.0
 40
0.0
 40
0.0
 40
0.0545318383994017
 40
0.1197780900809057
 40
0.185023557877516
 40
0.2502681514442359
 40
0.3155117806214279
 40
0.3807543554537379
 40
0.4459957862089439
 40
0.5112359833966835
 40
0.576474857787079
 40
0.6417124093266432
 40
0.7069505753565191
 40
0.7721901095510338
 40
0.8374309228201774
 40
0.9026729258040158
 40
0.9679160288912488
 40
1.0
 40
1.0
 40
1.0
 40
1.0
 10
68.43143699750821
 20
-10.00750371068972
 30
0.0
 10
67.78716534660514
 20
-9.98625298835342
 30
0.0
 10
66.37203557831752
 20
-9.939576202662852
 30
0.0
 10
64.18607138007759
 20
-9.229104786956247
 30
0.0
 10
61.87355388143554
 20
-8.043883499590404
 30
0.0
 10
59.56108318123408
 20
-6.417932513141588
 30
0.0
 10
57.24866365889268
 20
-4.456642572597838
 30
0.0
 10
54.93630026021312
 20
-2.259394327137653
 30
0.0
 10
52.62399748992247
 20
0.0554841203721831
 30
0.0
 10
50.31176097202864
 20
2.365105864952988
 30
0.0
 10
47.99959115916847
 20
4.546466346471551
 30
0.0
 10
45.68747984268249
 20
6.48333382200809
 30
0.0
 10
43.37534235850406
 20
8.073210394253843
 30
0.0
 10
41.06314006870785
 20
9.22911824263437
 30
0.0
 10
38.75087057129177
 20
9.898324521924971
 30
0.0
 10
36.43853677855864
 20
10.0123158157817
 30
0.0
 10
34.51790929447597
 20
9.742692248824497
 30
0.0
 10
33.36805408372949
 20
9.255186421514413
 30
0.0
 10
32.98900311907659
 20
9.094479619137218
 30
0.0
  0
SPLINE
  5
C7
330
1F
100
AcDbEntity
  8
0
  6
Continuous
 62
     1
370
    15
100
AcDbSpline
210
0.0
220
0.0
230
1.0
 70
     8
 71
     3
 72
    22
 73
    18
 74
     0
 42
0.000000001
 43
0.00000001
 40
0.0
 40
0.0
 40
0.0
 40
0.0
 40
0.0682226936396983
 40
0.1364423961489337
 40
0.2046594036173521
 40
0.2728740132889606
 40
0.3410865234363109
 40
0.4092972332337281
 40
0.4827977366220316
 40
0.5562974069391068
 40
0.6297961423164625
 40
0.7032938410839165
 40
0.7767904017909728
 40
0.8502857232280969
 40
0.9237797044478763
 40
0.9972722447860661
 40
1.0
 40
1.0
 40
1.0
 40
1.0
 10
11.99999999999997
 20
9.173214745980076
 30
0.0
 10
12.71544414762933
 20
8.854790252897452
 30
0.0
 10
14.14630107522029
 20
8.217955227617509
 30
0.0
 10
16.29248081703473
 20
6.770368313787101
 30
0.0
 10
18.43854061681722
 20
5.040560785570758
 30
0.0
 10
20.58447316690069
 20
3.06941234083227
 30
0.0
 10
22.73035588001142
 20
0.9576282466661432
 30
0.0
 10
24.9314511337939
 20
-1.256367644076839
 30
0.0
 10
27.18870279338117
 20
-3.468429895977917
 30
0.0
 10
29.5011971444959
 20
-5.552535323212753
 30
0.0
 10
31.81370307058519
 20
-7.343106637455508
 30
0.0
 10
34.1261451952038
 20
-8.746127851647325
 30
0.0
 10
36.43853740276541
 20
-9.68193449752745
 30
0.0
 10
38.75087082726732
 20
-10.11932808326723
 30
0.0
 10
41.06313842066105
 20
-9.965578228363293
 30
0.0
 10
42.63323449154257
 20
-9.64135105598511
 30
0.0
 10
43.43256681771084
 20
-9.249380459152384
 30
0.0
 10
43.46117314762047
 20
-9.235352701434127
 30
0.0
  0
SPLINE
  5
C8
330
1F
100
AcDbEntity
  8
0
  6
Continuous
 62
     1
370
    15
100
AcDbSpline
210
0.0
220
0.0
230
1.0
 70
     8
 71
     3
 72
    24
 73
    20
 74
     0
 42
0.000000001
 43
0.00000001
 40
0.0
 40
0.0
 40
0.0
 40
0.0
 40
0.0077526135789037
 40
0.0729973886694027
 40
0.1382425847716437
 40
0.2034881109052089
 40
0.2687338760194682
 40
0.3339797890129308
 40
0.3992257587526291
 40
0.4644716940935127
 40
0.5297175038978589
 40
0.5949630970546627
 40
0.6602083824990325
 40
0.7254532692315451
 40
0.7906976663375854
 40
0.8559414830066421
 40
0.9211846285515433
 40
0.9864270124276505
 40
0.9999999999999999
 40
0.9999999999999999
 40
0.9999999999999999
 40
0.9999999999999999
 10
70.84905243297978
 20
9.927979413341596
 30
0.0
 10
70.94065135701943
 20
9.937025074528979
 30
0.0
 10
71.80313240186571
 20
10.02219759586605
 30
0.0
 10
73.43650948602927
 20
9.675989672098924
 30
0.0
 10
75.74918619922549
 20
8.866813012496698
 30
0.0
 10
78.06188143998214
 20
7.530007309291602
 30
0.0
 10
80.37458913162679
 20
5.804192659801616
 30
0.0
 10
82.68730475914812
 20
3.763181169831163
 30
0.0
 10
85.00002338638221
 20
1.520485244653323
 30
0.0
 10
87.31274018900858
 20
-0.8057905793236473
 30
0.0
 10
89.62545031222858
 20
-3.091421918074621
 30
0.0
 10
91.93814891389506
 20
-5.214881544999232
 30
0.0
 10
94.2508311411524
 20
-7.062817943805369
 30
0.0
 10
96.56349218758062
 20
-8.537858578809006
 30
0.0
 10
98.87612709480452
 20
-9.557716189068588
 30
0.0
 10
101.1887314957215
 20
-10.08211486872018
 30
0.0
 10
103.5012988468161
 20
-10.03083314435351
 30
0.0
 10
105.2033625069183
 20
-9.715077835099825
 30
0.0
 10
106.1345645638405
 20
-9.278802209460167
 30
0.0
 10
106.2949291439176
 20
-9.203670118649702
 30
0.0
  0
SPLINE
  5
C9
330
1F
100
AcDbEntity
  8
0
  6
Continuous
 62
     1
370
    15
100
AcDbSpline
210
0.0
220
0.0
230
1.0
 70
     8
 71
     3
 72
    23
 73
    19
 74
     0
 42
0.000000001
 43
0.00000001
 40
0.0
 40
0.0
 40
0.0
 40
0.0
 40
0.0619035961044063
 40
0.1271444759720562
 40
0.192386207882979
 40
0.2576287014550844
 40
0.3228718661446395
 40
0.3881156112653779
 40
0.4533598460076941
 40
0.5186044794578836
 40
0.5838494206174347
 40
0.6490945784223612
 40
0.7143398617625704
 40
0.7795851795012501
 40
0.8448304404942617
 40
0.9100755536095491
 40
0.9753204277465297
 40
1.0
 40
1.0
 40
1.0
 40
1.0
 10
110.3204950593398
 20
-10.03118333983988
 30
0.0
 10
109.5891040066784
 20
-9.989965597747906
 30
0.0
 10
108.0868918902057
 20
-9.905308024540105
 30
0.0
 10
105.813827363264
 20
-9.119166785741259
 30
0.0
 10
103.5012997576013
 20
-7.879461940912483
 30
0.0
 10
101.1887312516739
 20
-6.211016848047112
 30
0.0
 10
98.87612716019642
 20
-4.217338639492406
 30
0.0
 10
96.56349217006415
 20
-2.000635026471272
 30
0.0
 10
94.25083114582556
 20
0.3200249785116843
 30
0.0
 10
91.93814891271917
 20
2.621353325209068
 30
0.0
 10
89.62545031225999
 20
4.78080062764298
 30
0.0
 10
87.31274019005905
 20
6.683207221511514
 30
0.0
 10
85.00002338214894
 20
8.228040349005258
 30
0.0
 10
82.68730477503046
 20
9.330201896039686
 30
0.0
 10
80.37458907233118
 20
9.941637166990443
 30
0.0
 10
78.06188166128187
 20
9.990129973642743
 30
0.0
 10
76.22847974810468
 20
9.697598985033075
 30
0.0
 10
75.16598351112616
 20
9.227209407555408
 30
0.0
 10
74.87438368814036
 20
9.098111992662986
 30
0.0
  0
SPLINE
  5
CA
330
1F
100
AcDbEntity
  8
0
  6
Continuous
 62
     1
370
    15
100
AcDbSpline
210
0.0
220
0.0
230
1.0
 70
     8
 71
     3
 72
    23
 73
    19
 74
     0
 42
0.000000001
 43
0.00000001
 40
0.0
 40
0.0
 40
0.0
 40
0.0
 40
0.0507409144828305
 40
0.1158925705511357
 40
0.1810455929698065
 40
0.2461998927669715
 40
0.311355380701194
 40
0.3765119672800039
 40
0.4416695627785542
 40
0.5068280772583759
 40
0.5719874205862426
 40
0.6371475024531265
 40
0.6976180465950759
 40
0.7580901867934277
 40
0.8185641882738971
 40
0.8790403154627523
 40
0.9395188318744307
 40
1.0
 40
1.0
 40
1.0
 40
1.0
 10
47.48819089122578
 20
-9.998153226054752
 30
0.0
 10
46.88795562393379
 20
-9.985316787445845
 30
0.0
 10
45.51701446587761
 20
-9.955998280235825
 30
0.0
 10
43.37534270211673
 20
-9.281995022525436
 30
0.0
 10
41.06314002637217
 20
-8.124745838879656
 30
0.0
 10
38.75087039700638
 20
-6.520652492294786
 30
0.0
 10
36.43853751805644
 20
-4.576223381727345
 30
0.0
 10
34.12614516431094
 20
-2.389305659310519
 30
0.0
 10
31.81370307886326
 20
-0.0778386158514866
 30
0.0
 10
29.50119714227729
 20
2.235527823177255
 30
0.0
 10
27.18870279397719
 20
4.427515855838323
 30
0.0
 10
24.9314511336469
 20
6.334589280196978
 30
0.0
 10
22.73035588004967
 20
7.880779709040347
 30
0.0
 10
20.58447316689056
 20
9.024041204267512
 30
0.0
 10
18.43854061682001
 20
9.753490179379837
 30
0.0
 10
16.29248081703398
 20
10.0254130563287
 30
0.0
 10
14.14630107522062
 20
9.865643653943057
 30
0.0
 10
12.71544414762953
 20
9.380809293167912
 30
0.0
 10
12.00000000000011
 20
9.138386798439393
 30
0.0
  0
LINE
  5
CB
330
1F
100
AcDbEntity
  8
0
  6
Continuous
 62
     1
370
    15
100
AcDbLine
 10
122.0
 20
-3.963291999791178
 30
0.0
 11
122.0
 21
3.875075177114994
 31
0.0
  0
SPLINE
  5
CC
330
1F
100
AcDbEntity
  8
0
  6
Continuous
 62
     1
370
    15
100
AcDbSpline
210
0.0
220
0.0
230
1.0
 70
     8
 71
     3
 72
    23
 73
    19
 74
     0
 42
0.000000001
 43
0.00000001
 40
0.0
 40
0.0
 40
0.0
 40
0.0
 40
0.0460025722285781
 40
0.1112441022923957
 40
0.1764842641497198
 40
0.2417238114979322
 40
0.3069646817374443
 40
0.3722068748147717
 40
0.4374503014973019
 40
0.5026948722919372
 40
0.5679404974637087
 40
0.6331870870545149
 40
0.6984345509019544
 40
0.7636827986582693
 40
0.8289317398093605
 40
0.8941812836938952
 40
0.9594313395224765
 40
1.0
 40
1.0
 40
1.0
 40
1.0
 10
39.43277423329226
 20
9.900389876350003
 30
0.0
 10
39.9762342455564
 20
9.896824975437474
 30
0.0
 10
41.29043730567534
 20
9.888204279190203
 30
0.0
 10
43.37534186059695
 20
9.259529935270644
 30
0.0
 10
45.68747997608882
 20
8.138761974675957
 30
0.0
 10
47.99959112343983
 20
6.56316966618534
 30
0.0
 10
50.31176098153476
 20
4.641002505077466
 30
0.0
 10
52.62399748762728
 20
2.468026739353286
 30
0.0
 10
54.93630025988746
 20
0.1616632458037456
 30
0.0
 10
57.24866366249039
 20
-2.155766851817115
 30
0.0
 10
59.56108316716823
 20
-4.36079904827255
 30
0.0
 10
61.87355393410211
 20
-6.335935631218925
 30
0.0
 10
64.18607118347414
 20
-7.976512946481607
 30
0.0
 10
66.49863013503754
 20
-9.19329533810276
 30
0.0
 10
68.8112258849403
 20
-9.928535063985445
 30
0.0
 10
71.12385396556961
 20
-10.11679642975464
 30
0.0
 10
73.14490933050844
 20
-9.880268209017984
 30
0.0
 10
74.39509059907125
 20
-9.378641788443163
 30
0.0
 10
74.87438368814041
 20
-9.186328815339357
 30
0.0
  0
SPLINE
  5
CD
330
1F
100
AcDbEntity
  8
0
  6
Continuous
 62
     1
370
    15
100
AcDbSpline
210
0.0
220
0.0
230
1.0
 70
     8
 71
     3
 72
    16
 73
    12
 74
     0
 42
0.000000001
 43
0.00000001
 40
0.0
 40
0.0
 40
0.0
 40
0.0
 40
0.062616363675276
 40
0.1797958050909218
 40
0.2969737161677503
 40
0.4141499348967355
 40
0.5313242996274166
 40
0.6484966491017927
 40
0.7656668224880111
 40
0.8828346594138453
 40
1.0
 40
1.0
 40
1.0
 40
1.0
 10
102.2655693223732
 20
9.889435165912102
 30
0.0
 10
102.677482047669
 20
9.900470098849373
 30
0.0
 10
103.8602428425277
 20
9.932155660500156
 30
0.0
 10
105.8138272194353
 20
9.400553952174848
 30
0.0
 10
108.1263103221579
 20
8.366192764020875
 30
0.0
 10
110.4387427060743
 20
6.857834192238005
 30
0.0
 10
112.7511203400418
 20
4.989351603215791
 30
0.0
 10
115.0634384136104
 20
2.849968130858317
 30
0.0
 10
117.37569159113
 20
0.5610549191525703
 30
0.0
 10
119.6878775005517
 20
-1.77516248638031
 30
0.0
 10
121.2292979737424
 20
-3.23392067534702
 30
0.0
 10
122.0
 20
-3.963291999791176
 30
0.0
  0
SPLINE
  5
CE
330
1F
100
AcDbEntity
  8
0
  6
Continuous
 62
     1
370
    15
100
AcDbSpline
210
0.0
220
0.0
230
1.0
 70
     8
 71
     3
 72
    14
 73
    10
 74
     0
 42
0.000000001
 43
0.00000001
 40
0.0
 40
0.0
 40
0.0
 40
0.0
 40
0.147224774597717
 40
0.2944526859852543
 40
0.4416835332653589
 40
0.5889171149214093
 40
0.736153228859221
 40
0.8833916724491385
 40
1.0
 40
1.0
 40
1.0
 40
1.0
 10
122.0
 20
3.875075177114994
 30
0.0
 10
121.2292979733135
 20
4.563922673714439
 30
0.0
 10
119.6878774992648
 20
5.941632343585924
 30
0.0
 10
117.3756915962786
 20
7.633912408857437
 30
0.0
 10
115.0634383943028
 20
8.93137841480199
 30
0.0
 10
112.7511204121255
 20
9.751058503674935
 30
0.0
 10
110.4387424370412
 20
10.03530332972727
 30
0.0
 10
108.2866747511495
 20
9.852476001072157
 30
0.0
 10
106.9053930987045
 20
9.34134850753479
 30
0.0
 10
106.2949291439177
 20
9.115453295973323
 30
0.0
  0
SPLINE
  5
CF
330
1F
100
AcDbEntity
  8
0
  6
Continuous
 62
     1
370
    15
100
AcDbSpline
210
0.0
220
0.0
230
1.0
 70
     8
 71
     3
 72
    23
 73
    19
 74
     0
 42
0.000000001
 43
0.00000001
 40
0.0
 40
0.0
 40
0.0
 40
0.0
 40
0.0237122056589491
 40
0.0889644016883413
 40
0.1542162676526697
 40
0.2194677125622176
 40
0.2847186455168221
 40
0.3499689757251495
 40
0.4152186125239399
 40
0.4804674653971671
 40
0.545715443995147
 40
0.6109624581535643
 40
0.676208417912398
 40
0.7414532335347704
 40
0.8066968155256763
 40
0.8719390746506083
 40
0.9371800108560768
 40
1.0
 40
1.0
 40
1.0
 40
1.0
 10
78.90229881085999
 20
-9.982332897296049
 30
0.0
 10
78.62215891210288
 20
-9.99868906055877
 30
0.0
 10
77.57111883424507
 20
-10.06005476814049
 30
0.0
 10
75.7491865071754
 20
-9.614047332680979
 30
0.0
 10
73.43650884163334
 20
-8.6693877791597
 30
0.0
 10
71.12385380330666
 20
-7.230409342889596
 30
0.0
 10
68.81122592841997
 20
-5.41823752779842
 30
0.0
 10
66.49863012337987
 20
-3.317433938642167
 30
0.0
 10
64.18607118662548
 20
-1.043044774713334
 30
0.0
 10
61.87355393315407
 20
1.284690143254146
 30
0.0
 10
59.56108316780909
 20
3.541631791531088
 30
0.0
 10
57.24866366087527
 20
5.607619548319883
 30
0.0
 10
54.93630026570715
 20
7.37290544215767
 30
0.0
 10
52.62399746596397
 20
8.74258222661909
 30
0.0
 10
50.31176106236624
 20
9.647256949866577
 30
0.0
 10
47.99959082178624
 20
10.02567328618039
 30
0.0
 10
45.71608717332929
 20
9.90810165169891
 30
0.0
 10
44.20327811391068
 20
9.39757402089445
 30
0.0
 10
43.4611731476205
 20
9.147135878757746
 30
0.0
  0
SPLINE
  5
D0
330
1F
100
AcDbEntity
  8
0
  6
Continuous
 62
     1
370
    15
100
AcDbSpline
210
0.0
220
0.0
230
1.0
 70
     8
 71
     3
 72
     9
 73
     5
 74
     0
 42
0.000000001
 43
0.00000001
 40
0.0
 40
0.0
 40
0.0
 40
0.0
 40
0.4730038649632284
 40
1.0
 40
1.0
 40
1.0
 40
1.0
 10
16.07270525315909
 20
-10.02300065103051
 30
0.0
 10
15.43058088043018
 20
-10.00029021735755
 30
0.0
 10
14.07303515978619
 20
-9.952277007836038
 30
0.0
 10
12.71544484752509
 20
-9.477047653897413
 30
0.0
 10
12.00000000000011
 20
-9.226603621115737
 30
0.0
  0
LINE
  5
D1
330
1F
100
AcDbEntity
  8
0
  6
Continuous
 62
   131
370
    15
100
AcDbLine
 10
122.0
 20
9.882917097705192
 30
0.0
 11
122.0
 21
9.955891588661816
 31
0.0
  0
LINE
  5
D2
330
1F
100
AcDbEntity
  8
0
  6
Continuous
 62
   131
370
    15
100
AcDbLine
 10
12.00000000000006
 20
-1.205875546562857
 30
0.0
 11
11.99999999999994
 21
1.205875546563989
 31
0.0
  0
LINE
  5
D3
330
1F
100
AcDbEntity
  8
0
  6
Continuous
 62
     1
370
    15
100
AcDbLine
 10
122.0
 20
-10.04410841133819
 30
0.0
 11
122.0
 21
-9.97113392038156
 31
0.0
  0
LINE
  5
D4
330
1F
100
AcDbEntity
  8
0
  6
Continuous
 62
     1
370
    15
100
AcDbLine
 10
122.0
 20
-6.051950331928419
 30
0.0
 11
122.0
 21
-3.963291999791178
 31
0.0
  0
LINE
  5
D5
330
1F
100
AcDbEntity
  8
0
  6
Continuous
 62
     1
370
    15
100
AcDbLine
 10
122.0
 20
3.875075177114994
 30
0.0
 11
122.0
 21
5.963733509252098
 31
0.0
  0
LINE
  5
D6
330
1F
100
AcDbEntity
  8
0
  6
Continuous
 62
   131
370
    15
100
AcDbLine
 10
12.00000000000006
 20
-9.226603621116467
 30
0.0
 11
12.00000000000003
 21
-8.011447610754294
 31
0.0
  0
LINE
  5
D7
330
1F
100
AcDbEntity
  8
0
  6
Continuous
 62
   131
370
    15
100
AcDbLine
 10
12.00000000000006
 20
7.976619663215484
 30
0.0
 11
12.0
 21
9.173214745980076
 31
0.0
  0
LINE
  5
D8
330
1F
100
AcDbEntity
  8
0
  6
Continuous
 62
   131
370
    15
100
AcDbLine
 10
11.00007003323037
 20
-10.04410841133818
 30
0.0
 11
11.00007003323037
 21
-8.785427851803714
 31
0.0
  0
SPLINE
  5
D9
330
1F
100
AcDbEntity
  8
0
  6
Continuous
 62
   131
370
    15
100
AcDbSpline
210
0.0
220
0.0
230
1.0
 70
     8
 71
     3
 72
     8
 73
     4
 74
     0
 42
0.000000001
 43
0.00000001
 40
0.0
 40
0.0
 40
0.0
 40
0.0
 40
1.0
 40
1.0
 40
1.0
 40
1.0
 10
12.00000000000006
 20
-9.261431568656466
 30
0.0
 10
11.66854885194282
 20
-9.390455989207684
 30
0.0
 10
11.3344093780333
 20
-9.504487758276257
 30
0.0
 10
11.00007003323033
 20
-9.602539485652166
 30
0.0
  0
LINE
  5
DA
330
1F
100
AcDbEntity
  8
0
  6
Continuous
 62
   131
370
    15
100
AcDbLine
 10
11.00007003323037
 20
9.514321605262074
 30
0.0
 11
11.00007003323037
 21
9.955891588661808
 31
0.0
  0
SPLINE
  5
DB
330
1F
100
AcDbEntity
  8
0
  6
Continuous
 62
   131
370
    15
100
AcDbSpline
210
0.0
220
0.0
230
1.0
 70
     8
 71
     3
 72
     8
 73
     4
 74
     0
 42
0.000000001
 43
0.00000001
 40
0.0
 40
0.0
 40
0.0
 40
0.0
 40
1.0
 40
1.0
 40
1.0
 40
1.0
 10
12.00000000000006
 20
9.173214745980067
 30
0.0
 10
11.66854885194282
 20
9.302239166531288
 30
0.0
 10
11.3344093780333
 20
9.416270935599863
 30
0.0
 10
11.00007003323033
 20
9.514322662975774
 30
0.0
  0
SPLINE
  5
DC
330
1F
100
AcDbEntity
  8
0
  6
Continuous
 62
   131
370
    15
100
AcDbSpline
210
0.0
220
0.0
230
1.0
 70
     8
 71
     3
 72
     8
 73
     4
 74
     0
 42
0.000000001
 43
0.00000001
 40
0.0
 40
0.0
 40
0.0
 40
0.0
 40
1.0
 40
1.0
 40
1.0
 40
1.0
 10
11.99999999999997
 20
7.976619663214979
 30
0.0
 10
11.66854885194282
 20
8.175308344564648
 30
0.0
 10
11.3344093780333
 20
8.361183955533955
 30
0.0
 10
11.00007003323034
 20
8.532737966526865
 30
0.0
  0
SPLINE
  5
DD
330
1F
100
AcDbEntity
  8
0
  6
Continuous
 62
   131
370
    15
100
AcDbSpline
210
0.0
220
0.0
230
1.0
 70
     8
 71
     3
 72
     8
 73
     4
 74
     0
 42
0.000000001
 43
0.00000001
 40
0.0
 40
0.0
 40
0.0
 40
0.0
 40
1.0
 40
1.0
 40
1.0
 40
1.0
 10
12.00000000000006
 20
1.205875546563975
 30
0.0
 10
11.66854885194282
 20
1.535952045904571
 30
0.0
 10
11.3344093780333
 20
1.864839004092084
 30
0.0
 10
11.00007003323033
 20
2.190053777027854
 30
0.0
  0
SPLINE
  5
DE
330
1F
100
AcDbEntity
  8
0
  6
Continuous
 62
   131
370
    15
100
AcDbSpline
210
0.0
220
0.0
230
1.0
 70
     8
 71
     3
 72
     8
 73
     4
 74
     0
 42
0.000000001
 43
0.00000001
 40
0.0
 40
0.0
 40
0.0
 40
0.0
 40
1.0
 40
1.0
 40
1.0
 40
1.0
 10
11.99999999999997
 20
-1.205875546562567
 30
0.0
 10
11.66854885194282
 20
-0.8754425359401009
 30
0.0
 10
11.3344093780333
 20
-0.5421840969423792
 30
0.0
 10
11.00007003323034
 20
-0.2085808710681692
 30
0.0
  0
LINE
  5
DF
330
1F
100
AcDbEntity
  8
0
  6
Continuous
 62
   131
370
    15
100
AcDbLine
 10
11.00007003323037
 20
-7.368379747760828
 30
0.0
 11
11.00007003323037
 21
-0.2085821121700577
 31
0.0
  0
SPLINE
  5
E0
330
1F
100
AcDbEntity
  8
0
  6
Continuous
 62
   131
370
    15
100
AcDbSpline
210
0.0
220
0.0
230
1.0
 70
     8
 71
     3
 72
     8
 73
     4
 74
     0
 42
0.000000001
 43
0.00000001
 40
0.0
 40
0.0
 40
0.0
 40
0.0
 40
1.0
 40
1.0
 40
1.0
 40
1.0
 10
12.00000000000006
 20
-8.011447610754281
 30
0.0
 10
11.66854885194282
 20
-7.810395531964909
 30
0.0
 10
11.3344093780333
 20
-7.59554034284597
 30
0.0
 10
11.00007003323033
 20
-7.368377297286113
 30
0.0
  0
SPLINE
  5
E1
330
1F
100
AcDbEntity
  8
0
  6
Continuous
 62
   131
370
    15
100
AcDbSpline
210
0.0
220
0.0
230
1.0
 70
     8
 71
     3
 72
     8
 73
     4
 74
     0
 42
0.000000001
 43
0.00000001
 40
0.0
 40
0.0
 40
0.0
 40
0.0
 40
1.0
 40
1.0
 40
1.0
 40
1.0
 10
11.99999999999997
 20
-9.22660362111567
 30
0.0
 10
11.66854885194282
 20
-9.094859291842871
 30
0.0
 10
11.3344093780333
 20
-8.947476463814453
 30
0.0
 10
11.00007003323034
 20
-8.785427248933152
 30
0.0
  0
LINE
  5
E2
330
1F
100
AcDbEntity
  8
0
  6
Continuous
 62
   131
370
    15
100
AcDbLine
 10
-126.0
 20
-0.044108411338186
 30
0.0
 11
-126.0
 21
9.955891588661808
 31
0.0
  0
LINE
  5
E3
330
1F
100
AcDbEntity
  8
0
  6
Continuous
 62
   131
370
    15
100
AcDbLine
 10
-126.0
 20
-10.04410841133818
 30
0.0
 11
-126.0
 21
-0.044108411338186
 31
0.0
  0
LINE
  5
E4
330
1F
100
AcDbEntity
  8
0
  6
Continuous
 62
   131
370
    15
100
AcDbLine
 10
11.00007003323037
 20
2.190050268839441
 30
0.0
 11
11.00007003323037
 21
8.53273732829554
 31
0.0
  0
LINE
  5
E5
330
1F
100
AcDbEntity
  8
0
  6
Continuous
 62
   131
370
    15
100
AcDbLine
 10
-128.0
 20
-0.044108411338186
 30
0.0
 11
-128.0
 21
7.955891588661817
 31
0.0
  0
LINE
  5
E6
330
1F
100
AcDbEntity
  8
0
  6
Continuous
 62
   131
370
    15
100
AcDbLine
 10
-128.0
 20
-8.04410841133819
 30
0.0
 11
-128.0
 21
-0.044108411338186
 31
0.0
  0
SPLINE
  5
E7
330
1F
100
AcDbEntity
  8
0
  6
Continuous
 62
   131
370
    15
100
AcDbSpline
210
0.0
220
0.0
230
1.0
 70
    24
 71
     3
 72
    15
 73
    11
 74
     0
 42
0.000000001
 43
0.00000001
 40
0.0
 40
0.0
 40
0.0
 40
0.0
 40
0.1111790146543319
 40
0.2544332226256946
 40
0.3976874305970609
 40
0.5409416385684248
 40
0.6841958465397895
 40
0.8274500545111602
 40
0.9707042624825192
 40
1.0
 40
1.0
 40
1.0
 40
1.0
 10
12.00000000000006
 20
-8.011447610754276
 30
0.0
 10
12.00000000000003
 20
-7.761484310191074
 30
0.0
 10
12.00000000000003
 20
-7.189443189857473
 30
0.0
 10
12.00000000000003
 20
-6.01676691990316
 30
0.0
 10
12.00000000000014
 20
-4.656812735265603
 30
0.0
 10
12.00000000000009
 20
-3.333046029027077
 30
0.0
 10
11.99999999999977
 20
-2.189070770295222
 30
0.0
 10
12.00000000000011
 20
-1.400864717541842
 30
0.0
 10
11.99999999999989
 20
-1.014382629728978
 30
0.0
 10
11.99999999999991
 20
-1.045997217257869
 30
0.0
 10
11.99999999999991
 20
-1.051364779996564
 30
0.0
  0
SPLINE
  5
E8
330
1F
100
AcDbEntity
  8
0
  6
Continuous
 62
   131
370
    15
100
AcDbSpline
210
0.0
220
0.0
230
1.0
 70
    24
 71
     3
 72
    15
 73
    11
 74
     0
 42
0.000000001
 43
0.00000001
 40
0.0
 40
0.0
 40
0.0
 40
0.0
 40
0.1042439576318584
 40
0.2454155103570352
 40
0.3865870630822096
 40
0.527758615807385
 40
0.6689301685325661
 40
0.8101017212577359
 40
0.9512732739829163
 40
1.0
 40
1.0
 40
1.0
 40
1.0
 10
12.00000000000003
 20
1.039099515682562
 30
0.0
 10
12.00000000000006
 20
1.053273847611708
 30
0.0
 10
12.00000000000006
 20
1.086643656120382
 30
0.0
 10
12.00000000000021
 20
1.661107819470941
 30
0.0
 10
12.00000000000003
 20
2.609765325569216
 30
0.0
 10
11.99999999999986
 20
3.842129311701764
 30
0.0
 10
12.00000000000003
 20
5.201406371390389
 30
0.0
 10
11.99999999999986
 20
6.534422110394143
 30
0.0
 10
11.99999999999991
 20
7.452181263030415
 30
0.0
 10
11.99999999999991
 20
7.869530440667702
 30
0.0
 10
11.99999999999989
 20
7.976619663207671
 30
0.0
  0
LINE
  5
E9
330
1F
100
AcDbEntity
  8
중심선
 62
     1
100
AcDbLine
 10
-135.2025927748896
 20
-0.0441084113381922
 30
0.0
 11
129.0
 21
-0.0441084113380893
 31
0.0
  0
CIRCLE
  5
EA
330
1F
100
AcDbEntity
  8
외형선
100
AcDbCircle
 10
0.0
 20
0.0
 30
0.0
 40
3.000000000000004
  0
INSERT
  5
EB
330
1F
100
AcDbEntity
  8
0
  6
Continuous
 62
     7
100
AcDbBlockReference
 66
     1
  2
블럭10
 10
-22.93944368806589
 20
-52.04609937292004
 30
0.0
  0
ATTRIB
  5
EC
330
EB
100
AcDbEntity
  8
FORMAT
 62
     2
100
AcDbText
 10
-45.37735214194733
 20
-49.97073246008785
 30
0.0
 40
4.233333333333333
  1
SEME75200110250E [ 6 FLUTE ]
 41
0.75
  7
SLDTEXTSTYLE0
 11
-45.37735214194733
 21
-52.08739912675452
 31
0.0
100
AcDbAttribute
  2
AUTOATTR0
 70
     0
 74
     1
  0
SEQEND
  5
ED
330
EB
100
AcDbEntity
  8
0
  6
Continuous
 62
     7
  0
HATCH
  5
EE
330
1F
100
AcDbEntity
  8
중심선
100
AcDbHatch
 10
0.0
 20
0.0
 30
0.0
210
0.0
220
0.0
230
1.0
  2
SOLID
 70
     1
 71
     0
 91
        1
 92
        0
 93
        4
 72
     1
 10
-17.22453438368504
 20
-35.7989250712761
 11
-20.67080962752232
 21
-35.7989250712761
 72
     1
 10
-20.67080962752232
 20
-35.7989250712761
 11
-22.79903948672635
 21
-38.3352506518487
 72
     1
 10
-22.79903948672635
 20
-38.3352506518487
 11
-19.35273115777591
 21
-38.33521122254621
 72
     1
 10
-19.35273115777591
 20
-38.33521122254621
 11
-17.22453438368504
 21
-35.7989250712761
 97
        0
 75
     0
 76
     1
 98
        1
 10
0.0
 20
0.0
  0
HATCH
  5
EF
330
1F
100
AcDbEntity
  8
중심선
100
AcDbHatch
 10
0.0
 20
0.0
 30
0.0
210
0.0
220
0.0
230
1.0
  2
SOLID
 70
     1
 71
     0
 91
        1
 92
        0
 93
        4
 72
     1
 10
-12.21177039264909
 20
-35.7989250712761
 11
-15.65804563648637
 21
-35.7989250712761
 72
     1
 10
-15.65804563648637
 20
-35.7989250712761
 11
-20.18918364484376
 21
-41.19892507127612
 72
     1
 10
-20.18918364484376
 20
-41.19892507127612
 11
-16.74290840100648
 21
-41.19892507127612
 72
     1
 10
-16.74290840100648
 20
-41.19892507127612
 11
-12.21177039264909
 21
-35.7989250712761
 97
        0
 75
     0
 76
     1
 98
        1
 10
0.0
 20
0.0
  0
HATCH
  5
F0
330
1F
100
AcDbEntity
  8
중심선
100
AcDbHatch
 10
0.0
 20
0.0
 30
0.0
210
0.0
220
0.0
230
1.0
  2
SOLID
 70
     1
 71
     0
 91
        1
 92
        0
 93
        4
 72
     1
 10
-7.199006401613195
 20
-35.79892507127613
 11
-10.64528164545031
 21
-35.7989250712761
 72
     1
 10
-10.64528164545031
 20
-35.7989250712761
 11
-17.69371854733956
 21
-44.19892507127612
 72
     1
 10
-17.69371854733956
 20
-44.19892507127612
 11
-14.24744330350228
 21
-44.19892507127612
 72
     1
 10
-14.24744330350228
 20
-44.19892507127612
 11
-7.199006401613195
 21
-35.79892507127613
 97
        0
 75
     0
 76
     1
 98
        1
 10
0.0
 20
0.0
  0
HATCH
  5
F1
330
1F
100
AcDbEntity
  8
중심선
100
AcDbHatch
 10
0.0
 20
0.0
 30
0.0
210
0.0
220
0.0
230
1.0
  2
SOLID
 70
     1
 71
     0
 91
        1
 92
        0
 93
        6
 72
     3
 10
-2.399115970600996
 20
-39.99892507132738
 11
3.960054785062284
 21
1.540850780301639E-10
 40
0.3939339440162633
 50
17.09539180608433
 51
320.0019657685079
 73
     0
 72
     1
 10
-0.7161163149004002
 20
-38.58681907591441
 11
1.589185558800638
 21
-36.65249236586649
 72
     3
 10
-2.399115970653842
 20
-39.99892507127625
 11
6.600054785286829
 21
-1.249000902703301E-13
 40
0.6363583540795982
 50
39.99873849337408
 51
368.4976242363725
 73
     1
 72
     1
 10
4.026216521246767
 20
-39.03892507120613
 11
-3.71904866381792
 21
-39.0389250712061
 72
     1
 10
-3.71904866381792
 20
-39.0389250712061
 11
-3.719073708263854
 21
-40.95892507120602
 72
     1
 10
-3.719073708263854
 20
-40.95892507120602
 11
0.7223060612081831
 21
-40.95892507120599
 97
        0
 75
     0
 76
     1
 98
        1
 10
0.0
 20
0.0
  0
DIMENSION
  5
F2
330
1F
100
AcDbEntity
  8
치수문자_일반주서
100
AcDbDimension
  2
_D
 10
-144.6289061313234
 20
-10.04410841133824
 30
0.0
 11
-144.6289061313234
 21
-0.0441084113382045
 31
0.0
 70
   160
  1
%%c<>
 71
     2
 42
19.99999999999996
 52
-270.0
  3
SLDDIMSTYLE0
100
AcDbAlignedDimension
 13
-126.0
 23
9.955891588661794
 33
0.0
 14
-126.0
 24
-10.04410841133817
 34
0.0
 50
90.0000000000002
100
AcDbRotatedDimension
  0
DIMENSION
  5
100
330
1F
100
AcDbEntity
  8
치수문자_일반주서
100
AcDbDimension
  2
_D_1
 10
132.0
 20
-10.04410841133815
 30
0.0
 11
132.0
 21
1.274753088853799
 31
0.0
 70
   160
  1
%%c<>
 71
     2
 42
20.0
 52
-270.0
  3
SLDDIMSTYLE0
100
AcDbAlignedDimension
 13
122.0
 23
9.955891588661816
 33
0.0
 14
122.0
 24
-10.04410841133819
 34
0.0
 50
90.0000000000002
100
AcDbRotatedDimension
  0
DIMENSION
  5
10D
330
1F
100
AcDbEntity
  8
치수문자_일반주서
100
AcDbDimension
  2
_D_2
 10
122.0
 20
52.66805536462188
 30
0.0
 11
57.01748654054406
 21
52.66805536462188
 31
0.0
 70
   160
  1
<>
 71
     2
 42
110.0
  3
SLDDIMSTYLE1
100
AcDbAlignedDimension
 13
12.00000000000003
 23
9.173214745980072
 33
0.0
 14
122.0
 24
9.882917097705192
 34
0.0
 50
-0.0000000000000037
100
AcDbRotatedDimension
  0
DIMENSION
  5
118
330
1F
100
AcDbEntity
  8
치수문자_일반주서
100
AcDbDimension
  2
_D_3
 10
-128.0
 20
80.82759975857482
 30
0.0
 11
4.745407996067939
 21
80.82759975857482
 31
0.0
 70
   160
  1
<>
 71
     2
 42
250.0
  3
SLDDIMSTYLE1
100
AcDbAlignedDimension
 13
122.0
 23
9.882917097705192
 33
0.0
 14
-128.0
 24
7.955891588661817
 34
0.0
 50
0.0000000000000065
100
AcDbRotatedDimension
  0
INSERT
  5
128
330
1F
100
AcDbEntity
  8
외형선
100
AcDbBlockReference
  2
SW_DOWELSYMBOL_0
 10
0.0
 20
0.0
 30
0.0
  0
ENDSEC
  0
SECTION
  2
OBJECTS
  0
DICTIONARY
  5
C
330
0
100
AcDbDictionary
281
     1
  3
ACAD_GROUP
350
D
  3
ACAD_IMAGE_VARS
350
14C
  3
ACAD_LAYOUT
350
1A
  3
ACAD_MLINESTYLE
350
17
  3
ACAD_PLOTSETTINGS
350
19
  3
ACAD_PLOTSTYLENAME
350
E
  3
ACAD_SCALELIST
350
47
  3
APPDATA
350
14A
  3
DWGPROPS
350
155
  0
DICTIONARY
  5
D
102
{ACAD_REACTORS
330
C
102
}
330
C
100
AcDbDictionary
281
     1
  0
RASTERVARIABLES
  5
14C
102
{ACAD_REACTORS
330
C
102
}
330
C
100
AcDbRasterVariables
 90
        0
 70
     1
 71
     1
 72
     1
  0
DICTIONARY
  5
1A
102
{ACAD_REACTORS
330
C
102
}
330
C
100
AcDbDictionary
281
     1
  3
Layout1
350
1E
  3
Layout2
350
26
  3
Model
350
22
  0
DICTIONARY
  5
17
102
{ACAD_REACTORS
330
C
102
}
330
C
100
AcDbDictionary
281
     1
  3
Standard
350
18
  0
DICTIONARY
  5
19
102
{ACAD_REACTORS
330
C
102
}
330
C
100
AcDbDictionary
281
     1
  0
ACDBDICTIONARYWDFLT
  5
E
102
{ACAD_REACTORS
330
C
102
}
330
C
100
AcDbDictionary
281
     1
  3
Normal
350
F
100
AcDbDictionaryWithDefault
340
F
  0
DICTIONARY
  5
47
102
{ACAD_REACTORS
330
C
102
}
330
C
100
AcDbDictionary
281
     1
  3
A0
350
48
  3
A1
350
49
  3
A2
350
4A
  3
A3
350
4B
  3
A4
350
4C
  3
A5
350
4D
  3
A6
350
4E
  3
A7
350
4F
  3
A8
350
50
  3
A9
350
51
  3
B0
350
52
  3
B1
350
53
  3
B2
350
54
  3
B3
350
55
  3
B4
350
56
  3
B5
350
57
  3
B6
350
58
  3
B7
350
59
  3
B8
350
5A
  3
B9
350
5B
  3
C0
350
5C
  3
C1
350
5D
  3
C2
350
5E
  3
C3
350
5F
  3
C4
350
60
  3
C5
350
61
  3
C6
350
62
  3
C7
350
63
  3
C8
350
64
  3
C9
350
65
  3
D0
350
66
  3
D1
350
67
  3
D2
350
68
  0
DICTIONARY
  5
14A
102
{ACAD_REACTORS
330
C
102
}
330
C
100
AcDbDictionary
281
     1
  0
XRECORD
  5
155
102
{ACAD_REACTORS
330
C
102
}
330
C
100
AcDbXrecord
280
     1
  1
DWGPROPS COOKIE
  2

  3

  4

  6

  7

  8
12016016
  9

300
=
301
=
302
=
303
=
304
=
305
=
306
=
307
=
308
=
309
=
 40
0.0
 41
2458268.398778808
 42
2458269.993528472
  1

 90
        0
  0
LAYOUT
  5
1E
102
{ACAD_REACTORS
330
1A
102
}
330
1A
100
AcDbPlotSettings
  1

  2
none_device
  4

  6

 40
0.0
 41
0.0
 42
0.0
 43
0.0
 44
0.0
 45
0.0
 46
0.0
 47
0.0
 48
0.0
 49
0.0
140
0.0
141
0.0
142
1.0
143
1.0
 70
   688
 72
     1
 73
     0
 74
     5
  7

 75
    16
147
1.0
148
0.0
149
0.0
100
AcDbLayout
  1
Layout1
 70
     1
 71
     1
 10
0.0
 20
0.0
 11
420.0
 21
297.0
 12
0.0
 22
0.0
 32
0.0
 14
1.000000000000000E+20
 24
1.000000000000000E+20
 34
1.000000000000000E+20
 15
-1.000000000000000E+20
 25
-1.000000000000000E+20
 35
-1.000000000000000E+20
146
0.0
 13
0.0
 23
0.0
 33
0.0
 16
1.0
 26
0.0
 36
0.0
 17
0.0
 27
1.0
 37
0.0
 76
     0
330
1B
  0
LAYOUT
  5
26
102
{ACAD_REACTORS
330
1A
102
}
330
1A
100
AcDbPlotSettings
  1

  2
none_device
  4

  6

 40
0.0
 41
0.0
 42
0.0
 43
0.0
 44
0.0
 45
0.0
 46
0.0
 47
0.0
 48
0.0
 49
0.0
140
0.0
141
0.0
142
1.0
143
1.0
 70
   688
 72
     1
 73
     0
 74
     5
  7

 75
    16
147
1.0
148
0.0
149
0.0
100
AcDbLayout
  1
Layout2
 70
     1
 71
     2
 10
0.0
 20
0.0
 11
0.0
 21
0.0
 12
0.0
 22
0.0
 32
0.0
 14
0.0
 24
0.0
 34
0.0
 15
0.0
 25
0.0
 35
0.0
146
0.0
 13
0.0
 23
0.0
 33
0.0
 16
1.0
 26
0.0
 36
0.0
 17
0.0
 27
1.0
 37
0.0
 76
     0
330
23
  0
LAYOUT
  5
22
102
{ACAD_REACTORS
330
1A
102
}
330
1A
100
AcDbPlotSettings
  1

  2
none_device
  4
ANSI_A_(11.00_x_8.50_Inches)
  6

 40
6.35
 41
19.05
 42
6.35000508
 43
19.05000254
 44
279.4
 45
215.9
 46
58.94879811854467
 47
71.9083603332665
 48
0.0
 49
0.0
140
0.0
141
0.0
142
0.0385904574398103
143
1.0
 70
  1696
 72
     0
 73
     0
 74
     0
  7

 75
     0
147
0.0235690232323232
148
0.0
149
0.0
100
AcDbLayout
  1
Model
 70
     1
 71
     0
 10
0.0
 20
0.0
 11
420.0
 21
297.0
 12
0.0
 22
0.0
 32
0.0
 14
-149.0039061313235
 24
-49.97073246008785
 34
0.0
 15
132.5503333333334
 25
85.20259975857482
 35
0.0
146
0.0
 13
0.0
 23
0.0
 33
0.0
 16
1.0
 26
0.0
 36
0.0
 17
0.0
 27
1.0
 37
0.0
 76
     0
330
1F
331
29
  0
MLINESTYLE
  5
18
102
{ACAD_REACTORS
330
17
102
}
330
17
100
AcDbMlineStyle
  2
Standard
 70
     0
  3

 62
   256
 51
90.0
 52
90.0
 71
     2
 49
0.5
 62
   256
  6
BYLAYER
 49
-0.5
 62
   256
  6
BYLAYER
  0
ACDBPLACEHOLDER
  5
F
102
{ACAD_REACTORS
330
E
102
}
330
E
  0
SCALE
  5
48
102
{ACAD_REACTORS
330
47
102
}
330
47
100
AcDbScale
 70
     0
300
1:1
140
1.0
141
1.0
290
     1
  0
SCALE
  5
49
102
{ACAD_REACTORS
330
47
102
}
330
47
100
AcDbScale
 70
     0
300
1:2
140
1.0
141
2.0
290
     0
  0
SCALE
  5
4A
102
{ACAD_REACTORS
330
47
102
}
330
47
100
AcDbScale
 70
     0
300
1:4
140
1.0
141
4.0
290
     0
  0
SCALE
  5
4B
102
{ACAD_REACTORS
330
47
102
}
330
47
100
AcDbScale
 70
     0
300
1:5
140
1.0
141
5.0
290
     0
  0
SCALE
  5
4C
102
{ACAD_REACTORS
330
47
102
}
330
47
100
AcDbScale
 70
     0
300
1:8
140
1.0
141
8.0
290
     0
  0
SCALE
  5
4D
102
{ACAD_REACTORS
330
47
102
}
330
47
100
AcDbScale
 70
     0
300
1:10
140
1.0
141
10.0
290
     0
  0
SCALE
  5
4E
102
{ACAD_REACTORS
330
47
102
}
330
47
100
AcDbScale
 70
     0
300
1:16
140
1.0
141
16.0
290
     0
  0
SCALE
  5
4F
102
{ACAD_REACTORS
330
47
102
}
330
47
100
AcDbScale
 70
     0
300
1:20
140
1.0
141
20.0
290
     0
  0
SCALE
  5
50
102
{ACAD_REACTORS
330
47
102
}
330
47
100
AcDbScale
 70
     0
300
1:30
140
1.0
141
30.0
290
     0
  0
SCALE
  5
51
102
{ACAD_REACTORS
330
47
102
}
330
47
100
AcDbScale
 70
     0
300
1:40
140
1.0
141
40.0
290
     0
  0
SCALE
  5
52
102
{ACAD_REACTORS
330
47
102
}
330
47
100
AcDbScale
 70
     0
300
1:50
140
1.0
141
50.0
290
     0
  0
SCALE
  5
53
102
{ACAD_REACTORS
330
47
102
}
330
47
100
AcDbScale
 70
     0
300
1:100
140
1.0
141
100.0
290
     0
  0
SCALE
  5
54
102
{ACAD_REACTORS
330
47
102
}
330
47
100
AcDbScale
 70
     0
300
2:1
140
2.0
141
1.0
290
     0
  0
SCALE
  5
55
102
{ACAD_REACTORS
330
47
102
}
330
47
100
AcDbScale
 70
     0
300
4:1
140
4.0
141
1.0
290
     0
  0
SCALE
  5
56
102
{ACAD_REACTORS
330
47
102
}
330
47
100
AcDbScale
 70
     0
300
8:1
140
8.0
141
1.0
290
     0
  0
SCALE
  5
57
102
{ACAD_REACTORS
330
47
102
}
330
47
100
AcDbScale
 70
     0
300
10:1
140
10.0
141
1.0
290
     0
  0
SCALE
  5
58
102
{ACAD_REACTORS
330
47
102
}
330
47
100
AcDbScale
 70
     0
300
100:1
140
100.0
141
1.0
290
     0
  0
SCALE
  5
59
102
{ACAD_REACTORS
330
47
102
}
330
47
100
AcDbScale
 70
     0
300
1/128" = 1'-0"
140
0.0078125
141
12.0
290
     0
  0
SCALE
  5
5A
102
{ACAD_REACTORS
330
47
102
}
330
47
100
AcDbScale
 70
     0
300
1/64" = 1'-0"
140
0.015625
141
12.0
290
     0
  0
SCALE
  5
5B
102
{ACAD_REACTORS
330
47
102
}
330
47
100
AcDbScale
 70
     0
300
1/32" = 1'-0"
140
0.03125
141
12.0
290
     0
  0
SCALE
  5
5C
102
{ACAD_REACTORS
330
47
102
}
330
47
100
AcDbScale
 70
     0
300
1/16" = 1'-0"
140
0.0625
141
12.0
290
     0
  0
SCALE
  5
5D
102
{ACAD_REACTORS
330
47
102
}
330
47
100
AcDbScale
 70
     0
300
3/32" = 1'-0"
140
0.09375
141
12.0
290
     0
  0
SCALE
  5
5E
102
{ACAD_REACTORS
330
47
102
}
330
47
100
AcDbScale
 70
     0
300
1/8" = 1'-0"
140
0.125
141
12.0
290
     0
  0
SCALE
  5
5F
102
{ACAD_REACTORS
330
47
102
}
330
47
100
AcDbScale
 70
     0
300
3/16" = 1'-0"
140
0.1875
141
12.0
290
     0
  0
SCALE
  5
60
102
{ACAD_REACTORS
330
47
102
}
330
47
100
AcDbScale
 70
     0
300
1/4" = 1'-0"
140
0.25
141
12.0
290
     0
  0
SCALE
  5
61
102
{ACAD_REACTORS
330
47
102
}
330
47
100
AcDbScale
 70
     0
300
3/8" = 1'-0"
140
0.375
141
12.0
290
     0
  0
SCALE
  5
62
102
{ACAD_REACTORS
330
47
102
}
330
47
100
AcDbScale
 70
     0
300
1/2" = 1'-0"
140
0.5
141
12.0
290
     0
  0
SCALE
  5
63
102
{ACAD_REACTORS
330
47
102
}
330
47
100
AcDbScale
 70
     0
300
3/4" = 1'-0"
140
0.75
141
12.0
290
     0
  0
SCALE
  5
64
102
{ACAD_REACTORS
330
47
102
}
330
47
100
AcDbScale
 70
     0
300
1" = 1'-0"
140
1.0
141
12.0
290
     0
  0
SCALE
  5
65
102
{ACAD_REACTORS
330
47
102
}
330
47
100
AcDbScale
 70
     0
300
1-1/2" = 1'-0"
140
1.5
141
12.0
290
     0
  0
SCALE
  5
66
102
{ACAD_REACTORS
330
47
102
}
330
47
100
AcDbScale
 70
     0
300
3" = 1'-0"
140
3.0
141
12.0
290
     0
  0
SCALE
  5
67
102
{ACAD_REACTORS
330
47
102
}
330
47
100
AcDbScale
 70
     0
300
6" = 1'-0"
140
6.0
141
12.0
290
     0
  0
SCALE
  5
68
102
{ACAD_REACTORS
330
47
102
}
330
47
100
AcDbScale
 70
     0
300
1'-0" = 1'-0"
140
12.0
141
12.0
290
     0
  0
ENDSEC
  0
EOF
