  0
SECTION
  2
HEADER
  9
$ACADVER
  1
AC1015
  9
$ACADMAINTVER
 70
     6
  9
$DWGCODEPAGE
  3
ANSI_949
  9
$INSBASE
 10
0.0
 20
0.0
 30
0.0
  9
$EXTMIN
 10
-69.40390613132347
 20
-49.97180738881178
 30
0.0
  9
$EXTMAX
 10
82.55033333333331
 20
83.2613030681043
 30
0.0
  9
$LIMMIN
 10
0.0
 20
0.0
  9
$LIMMAX
 10
420.0
 20
297.0
  9
$ORTHOMODE
 70
     1
  9
$REGENMODE
 70
     1
  9
$FILLMODE
 70
     1
  9
$QTEXTMODE
 70
     0
  9
$MIRRTEXT
 70
     1
  9
$LTSCALE
 40
1.0
  9
$ATTMODE
 70
     1
  9
$TEXTSIZE
 40
3.5
  9
$TRACEWID
 40
1.0
  9
$TEXTSTYLE
  7
Standard
  9
$CLAYER
  8
0
  9
$CELTYPE
  6
ByLayer
  9
$CECOLOR
 62
   256
  9
$CELTSCALE
 40
1.0
  9
$DISPSILH
 70
     0
  9
$DIMSCALE
 40
1.0
  9
$DIMASZ
 40
3.302
  9
$DIMEXO
 40
1.0
  9
$DIMDLI
 40
3.75
  9
$DIMRND
 40
0.0
  9
$DIMDLE
 40
0.0
  9
$DIMEXE
 40
1.0
  9
$DIMTP
 40
0.0
  9
$DIMTM
 40
0.0
  9
$DIMTXT
 40
3.5
  9
$DIMCEN
 40
2.5
  9
$DIMTSZ
 40
0.0
  9
$DIMTOL
 70
     0
  9
$DIMLIM
 70
     0
  9
$DIMTIH
 70
     1
  9
$DIMTOH
 70
     1
  9
$DIMSE1
 70
     0
  9
$DIMSE2
 70
     0
  9
$DIMTAD
 70
     1
  9
$DIMZIN
 70
     0
  9
$DIMBLK
  1

  9
$DIMASO
 70
     1
  9
$DIMSHO
 70
     1
  9
$DIMPOST
  1

  9
$DIMAPOST
  1

  9
$DIMALT
 70
     0
  9
$DIMALTD
 70
     3
  9
$DIMALTF
 40
0.0393700787401575
  9
$DIMLFAC
 40
1.0
  9
$DIMTOFL
 70
     1
  9
$DIMTVP
 40
0.0
  9
$DIMTIX
 70
     0
  9
$DIMSOXD
 70
     0
  9
$DIMSAH
 70
     0
  9
$DIMBLK1
  1

  9
$DIMBLK2
  1

  9
$DIMSTYLE
  2
ISO-25
  9
$DIMCLRD
 70
     0
  9
$DIMCLRE
 70
     0
  9
$DIMCLRT
 70
     0
  9
$DIMTFAC
 40
1.0
  9
$DIMGAP
 40
1.524
  9
$DIMJUST
 70
     0
  9
$DIMSD1
 70
     0
  9
$DIMSD2
 70
     0
  9
$DIMTOLJ
 70
     0
  9
$DIMTZIN
 70
     0
  9
$DIMALTZ
 70
     0
  9
$DIMALTTZ
 70
     0
  9
$DIMUPT
 70
     0
  9
$DIMDEC
 70
     2
  9
$DIMTDEC
 70
     2
  9
$DIMALTU
 70
     2
  9
$DIMALTTD
 70
     3
  9
$DIMTXSTY
  7
Standard
  9
$DIMAUNIT
 70
     0
  9
$DIMADEC
 70
     2
  9
$DIMALTRND
 40
0.0
  9
$DIMAZIN
 70
     0
  9
$DIMDSEP
 70
    44
  9
$DIMATFIT
 70
     3
  9
$DIMFRAC
 70
     0
  9
$DIMLDRBLK
  1

  9
$DIMLUNIT
 70
     2
  9
$DIMLWD
 70
    -2
  9
$DIMLWE
 70
    -2
  9
$DIMTMOVE
 70
     0
  9
$LUNITS
 70
     2
  9
$LUPREC
 70
     2
  9
$SKETCHINC
 40
1.0
  9
$FILLETRAD
 40
10.0
  9
$AUNITS
 70
     0
  9
$AUPREC
 70
     2
  9
$MENU
  1
.
  9
$ELEVATION
 40
0.0
  9
$PELEVATION
 40
0.0
  9
$THICKNESS
 40
0.0
  9
$LIMCHECK
 70
     0
  9
$CHAMFERA
 40
0.0
  9
$CHAMFERB
 40
0.0
  9
$CHAMFERC
 40
0.0
  9
$CHAMFERD
 40
0.0
  9
$SKPOLY
 70
     0
  9
$TDCREATE
 40
2458268.773215266
  9
$TDUCREATE
 40
2458268.398215266
  9
$TDUPDATE
 40
2458270.377184236
  9
$TDUUPDATE
 40
2458270.002184236
  9
$TDINDWG
 40
0.0012528241
  9
$TDUSRTIMER
 40
2458270.000931586
  9
$USRTIMER
 70
     1
  9
$ANGBASE
 50
0.0
  9
$ANGDIR
 70
     0
  9
$PDMODE
 70
     0
  9
$PDSIZE
 40
-1.0
  9
$PLINEWID
 40
0.0
  9
$SPLFRAME
 70
     0
  9
$SPLINETYPE
 70
     6
  9
$SPLINESEGS
 70
     8
  9
$HANDSEED
  5
14D
  9
$SURFTAB1
 70
     6
  9
$SURFTAB2
 70
     6
  9
$SURFTYPE
 70
     6
  9
$SURFU
 70
     6
  9
$SURFV
 70
     6
  9
$UCSBASE
  2

  9
$UCSNAME
  2

  9
$UCSORG
 10
0.0
 20
0.0
 30
0.0
  9
$UCSXDIR
 10
1.0
 20
0.0
 30
0.0
  9
$UCSYDIR
 10
0.0
 20
1.0
 30
0.0
  9
$UCSORTHOREF
  2

  9
$UCSORTHOVIEW
 70
     0
  9
$UCSORGTOP
 10
0.0
 20
0.0
 30
0.0
  9
$UCSORGBOTTOM
 10
0.0
 20
0.0
 30
0.0
  9
$UCSORGLEFT
 10
0.0
 20
0.0
 30
0.0
  9
$UCSORGRIGHT
 10
0.0
 20
0.0
 30
0.0
  9
$UCSORGFRONT
 10
0.0
 20
0.0
 30
0.0
  9
$UCSORGBACK
 10
0.0
 20
0.0
 30
0.0
  9
$PUCSBASE
  2

  9
$PUCSNAME
  2

  9
$PUCSORG
 10
0.0
 20
0.0
 30
0.0
  9
$PUCSXDIR
 10
1.0
 20
0.0
 30
0.0
  9
$PUCSYDIR
 10
0.0
 20
1.0
 30
0.0
  9
$PUCSORTHOREF
  2

  9
$PUCSORTHOVIEW
 70
     0
  9
$PUCSORGTOP
 10
0.0
 20
0.0
 30
0.0
  9
$PUCSORGBOTTOM
 10
0.0
 20
0.0
 30
0.0
  9
$PUCSORGLEFT
 10
0.0
 20
0.0
 30
0.0
  9
$PUCSORGRIGHT
 10
0.0
 20
0.0
 30
0.0
  9
$PUCSORGFRONT
 10
0.0
 20
0.0
 30
0.0
  9
$PUCSORGBACK
 10
0.0
 20
0.0
 30
0.0
  9
$USERI1
 70
     0
  9
$USERI2
 70
     0
  9
$USERI3
 70
     0
  9
$USERI4
 70
     0
  9
$USERI5
 70
     0
  9
$USERR1
 40
0.0
  9
$USERR2
 40
0.0
  9
$USERR3
 40
0.0
  9
$USERR4
 40
0.0
  9
$USERR5
 40
0.0
  9
$WORLDVIEW
 70
     1
  9
$SHADEDGE
 70
     3
  9
$SHADEDIF
 70
    70
  9
$TILEMODE
 70
     1
  9
$MAXACTVP
 70
    64
  9
$PINSBASE
 10
0.0
 20
0.0
 30
0.0
  9
$PLIMCHECK
 70
     0
  9
$PEXTMIN
 10
1.000000000000000E+20
 20
1.000000000000000E+20
 30
1.000000000000000E+20
  9
$PEXTMAX
 10
-1.000000000000000E+20
 20
-1.000000000000000E+20
 30
-1.000000000000000E+20
  9
$PLIMMIN
 10
0.0
 20
0.0
  9
$PLIMMAX
 10
0.0
 20
0.0
  9
$UNITMODE
 70
     0
  9
$VISRETAIN
 70
     1
  9
$PLINEGEN
 70
     0
  9
$PSLTSCALE
 70
     1
  9
$TREEDEPTH
 70
  3020
  9
$CMLSTYLE
  2
Standard
  9
$CMLJUST
 70
     0
  9
$CMLSCALE
 40
20.0
  9
$PROXYGRAPHICS
 70
     1
  9
$MEASUREMENT
 70
     1
  9
$CELWEIGHT
370
    -1
  9
$ENDCAPS
280
     0
  9
$JOINSTYLE
280
     0
  9
$LWDISPLAY
290
     1
  9
$INSUNITS
 70
     4
  9
$HYPERLINKBASE
  1

  9
$STYLESHEET
  1

  9
$XEDIT
290
     1
  9
$CEPSNTYPE
380
     0
  9
$PSTYLEMODE
290
     1
  9
$FINGERPRINTGUID
  2
{AF069EFE-57AF-437F-BB82-A4D703A41E76}
  9
$VERSIONGUID
  2
{FAEB1C32-E019-11D5-929B-00C0DF256EC4}
  9
$EXTNAMES
290
     1
  9
$PSVPSCALE
 40
0.0
  9
$OLESTARTUP
290
     0
  0
ENDSEC
  0
SECTION
  2
CLASSES
  0
CLASS
  1
ACDBDICTIONARYWDFLT
  2
AcDbDictionaryWithDefault
  3
ObjectDBX Classes
 90
        0
280
     0
281
     0
  0
CLASS
  1
VISUALSTYLE
  2
AcDbVisualStyle
  3
ObjectDBX Classes
 90
     4095
280
     0
281
     0
  0
CLASS
  1
MATERIAL
  2
AcDbMaterial
  3
ObjectDBX Classes
 90
     1153
280
     0
281
     0
  0
CLASS
  1
SCALE
  2
AcDbScale
  3
ObjectDBX Classes
 90
     1153
280
     0
281
     0
  0
CLASS
  1
SUN
  2
AcDbSun
  3
SCENEOE
 90
     1153
280
     0
281
     0
  0
CLASS
  1
ACDBPLACEHOLDER
  2
AcDbPlaceHolder
  3
ObjectDBX Classes
 90
        0
280
     0
281
     0
  0
CLASS
  1
LAYOUT
  2
AcDbLayout
  3
ObjectDBX Classes
 90
        0
280
     0
281
     0
  0
CLASS
  1
TABLESTYLE
  2
AcDbTableStyle
  3
ObjectDBX Classes
 90
     4095
280
     0
281
     0
  0
CLASS
  1
MLEADERSTYLE
  2
AcDbMLeaderStyle
  3
ACDB_MLEADERSTYLE_CLASS
 90
     4095
280
     0
281
     0
  0
CLASS
  1
RASTERVARIABLES
  2
AcDbRasterVariables
  3
ISM
 90
        0
280
     0
281
     0
  0
ENDSEC
  0
SECTION
  2
TABLES
  0
TABLE
  2
VPORT
  5
8
330
0
100
AcDbSymbolTable
 70
     1
  0
VPORT
  5
29
330
8
100
AcDbSymbolTableRecord
100
AcDbViewportTableRecord
  2
*Active
 70
     0
 10
0.0
 20
0.0
 11
1.0
 21
1.0
 12
4.654740233251403
 22
-2.722719447521272
 13
0.0
 23
0.0
 14
10.0
 24
10.0
 15
10.0
 25
10.0
 16
0.0
 26
0.0
 36
1.0
 17
0.0
 27
0.0
 37
0.0
 40
23.18532665006834
 41
1.627413127413127
 42
50.0
 43
0.0
 44
0.0
 50
0.0
 51
0.0
 71
    16
 72
  2000
 73
     1
 74
     3
 75
     0
 76
     0
 77
     0
 78
     0
281
     0
 65
     1
110
0.0
120
0.0
130
0.0
111
1.0
121
0.0
131
0.0
112
0.0
122
1.0
132
0.0
 79
     0
146
0.0
  0
ENDTAB
  0
TABLE
  2
LTYPE
  5
5
330
0
100
AcDbSymbolTable
 70
     6
  0
LTYPE
  5
14
330
5
100
AcDbSymbolTableRecord
100
AcDbLinetypeTableRecord
  2
ByBlock
 70
     0
  3

 72
    65
 73
     0
 40
0.0
  0
LTYPE
  5
15
330
5
100
AcDbSymbolTableRecord
100
AcDbLinetypeTableRecord
  2
ByLayer
 70
     0
  3

 72
    65
 73
     0
 40
0.0
  0
LTYPE
  5
16
330
5
100
AcDbSymbolTableRecord
100
AcDbLinetypeTableRecord
  2
Continuous
 70
     0
  3
Solid line
 72
    65
 73
     0
 40
0.0
  0
LTYPE
  5
6A
330
5
100
AcDbSymbolTableRecord
100
AcDbLinetypeTableRecord
  2
HIDDEN
 70
     0
  3
Hidden __ __ __ __ __ __ __ __ __ __ __ __ __ __
 72
    65
 73
     2
 40
1.905
 49
1.27
 74
     0
 49
-0.635
 74
     0
  0
LTYPE
  5
6B
330
5
100
AcDbSymbolTableRecord
100
AcDbLinetypeTableRecord
  2
PHANTOM
 70
     0
  3
Phantom ______  __  __  ______  __  __  ______
 72
    65
 73
     6
 40
12.7
 49
6.35
 74
     0
 49
-1.27
 74
     0
 49
1.27
 74
     0
 49
-1.27
 74
     0
 49
1.27
 74
     0
 49
-1.27
 74
     0
  0
LTYPE
  5
6C
330
5
100
AcDbSymbolTableRecord
100
AcDbLinetypeTableRecord
  2
CENTER
 70
     0
  3
Center ____ _ ____ _ ____ _ ____ _ ____ _ ____
 72
    65
 73
     4
 40
10.16
 49
6.35
 74
     0
 49
-1.27
 74
     0
 49
1.27
 74
     0
 49
-1.27
 74
     0
  0
LTYPE
  5
6D
330
5
100
AcDbSymbolTableRecord
100
AcDbLinetypeTableRecord
  2
CENTERX2
 70
     0
  3
Center (2x) ________  __  ________  __  _____
 72
    65
 73
     4
 40
20.32
 49
12.7
 74
     0
 49
-2.54
 74
     0
 49
2.54
 74
     0
 49
-2.54
 74
     0
  0
LTYPE
  5
6E
330
5
100
AcDbSymbolTableRecord
100
AcDbLinetypeTableRecord
  2
DOT2
 70
     0
  3
Dot (.5x) ........................................
 72
    65
 73
     2
 40
0.635
 49
0.0
 74
     0
 49
-0.635
 74
     0
  0
ENDTAB
  0
TABLE
  2
LAYER
  5
2
330
0
100
AcDbSymbolTable
 70
    17
  0
LAYER
  5
10
330
2
100
AcDbSymbolTableRecord
100
AcDbLayerTableRecord
  2
0
 70
     0
 62
     7
  6
Continuous
370
    -3
390
F
  0
LAYER
  5
6F
330
2
100
AcDbSymbolTableRecord
100
AcDbLayerTableRecord
  2
FORMAT
 70
     0
 62
     2
  6
Continuous
370
    -3
390
F
  0
LAYER
  5
70
330
2
100
AcDbSymbolTableRecord
100
AcDbLayerTableRecord
  2
외형선
 70
     0
 62
   100
  6
Continuous
370
    30
390
F
  0
LAYER
  5
71
330
2
100
AcDbSymbolTableRecord
100
AcDbLayerTableRecord
  2
숨은선
 70
     0
 62
     2
  6
HIDDEN
370
    15
390
F
  0
LAYER
  5
72
330
2
100
AcDbSymbolTableRecord
100
AcDbLayerTableRecord
  2
중심선
 70
     0
 62
     1
  6
CENTERX2
370
    -3
390
F
  0
LAYER
  5
73
330
2
100
AcDbSymbolTableRecord
100
AcDbLayerTableRecord
  2
파단선
 70
     0
 62
     4
  6
Continuous
370
    -3
390
F
  0
LAYER
  5
74
330
2
100
AcDbSymbolTableRecord
100
AcDbLayerTableRecord
  2
해칭선
 70
     0
 62
     4
  6
Continuous
370
    -3
390
F
  0
LAYER
  5
75
330
2
100
AcDbSymbolTableRecord
100
AcDbLayerTableRecord
  2
가는실선
 70
     0
 62
     4
  6
Continuous
370
    -3
390
F
  0
LAYER
  5
76
330
2
100
AcDbSymbolTableRecord
100
AcDbLayerTableRecord
  2
치수_보조선
 70
     0
 62
     4
  6
Continuous
370
    -3
390
F
  0
LAYER
  5
77
330
2
100
AcDbSymbolTableRecord
100
AcDbLayerTableRecord
  2
치수문자_일반주서
 70
     0
 62
     7
  6
Continuous
370
    15
390
F
  0
LAYER
  5
78
330
2
100
AcDbSymbolTableRecord
100
AcDbLayerTableRecord
  2
개별주서
 70
     0
 62
   100
  6
Continuous
370
    30
390
F
  0
LAYER
  5
79
330
2
100
AcDbSymbolTableRecord
100
AcDbLayerTableRecord
  2
중간선
 70
     0
 62
     2
  6
Continuous
370
    15
390
F
  0
LAYER
  5
7A
330
2
100
AcDbSymbolTableRecord
100
AcDbLayerTableRecord
  2
윤곽선
 70
     0
 62
     3
  6
Continuous
370
    40
390
F
  0
LAYER
  5
7B
330
2
100
AcDbSymbolTableRecord
100
AcDbLayerTableRecord
  2
중심마크
 70
     0
 62
   100
  6
Continuous
370
    30
390
F
  0
LAYER
  5
7C
330
2
100
AcDbSymbolTableRecord
100
AcDbLayerTableRecord
  2
가상선
 70
     0
 62
     4
  6
PHANTOM
370
    -3
390
F
  0
LAYER
  5
7D
330
2
100
AcDbSymbolTableRecord
100
AcDbLayerTableRecord
  2
특수지정선
 70
     0
 62
     5
  6
CENTERX2
370
    60
390
F
  0
LAYER
  5
144
330
2
100
AcDbSymbolTableRecord
100
AcDbLayerTableRecord
  2
Defpoints
 70
     0
 62
     7
  6
Continuous
290
     0
370
    -3
390
F
  0
ENDTAB
  0
TABLE
  2
STYLE
  5
3
330
0
100
AcDbSymbolTable
 70
     2
  0
STYLE
  5
11
330
3
100
AcDbSymbolTableRecord
100
AcDbTextStyleTableRecord
  2
Standard
 70
     0
 40
0.0
 41
1.0
 50
0.0
 71
     0
 42
3.5
  3
txt
  4

  0
STYLE
  5
93
330
3
100
AcDbSymbolTableRecord
100
AcDbTextStyleTableRecord
  2
SLDTEXTSTYLE0
 70
     0
 40
0.0
 41
0.75
 50
0.0
 71
     0
 42
3.5
  3
TXT
  4

  0
ENDTAB
  0
TABLE
  2
VIEW
  5
6
330
0
100
AcDbSymbolTable
 70
     0
  0
ENDTAB
  0
TABLE
  2
UCS
  5
7
330
0
100
AcDbSymbolTable
 70
     0
  0
ENDTAB
  0
TABLE
  2
APPID
  5
9
330
0
100
AcDbSymbolTable
 70
     1
  0
APPID
  5
12
330
9
100
AcDbSymbolTableRecord
100
AcDbRegAppTableRecord
  2
ACAD
 70
     0
  0
ENDTAB
  0
TABLE
  2
DIMSTYLE
  5
A
330
0
100
AcDbSymbolTable
 70
     3
100
AcDbDimStyleTable
  0
DIMSTYLE
105
27
330
A
100
AcDbSymbolTableRecord
100
AcDbDimStyleTableRecord
  2
ISO-25
 70
     0
 41
2.5
 42
0.625
 43
3.75
 44
1.25
 73
     0
 74
     0
 77
     1
 78
     8
140
2.5
141
2.5
143
0.03937007874016
147
0.625
171
     3
172
     1
178
     0
271
     2
272
     2
274
     3
278
    44
283
     0
284
     8
340
11
  0
DIMSTYLE
105
EA
102
{ACAD_REACTORS
330
E9
330
F7
102
}
330
A
100
AcDbSymbolTableRecord
100
AcDbDimStyleTableRecord
  2
SLDDIMSTYLE0
 70
     0
 41
3.302
 44
0.0
 45
0.000000001
 73
     0
 74
     0
 77
     1
 78
    12
 79
     3
140
3.5
147
0.875
172
     1
173
     1
178
     0
271
     2
272
     2
276
     2
284
    12
289
     0
340
93
  0
DIMSTYLE
105
105
102
{ACAD_REACTORS
330
104
330
10F
102
}
330
A
100
AcDbSymbolTableRecord
100
AcDbDimStyleTableRecord
  2
SLDDIMSTYLE1
 70
     0
 41
3.302
 44
0.0
 45
0.000000001
 73
     0
 74
     0
 77
     1
 78
    12
 79
     3
140
3.5
147
0.875
173
     1
178
     0
271
     2
272
     2
276
     2
284
    12
340
93
  0
ENDTAB
  0
TABLE
  2
BLOCK_RECORD
  5
1
330
0
100
AcDbSymbolTable
 70
     7
  0
BLOCK_RECORD
  5
1F
330
1
100
AcDbSymbolTableRecord
100
AcDbBlockTableRecord
  2
*Model_Space
340
22
  0
BLOCK_RECORD
  5
1B
330
1
100
AcDbSymbolTableRecord
100
AcDbBlockTableRecord
  2
*Paper_Space
340
1E
  0
BLOCK_RECORD
  5
23
330
1
100
AcDbSymbolTableRecord
100
AcDbBlockTableRecord
  2
*Paper_Space0
340
26
  0
BLOCK_RECORD
  5
7E
330
1
100
AcDbSymbolTableRecord
100
AcDbBlockTableRecord
  2
블럭10
340
0
102
{BLKREFS
331
E2
102
}
  0
BLOCK_RECORD
  5
EB
330
1
100
AcDbSymbolTableRecord
100
AcDbBlockTableRecord
  2
_D
340
0
  0
BLOCK_RECORD
  5
F8
330
1
100
AcDbSymbolTableRecord
100
AcDbBlockTableRecord
  2
_D_1
340
0
  0
BLOCK_RECORD
  5
106
330
1
100
AcDbSymbolTableRecord
100
AcDbBlockTableRecord
  2
_D_2
340
0
  0
BLOCK_RECORD
  5
110
330
1
100
AcDbSymbolTableRecord
100
AcDbBlockTableRecord
  2
_D_3
340
0
  0
BLOCK_RECORD
  5
119
330
1
100
AcDbSymbolTableRecord
100
AcDbBlockTableRecord
  2
SW_DOWELSYMBOL_0
340
0
102
{BLKREFS
331
11F
102
}
  0
ENDTAB
  0
ENDSEC
  0
SECTION
  2
BLOCKS
  0
BLOCK
  5
20
330
1F
100
AcDbEntity
  8
0
100
AcDbBlockBegin
  2
*Model_Space
 70
     0
 10
0.0
 20
0.0
 30
0.0
  3
*Model_Space
  1
*Model_Space
  0
ENDBLK
  5
21
330
1F
100
AcDbEntity
  8
0
100
AcDbBlockEnd
  0
BLOCK
  5
1C
330
1B
100
AcDbEntity
 67
     1
  8
0
100
AcDbBlockBegin
  2
*Paper_Space
 70
     0
 10
0.0
 20
0.0
 30
0.0
  3
*Paper_Space
  1
*Paper_Space
  0
ENDBLK
  5
1D
330
1B
100
AcDbEntity
 67
     1
  8
0
100
AcDbBlockEnd
  0
BLOCK
  5
24
330
23
100
AcDbEntity
  8
0
100
AcDbBlockBegin
  2
*Paper_Space0
 70
     0
 10
0.0
 20
0.0
 30
0.0
  3
*Paper_Space0
  1
*Paper_Space0
  0
ENDBLK
  5
25
330
23
100
AcDbEntity
  8
0
100
AcDbBlockEnd
  0
BLOCK
  5
7F
330
7E
100
AcDbEntity
  8
0
100
AcDbBlockBegin
  2
블럭10
 70
     2
 10
0.0
 20
0.0
 30
0.0
  3
블럭10
  1
블럭10
  0
ELLIPSE
  5
81
330
7E
100
AcDbEntity
  8
중심선
100
AcDbEllipse
 10
20.54032771741204
 20
12.0471743016438
 30
0.0
 11
6.600054785286829
 21
-1.261213355974178E-13
 31
0.0
210
0.0
220
0.0
230
1.0
 40
0.636358354079598
 41
0.9219305317359503
 42
6.513795318482858
  0
ELLIPSE
  5
82
330
7E
100
AcDbEntity
  8
중심선
100
AcDbEllipse
 10
20.54032771746488
 20
12.04717430159265
 30
0.0
 11
3.960054785062283
 21
1.540847449632565E-10
 31
0.0
210
0.0
220
0.0
230
1.0
 40
0.3939339440162632
 41
1.131841032648279
 42
5.62031148352944
  0
LINE
  5
83
330
7E
100
AcDbEntity
  8
중심선
100
AcDbLine
 10
2.268634060543552
 20
16.24717430164393
 30
0.0
 11
5.714909304380834
 21
16.24717430164393
 31
0.0
  0
LINE
  5
84
330
7E
100
AcDbEntity
  8
중심선
100
AcDbLine
 10
5.245725140726316
 20
7.84717430164391
 30
0.0
 11
8.692000384563599
 21
7.84717430164391
 31
0.0
  0
LINE
  5
85
330
7E
100
AcDbEntity
  8
중심선
100
AcDbLine
 10
15.74043728645272
 20
16.24717430164393
 30
0.0
 11
8.692000384563599
 21
7.84717430164391
 31
0.0
  0
LINE
  5
86
330
7E
100
AcDbEntity
  8
중심선
100
AcDbLine
 10
0.1404042013395286
 20
13.71084872107135
 30
0.0
 11
3.58671253028996
 21
13.71088815037384
 31
0.0
  0
LINE
  5
87
330
7E
100
AcDbEntity
  8
중심선
100
AcDbLine
 10
2.750260043222114
 20
10.84717430164391
 30
0.0
 11
6.196535287059397
 21
10.84717430164391
 31
0.0
  0
LINE
  5
88
330
7E
100
AcDbEntity
  8
중심선
100
AcDbLine
 10
12.29416204261559
 20
16.24717430164393
 30
0.0
 11
5.245725140726316
 21
7.84717430164391
 31
0.0
  0
LINE
  5
89
330
7E
100
AcDbEntity
  8
중심선
100
AcDbLine
 10
10.72767329541681
 20
16.24717430164393
 30
0.0
 11
6.196535287059397
 21
10.84717430164391
 31
0.0
  0
LINE
  5
8A
330
7E
100
AcDbEntity
  8
중심선
100
AcDbLine
 10
7.28139805157953
 20
16.24717430164393
 30
0.0
 11
2.750260043222114
 21
10.84717430164391
 31
0.0
  0
LINE
  5
8B
330
7E
100
AcDbEntity
  8
중심선
100
AcDbLine
 10
5.714909304380834
 20
16.24717430164393
 30
0.0
 11
3.58671253028996
 21
13.71088815037384
 31
0.0
  0
LINE
  5
8C
330
7E
100
AcDbEntity
  8
중심선
100
AcDbLine
 10
2.268634060543552
 20
16.24717430164393
 30
0.0
 11
0.1404042013395286
 21
13.71084872107135
 31
0.0
  0
LINE
  5
8D
330
7E
100
AcDbEntity
  8
중심선
100
AcDbLine
 10
7.28139805157953
 20
16.24717430164393
 30
0.0
 11
10.72767329541681
 21
16.24717430164393
 31
0.0
  0
LINE
  5
8E
330
7E
100
AcDbEntity
  8
중심선
100
AcDbLine
 10
12.29416204261559
 20
16.24717430164393
 30
0.0
 11
15.74043728645272
 21
16.24717430164393
 31
0.0
  0
LINE
  5
8F
330
7E
100
AcDbEntity
  8
중심선
100
AcDbLine
 10
19.22036997980202
 20
11.08717430171403
 30
0.0
 11
23.66174974927406
 21
11.08717430171406
 31
0.0
  0
LINE
  5
90
330
7E
100
AcDbEntity
  8
중심선
100
AcDbLine
 10
19.22039502424796
 20
13.00717430171391
 30
0.0
 11
19.22036997980202
 21
11.08717430171403
 31
0.0
  0
LINE
  5
91
330
7E
100
AcDbEntity
  8
중심선
100
AcDbLine
 10
19.22039502424796
 20
13.00717430171391
 30
0.0
 11
26.96566020931264
 21
13.00717430171391
 31
0.0
  0
LINE
  5
92
330
7E
100
AcDbEntity
  8
중심선
100
AcDbLine
 10
22.22332737316547
 20
13.45928029700563
 30
0.0
 11
24.52862924686651
 21
15.39360700705356
 31
0.0
  0
ATTDEF
  5
94
330
7E
100
AcDbEntity
  8
FORMAT
 62
     2
100
AcDbText
 10
-16.11926103943555
 20
2.075366912832191
 30
0.0
 40
4.233333333333333
  1
SEME7516060E [ 6 FLUTE ]
 41
0.75
  7
SLDTEXTSTYLE0
 11
-16.11926103943555
 21
-0.0412997538344756
 31
0.0
100
AcDbAttributeDefinition
  3

  2
AUTOATTR0
 70
     0
 74
     1
  0
ENDBLK
  5
80
330
7E
100
AcDbEntity
  8
0
100
AcDbBlockEnd
  0
BLOCK
  5
EC
330
EB
100
AcDbEntity
  8
0
100
AcDbBlockBegin
  2
_D
 70
     0
 10
0.0
 20
0.0
 30
0.0
  3
_D
  1
_D
  0
LINE
  5
EE
330
EB
100
AcDbEntity
  8
치수문자_일반주서
 62
     0
370
    -2
100
AcDbLine
 10
-46.46250000000002
 20
7.99999999999998
 30
0.0
 11
-65.02890613132348
 21
7.999999999999909
 31
0.0
  0
LINE
  5
EF
330
EB
100
AcDbEntity
  8
치수문자_일반주서
 62
     0
370
    -2
100
AcDbLine
 10
-46.46250000000002
 20
-8.000000000000036
 30
0.0
 11
-65.02890613132342
 21
-8.000000000000105
 31
0.0
  0
LINE
  5
F0
330
EB
100
AcDbEntity
  8
치수문자_일반주서
 62
     0
370
    -2
100
AcDbLine
 10
-65.02890613132347
 20
4.69799999999991
 30
0.0
 11
-65.02890613132344
 21
-4.698000000000105
 31
0.0
  0
SOLID
  5
F1
330
EB
100
AcDbEntity
  8
치수문자_일반주서
 62
     0
100
AcDbTrace
 10
-64.47857279799014
 20
4.697999999999912
 30
0.0
 11
-65.5792394646568
 21
4.697999999999908
 31
0.0
 12
-65.02890613132348
 22
7.999999999999909
 32
0.0
 13
-65.02890613132348
 23
7.999999999999909
 33
0.0
  0
SOLID
  5
F2
330
EB
100
AcDbEntity
  8
치수문자_일반주서
 62
     0
100
AcDbTrace
 10
-65.57923946465677
 20
-4.698000000000107
 30
0.0
 11
-64.47857279799011
 21
-4.698000000000103
 31
0.0
 12
-65.02890613132342
 22
-8.000000000000105
 32
0.0
 13
-65.02890613132342
 23
-8.000000000000105
 33
0.0
  0
MTEXT
  5
F3
330
EB
100
AcDbEntity
  8
치수문자_일반주서
 62
     0
100
AcDbMText
 10
-69.40390613132345
 20
-0.0000000000000409
 30
0.0
 40
3.5
 41
0.0
 71
     2
 72
     1
  1
\A1;%%c16
  7
SLDTEXTSTYLE0
 11
-3.552713678800498E-15
 21
1.0
 31
0.0
 73
     1
 44
1.0
  0
POINT
  5
F4
330
EB
100
AcDbEntity
  8
Defpoints
 62
     0
100
AcDbPoint
 10
-46.40000000000002
 20
7.99999999999998
 30
0.0
  0
POINT
  5
F5
330
EB
100
AcDbEntity
  8
Defpoints
 62
     0
100
AcDbPoint
 10
-46.40000000000002
 20
-8.000000000000036
 30
0.0
  0
POINT
  5
F6
330
EB
100
AcDbEntity
  8
Defpoints
 62
     0
100
AcDbPoint
 10
-65.02890613132345
 20
-8.000000000000105
 30
0.0
  0
ENDBLK
  5
ED
330
EB
100
AcDbEntity
  8
0
100
AcDbBlockEnd
  0
BLOCK
  5
F9
330
F8
100
AcDbEntity
  8
0
100
AcDbBlockBegin
  2
_D_1
 70
     0
 10
0.0
 20
0.0
 30
0.0
  3
_D_1
  1
_D_1
  0
LINE
  5
FB
330
F8
100
AcDbEntity
  8
치수문자_일반주서
 62
     0
370
    -2
100
AcDbLine
 10
72.0625
 20
7.999999999999976
 30
0.0
 11
81.99999999999994
 21
8.000000000000016
 31
0.0
  0
LINE
  5
FC
330
F8
100
AcDbEntity
  8
치수문자_일반주서
 62
     0
370
    -2
100
AcDbLine
 10
72.0625
 20
-8.000000000000032
 30
0.0
 11
82.0
 21
-7.99999999999999
 31
0.0
  0
LINE
  5
FD
330
F8
100
AcDbEntity
  8
치수문자_일반주서
 62
     0
370
    -2
100
AcDbLine
 10
81.99999999999996
 20
4.698000000000016
 30
0.0
 11
81.99999999999999
 21
-4.697999999999991
 31
0.0
  0
SOLID
  5
FE
330
F8
100
AcDbEntity
  8
치수문자_일반주서
 62
     0
100
AcDbTrace
 10
82.55033333333328
 20
4.698000000000018
 30
0.0
 11
81.44966666666663
 21
4.698000000000015
 31
0.0
 12
81.99999999999994
 22
8.000000000000016
 32
0.0
 13
81.99999999999994
 23
8.000000000000016
 33
0.0
  0
SOLID
  5
FF
330
F8
100
AcDbEntity
  8
치수문자_일반주서
 62
     0
100
AcDbTrace
 10
81.44966666666666
 20
-4.697999999999992
 30
0.0
 11
82.55033333333331
 21
-4.697999999999989
 31
0.0
 12
82.0
 22
-7.99999999999999
 32
0.0
 13
82.0
 23
-7.99999999999999
 33
0.0
  0
MTEXT
  5
100
330
F8
100
AcDbEntity
  8
치수문자_일반주서
 62
     0
100
AcDbMText
 10
77.62499999999997
 20
1.055089200153545
 30
0.0
 40
3.5
 41
0.0
 71
     2
 72
     1
  1
\A1;%%c16
  7
SLDTEXTSTYLE0
 11
-3.552713678800499E-15
 21
1.0
 31
0.0
 73
     1
 44
1.0
  0
POINT
  5
101
330
F8
100
AcDbEntity
  8
Defpoints
 62
     0
100
AcDbPoint
 10
72.0
 20
7.999999999999976
 30
0.0
  0
POINT
  5
102
330
F8
100
AcDbEntity
  8
Defpoints
 62
     0
100
AcDbPoint
 10
72.0
 20
-8.000000000000032
 30
0.0
  0
POINT
  5
103
330
F8
100
AcDbEntity
  8
Defpoints
 62
     0
100
AcDbPoint
 10
82.0
 20
-7.999999999999995
 30
0.0
  0
ENDBLK
  5
FA
330
F8
100
AcDbEntity
  8
0
100
AcDbBlockEnd
  0
BLOCK
  5
107
330
106
100
AcDbEntity
  8
0
100
AcDbBlockBegin
  2
_D_2
 70
     0
 10
0.0
 20
0.0
 30
0.0
  3
_D_2
  1
_D_2
  0
LINE
  5
109
330
106
100
AcDbEntity
  8
치수문자_일반주서
 62
     0
370
    -2
100
AcDbLine
 10
11.99999999999999
 20
8.052987235617373
 30
0.0
 11
11.99999999999999
 21
51.48532785425918
 31
0.0
  0
LINE
  5
10A
330
106
100
AcDbEntity
  8
치수문자_일반주서
 62
     0
370
    -2
100
AcDbLine
 10
72.0
 20
8.004120407234677
 30
0.0
 11
72.0
 21
51.48532785425918
 31
0.0
  0
LINE
  5
10B
330
106
100
AcDbEntity
  8
치수문자_일반주서
 62
     0
370
    -2
100
AcDbLine
 10
15.30199999999999
 20
51.48532785425918
 30
0.0
 11
68.69800000000001
 21
51.48532785425918
 31
0.0
  0
SOLID
  5
10C
330
106
100
AcDbEntity
  8
치수문자_일반주서
 62
     0
100
AcDbTrace
 10
15.30199999999999
 20
52.03566118759251
 30
0.0
 11
15.30199999999999
 21
50.93499452092584
 31
0.0
 12
11.99999999999999
 22
51.48532785425918
 32
0.0
 13
11.99999999999999
 23
51.48532785425918
 33
0.0
  0
SOLID
  5
10D
330
106
100
AcDbEntity
  8
치수문자_일반주서
 62
     0
100
AcDbTrace
 10
68.69800000000001
 20
50.93499452092584
 30
0.0
 11
68.69800000000001
 21
52.03566118759251
 31
0.0
 12
72.0
 22
51.48532785425918
 32
0.0
 13
72.0
 23
51.48532785425918
 33
0.0
  0
MTEXT
  5
10E
330
106
100
AcDbEntity
  8
치수문자_일반주서
 62
     0
100
AcDbMText
 10
36.55499265847855
 20
55.86032785425918
 30
0.0
 40
3.5
 41
0.0
 71
     2
 72
     1
  1
\A1;60
  7
SLDTEXTSTYLE0
 73
     1
 44
1.0
  0
POINT
  5
146
330
106
100
AcDbEntity
  8
Defpoints
 62
     0
100
AcDbPoint
 10
11.99999999999999
 20
7.990487235617372
 30
0.0
  0
POINT
  5
147
330
106
100
AcDbEntity
  8
Defpoints
 62
     0
100
AcDbPoint
 10
72.0
 20
7.941620407234677
 30
0.0
  0
POINT
  5
148
330
106
100
AcDbEntity
  8
Defpoints
 62
     0
100
AcDbPoint
 10
72.0
 20
51.48532785425918
 30
0.0
  0
ENDBLK
  5
108
330
106
100
AcDbEntity
  8
0
100
AcDbBlockEnd
  0
BLOCK
  5
111
330
110
100
AcDbEntity
  8
0
100
AcDbBlockBegin
  2
_D_3
 70
     0
 10
0.0
 20
0.0
 30
0.0
  3
_D_3
  1
_D_3
  0
LINE
  5
113
330
110
100
AcDbEntity
  8
치수문자_일반주서
 62
     0
370
    -2
100
AcDbLine
 10
72.0
 20
8.004120407234677
 30
0.0
 11
72.0
 21
78.8863030681043
 31
0.0
  0
LINE
  5
114
330
110
100
AcDbEntity
  8
치수문자_일반주서
 62
     0
370
    -2
100
AcDbLine
 10
-48.0
 20
6.46249999999998
 30
0.0
 11
-48.0
 21
78.8863030681043
 31
0.0
  0
LINE
  5
115
330
110
100
AcDbEntity
  8
치수문자_일반주서
 62
     0
370
    -2
100
AcDbLine
 10
68.69800000000001
 20
78.8863030681043
 30
0.0
 11
-44.698
 21
78.8863030681043
 31
0.0
  0
SOLID
  5
116
330
110
100
AcDbEntity
  8
치수문자_일반주서
 62
     0
100
AcDbTrace
 10
68.69800000000001
 20
78.33596973477097
 30
0.0
 11
68.69800000000001
 21
79.43663640143762
 31
0.0
 12
72.0
 22
78.8863030681043
 32
0.0
 13
72.0
 23
78.8863030681043
 33
0.0
  0
SOLID
  5
117
330
110
100
AcDbEntity
  8
치수문자_일반주서
 62
     0
100
AcDbTrace
 10
-44.698
 20
79.43663640143762
 30
0.0
 11
-44.698
 21
78.33596973477097
 31
0.0
 12
-48.0
 22
78.8863030681043
 32
0.0
 13
-48.0
 23
78.8863030681043
 33
0.0
  0
MTEXT
  5
118
330
110
100
AcDbEntity
  8
치수문자_일반주서
 62
     0
100
AcDbMText
 10
15.71779583811263
 20
83.2613030681043
 30
0.0
 40
3.5
 41
0.0
 71
     2
 72
     1
  1
\A1;120
  7
SLDTEXTSTYLE0
 73
     1
 44
1.0
  0
POINT
  5
149
330
110
100
AcDbEntity
  8
Defpoints
 62
     0
100
AcDbPoint
 10
72.0
 20
7.941620407234677
 30
0.0
  0
POINT
  5
14A
330
110
100
AcDbEntity
  8
Defpoints
 62
     0
100
AcDbPoint
 10
-48.0
 20
6.39999999999998
 30
0.0
  0
POINT
  5
14B
330
110
100
AcDbEntity
  8
Defpoints
 62
     0
100
AcDbPoint
 10
-48.0
 20
78.8863030681043
 30
0.0
  0
ENDBLK
  5
112
330
110
100
AcDbEntity
  8
0
100
AcDbBlockEnd
  0
BLOCK
  5
11A
330
119
100
AcDbEntity
  8
0
100
AcDbBlockBegin
  2
SW_DOWELSYMBOL_0
 70
     0
 10
0.0
 20
0.0
 30
0.0
  3
SW_DOWELSYMBOL_0
  1
SW_DOWELSYMBOL_0
  0
CIRCLE
  5
11C
330
119
100
AcDbEntity
  8
외형선
 62
     0
100
AcDbCircle
 10
0.0
 20
0.0
 30
0.0
 40
3.000000000000008
  0
HATCH
  5
11D
330
119
100
AcDbEntity
  8
0
  6
Continuous
 62
     0
370
    30
100
AcDbHatch
 10
0.0
 20
0.0
 30
0.0
210
0.0
220
0.0
230
1.0
  2
SOLID
 70
     1
 71
     0
 91
        1
 92
        0
 93
        3
 72
     2
 10
0.0
 20
0.0
 40
3.000000000000008
 50
0.0
 51
90.0
 73
     1
 72
     1
 10
0.0
 20
3.000000000000008
 11
0.0
 21
0.0
 72
     1
 10
0.0
 20
0.0
 11
3.000000000000008
 21
0.0
 97
        0
 75
     0
 76
     1
 98
        1
 10
0.0
 20
0.0
  0
HATCH
  5
11E
330
119
100
AcDbEntity
  8
0
  6
Continuous
 62
     0
370
    30
100
AcDbHatch
 10
0.0
 20
0.0
 30
0.0
210
0.0
220
0.0
230
1.0
  2
SOLID
 70
     1
 71
     0
 91
        1
 92
        0
 93
        3
 72
     2
 10
0.0
 20
0.0
 40
3.000000000000008
 50
180.0
 51
270.0000000000008
 73
     1
 72
     1
 10
0.0
 20
-3.000000000000008
 11
0.0
 21
0.0
 72
     1
 10
0.0
 20
0.0
 11
-3.000000000000008
 21
0.0
 97
        0
 75
     0
 76
     1
 98
        1
 10
0.0
 20
0.0
  0
ENDBLK
  5
11B
330
119
100
AcDbEntity
  8
0
100
AcDbBlockEnd
  0
ENDSEC
  0
SECTION
  2
ENTITIES
  0
LINE
  5
95
330
1F
100
AcDbEntity
  8
0
  6
Continuous
 62
     1
370
    15
100
AcDbLine
 10
48.55142822125822
 20
1.529854530493638
 30
0.0
 11
48.4791335147703
 21
1.599863863670892
 31
0.0
  0
LINE
  5
96
330
1F
100
AcDbEntity
  8
0
  6
Continuous
 62
     1
370
    15
100
AcDbLine
 10
45.18947926791881
 20
-1.536042321446205
 30
0.0
 11
45.25550907640638
 21
-1.599986485568152
 31
0.0
  0
LINE
  5
97
330
1F
100
AcDbEntity
  8
0
  6
Continuous
 62
     1
370
    15
100
AcDbLine
 10
65.2991497743948
 20
1.536455707446285
 30
0.0
 11
65.23320024176974
 21
1.600080346842707
 31
0.0
  0
LINE
  5
98
330
1F
100
AcDbEntity
  8
0
  6
Continuous
 62
     1
370
    15
100
AcDbLine
 10
45.90102533030864
 20
-8.000000000000032
 30
0.0
 11
47.83331715594562
 21
-8.000000000000032
 31
0.0
  0
LINE
  5
99
330
1F
100
AcDbEntity
  8
0
  6
Continuous
 62
     1
370
    15
100
AcDbLine
 10
22.70261921505116
 20
7.999999999999976
 30
0.0
 11
20.76681813940971
 21
7.999999999999976
 31
0.0
  0
LINE
  5
9A
330
1F
100
AcDbEntity
  8
0
  6
Continuous
 62
     1
370
    15
100
AcDbLine
 10
72.0
 20
7.999999999999976
 30
0.0
 11
71.03207392423653
 21
7.999999999999976
 31
0.0
  0
LINE
  5
9B
330
1F
100
AcDbEntity
  8
0
  6
Continuous
 62
     1
370
    15
100
AcDbLine
 10
71.03207392423649
 20
-8.000000000000032
 30
0.0
 11
72.0
 21
-8.000000000000032
 31
0.0
  0
LINE
  5
9C
330
1F
100
AcDbEntity
  8
0
  6
Continuous
 62
     1
370
    15
100
AcDbLine
 10
20.76681813940972
 20
-8.000000000000032
 30
0.0
 11
22.70261921505123
 21
-8.000000000000032
 31
0.0
  0
LINE
  5
9D
330
1F
100
AcDbEntity
  8
0
  6
Continuous
 62
     1
370
    15
100
AcDbLine
 10
47.83331715594569
 20
7.999999999999976
 30
0.0
 11
45.90102533030864
 21
7.999999999999976
 31
0.0
  0
LINE
  5
9E
330
1F
100
AcDbEntity
  8
0
  6
Continuous
 62
     1
370
    15
100
AcDbLine
 10
29.14584617912938
 20
-8.000000000000032
 30
0.0
 11
31.07939197518326
 21
-8.000000000000032
 31
0.0
  0
LINE
  5
9F
330
1F
100
AcDbEntity
  8
0
  6
Continuous
 62
     1
370
    15
100
AcDbLine
 10
56.21148630066165
 20
7.999999999999976
 30
0.0
 11
54.27733613126843
 21
7.999999999999976
 31
0.0
  0
LINE
  5
A0
330
1F
100
AcDbEntity
  8
0
  6
Continuous
 62
     1
370
    15
100
AcDbLine
 10
37.52312363370542
 20
-8.000000000000032
 30
0.0
 11
39.45708882540968
 21
-8.000000000000032
 31
0.0
  0
LINE
  5
A1
330
1F
100
AcDbEntity
  8
0
  6
Continuous
 62
     1
370
    15
100
AcDbLine
 10
14.32392186410366
 20
7.999999999999976
 30
0.0
 11
12.39001471086557
 21
7.999999999999976
 31
0.0
  0
LINE
  5
A2
330
1F
100
AcDbEntity
  8
0
  6
Continuous
 62
     1
370
    15
100
AcDbLine
 10
64.58882137663231
 20
7.999999999999976
 30
0.0
 11
62.65497552073487
 21
7.999999999999976
 31
0.0
  0
LINE
  5
A3
330
1F
100
AcDbEntity
  8
0
  6
Continuous
 62
     1
370
    15
100
AcDbLine
 10
54.27733613126837
 20
-8.000000000000032
 30
0.0
 11
56.21148630066162
 21
-8.000000000000032
 31
0.0
  0
LINE
  5
A4
330
1F
100
AcDbEntity
  8
0
  6
Continuous
 62
     1
370
    15
100
AcDbLine
 10
31.07939197518323
 20
7.999999999999976
 30
0.0
 11
29.1458461791293
 21
7.999999999999976
 31
0.0
  0
LINE
  5
A5
330
1F
100
AcDbEntity
  8
0
  6
Continuous
 62
     1
370
    15
100
AcDbLine
 10
62.65497552073481
 20
-8.000000000000032
 30
0.0
 11
64.58882137663234
 21
-8.000000000000032
 31
0.0
  0
LINE
  5
A6
330
1F
100
AcDbEntity
  8
0
  6
Continuous
 62
     1
370
    15
100
AcDbLine
 10
12.39001471086549
 20
-8.000000000000032
 30
0.0
 11
14.32392186410364
 21
-8.000000000000032
 31
0.0
  0
LINE
  5
A7
330
1F
100
AcDbEntity
  8
0
  6
Continuous
 62
     1
370
    15
100
AcDbLine
 10
39.4570888254097
 20
7.999999999999976
 30
0.0
 11
37.52312363370537
 21
7.999999999999976
 31
0.0
  0
LINE
  5
A8
330
1F
100
AcDbEntity
  8
0
  6
Continuous
 62
   131
370
    15
100
AcDbLine
 10
-46.40000000000001
 20
-8.000000000000028
 30
0.0
 11
10.99989469369394
 21
-8.000000000000028
 31
0.0
  0
LINE
  5
A9
330
1F
100
AcDbEntity
  8
0
  6
Continuous
 62
   131
370
    15
100
AcDbLine
 10
10.99989469369394
 20
7.999999999999972
 30
0.0
 11
-46.40000000000001
 21
7.999999999999972
 31
0.0
  0
LINE
  5
AA
330
1F
100
AcDbEntity
  8
0
  6
Continuous
 62
   131
370
    15
100
AcDbLine
 10
-46.40000000000001
 20
7.999999999999976
 30
0.0
 11
-48.0
 21
6.39999999999998
 31
0.0
  0
LINE
  5
AB
330
1F
100
AcDbEntity
  8
0
  6
Continuous
 62
   131
370
    15
100
AcDbLine
 10
-48.0
 20
-6.400000000000036
 30
0.0
 11
-46.40000000000001
 21
-8.000000000000032
 31
0.0
  0
SPLINE
  5
AC
330
1F
100
AcDbEntity
  8
0
  6
Continuous
 62
     1
370
    15
100
AcDbSpline
210
0.0
220
0.0
230
1.0
 70
     8
 71
     3
 72
    26
 73
    22
 74
     0
 42
0.000000001
 43
0.00000001
 40
0.0
 40
0.0
 40
0.0
 40
0.0
 40
0.0448282876023075
 40
0.0985842442688904
 40
0.1523794018167268
 40
0.2062106604966885
 40
0.259987824544805
 40
0.3137389297849227
 40
0.3675016231267544
 40
0.4213134217666889
 40
0.4751332758405344
 40
0.5288998781275593
 40
0.5826503855936166
 40
0.6364224518439965
 40
0.690249773393827
 40
0.7440521274163577
 40
0.7978108011006838
 40
0.8515633566199501
 40
0.9053474246412627
 40
0.9591807676393924
 40
1.0
 40
1.0
 40
1.0
 40
1.0
 10
31.07939197518323
 20
7.979918567704796
 30
0.0
 10
31.50296846585357
 20
7.96854445243606
 30
0.0
 10
32.43447779748939
 20
7.943531037515042
 30
0.0
 10
33.87417317438344
 20
7.556914817174146
 30
0.0
 10
35.39956345959637
 20
6.904078801241135
 30
0.0
 10
36.92609333810751
 20
5.993439437980718
 30
0.0
 10
38.45088285270143
 20
4.86728411991268
 30
0.0
 10
39.97478394774546
 20
3.564492639877092
 30
0.0
 10
41.49907615694519
 20
2.132496627828854
 30
0.0
 10
43.02499209379768
 20
0.623494730541517
 30
0.0
 10
44.55116348259438
 20
-0.9078995424392106
 30
0.0
 10
46.07559163418622
 20
-2.406969414447596
 30
0.0
 10
47.59947658473567
 20
-3.818496678658867
 30
0.0
 10
49.12409254564353
 20
-5.092035353466548
 30
0.0
 10
50.6505001691815
 20
-6.180451757718133
 30
0.0
 10
52.17611472864913
 20
-7.045539372740162
 30
0.0
 10
53.7002665423876
 20
-7.654717998122672
 30
0.0
 10
55.22421784636528
 20
-7.988912704885106
 30
0.0
 10
56.7492196705695
 20
-8.024888133586284
 30
0.0
 10
58.15322420200943
 20
-7.820815358456189
 30
0.0
 10
59.04773501508173
 20
-7.481776543085513
 30
0.0
 10
59.43349572565394
 20
-7.335564946291349
 30
0.0
  0
SPLINE
  5
AD
330
1F
100
AcDbEntity
  8
0
  6
Continuous
 62
     1
370
    15
100
AcDbSpline
210
0.0
220
0.0
230
1.0
 70
     8
 71
     3
 72
    26
 73
    22
 74
     0
 42
0.000000001
 43
0.00000001
 40
0.0
 40
0.0
 40
0.0
 40
0.0
 40
0.0469215067411704
 40
0.1006749669763441
 40
0.1544621853350723
 40
0.2082956042028157
 40
0.2620797480242961
 40
0.3158323792993178
 40
0.3695911287480228
 40
0.4233935585964928
 40
0.4772209560074501
 40
0.5309930980410832
 40
0.5847436812600099
 40
0.6385103593225879
 40
0.6923302892470357
 40
0.7461421637262202
 40
0.7999049328380949
 40
0.853656113831925
 40
0.9074333536704794
 40
0.9612646882171171
 40
1.0
 40
1.0
 40
1.0
 40
1.0
 10
62.65497552073479
 20
-7.983907930608977
 30
0.0
 10
62.21160544696589
 20
-7.969087715520629
 30
0.0
 10
61.26030889587247
 20
-7.937289404506619
 30
0.0
 10
59.80096060123583
 20
-7.53669319946248
 30
0.0
 10
58.27582895570887
 20
-6.873070130573593
 30
0.0
 10
56.74923404219911
 20
-5.95347762273606
 30
0.0
 10
55.22421399952444
 20
-4.819646265788381
 30
0.0
 10
53.70026757298417
 20
-3.510891834750119
 30
0.0
 10
52.17611445227087
 20
-2.074979181648225
 30
0.0
 10
50.65050024319515
 20
-0.5638822865912878
 30
0.0
 10
49.12409252623303
 20
0.9670998954579972
 30
0.0
 10
47.59947658843042
 20
2.463836268365098
 30
0.0
 10
46.0755916387984
 20
3.870909026247063
 30
0.0
 10
44.55116346043295
 20
5.138057888965307
 30
0.0
 10
43.02499217791485
 20
6.218569250137167
 30
0.0
 10
41.49907584284489
 20
7.074163198310649
 30
0.0
 10
39.97478511878417
 20
7.672910430206183
 30
0.0
 10
38.45087848231969
 20
7.996141642646145
 30
0.0
 10
36.92610966449564
 20
8.020230920617696
 30
0.0
 10
35.54194387968751
 20
7.810695004767899
 30
0.0
 10
34.66706348605028
 20
7.473974764511021
 30
0.0
 10
34.30096223723081
 20
7.333071274894182
 30
0.0
  0
LINE
  5
AE
330
1F
100
AcDbEntity
  8
0
  6
Continuous
 62
     1
370
    15
100
AcDbLine
 10
12.39001471086549
 20
-7.977224471171239
 30
0.0
 11
11.99999999999999
 21
-7.990487235617264
 31
0.0
  0
LINE
  5
AF
330
1F
100
AcDbEntity
  8
0
  6
Continuous
 62
     1
370
    15
100
AcDbLine
 10
72.0
 20
-3.135346870762421
 30
0.0
 11
72.0
 21
3.135346870762516
 31
0.0
  0
SPLINE
  5
B0
330
1F
100
AcDbEntity
  8
0
  6
Continuous
 62
     1
370
    15
100
AcDbSpline
210
0.0
220
0.0
230
1.0
 70
     8
 71
     3
 72
    23
 73
    19
 74
     0
 42
0.000000001
 43
0.00000001
 40
0.0
 40
0.0
 40
0.0
 40
0.0
 40
0.0594423391858517
 40
0.1188093632638978
 40
0.1782590177207962
 40
0.237730322721932
 40
0.2970992236321539
 40
0.3654581661054364
 40
0.433886882419907
 40
0.5022921434508664
 40
0.570639028303062
 40
0.6389752686116517
 40
0.7073487151739303
 40
0.7757879076658136
 40
0.8441730802897522
 40
0.9125124821919756
 40
0.9808539287658136
 40
1.0
 40
1.0
 40
1.0
 40
1.0
 10
12.0
 20
5.817062871466172
 30
0.0
 10
12.44197769338328
 20
5.498476583041114
 30
0.0
 10
13.3253730820394
 20
4.861707663937088
 30
0.0
 10
14.64911831115006
 20
3.729223878457265
 30
0.0
 10
15.97476234980516
 20
2.50728960223919
 30
0.0
 10
17.30090353604108
 20
1.214136818248976
 30
0.0
 10
18.69103473079612
 20
-0.1797009765391484
 30
0.0
 10
20.14926907261571
 20
-1.636161959362205
 30
0.0
 10
21.67549724658006
 20
-3.099306944764473
 30
0.0
 10
23.20125821328031
 20
-4.450542273480732
 30
0.0
 10
24.72545834345446
 20
-5.640669824200209
 30
0.0
 10
26.24938478739283
 20
-6.626224940512171
 30
0.0
 10
27.77430509188087
 20
-7.372260592254597
 30
0.0
 10
29.30089047097013
 20
-7.849454884317318
 30
0.0
 10
30.82610419266932
 20
-8.047908419727847
 30
0.0
 10
32.35015466188612
 20
-7.934678691533782
 30
0.0
 10
33.50810650439347
 20
-7.687057371963848
 30
0.0
 10
34.15860491365498
 20
-7.396629512887364
 30
0.0
 10
34.30096223723086
 20
-7.333071274894236
 30
0.0
  0
SPLINE
  5
B1
330
1F
100
AcDbEntity
  8
0
  6
Continuous
 62
     1
370
    15
100
AcDbSpline
210
0.0
220
0.0
230
1.0
 70
     8
 71
     3
 72
    18
 73
    14
 74
     0
 42
0.000000001
 43
0.00000001
 40
0.0
 40
0.0
 40
0.0
 40
0.0
 40
0.0340438389220471
 40
0.1307235567229727
 40
0.227320302788726
 40
0.3238564224642627
 40
0.4203994802849257
 40
0.5170169631098231
 40
0.6136898524017061
 40
0.7102639800030562
 40
0.8067953483442419
 40
0.9033515751725513
 40
1.0
 40
1.0
 40
1.0
 40
1.0
 10
56.21148630066165
 20
7.966858291408592
 30
0.0
 10
56.39063534786851
 20
7.975772388218472
 30
0.0
 10
57.07854251039616
 20
8.010001267124537
 30
0.0
 10
58.27586771472998
 20
7.770292368164605
 30
0.0
 10
59.8009421499228
 20
7.255790943745368
 30
0.0
 10
61.32492829794481
 20
6.45897886006511
 30
0.0
 10
62.84902912371805
 20
5.433378472305567
 30
0.0
 10
64.37452631007878
 20
4.209413556132775
 30
0.0
 10
65.90100390189781
 20
2.834072319464304
 30
0.0
 10
67.4257044179386
 20
1.354587735544453
 30
0.0
 10
68.94959539229167
 20
-0.1713697556926744
 30
0.0
 10
70.47395328890562
 20
-1.699576227604259
 30
0.0
 10
71.49115595863296
 20
-2.656604423870474
 30
0.0
 10
72.00000000000003
 20
-3.135346870762421
 30
0.0
  0
SPLINE
  5
B2
330
1F
100
AcDbEntity
  8
0
  6
Continuous
 62
   131
370
    15
100
AcDbSpline
210
0.0
220
0.0
230
1.0
 70
    24
 71
     3
 72
    12
 73
     8
 74
     0
 42
0.000000001
 43
0.00000001
 40
0.0
 40
0.0
 40
0.0
 40
0.0
 40
0.2210923010028636
 40
0.4661984800978702
 40
0.71841275499131
 40
0.9635189340862547
 40
1.0
 40
1.0
 40
1.0
 40
1.0
 10
11.99999999999997
 20
7.9904872356172
 30
0.0
 10
12.00000000000002
 20
7.831404728422921
 30
0.0
 10
12.00000000000013
 20
7.495961012256744
 30
0.0
 10
11.99999999999994
 20
6.974339156070894
 30
0.0
 10
11.99999999999999
 20
6.455744568713876
 30
0.0
 10
12.00000000000008
 20
6.091571846271473
 30
0.0
 10
12.00000000000004
 20
5.923093785315309
 30
0.0
 10
12.00000000000004
 20
5.901266591947327
 30
0.0
  0
SPLINE
  5
B3
330
1F
100
AcDbEntity
  8
0
  6
Continuous
 62
     1
370
    15
100
AcDbSpline
210
0.0
220
0.0
230
1.0
 70
     8
 71
     3
 72
    16
 73
    12
 74
     0
 42
0.000000001
 43
0.00000001
 40
0.0
 40
0.0
 40
0.0
 40
0.0
 40
0.1214223680860363
 40
0.2427289050097097
 40
0.3640042114567458
 40
0.4853332376683419
 40
0.6067863412082785
 40
0.7281698359114348
 40
0.8494598282085726
 40
0.97074110390208
 40
1.0
 40
1.0
 40
1.0
 40
1.0
 10
71.99999999999997
 20
3.135346870762516
 30
0.0
 10
71.49115595408915
 20
3.592097065439932
 30
0.0
 10
70.47395327527859
 20
4.505161736839391
 30
0.0
 10
68.94959544673318
 20
5.681720654249532
 30
0.0
 10
67.42570421379685
 20
6.660257195638719
 30
0.0
 10
65.90100466474082
 20
7.395918832324367
 30
0.0
 10
64.37452346052825
 20
7.862380474916286
 30
0.0
 10
62.84903974778641
 20
8.049796017862583
 30
0.0
 10
61.32488868292306
 20
7.924197439234541
 30
0.0
 10
60.18671401608711
 20
7.675504675192423
 30
0.0
 10
59.55606774984493
 20
7.3908837047489
 30
0.0
 10
59.433495725654
 20
7.335564946291294
 30
0.0
  0
SPLINE
  5
B4
330
1F
100
AcDbEntity
  8
0
  6
Continuous
 62
     1
370
    15
100
AcDbSpline
210
0.0
220
0.0
230
1.0
 70
     8
 71
     3
 72
    25
 73
    21
 74
     0
 42
0.000000001
 43
0.00000001
 40
0.0
 40
0.0
 40
0.0
 40
0.0
 40
0.0233809047071037
 40
0.0831805914307678
 40
0.1429401743849032
 40
0.2026562101421933
 40
0.2623704592869744
 40
0.3221247024060075
 40
0.3819261475163283
 40
0.4416701445262658
 40
0.5013816311038508
 40
0.5611024187714543
 40
0.6208742149288278
 40
0.6806665060657356
 40
0.7403978295555674
 40
0.7922737494747538
 40
0.8442391490093315
 40
0.8961856305265322
 40
0.9480599104895436
 40
1.0
 40
1.0
 40
1.0
 40
1.0
 10
37.52312363370542
 20
-7.965411554721854
 30
0.0
 10
37.32422798488741
 20
-7.974164646887829
 30
0.0
 10
36.61663099884507
 20
-8.005304903962337
 30
0.0
 10
35.39952879745121
 20
-7.755624922576058
 30
0.0
 10
33.87418843001858
 20
-7.22953261402728
 30
0.0
 10
32.35011713090979
 20
-6.423261024047146
 30
0.0
 10
30.82611425619459
 20
-5.389225530692499
 30
0.0
 10
29.30088777123178
 20
-4.158417160634841
 30
0.0
 10
27.7743058147539
 20
-2.778057639352622
 30
0.0
 10
26.24938459389691
 20
-1.296124191436587
 30
0.0
 10
24.72545839529713
 20
0.2323898143057244
 30
0.0
 10
23.20125819937471
 20
1.75267707093277
 30
0.0
 10
21.67549725031017
 20
3.209309853899119
 30
0.0
 10
20.14926907161247
 20
4.549349582049241
 30
0.0
 10
18.69103473102574
 20
5.673773932923345
 30
0.0
 10
17.30090353598309
 20
6.570004358431358
 30
0.0
 10
15.97476234982064
 20
7.243718278472289
 30
0.0
 10
14.6491183111459
 20
7.715356463866549
 30
0.0
 10
13.32537308204039
 20
7.991719825457986
 30
0.0
 10
12.4419776933836
 20
7.990898272495878
 30
0.0
 10
11.99999999999999
 20
7.990487235617206
 30
0.0
  0
SPLINE
  5
B5
330
1F
100
AcDbEntity
  8
0
  6
Continuous
 62
     1
370
    15
100
AcDbSpline
210
0.0
220
0.0
230
1.0
 70
     8
 71
     3
 72
    27
 73
    23
 74
     0
 42
0.000000001
 43
0.00000001
 40
0.0
 40
0.0
 40
0.0
 40
0.0
 40
0.0175921984471393
 40
0.0713509066946361
 40
0.1251012424037885
 40
0.1788808429454404
 40
0.2327121563962572
 40
0.286500980151652
 40
0.3402538026338318
 40
0.3940082333664099
 40
0.4478018638674728
 40
0.5016315944758825
 40
0.5554072319879947
 40
0.6091568114318219
 40
0.6629179786484194
 40
0.7167282497692009
 40
0.7705465760952291
 40
0.8243116521460594
 40
0.8780606338327948
 40
0.9318311736918781
 40
0.9856569672819171
 40
1.0
 40
1.0
 40
1.0
 40
1.0
 10
22.70261921505116
 20
7.968034090676967
 30
0.0
 10
22.8689374143452
 20
7.97692928285236
 30
0.0
 10
23.54349519375559
 20
8.01300664003114
 30
0.0
 10
24.72542934269917
 20
7.779718520197386
 30
0.0
 10
26.24939239378805
 20
7.273096181785682
 30
0.0
 10
27.77430367979102
 20
6.48240825956177
 30
0.0
 10
29.30088850070195
 20
5.462913718358842
 30
0.0
 10
30.82611347328725
 20
4.243486564406731
 30
0.0
 10
32.3501195321919
 20
2.870872216551799
 30
0.0
 10
33.87417960407771
 20
1.394126365374528
 30
0.0
 10
35.39956173511297
 20
-0.1332392049290593
 30
0.0
 10
36.92609379895902
 20
-1.655055174653293
 30
0.0
 10
38.45088273248032
 20
-3.117788001079295
 30
0.0
 10
39.97478396823216
 20
-4.467171196908266
 30
0.0
 10
41.49907619524197
 20
-5.654963025723049
 30
0.0
 10
43.02499191990776
 20
-6.63752860182856
 30
0.0
 10
44.55116413962665
 20
-7.380004409905542
 30
0.0
 10
46.07558918293086
 20
-7.853856955592363
 30
0.0
 10
47.59948573233501
 20
-8.048583023698477
 30
0.0
 10
49.12405837568052
 20
-7.931170090400975
 30
0.0
 10
50.27741763729881
 20
-7.683399897035398
 30
0.0
 10
50.92180704854601
 20
-7.394635516760778
 30
0.0
 10
51.05738952677335
 20
-7.333878170941515
 30
0.0
  0
SPLINE
  5
B6
330
1F
100
AcDbEntity
  8
0
  6
Continuous
 62
     1
370
    15
100
AcDbSpline
210
0.0
220
0.0
230
1.0
 70
     8
 71
     3
 72
    27
 73
    23
 74
     0
 42
0.000000001
 43
0.00000001
 40
0.0
 40
0.0
 40
0.0
 40
0.0
 40
0.0203554900565057
 40
0.0741119027240731
 40
0.1279119938927092
 40
0.1817370515385445
 40
0.2355068562088922
 40
0.2892551030016502
 40
0.3430194439384503
 40
0.3968370344223721
 40
0.4506465698111844
 40
0.5044070019671951
 40
0.5581558465088724
 40
0.6119307487625503
 40
0.6657597433729271
 40
0.7195526383695419
 40
0.7733063341336404
 40
0.8270584216693286
 40
0.8808465099859977
 40
0.9346770874171392
 40
0.9884559526461718
 40
1.0
 40
1.0
 40
1.0
 40
1.0
 10
54.27733613126837
 20
-7.965851233654693
 30
0.0
 10
54.08499655786244
 20
-7.974684355739404
 30
0.0
 10
53.38471119432268
 20
-8.006844695916662
 30
0.0
 10
52.17612029943962
 20
-7.760483275389129
 30
0.0
 10
50.65049867515336
 20
-7.238237095454322
 30
0.0
 10
49.12409294560456
 20
-6.435403882779399
 30
0.0
 10
47.59947647761921
 20
-5.40397069984701
 30
0.0
 10
46.07559166305167
 20
-4.175693050948402
 30
0.0
 10
44.55116347425314
 20
-2.796189243015007
 30
0.0
 10
43.02499209826446
 20
-1.315816719088754
 30
0.0
 10
41.49907614742773
 20
0.212358567397524
 30
0.0
 10
39.97478398131501
 20
1.733159896343708
 30
0.0
 10
38.45088272793092
 20
3.190924179586296
 30
0.0
 10
36.92609380407366
 20
4.533420563657317
 30
0.0
 10
35.39956171919665
 20
5.710998524642748
 30
0.0
 10
33.87417966256125
 20
6.68213706718851
 30
0.0
 10
32.35011931433185
 20
7.411490356581374
 30
0.0
 10
30.82611428651473
 20
7.870755487638712
 30
0.0
 10
29.30088546242635
 20
8.050838588599007
 30
0.0
 10
27.77431502389815
 20
7.916953717117555
 30
0.0
 10
26.64822449083706
 20
7.667799502777679
 30
0.0
 10
26.03100047911778
 20
7.387101167559749
 30
0.0
 10
25.92192292979436
 20
7.337495374649242
 30
0.0
  0
LINE
  5
B7
330
1F
100
AcDbEntity
  8
0
  6
Continuous
 62
     1
370
    15
100
AcDbLine
 10
72.0
 20
-7.941620407234727
 30
0.0
 11
72.0
 21
-4.783694077379073
 31
0.0
  0
SPLINE
  5
B8
330
1F
100
AcDbEntity
  8
0
  6
Continuous
 62
     1
370
    15
100
AcDbSpline
210
0.0
220
0.0
230
1.0
 70
     8
 71
     3
 72
    17
 73
    13
 74
     0
 42
0.000000001
 43
0.00000001
 40
0.0
 40
0.0
 40
0.0
 40
0.0
 40
0.09521462956785
 40
0.190308619534554
 40
0.2855349666901107
 40
0.3807959936476022
 40
0.4758929899206329
 40
0.5853902182328184
 40
0.6949992101554746
 40
0.804570631448147
 40
0.9140485458850547
 40
1.0
 40
1.0
 40
1.0
 40
1.0
 10
12.0
 20
-1.847657654500548
 30
0.0
 10
12.44197769328539
 20
-2.272509415784345
 30
0.0
 10
13.32537308174583
 20
-3.121674639276889
 30
0.0
 10
14.64911831232325
 20
-4.298252239830901
 30
0.0
 10
15.97476234539806
 20
-5.359476344907097
 30
0.0
 10
17.3009035524882
 20
-6.272850400751368
 30
0.0
 10
18.69103466561132
 20
-7.053245721613432
 30
0.0
 10
20.14926935738424
 20
-7.642442483762991
 30
0.0
 10
21.67549618772003
 20
-7.983833490347775
 30
0.0
 10
23.20126216060507
 20
-8.027780199699254
 30
0.0
 10
24.61636754080162
 20
-7.827303464138645
 30
0.0
 10
25.52312395320455
 20
-7.487113664658799
 30
0.0
 10
25.92192292979442
 20
-7.337495374649301
 30
0.0
  0
SPLINE
  5
B9
330
1F
100
AcDbEntity
  8
0
  6
Continuous
 62
     1
370
    15
100
AcDbSpline
210
0.0
220
0.0
230
1.0
 70
     8
 71
     3
 72
    23
 73
    19
 74
     0
 42
0.000000001
 43
0.00000001
 40
0.0
 40
0.0
 40
0.0
 40
0.0
 40
0.0534052715937974
 40
0.1165600604457654
 40
0.1796855552725179
 40
0.2427598006137512
 40
0.3058268676037051
 40
0.3689309077395566
 40
0.4320927614664798
 40
0.4952004089056767
 40
0.5582684485007677
 40
0.6213410208574097
 40
0.6844622158345766
 40
0.7476196084263296
 40
0.8107124789901625
 40
0.8737774144896676
 40
0.9368585902944122
 40
1.0
 40
1.0
 40
1.0
 40
1.0
 10
47.83331715594569
 20
7.981151875448584
 30
0.0
 10
48.26341558841645
 20
7.968672380481133
 30
0.0
 10
49.20213002222233
 20
7.941435168791569
 30
0.0
 10
50.65050750474674
 20
7.55027864934283
 30
0.0
 10
52.17611251983979
 20
6.893974205824734
 30
0.0
 10
53.7002680489132
 20
5.979919266181095
 30
0.0
 10
55.22421402723963
 20
4.851454750567292
 30
0.0
 10
56.74923345451154
 20
3.546354144714533
 30
0.0
 10
58.27583128024369
 20
2.113764157762906
 30
0.0
 10
59.80095190211027
 20
0.6037309013603104
 30
0.0
 10
61.32492568540866
 20
-0.9278919813892021
 30
0.0
 10
62.84902982435541
 20
-2.4259621822669
 30
0.0
 10
64.37452612215628
 20
-3.836275048500352
 30
0.0
 10
65.90100395220584
 20
-5.106690374063716
 30
0.0
 10
67.42570440447587
 20
-6.194254846428577
 30
0.0
 10
68.949595395882
 20
-7.051585682535509
 30
0.0
 10
70.47395328800692
 20
-7.674224104439301
 30
0.0
 10
71.49115595833334
 20
-7.852459954692979
 30
0.0
 10
72.00000000000003
 20
-7.941620407234727
 30
0.0
  0
SPLINE
  5
BA
330
1F
100
AcDbEntity
  8
0
  6
Continuous
 62
   131
370
    15
100
AcDbSpline
210
0.0
220
0.0
230
1.0
 70
    24
 71
     3
 72
    24
 73
    20
 74
     0
 42
0.000000001
 43
0.00000001
 40
0.0
 40
0.0
 40
0.0
 40
0.0
 40
0.1249999999999996
 40
0.1249999999999996
 40
0.1874999999999997
 40
0.1874999999999997
 40
0.2499999999999997
 40
0.2499999999999997
 40
0.3749999999999998
 40
0.3749999999999998
 40
0.4999999999999998
 40
0.4999999999999998
 40
0.6249999999999998
 40
0.6249999999999998
 40
0.7499999999999999
 40
0.7499999999999999
 40
0.875
 40
0.875
 40
1.0
 40
1.0
 40
1.0
 40
1.0
 10
11.99999999999998
 20
4.333008777466296
 30
0.0
 10
11.99999999999999
 20
4.222912927264836
 30
0.0
 10
12.00000000000001
 20
4.084886636821861
 30
0.0
 10
12.00000000000002
 20
3.868404204666569
 30
0.0
 10
12.0
 20
3.797267680811993
 30
0.0
 10
12.0
 20
3.634835768467586
 30
0.0
 10
12.00000000000001
 20
3.544187467602684
 30
0.0
 10
11.99999999999999
 20
3.23937922645363
 30
0.0
 10
12.0
 20
2.991573130890723
 30
0.0
 10
11.99999999999999
 20
2.39252373326662
 30
0.0
 10
12.00000000000001
 20
2.040035227116854
 30
0.0
 10
11.99999999999999
 20
1.256346086968563
 30
0.0
 10
11.99999999999999
 20
0.8250506029740604
 30
0.0
 10
11.99999999999999
 20
-0.022496925442188
 30
0.0
 10
11.99999999999999
 20
-0.4357694434923204
 30
0.0
 10
11.99999999999999
 20
-1.123864335240055
 30
0.0
 10
11.99999999999999
 20
-1.396114666310607
 30
0.0
 10
11.99999999999999
 20
-1.751222550607983
 30
0.0
 10
12.0
 20
-1.835499697992888
 30
0.0
 10
11.99999999999999
 20
-1.847657654500553
 30
0.0
  0
SPLINE
  5
BB
330
1F
100
AcDbEntity
  8
0
  6
Continuous
 62
     1
370
    15
100
AcDbSpline
210
0.0
220
0.0
230
1.0
 70
     8
 71
     3
 72
    21
 73
    17
 74
     0
 42
0.000000001
 43
0.00000001
 40
0.0
 40
0.0
 40
0.0
 40
0.0
 40
0.0728601528758073
 40
0.1456508006321661
 40
0.2184227083710302
 40
0.2912268509470169
 40
0.3641054467992311
 40
0.4369422734900524
 40
0.5097229935532055
 40
0.5824984831709056
 40
0.6553196770829803
 40
0.7282034207295179
 40
0.8010204521011242
 40
0.8737948194100338
 40
0.9465774699640298
 40
1.0
 40
1.0
 40
1.0
 40
1.0
 10
71.99999999999997
 20
-4.806273536472213
 30
0.0
 10
71.49115595833572
 20
-4.382981008780612
 30
0.0
 10
70.47395328801424
 20
-3.536799754330257
 30
0.0
 10
68.94959539585271
 20
-2.09214855126609
 30
0.0
 10
67.42570440458564
 20
-0.5844819601209766
 30
0.0
 10
65.90100395179542
 20
0.9481137258374316
 30
0.0
 10
64.37452612368934
 20
2.44462568355715
 30
0.0
 10
62.84902981863942
 20
3.85344597461037
 30
0.0
 10
61.32492570672217
 20
5.122536098243234
 30
0.0
 10
59.80095182255022
 20
6.205971784703801
 30
0.0
 10
58.27583157748256
 20
7.064871945392133
 30
0.0
 10
56.74923234459267
 20
7.666807013709508
 30
0.0
 10
55.22421816414325
 20
7.99378124440492
 30
0.0
 10
53.70025261866896
 20
8.02186420145318
 30
0.0
 10
52.3116862209735
 20
7.813902726264846
 30
0.0
 10
51.43042608436481
 20
7.476640811156635
 30
0.0
 10
51.05738952677342
 20
7.333878170941456
 30
0.0
  0
SPLINE
  5
BC
330
1F
100
AcDbEntity
  8
0
  6
Continuous
 62
     1
370
    15
100
AcDbSpline
210
0.0
220
0.0
230
1.0
 70
     8
 71
     3
 72
    19
 73
    15
 74
     0
 42
0.000000001
 43
0.00000001
 40
0.0
 40
0.0
 40
0.0
 40
0.0
 40
0.0799668561268215
 40
0.1688987162528002
 40
0.2577821830109541
 40
0.3466794948962832
 40
0.4356527354121775
 40
0.5246564837070027
 40
0.6135694786787607
 40
0.6907893214253411
 40
0.7681423589536296
 40
0.8454672360882479
 40
0.9226846376798932
 40
1.0
 40
1.0
 40
1.0
 40
1.0
 10
29.14584617912936
 20
-7.98674163581339
 30
0.0
 10
28.6885276098647
 20
-7.969498644458803
 30
0.0
 10
27.72262094542271
 20
-7.933079567291017
 30
0.0
 10
26.24937399194682
 20
-7.522957506861642
 30
0.0
 10
24.72546123584236
 20
-6.852361116329627
 30
0.0
 10
23.20125743746746
 20
-5.926365857828107
 30
0.0
 10
21.67549745468987
 20
-4.787631938654045
 30
0.0
 10
20.14926901664683
 20
-3.475290552128823
 30
0.0
 10
18.69103474360764
 20
-2.099525215085503
 30
0.0
 10
17.30090353280848
 20
-0.7231705424735853
 30
0.0
 10
15.9747623506713
 20
0.6061367316207207
 30
0.0
 10
14.64911831091947
 20
1.917007575669488
 30
0.0
 10
13.32537308209706
 20
3.185286103483581
 30
0.0
 10
12.4419776934025
 20
3.950272907117994
 30
0.0
 10
11.99999999999999
 20
4.33300877746631
 30
0.0
  0
LINE
  5
BD
330
1F
100
AcDbEntity
  8
0
  6
Continuous
 62
     1
370
    15
100
AcDbLine
 10
72.0
 20
4.790422722129588
 30
0.0
 11
72.0
 21
7.941620407234677
 31
0.0
  0
SPLINE
  5
BE
330
1F
100
AcDbEntity
  8
0
  6
Continuous
 62
     1
370
    15
100
AcDbSpline
210
0.0
220
0.0
230
1.0
 70
     8
 71
     3
 72
    27
 73
    23
 74
     0
 42
0.000000001
 43
0.00000001
 40
0.0
 40
0.0
 40
0.0
 40
0.0
 40
0.0114652514923821
 40
0.0582270001126868
 40
0.1050057785595965
 40
0.1517040082732838
 40
0.2054736005961974
 40
0.2592980754386431
 40
0.3131041008875408
 40
0.3668642089594293
 40
0.4206159442749606
 40
0.4743969451850192
 40
0.5282296603507964
 40
0.5820198847147615
 40
0.6357741068680733
 40
0.6895299373136609
 40
0.743324968548457
 40
0.7971561008306115
 40
0.850933138607937
 40
0.9046841176384507
 40
0.9584466847434692
 40
1.0
 40
1.0
 40
1.0
 40
1.0
 10
14.32392186410365
 20
7.979710830265522
 30
0.0
 10
14.43220260159051
 20
7.985828777677177
 30
0.0
 10
14.98211313063893
 20
8.016899158022909
 30
0.0
 10
15.97477958617495
 20
7.855034270021722
 30
0.0
 10
17.30089894733309
 20
7.490130534619017
 30
0.0
 10
18.69103616832813
 20
6.872481096742749
 30
0.0
 10
20.14926866341415
 20
6.006933281995186
 30
0.0
 10
21.67549735947854
 20
4.883057683432491
 30
0.0
 10
23.20125817096285
 20
3.582456166265386
 30
0.0
 10
24.72545839989461
 20
2.151795199337846
 30
0.0
 10
26.24938460390363
 20
0.6433940586085609
 30
0.0
 10
27.77430577008063
 20
-0.88869514067908
 30
0.0
 10
29.30088794003005
 20
-2.387688688769757
 30
0.0
 10
30.82611362646078
 20
-3.800992810590293
 30
0.0
 10
32.35011947958314
 20
-5.076367575252043
 30
0.0
 10
33.87417966140859
 20
-6.167841588240218
 30
0.0
 10
35.39956155824119
 20
-7.036057730891964
 30
0.0
 10
36.92609444924508
 20
-7.648476655991807
 30
0.0
 10
38.45088031152324
 20
-7.986401245260412
 30
0.0
 10
39.9747929988863
 20
-8.026367354392022
 30
0.0
 10
41.38322180490117
 20
-7.823973496963515
 30
0.0
 10
42.28441069458565
 20
-7.484495455939156
 30
0.0
 10
42.67728736016269
 20
-7.336498734806714
 30
0.0
  0
SPLINE
  5
BF
330
1F
100
AcDbEntity
  8
0
  6
Continuous
 62
     1
370
    15
100
AcDbSpline
210
0.0
220
0.0
230
1.0
 70
     8
 71
     3
 72
    12
 73
     8
 74
     0
 42
0.000000001
 43
0.00000001
 40
0.0
 40
0.0
 40
0.0
 40
0.0
 40
0.1770230210919028
 40
0.3827600028102551
 40
0.5884058922107658
 40
0.7941047389637056
 40
1.0
 40
1.0
 40
1.0
 40
1.0
 10
64.58882137663231
 20
7.982472234374099
 30
0.0
 10
65.02636438895767
 20
7.968816770346407
 30
0.0
 10
65.97242193330563
 20
7.939290862261823
 30
0.0
 10
67.42571016590249
 20
7.544036977938444
 30
0.0
 10
68.94959385939599
 20
6.881497509311016
 30
0.0
 10
70.47395367259763
 20
5.974327089862602
 30
0.0
 10
71.49115608657104
 20
5.195748567819083
 30
0.0
 10
72.00000000000003
 20
4.806273536472203
 30
0.0
  0
SPLINE
  5
C0
330
1F
100
AcDbEntity
  8
0
  6
Continuous
 62
     1
370
    15
100
AcDbSpline
210
0.0
220
0.0
230
1.0
 70
     8
 71
     3
 72
    10
 73
     6
 74
     0
 42
0.000000001
 43
0.00000001
 40
0.0
 40
0.0
 40
0.0
 40
0.0
 40
0.3643718350741549
 40
0.7283960767530052
 40
1.0
 40
1.0
 40
1.0
 40
1.0
 10
71.99999999999997
 20
7.941620407234677
 30
0.0
 10
71.49115528472457
 20
7.973362620933242
 30
0.0
 10
70.47395126782332
 20
8.036816767768677
 30
0.0
 10
69.07844574687824
 20
7.814910815303962
 30
0.0
 10
68.19143715320925
 20
7.478485320873983
 30
0.0
 10
67.81241836944841
 20
7.334730702671762
 30
0.0
  0
SPLINE
  5
C1
330
1F
100
AcDbEntity
  8
0
  6
Continuous
 62
     1
370
    15
100
AcDbSpline
210
0.0
220
0.0
230
1.0
 70
     8
 71
     3
 72
    26
 73
    22
 74
     0
 42
0.000000001
 43
0.00000001
 40
0.0
 40
0.0
 40
0.0
 40
0.0
 40
0.047603547302723
 40
0.1014227493994393
 40
0.1552338961598295
 40
0.2089959382169807
 40
0.2627463923127977
 40
0.3165229049009353
 40
0.3703535114656126
 40
0.424148017335495
 40
0.477903322799007
 40
0.531657019985949
 40
0.5854467190319453
 40
0.6392789084647864
 40
0.6930593841469532
 40
0.746810594520402
 40
0.8005701775684388
 40
0.8543756775450536
 40
0.9081996267350388
 40
0.9619686939414764
 40
1.0
 40
1.0
 40
1.0
 40
1.0
 10
45.90102533030866
 20
-7.985285776368197
 30
0.0
 10
45.451229593205
 20
-7.969272344723718
 30
0.0
 10
44.49290772624218
 20
-7.935154587608375
 30
0.0
 10
43.02498752264211
 20
-7.529858706410378
 30
0.0
 10
41.49907737220722
 20
-6.862910937462595
 30
0.0
 10
39.9747836531208
 20
-5.93984743937991
 30
0.0
 10
38.45088281675386
 20
-4.803724238413398
 30
0.0
 10
36.92609377707771
 20
-3.492692205650043
 30
0.0
 10
35.39956173824659
 20
-2.056082773517517
 30
0.0
 10
33.87417961340672
 20
-0.5442622535771109
 30
0.0
 10
32.35011949177817
 20
0.9871405034612567
 30
0.0
 10
30.82611362566317
 20
2.482753588825833
 30
0.0
 10
29.30088793100668
 20
3.888612258885892
 30
0.0
 10
27.77430580698983
 20
5.152914071950367
 30
0.0
 10
26.24938446547926
 20
6.231230175071185
 30
0.0
 10
24.72545891646809
 20
7.083653630475594
 30
0.0
 10
23.20125624195284
 20
7.679035776715791
 30
0.0
 10
21.67550456652132
 20
7.998070103993136
 30
0.0
 10
20.14924176846126
 20
8.020134479756297
 30
0.0
 10
18.77303250879834
 20
7.80220654308311
 30
0.0
 10
17.9060470227429
 20
7.478768030914432
 30
0.0
 10
17.54686993886214
 20
7.344773052354843
 30
0.0
  0
SPLINE
  5
C2
330
1F
100
AcDbEntity
  8
0
  6
Continuous
 62
     1
370
    15
100
AcDbSpline
210
0.0
220
0.0
230
1.0
 70
     8
 71
     3
 72
    12
 73
     8
 74
     0
 42
0.000000001
 43
0.00000001
 40
0.0
 40
0.0
 40
0.0
 40
0.0
 40
0.2389657357385534
 40
0.477628695200206
 40
0.7166238392553187
 40
0.9557060212417059
 40
1.0
 40
1.0
 40
1.0
 40
1.0
 10
12.0
 20
-7.664720525966755
 30
0.0
 10
12.44197665953757
 20
-7.770739532368128
 30
0.0
 10
13.32536998181212
 20
-7.982643216121816
 30
0.0
 10
14.64913070091057
 20
-8.030429808866465
 30
0.0
 10
15.97471580685966
 20
-7.855670215335061
 30
0.0
 10
16.94137816580729
 20
-7.617150356482761
 30
0.0
 10
17.46502043077238
 20
-7.381592625055607
 30
0.0
 10
17.54686993886213
 20
-7.344773052354899
 30
0.0
  0
SPLINE
  5
C3
330
1F
100
AcDbEntity
  8
0
  6
Continuous
 62
     1
370
    15
100
AcDbSpline
210
0.0
220
0.0
230
1.0
 70
     8
 71
     3
 72
    27
 73
    23
 74
     0
 42
0.000000001
 43
0.00000001
 40
0.0
 40
0.0
 40
0.0
 40
0.0
 40
0.0182596223946978
 40
0.0720202241337606
 40
0.1258299292605164
 40
0.1796476895077917
 40
0.2334122000399727
 40
0.2871606163773448
 40
0.3409305906603087
 40
0.3947558180930518
 40
0.4485560789698406
 40
0.50231266120778
 40
0.5560631255186828
 40
0.6098451011056584
 40
0.66367634975244
 40
0.7174613997527185
 40
0.771212692990353
 40
0.8249678493858859
 40
0.8787644456097466
 40
0.9325918921439807
 40
0.9863643481875433
 40
0.9999999999999999
 40
0.9999999999999999
 40
0.9999999999999999
 40
0.9999999999999999
 10
39.4570888254097
 20
7.967448514465375
 30
0.0
 10
39.62962092333808
 20
7.976359757336787
 30
0.0
 10
40.31012789629054
 20
8.011507784773318
 30
0.0
 10
41.49907326303695
 20
7.774953015287646
 30
0.0
 10
43.02499286958168
 20
7.264437992843029
 30
0.0
 10
44.55116327527675
 20
6.470961197109715
 30
0.0
 10
46.07559168843039
 20
5.448049703034559
 30
0.0
 10
47.59947657491277
 20
4.226580808151358
 30
0.0
 10
49.12409253066321
 20
2.852006271066979
 30
0.0
 10
50.65050023900727
 20
1.37475102588574
 30
0.0
 10
52.17611446458071
 20
-0.1527852834708203
 30
0.0
 10
53.70026752797142
 20
-1.674836795367548
 30
0.0
 10
55.22421416730225
 20
-3.136085972761493
 30
0.0
 10
56.74923341545249
 20
-4.483989691733033
 30
0.0
 10
58.27583129623383
 20
-5.668760268531547
 30
0.0
 10
59.80095187722009
 20
-6.648723937073886
 30
0.0
 10
61.32492576894413
 20
-7.387995897210266
 30
0.0
 10
62.8490295149563
 20
-7.858175196721337
 30
0.0
 10
64.37452727745065
 20
-8.049228393139096
 30
0.0
 10
65.90099963998922
 20
-7.927767927335693
 30
0.0
 10
67.04665837416673
 20
-7.679394888571871
 30
0.0
 10
67.68357887939659
 20
-7.39272061886502
 30
0.0
 10
67.81241836944841
 20
-7.334730702671818
 30
0.0
  0
SPLINE
  5
C4
330
1F
100
AcDbEntity
  8
0
  6
Continuous
 62
   131
370
    15
100
AcDbSpline
210
0.0
220
0.0
230
1.0
 70
    24
 71
     3
 72
    15
 73
    11
 74
     0
 42
0.000000001
 43
0.00000001
 40
0.0
 40
0.0
 40
0.0
 40
0.0
 40
0.0814316567054529
 40
0.204679968570524
 40
0.3315024898291145
 40
0.454750801694206
 40
0.5815733229528207
 40
0.7048216348179004
 40
0.8316441560765029
 40
1.0
 40
1.0
 40
1.0
 40
1.0
 10
11.99999999999998
 20
-3.741682178632154
 30
0.0
 10
11.99999999999997
 20
-3.818015255587014
 30
0.0
 10
11.99999999999994
 20
-4.009879850071752
 30
0.0
 10
11.99999999999999
 20
-4.393931359068552
 30
0.0
 10
12.00000000000004
 20
-4.86604200519652
 30
0.0
 10
11.99999999999994
 20
-5.381921550845499
 30
0.0
 10
11.99999999999997
 20
-5.914445267951667
 30
0.0
 10
12.00000000000003
 20
-6.457941067991565
 30
0.0
 10
11.99999999999991
 20
-7.05564847813596
 30
0.0
 10
11.99999999999996
 20
-7.443505270202525
 30
0.0
 10
11.99999999999999
 20
-7.664720525966759
 30
0.0
  0
SPLINE
  5
C5
330
1F
100
AcDbEntity
  8
0
  6
Continuous
 62
     1
370
    15
100
AcDbSpline
210
0.0
220
0.0
230
1.0
 70
     8
 71
     3
 72
    27
 73
    23
 74
     0
 42
0.000000001
 43
0.00000001
 40
0.0
 40
0.0
 40
0.0
 40
0.0
 40
0.0196883325135989
 40
0.0734512712879249
 40
0.127200368745485
 40
0.1809732747502697
 40
0.2348011717058805
 40
0.2885982180929657
 40
0.342353824304958
 40
0.3961055673267284
 40
0.4498910673936128
 40
0.5037227664935864
 40
0.5575051921214426
 40
0.611256106209543
 40
0.6650131382758749
 40
0.7188138493465533
 40
0.7726395271821029
 40
0.8264099514055221
 40
0.8801588175029548
 40
0.9339237779298716
 40
0.9877419885174684
 40
0.9999999999999999
 40
0.9999999999999999
 40
0.9999999999999999
 40
0.9999999999999999
 10
71.03207392423653
 20
-7.966288902682292
 30
0.0
 10
70.84591946584544
 20
-7.975188800990789
 30
0.0
 10
70.15143294113355
 20
-8.00839165575977
 30
0.0
 10
68.94962004403247
 20
-7.765384044240798
 30
0.0
 10
67.42569779770443
 20
-7.24707750970336
 30
0.0
 10
65.90100572485662
 20
-6.446938768623483
 30
0.0
 10
64.37452564730873
 20
-5.418879485619525
 30
0.0
 10
62.84902995127486
 20
-4.192721351993735
 30
0.0
 10
61.32492565207021
 20
-2.815040888626555
 30
0.0
 10
59.80095190860416
 20
-1.335370273017265
 30
0.0
 10
58.27583128763557
 20
0.1929464500912725
 30
0.0
 10
56.74923341842094
 20
1.713405982667103
 30
0.0
 10
55.2242141640253
 20
3.172686739580682
 30
0.0
 10
53.70026753810808
 20
4.516685612837753
 30
0.0
 10
52.17611442729091
 20
5.697211560740512
 30
0.0
 10
50.65050037817713
 20
6.671149423817634
 30
0.0
 10
49.12409201128558
 20
7.40360659701656
 30
0.0
 10
47.59947851066877
 20
7.866599661764648
 30
0.0
 10
46.07558446616589
 20
8.050328539542523
 30
0.0
 10
44.55119024983054
 20
7.920537810461866
 30
0.0
 10
43.41785109802571
 20
7.671793033198721
 30
0.0
 10
42.79317333224115
 20
7.388966744938579
 30
0.0
 10
42.67728736016269
 20
7.33649873480666
 30
0.0
  0
SPLINE
  5
C6
330
1F
100
AcDbEntity
  8
0
  6
Continuous
 62
     1
370
    15
100
AcDbSpline
210
0.0
220
0.0
230
1.0
 70
     8
 71
     3
 72
    14
 73
    10
 74
     0
 42
0.000000001
 43
0.00000001
 40
0.0
 40
0.0
 40
0.0
 40
0.0
 40
0.0704459150284872
 40
0.2443189875542201
 40
0.3953256128800973
 40
0.5465927061606006
 40
0.6978047306159844
 40
0.8488065821615022
 40
0.9999999999999999
 40
0.9999999999999999
 40
0.9999999999999999
 40
0.9999999999999999
 10
20.76681813940972
 20
-7.964984236602659
 30
0.0
 10
20.56083130760015
 20
-7.973656456025262
 30
0.0
 10
19.84643226576972
 20
-8.003733258467555
 30
0.0
 10
18.69104373202343
 20
-7.763684294113946
 30
0.0
 10
17.30090126489034
 20
-7.295600879219081
 30
0.0
 10
15.9747629583717
 20
-6.636931493406433
 30
0.0
 10
14.64911814914923
 20
-5.798521932820882
 30
0.0
 10
13.32537312257602
 20
-4.806390421891293
 30
0.0
 10
12.44197770690118
 20
-4.040610925918506
 30
0.0
 10
11.99999999999999
 20
-3.657478458150989
 30
0.0
  0
LINE
  5
C7
330
1F
100
AcDbEntity
  8
0
  6
Continuous
 62
   131
370
    15
100
AcDbLine
 10
72.0
 20
7.941620407234677
 30
0.0
 11
72.0
 21
7.999999999999976
 31
0.0
  0
LINE
  5
C8
330
1F
100
AcDbEntity
  8
0
  6
Continuous
 62
   131
370
    15
100
AcDbLine
 10
72.0
 20
-8.000000000000032
 30
0.0
 11
72.0
 21
-7.941620407234727
 31
0.0
  0
LINE
  5
C9
330
1F
100
AcDbEntity
  8
0
  6
Continuous
 62
   131
370
    15
100
AcDbLine
 10
11.99999999999997
 20
-3.657478458150988
 30
0.0
 11
11.99999999999999
 21
-1.847657654500559
 31
0.0
  0
LINE
  5
CA
330
1F
100
AcDbEntity
  8
0
  6
Continuous
 62
     1
370
    15
100
AcDbLine
 10
72.0
 20
-4.806273536472214
 30
0.0
 11
72.0
 21
-3.135346870762421
 31
0.0
  0
LINE
  5
CB
330
1F
100
AcDbEntity
  8
0
  6
Continuous
 62
   131
370
    15
100
AcDbLine
 10
11.99999999999997
 20
4.333008777466307
 30
0.0
 11
11.99999999999999
 21
5.817062871466161
 31
0.0
  0
LINE
  5
CC
330
1F
100
AcDbEntity
  8
0
  6
Continuous
 62
     1
370
    15
100
AcDbLine
 10
72.0
 20
3.135346870762516
 30
0.0
 11
72.0
 21
4.806273536472202
 31
0.0
  0
LINE
  5
CD
330
1F
100
AcDbEntity
  8
0
  6
Continuous
 62
   131
370
    15
100
AcDbLine
 10
11.99999999999997
 20
-7.990487235617259
 30
0.0
 11
11.99999999999999
 21
-7.664720525966759
 31
0.0
  0
LINE
  5
CE
330
1F
100
AcDbEntity
  8
0
  6
Continuous
 62
   131
370
    15
100
AcDbLine
 10
10.99989469369394
 20
6.456117292782809
 30
0.0
 11
10.99989469369394
 21
7.999999999999972
 31
0.0
  0
SPLINE
  5
CF
330
1F
100
AcDbEntity
  8
0
  6
Continuous
 62
   131
370
    15
100
AcDbSpline
210
0.0
220
0.0
230
1.0
 70
     8
 71
     3
 72
     8
 73
     4
 74
     0
 42
0.000000001
 43
0.00000001
 40
0.0
 40
0.0
 40
0.0
 40
0.0
 40
1.0
 40
1.0
 40
1.0
 40
1.0
 10
12.00000000000001
 20
5.817062871466152
 30
0.0
 10
11.66883539063479
 20
6.045290690462759
 30
0.0
 10
11.33417033377135
 20
6.259192837247016
 30
0.0
 10
10.99989469369394
 20
6.456128270457354
 30
0.0
  0
SPLINE
  5
D0
330
1F
100
AcDbEntity
  8
0
  6
Continuous
 62
   131
370
    15
100
AcDbSpline
210
0.0
220
0.0
230
1.0
 70
     8
 71
     3
 72
     8
 73
     4
 74
     0
 42
0.000000001
 43
0.00000001
 40
0.0
 40
0.0
 40
0.0
 40
0.0
 40
1.0
 40
1.0
 40
1.0
 40
1.0
 10
11.99999999999999
 20
4.333008777466296
 30
0.0
 10
11.66883539063478
 20
4.612475148083766
 30
0.0
 10
11.33417033377135
 20
4.881655268300764
 30
0.0
 10
10.99989469369393
 20
5.137297946299737
 30
0.0
  0
SPLINE
  5
D1
330
1F
100
AcDbEntity
  8
0
  6
Continuous
 62
   131
370
    15
100
AcDbSpline
210
0.0
220
0.0
230
1.0
 70
     8
 71
     3
 72
     8
 73
     4
 74
     0
 42
0.000000001
 43
0.00000001
 40
0.0
 40
0.0
 40
0.0
 40
0.0
 40
1.0
 40
1.0
 40
1.0
 40
1.0
 10
12.00000000000001
 20
-1.847657654500569
 30
0.0
 10
11.66883539063479
 20
-1.524193010580195
 30
0.0
 10
11.33417033377135
 20
-1.19478680164795
 30
0.0
 10
10.99989469369394
 20
-0.8632444349663151
 30
0.0
  0
SPLINE
  5
D2
330
1F
100
AcDbEntity
  8
0
  6
Continuous
 62
   131
370
    15
100
AcDbSpline
210
0.0
220
0.0
230
1.0
 70
     8
 71
     3
 72
     8
 73
     4
 74
     0
 42
0.000000001
 43
0.00000001
 40
0.0
 40
0.0
 40
0.0
 40
0.0
 40
1.0
 40
1.0
 40
1.0
 40
1.0
 10
11.99999999999999
 20
-3.657478458150997
 30
0.0
 10
11.66883539063478
 20
-3.361804278243522
 30
0.0
 10
11.33417033377135
 20
-3.055579633079077
 30
0.0
 10
10.99989469369393
 20
-2.742295138607385
 30
0.0
  0
LINE
  5
D3
330
1F
100
AcDbEntity
  8
0
  6
Continuous
 62
   131
370
    15
100
AcDbLine
 10
10.99989469369394
 20
-7.319380208719824
 30
0.0
 11
10.99989469369394
 21
-2.742271410605808
 31
0.0
  0
SPLINE
  5
D4
330
1F
100
AcDbEntity
  8
0
  6
Continuous
 62
   131
370
    15
100
AcDbSpline
210
0.0
220
0.0
230
1.0
 70
     8
 71
     3
 72
     8
 73
     4
 74
     0
 42
0.000000001
 43
0.00000001
 40
0.0
 40
0.0
 40
0.0
 40
0.0
 40
1.0
 40
1.0
 40
1.0
 40
1.0
 10
12.00000000000001
 20
-7.664720525966757
 30
0.0
 10
11.66883539063479
 20
-7.569483701042993
 30
0.0
 10
11.33417033377135
 20
-7.453979638895008
 30
0.0
 10
10.99989469369394
 20
-7.319372705423715
 30
0.0
  0
SPLINE
  5
D5
330
1F
100
AcDbEntity
  8
0
  6
Continuous
 62
   131
370
    15
100
AcDbSpline
210
0.0
220
0.0
230
1.0
 70
     8
 71
     3
 72
     8
 73
     4
 74
     0
 42
0.000000001
 43
0.00000001
 40
0.0
 40
0.0
 40
0.0
 40
0.0
 40
1.0
 40
1.0
 40
1.0
 40
1.0
 10
11.99999999999999
 20
-7.990487235617259
 30
0.0
 10
11.66883539063478
 20
-7.974279426327255
 30
0.0
 10
11.33417033377135
 20
-7.937234901379807
 30
0.0
 10
10.99989469369393
 20
-7.879593084907089
 30
0.0
  0
LINE
  5
D6
330
1F
100
AcDbEntity
  8
0
  6
Continuous
 62
   131
370
    15
100
AcDbLine
 10
10.99989469369394
 20
-8.000000000000028
 30
0.0
 11
10.99989469369394
 21
-7.879588719109699
 31
0.0
  0
SPLINE
  5
D7
330
1F
100
AcDbEntity
  8
0
  6
Continuous
 62
   131
370
    15
100
AcDbSpline
210
0.0
220
0.0
230
1.0
 70
     8
 71
     3
 72
     8
 73
     4
 74
     0
 42
0.000000001
 43
0.00000001
 40
0.0
 40
0.0
 40
0.0
 40
0.0
 40
1.0
 40
1.0
 40
1.0
 40
1.0
 10
11.99999999999999
 20
7.9904872356172
 30
0.0
 10
11.66883539063478
 20
7.974279426327191
 30
0.0
 10
11.33417033377135
 20
7.937234901379742
 30
0.0
 10
10.99989469369393
 20
7.879593084907022
 30
0.0
  0
LINE
  5
D8
330
1F
100
AcDbEntity
  8
0
  6
Continuous
 62
   131
370
    15
100
AcDbLine
 10
-46.40000000000001
 20
-0.0000000000000278
 30
0.0
 11
-46.40000000000001
 21
7.999999999999972
 31
0.0
  0
LINE
  5
D9
330
1F
100
AcDbEntity
  8
0
  6
Continuous
 62
   131
370
    15
100
AcDbLine
 10
-46.40000000000001
 20
-8.000000000000028
 30
0.0
 11
-46.40000000000001
 21
-0.0000000000000278
 31
0.0
  0
LINE
  5
DA
330
1F
100
AcDbEntity
  8
0
  6
Continuous
 62
   131
370
    15
100
AcDbLine
 10
10.99989469369394
 20
-0.8632629159369691
 30
0.0
 11
10.99989469369394
 21
5.137317308503924
 31
0.0
  0
LINE
  5
DB
330
1F
100
AcDbEntity
  8
0
  6
Continuous
 62
   131
370
    15
100
AcDbLine
 10
-48.0
 20
-0.0000000000000278
 30
0.0
 11
-48.0
 21
6.39999999999998
 31
0.0
  0
LINE
  5
DC
330
1F
100
AcDbEntity
  8
0
  6
Continuous
 62
   131
370
    15
100
AcDbLine
 10
-48.0
 20
-6.400000000000036
 30
0.0
 11
-48.0
 21
-0.0000000000000278
 31
0.0
  0
SPLINE
  5
DD
330
1F
100
AcDbEntity
  8
0
  6
Continuous
 62
   131
370
    15
100
AcDbSpline
210
0.0
220
0.0
230
1.0
 70
    24
 71
     3
 72
    24
 73
    20
 74
     0
 42
0.000000001
 43
0.00000001
 40
0.0
 40
0.0
 40
0.0
 40
0.0
 40
0.1250000000000001
 40
0.1250000000000001
 40
0.2500000000000001
 40
0.2500000000000001
 40
0.3750000000000002
 40
0.3750000000000002
 40
0.5000000000000001
 40
0.5000000000000001
 40
0.6250000000000001
 40
0.6250000000000001
 40
0.7500000000000002
 40
0.7500000000000002
 40
0.8125000000000001
 40
0.8125000000000001
 40
0.875
 40
0.875
 40
1.0
 40
1.0
 40
1.0
 40
1.0
 10
11.99999999999997
 20
-1.847657654500553
 30
0.0
 10
11.99999999999999
 20
-1.835499697992889
 30
0.0
 10
12.00000000000001
 20
-1.751222550607981
 30
0.0
 10
11.99999999999999
 20
-1.396114666310589
 30
0.0
 10
11.99999999999998
 20
-1.123864335240023
 30
0.0
 10
11.99999999999998
 20
-0.435769443492259
 30
0.0
 10
12.0
 20
-0.0224969254421111
 30
0.0
 10
11.99999999999999
 20
0.8250506029741613
 30
0.0
 10
11.99999999999996
 20
1.256346086968671
 30
0.0
 10
11.99999999999999
 20
2.040035227116968
 30
0.0
 10
11.99999999999999
 20
2.392523733266732
 30
0.0
 10
11.99999999999999
 20
2.991573130890825
 30
0.0
 10
12.0
 20
3.239379226453728
 30
0.0
 10
12.0
 20
3.544187467602771
 30
0.0
 10
11.99999999999998
 20
3.634835768467665
 30
0.0
 10
11.99999999999999
 20
3.797267680812065
 30
0.0
 10
12.0
 20
3.86840420466664
 30
0.0
 10
12.00000000000001
 20
4.084886636821934
 30
0.0
 10
11.99999999999996
 20
4.222912927264907
 30
0.0
 10
11.99999999999999
 20
4.333008777466361
 30
0.0
  0
SPLINE
  5
DE
330
1F
100
AcDbEntity
  8
0
  6
Continuous
 62
   131
370
    15
100
AcDbSpline
210
0.0
220
0.0
230
1.0
 70
    24
 71
     3
 72
    15
 73
    11
 74
     0
 42
0.000000001
 43
0.00000001
 40
0.0
 40
0.0
 40
0.0
 40
0.0
 40
0.131358900872422
 40
0.2566305094386388
 40
0.3819021180048558
 40
0.5071737265710705
 40
0.6324453351372854
 40
0.7577169437035021
 40
0.8829885522697185
 40
0.9999999999999999
 40
0.9999999999999999
 40
0.9999999999999999
 40
0.9999999999999999
 10
12.0
 20
-7.664720525966753
 30
0.0
 10
11.99999999999999
 20
-7.493861256480679
 30
0.0
 10
11.99999999999998
 20
-7.160060493233502
 30
0.0
 10
12.00000000000001
 20
-6.621541578468124
 30
0.0
 10
12.00000000000004
 20
-6.081569797092199
 30
0.0
 10
12.00000000000001
 20
-5.542980358512008
 30
0.0
 10
11.99999999999997
 20
-5.021173137422093
 30
0.0
 10
11.99999999999996
 20
-4.533617073525474
 30
0.0
 10
11.99999999999991
 20
-4.095332149838885
 30
0.0
 10
11.99999999999994
 20
-3.856862114555093
 30
0.0
 10
11.99999999999995
 20
-3.741692178632291
 30
0.0
  0
SPLINE
  5
DF
330
1F
100
AcDbEntity
  8
0
  6
Continuous
 62
   131
370
    15
100
AcDbSpline
210
0.0
220
0.0
230
1.0
 70
    24
 71
     3
 72
    12
 73
     8
 74
     0
 42
0.000000001
 43
0.00000001
 40
0.0
 40
0.0
 40
0.0
 40
0.0
 40
0.2072131369283469
 40
0.4522657589095286
 40
0.7044249235292122
 40
0.8514693353090901
 40
1.0
 40
1.0
 40
1.0
 40
1.0
 10
11.99999999999998
 20
5.901266591947328
 30
0.0
 10
11.99999999999999
 20
6.032747145476769
 30
0.0
 10
12.00000000000003
 20
6.319718103039174
 30
0.0
 10
11.99999999999996
 20
6.811680824130339
 30
0.0
 10
12.00000000000002
 20
7.274636423281163
 30
0.0
 10
12.00000000000004
 20
7.671626142878206
 30
0.0
 10
12.00000000000001
 20
7.883844502459428
 30
0.0
 10
11.99999999999999
 20
7.990487235617372
 30
0.0
  0
LINE
  5
E0
330
1F
100
AcDbEntity
  8
중심선
 62
     1
100
AcDbLine
 10
-55.20259277488957
 20
-0.0000000000000358
 30
0.0
 11
79.00000000000001
 21
0.0000000000000521
 31
0.0
  0
CIRCLE
  5
E1
330
1F
100
AcDbEntity
  8
외형선
100
AcDbCircle
 10
0.0
 20
0.0
 30
0.0
 40
3.000000000000008
  0
INSERT
  5
E2
330
1F
100
AcDbEntity
  8
0
  6
Continuous
 62
     7
100
AcDbBlockReference
 66
     1
  2
블럭10
 10
-26.94078629968144
 20
-52.04717430164396
 30
0.0
  0
ATTRIB
  5
E3
330
E2
100
AcDbEntity
  8
FORMAT
 62
     2
100
AcDbText
 10
-43.06004733911699
 20
-49.97180738881178
 30
0.0
 40
4.233333333333333
  1
SEME7516060E [ 6 FLUTE ]
 41
0.75
  7
SLDTEXTSTYLE0
 11
-43.06004733911699
 21
-52.08847405547844
 31
0.0
100
AcDbAttribute
  2
AUTOATTR0
 70
     0
 74
     1
  0
SEQEND
  5
E4
330
E2
100
AcDbEntity
  8
0
  6
Continuous
 62
     7
  0
HATCH
  5
E5
330
1F
100
AcDbEntity
  8
중심선
100
AcDbHatch
 10
0.0
 20
0.0
 30
0.0
210
0.0
220
0.0
230
1.0
  2
SOLID
 70
     1
 71
     0
 91
        1
 92
        0
 93
        4
 72
     1
 10
-21.22587699530059
 20
-35.80000000000003
 11
-24.67215223913787
 21
-35.80000000000003
 72
     1
 10
-24.67215223913787
 20
-35.80000000000003
 11
-26.80038209834189
 21
-38.33632558057263
 72
     1
 10
-26.80038209834189
 20
-38.33632558057263
 11
-23.35407376939146
 21
-38.33628615127014
 72
     1
 10
-23.35407376939146
 20
-38.33628615127014
 11
-21.22587699530059
 21
-35.80000000000003
 97
        0
 75
     0
 76
     1
 98
        1
 10
-4.001342611615545
 20
-0.0010749287239209
  0
HATCH
  5
E6
330
1F
100
AcDbEntity
  8
중심선
100
AcDbHatch
 10
0.0
 20
0.0
 30
0.0
210
0.0
220
0.0
230
1.0
  2
SOLID
 70
     1
 71
     0
 91
        1
 92
        0
 93
        4
 72
     1
 10
-16.21311300426463
 20
-35.80000000000003
 11
-19.65938824810192
 21
-35.80000000000003
 72
     1
 10
-19.65938824810192
 20
-35.80000000000003
 11
-24.19052625645931
 21
-41.20000000000005
 72
     1
 10
-24.19052625645931
 20
-41.20000000000005
 11
-20.74425101262202
 21
-41.20000000000005
 72
     1
 10
-20.74425101262202
 20
-41.20000000000005
 11
-16.21311300426463
 21
-35.80000000000003
 97
        0
 75
     0
 76
     1
 98
        1
 10
-4.001342611615545
 20
-0.0010749287239209
  0
HATCH
  5
E7
330
1F
100
AcDbEntity
  8
중심선
100
AcDbHatch
 10
0.0
 20
0.0
 30
0.0
210
0.0
220
0.0
230
1.0
  2
SOLID
 70
     1
 71
     0
 91
        1
 92
        0
 93
        4
 72
     1
 10
-11.20034901322874
 20
-35.80000000000005
 11
-14.64662425706586
 21
-35.80000000000003
 72
     1
 10
-14.64662425706586
 20
-35.80000000000003
 11
-21.69506115895511
 21
-44.20000000000005
 72
     1
 10
-21.69506115895511
 20
-44.20000000000005
 11
-18.24878591511782
 21
-44.20000000000005
 72
     1
 10
-18.24878591511782
 20
-44.20000000000005
 11
-11.20034901322874
 21
-35.80000000000005
 97
        0
 75
     0
 76
     1
 98
        1
 10
-4.001342611615545
 20
-0.0010749287239209
  0
HATCH
  5
E8
330
1F
100
AcDbEntity
  8
중심선
100
AcDbHatch
 10
0.0
 20
0.0
 30
0.0
210
0.0
220
0.0
230
1.0
  2
SOLID
 70
     1
 71
     0
 91
        1
 92
        0
 93
        6
 72
     3
 10
-6.40045858221654
 20
-40.0000000000513
 11
3.960054785062283
 21
1.540882976769353E-10
 40
0.3939339440162628
 50
17.09539180608437
 51
320.0019657685079
 73
     0
 72
     1
 10
-4.717458926515945
 20
-38.58789400463833
 11
-2.412157052814908
 21
-36.65356729459041
 72
     3
 10
-6.400458582269387
 20
-40.00000000000018
 11
6.600054785286829
 21
-1.278976924368180E-13
 40
0.636358354079598
 50
39.99873849337411
 51
368.4976242363725
 73
     1
 72
     1
 10
0.0248739096312223
 20
-39.03999999993005
 11
-7.720391275433465
 21
-39.03999999993002
 72
     1
 10
-7.720391275433465
 20
-39.03999999993002
 11
-7.720416319879399
 21
-40.95999999992994
 72
     1
 10
-7.720416319879399
 20
-40.95999999992994
 11
-3.279036550407362
 21
-40.95999999992991
 97
        0
 75
     0
 76
     1
 98
        1
 10
-4.001342611615545
 20
-0.0010749287239209
  0
DIMENSION
  5
E9
330
1F
100
AcDbEntity
  8
치수문자_일반주서
100
AcDbDimension
  2
_D
 10
-65.02890613132342
 20
-8.000000000000105
 30
0.0
 11
-65.02890613132345
 21
-0.0000000000000254
 31
0.0
 70
   160
  1
%%c<>
 71
     2
 42
16.00000000000001
 52
-270.0
  3
SLDDIMSTYLE0
100
AcDbAlignedDimension
 13
-46.40000000000002
 23
7.99999999999998
 33
0.0
 14
-46.40000000000002
 24
-8.000000000000036
 34
0.0
 50
90.0000000000002
100
AcDbRotatedDimension
  0
DIMENSION
  5
F7
330
1F
100
AcDbEntity
  8
치수문자_일반주서
100
AcDbDimension
  2
_D_1
 10
82.0
 20
-7.99999999999999
 30
0.0
 11
81.99999999999997
 21
1.055089200153561
 31
0.0
 70
   160
  1
%%c<>
 71
     2
 42
16.00000000000001
 52
-270.0
  3
SLDDIMSTYLE0
100
AcDbAlignedDimension
 13
72.0
 23
7.999999999999976
 33
0.0
 14
72.0
 24
-8.000000000000032
 34
0.0
 50
90.0000000000002
100
AcDbRotatedDimension
  0
DIMENSION
  5
104
330
1F
100
AcDbEntity
  8
치수문자_일반주서
100
AcDbDimension
  2
_D_2
 10
72.0
 20
51.48532785425918
 30
0.0
 11
36.55499265847855
 21
51.48532785425918
 31
0.0
 70
   160
  1
<>
 71
     2
 42
60.00000000000001
  3
SLDDIMSTYLE1
100
AcDbAlignedDimension
 13
11.99999999999999
 23
7.990487235617372
 33
0.0
 14
72.0
 24
7.941620407234677
 34
0.0
 50
0.0000000000000068
100
AcDbRotatedDimension
  0
DIMENSION
  5
10F
330
1F
100
AcDbEntity
  8
치수문자_일반주서
100
AcDbDimension
  2
_D_3
 10
-48.0
 20
78.8863030681043
 30
0.0
 11
15.71779583811263
 21
78.8863030681043
 31
0.0
 70
   160
  1
<>
 71
     2
 42
120.0
  3
SLDDIMSTYLE1
100
AcDbAlignedDimension
 13
72.0
 23
7.941620407234677
 33
0.0
 14
-48.0
 24
6.39999999999998
 34
0.0
100
AcDbRotatedDimension
  0
INSERT
  5
11F
330
1F
100
AcDbEntity
  8
외형선
100
AcDbBlockReference
  2
SW_DOWELSYMBOL_0
 10
0.0
 20
0.0
 30
0.0
  0
ENDSEC
  0
SECTION
  2
OBJECTS
  0
DICTIONARY
  5
C
330
0
100
AcDbDictionary
281
     1
  3
ACAD_GROUP
350
D
  3
ACAD_IMAGE_VARS
350
143
  3
ACAD_LAYOUT
350
1A
  3
ACAD_MLINESTYLE
350
17
  3
ACAD_PLOTSETTINGS
350
19
  3
ACAD_PLOTSTYLENAME
350
E
  3
ACAD_SCALELIST
350
47
  3
APPDATA
350
141
  3
DWGPROPS
350
14C
  0
DICTIONARY
  5
D
102
{ACAD_REACTORS
330
C
102
}
330
C
100
AcDbDictionary
281
     1
  0
RASTERVARIABLES
  5
143
102
{ACAD_REACTORS
330
C
102
}
330
C
100
AcDbRasterVariables
 90
        0
 70
     1
 71
     1
 72
     1
  0
DICTIONARY
  5
1A
102
{ACAD_REACTORS
330
C
102
}
330
C
100
AcDbDictionary
281
     1
  3
Layout1
350
1E
  3
Layout2
350
26
  3
Model
350
22
  0
DICTIONARY
  5
17
102
{ACAD_REACTORS
330
C
102
}
330
C
100
AcDbDictionary
281
     1
  3
Standard
350
18
  0
DICTIONARY
  5
19
102
{ACAD_REACTORS
330
C
102
}
330
C
100
AcDbDictionary
281
     1
  0
ACDBDICTIONARYWDFLT
  5
E
102
{ACAD_REACTORS
330
C
102
}
330
C
100
AcDbDictionary
281
     1
  3
Normal
350
F
100
AcDbDictionaryWithDefault
340
F
  0
DICTIONARY
  5
47
102
{ACAD_REACTORS
330
C
102
}
330
C
100
AcDbDictionary
281
     1
  3
A0
350
48
  3
A1
350
49
  3
A2
350
4A
  3
A3
350
4B
  3
A4
350
4C
  3
A5
350
4D
  3
A6
350
4E
  3
A7
350
4F
  3
A8
350
50
  3
A9
350
51
  3
B0
350
52
  3
B1
350
53
  3
B2
350
54
  3
B3
350
55
  3
B4
350
56
  3
B5
350
57
  3
B6
350
58
  3
B7
350
59
  3
B8
350
5A
  3
B9
350
5B
  3
C0
350
5C
  3
C1
350
5D
  3
C2
350
5E
  3
C3
350
5F
  3
C4
350
60
  3
C5
350
61
  3
C6
350
62
  3
C7
350
63
  3
C8
350
64
  3
C9
350
65
  3
D0
350
66
  3
D1
350
67
  3
D2
350
68
  0
DICTIONARY
  5
141
102
{ACAD_REACTORS
330
C
102
}
330
C
100
AcDbDictionary
281
     1
  0
XRECORD
  5
14C
102
{ACAD_REACTORS
330
C
102
}
330
C
100
AcDbXrecord
280
     1
  1
DWGPROPS COOKIE
  2

  3

  4

  6

  7

  8
12016016
  9

300
=
301
=
302
=
303
=
304
=
305
=
306
=
307
=
308
=
309
=
 40
0.0
 41
2458268.398215266
 42
2458270.002184236
  1

 90
        0
  0
LAYOUT
  5
1E
102
{ACAD_REACTORS
330
1A
102
}
330
1A
100
AcDbPlotSettings
  1

  2
none_device
  4

  6

 40
0.0
 41
0.0
 42
0.0
 43
0.0
 44
0.0
 45
0.0
 46
0.0
 47
0.0
 48
0.0
 49
0.0
140
0.0
141
0.0
142
1.0
143
1.0
 70
   688
 72
     1
 73
     0
 74
     5
  7

 75
    16
147
1.0
148
0.0
149
0.0
100
AcDbLayout
  1
Layout1
 70
     1
 71
     1
 10
0.0
 20
0.0
 11
420.0
 21
297.0
 12
0.0
 22
0.0
 32
0.0
 14
1.000000000000000E+20
 24
1.000000000000000E+20
 34
1.000000000000000E+20
 15
-1.000000000000000E+20
 25
-1.000000000000000E+20
 35
-1.000000000000000E+20
146
0.0
 13
0.0
 23
0.0
 33
0.0
 16
1.0
 26
0.0
 36
0.0
 17
0.0
 27
1.0
 37
0.0
 76
     0
330
1B
  0
LAYOUT
  5
26
102
{ACAD_REACTORS
330
1A
102
}
330
1A
100
AcDbPlotSettings
  1

  2
none_device
  4

  6

 40
0.0
 41
0.0
 42
0.0
 43
0.0
 44
0.0
 45
0.0
 46
0.0
 47
0.0
 48
0.0
 49
0.0
140
0.0
141
0.0
142
1.0
143
1.0
 70
   688
 72
     1
 73
     0
 74
     5
  7

 75
    16
147
1.0
148
0.0
149
0.0
100
AcDbLayout
  1
Layout2
 70
     1
 71
     2
 10
0.0
 20
0.0
 11
0.0
 21
0.0
 12
0.0
 22
0.0
 32
0.0
 14
0.0
 24
0.0
 34
0.0
 15
0.0
 25
0.0
 35
0.0
146
0.0
 13
0.0
 23
0.0
 33
0.0
 16
1.0
 26
0.0
 36
0.0
 17
0.0
 27
1.0
 37
0.0
 76
     0
330
23
  0
LAYOUT
  5
22
102
{ACAD_REACTORS
330
1A
102
}
330
1A
100
AcDbPlotSettings
  1

  2
none_device
  4
ANSI_A_(11.00_x_8.50_Inches)
  6

 40
6.35
 41
19.05
 42
6.35000508
 43
19.05000254
 44
279.4
 45
215.9
 46
116.2902740165347
 47
62.85495627396512
 48
0.0
 49
0.0
140
0.0
141
0.0
142
0.0627452147165305
143
1.0
 70
  1696
 72
     0
 73
     0
 74
     0
  7

 75
     0
147
0.0235690232323232
148
0.0
149
0.0
100
AcDbLayout
  1
Model
 70
     1
 71
     0
 10
0.0
 20
0.0
 11
420.0
 21
297.0
 12
0.0
 22
0.0
 32
0.0
 14
-69.40390613132347
 24
-49.97180738881178
 34
0.0
 15
82.55033333333331
 25
83.2613030681043
 35
0.0
146
0.0
 13
0.0
 23
0.0
 33
0.0
 16
1.0
 26
0.0
 36
0.0
 17
0.0
 27
1.0
 37
0.0
 76
     0
330
1F
331
29
  0
MLINESTYLE
  5
18
102
{ACAD_REACTORS
330
17
102
}
330
17
100
AcDbMlineStyle
  2
Standard
 70
     0
  3

 62
   256
 51
90.0
 52
90.0
 71
     2
 49
0.5
 62
   256
  6
BYLAYER
 49
-0.5
 62
   256
  6
BYLAYER
  0
ACDBPLACEHOLDER
  5
F
102
{ACAD_REACTORS
330
E
102
}
330
E
  0
SCALE
  5
48
102
{ACAD_REACTORS
330
47
102
}
330
47
100
AcDbScale
 70
     0
300
1:1
140
1.0
141
1.0
290
     1
  0
SCALE
  5
49
102
{ACAD_REACTORS
330
47
102
}
330
47
100
AcDbScale
 70
     0
300
1:2
140
1.0
141
2.0
290
     0
  0
SCALE
  5
4A
102
{ACAD_REACTORS
330
47
102
}
330
47
100
AcDbScale
 70
     0
300
1:4
140
1.0
141
4.0
290
     0
  0
SCALE
  5
4B
102
{ACAD_REACTORS
330
47
102
}
330
47
100
AcDbScale
 70
     0
300
1:5
140
1.0
141
5.0
290
     0
  0
SCALE
  5
4C
102
{ACAD_REACTORS
330
47
102
}
330
47
100
AcDbScale
 70
     0
300
1:8
140
1.0
141
8.0
290
     0
  0
SCALE
  5
4D
102
{ACAD_REACTORS
330
47
102
}
330
47
100
AcDbScale
 70
     0
300
1:10
140
1.0
141
10.0
290
     0
  0
SCALE
  5
4E
102
{ACAD_REACTORS
330
47
102
}
330
47
100
AcDbScale
 70
     0
300
1:16
140
1.0
141
16.0
290
     0
  0
SCALE
  5
4F
102
{ACAD_REACTORS
330
47
102
}
330
47
100
AcDbScale
 70
     0
300
1:20
140
1.0
141
20.0
290
     0
  0
SCALE
  5
50
102
{ACAD_REACTORS
330
47
102
}
330
47
100
AcDbScale
 70
     0
300
1:30
140
1.0
141
30.0
290
     0
  0
SCALE
  5
51
102
{ACAD_REACTORS
330
47
102
}
330
47
100
AcDbScale
 70
     0
300
1:40
140
1.0
141
40.0
290
     0
  0
SCALE
  5
52
102
{ACAD_REACTORS
330
47
102
}
330
47
100
AcDbScale
 70
     0
300
1:50
140
1.0
141
50.0
290
     0
  0
SCALE
  5
53
102
{ACAD_REACTORS
330
47
102
}
330
47
100
AcDbScale
 70
     0
300
1:100
140
1.0
141
100.0
290
     0
  0
SCALE
  5
54
102
{ACAD_REACTORS
330
47
102
}
330
47
100
AcDbScale
 70
     0
300
2:1
140
2.0
141
1.0
290
     0
  0
SCALE
  5
55
102
{ACAD_REACTORS
330
47
102
}
330
47
100
AcDbScale
 70
     0
300
4:1
140
4.0
141
1.0
290
     0
  0
SCALE
  5
56
102
{ACAD_REACTORS
330
47
102
}
330
47
100
AcDbScale
 70
     0
300
8:1
140
8.0
141
1.0
290
     0
  0
SCALE
  5
57
102
{ACAD_REACTORS
330
47
102
}
330
47
100
AcDbScale
 70
     0
300
10:1
140
10.0
141
1.0
290
     0
  0
SCALE
  5
58
102
{ACAD_REACTORS
330
47
102
}
330
47
100
AcDbScale
 70
     0
300
100:1
140
100.0
141
1.0
290
     0
  0
SCALE
  5
59
102
{ACAD_REACTORS
330
47
102
}
330
47
100
AcDbScale
 70
     0
300
1/128" = 1'-0"
140
0.0078125
141
12.0
290
     0
  0
SCALE
  5
5A
102
{ACAD_REACTORS
330
47
102
}
330
47
100
AcDbScale
 70
     0
300
1/64" = 1'-0"
140
0.015625
141
12.0
290
     0
  0
SCALE
  5
5B
102
{ACAD_REACTORS
330
47
102
}
330
47
100
AcDbScale
 70
     0
300
1/32" = 1'-0"
140
0.03125
141
12.0
290
     0
  0
SCALE
  5
5C
102
{ACAD_REACTORS
330
47
102
}
330
47
100
AcDbScale
 70
     0
300
1/16" = 1'-0"
140
0.0625
141
12.0
290
     0
  0
SCALE
  5
5D
102
{ACAD_REACTORS
330
47
102
}
330
47
100
AcDbScale
 70
     0
300
3/32" = 1'-0"
140
0.09375
141
12.0
290
     0
  0
SCALE
  5
5E
102
{ACAD_REACTORS
330
47
102
}
330
47
100
AcDbScale
 70
     0
300
1/8" = 1'-0"
140
0.125
141
12.0
290
     0
  0
SCALE
  5
5F
102
{ACAD_REACTORS
330
47
102
}
330
47
100
AcDbScale
 70
     0
300
3/16" = 1'-0"
140
0.1875
141
12.0
290
     0
  0
SCALE
  5
60
102
{ACAD_REACTORS
330
47
102
}
330
47
100
AcDbScale
 70
     0
300
1/4" = 1'-0"
140
0.25
141
12.0
290
     0
  0
SCALE
  5
61
102
{ACAD_REACTORS
330
47
102
}
330
47
100
AcDbScale
 70
     0
300
3/8" = 1'-0"
140
0.375
141
12.0
290
     0
  0
SCALE
  5
62
102
{ACAD_REACTORS
330
47
102
}
330
47
100
AcDbScale
 70
     0
300
1/2" = 1'-0"
140
0.5
141
12.0
290
     0
  0
SCALE
  5
63
102
{ACAD_REACTORS
330
47
102
}
330
47
100
AcDbScale
 70
     0
300
3/4" = 1'-0"
140
0.75
141
12.0
290
     0
  0
SCALE
  5
64
102
{ACAD_REACTORS
330
47
102
}
330
47
100
AcDbScale
 70
     0
300
1" = 1'-0"
140
1.0
141
12.0
290
     0
  0
SCALE
  5
65
102
{ACAD_REACTORS
330
47
102
}
330
47
100
AcDbScale
 70
     0
300
1-1/2" = 1'-0"
140
1.5
141
12.0
290
     0
  0
SCALE
  5
66
102
{ACAD_REACTORS
330
47
102
}
330
47
100
AcDbScale
 70
     0
300
3" = 1'-0"
140
3.0
141
12.0
290
     0
  0
SCALE
  5
67
102
{ACAD_REACTORS
330
47
102
}
330
47
100
AcDbScale
 70
     0
300
6" = 1'-0"
140
6.0
141
12.0
290
     0
  0
SCALE
  5
68
102
{ACAD_REACTORS
330
47
102
}
330
47
100
AcDbScale
 70
     0
300
1'-0" = 1'-0"
140
12.0
141
12.0
290
     0
  0
ENDSEC
  0
EOF
