  0
SECTION
  2
HEADER
  9
$ACADVER
  1
AC1015
  9
$ACADMAINTVER
 70
     6
  9
$DWGCODEPAGE
  3
ANSI_949
  9
$INSBASE
 10
0.0
 20
0.0
 30
0.0
  9
$EXTMIN
 10
-61.80390613132347
 20
-49.97180738881177
 30
0.0
  9
$EXTMAX
 10
60.5503333333333
 20
81.27589796629564
 30
0.0
  9
$LIMMIN
 10
0.0
 20
0.0
  9
$LIMMAX
 10
420.0
 20
297.0
  9
$ORTHOMODE
 70
     1
  9
$REGENMODE
 70
     1
  9
$FILLMODE
 70
     1
  9
$QTEXTMODE
 70
     0
  9
$MIRRTEXT
 70
     1
  9
$LTSCALE
 40
1.0
  9
$ATTMODE
 70
     1
  9
$TEXTSIZE
 40
3.5
  9
$TRACEWID
 40
1.0
  9
$TEXTSTYLE
  7
Standard
  9
$CLAYER
  8
0
  9
$CELTYPE
  6
ByLayer
  9
$CECOLOR
 62
   256
  9
$CELTSCALE
 40
1.0
  9
$DISPSILH
 70
     0
  9
$DIMSCALE
 40
1.0
  9
$DIMASZ
 40
3.302
  9
$DIMEXO
 40
1.0
  9
$DIMDLI
 40
3.75
  9
$DIMRND
 40
0.0
  9
$DIMDLE
 40
0.0
  9
$DIMEXE
 40
1.0
  9
$DIMTP
 40
0.0
  9
$DIMTM
 40
0.0
  9
$DIMTXT
 40
3.5
  9
$DIMCEN
 40
2.5
  9
$DIMTSZ
 40
0.0
  9
$DIMTOL
 70
     0
  9
$DIMLIM
 70
     0
  9
$DIMTIH
 70
     1
  9
$DIMTOH
 70
     1
  9
$DIMSE1
 70
     0
  9
$DIMSE2
 70
     0
  9
$DIMTAD
 70
     1
  9
$DIMZIN
 70
     0
  9
$DIMBLK
  1

  9
$DIMASO
 70
     1
  9
$DIMSHO
 70
     1
  9
$DIMPOST
  1

  9
$DIMAPOST
  1

  9
$DIMALT
 70
     0
  9
$DIMALTD
 70
     3
  9
$DIMALTF
 40
0.0393700787401575
  9
$DIMLFAC
 40
1.0
  9
$DIMTOFL
 70
     1
  9
$DIMTVP
 40
0.0
  9
$DIMTIX
 70
     0
  9
$DIMSOXD
 70
     0
  9
$DIMSAH
 70
     0
  9
$DIMBLK1
  1

  9
$DIMBLK2
  1

  9
$DIMSTYLE
  2
ISO-25
  9
$DIMCLRD
 70
     0
  9
$DIMCLRE
 70
     0
  9
$DIMCLRT
 70
     0
  9
$DIMTFAC
 40
1.0
  9
$DIMGAP
 40
1.524
  9
$DIMJUST
 70
     0
  9
$DIMSD1
 70
     0
  9
$DIMSD2
 70
     0
  9
$DIMTOLJ
 70
     0
  9
$DIMTZIN
 70
     0
  9
$DIMALTZ
 70
     0
  9
$DIMALTTZ
 70
     0
  9
$DIMUPT
 70
     0
  9
$DIMDEC
 70
     2
  9
$DIMTDEC
 70
     2
  9
$DIMALTU
 70
     2
  9
$DIMALTTD
 70
     3
  9
$DIMTXSTY
  7
Standard
  9
$DIMAUNIT
 70
     0
  9
$DIMADEC
 70
     2
  9
$DIMALTRND
 40
0.0
  9
$DIMAZIN
 70
     0
  9
$DIMDSEP
 70
    44
  9
$DIMATFIT
 70
     3
  9
$DIMFRAC
 70
     0
  9
$DIMLDRBLK
  1

  9
$DIMLUNIT
 70
     2
  9
$DIMLWD
 70
    -2
  9
$DIMLWE
 70
    -2
  9
$DIMTMOVE
 70
     0
  9
$LUNITS
 70
     2
  9
$LUPREC
 70
     2
  9
$SKETCHINC
 40
1.0
  9
$FILLETRAD
 40
10.0
  9
$AUNITS
 70
     0
  9
$AUPREC
 70
     2
  9
$MENU
  1
.
  9
$ELEVATION
 40
0.0
  9
$PELEVATION
 40
0.0
  9
$THICKNESS
 40
0.0
  9
$LIMCHECK
 70
     0
  9
$CHAMFERA
 40
0.0
  9
$CHAMFERB
 40
0.0
  9
$CHAMFERC
 40
0.0
  9
$CHAMFERD
 40
0.0
  9
$SKPOLY
 70
     0
  9
$TDCREATE
 40
2458268.771713206
  9
$TDUCREATE
 40
2458268.396713206
  9
$TDUPDATE
 40
2458270.380087743
  9
$TDUUPDATE
 40
2458270.005087743
  9
$TDINDWG
 40
0.0005995602
  9
$TDUSRTIMER
 40
2458270.004488345
  9
$USRTIMER
 70
     1
  9
$ANGBASE
 50
0.0
  9
$ANGDIR
 70
     0
  9
$PDMODE
 70
     0
  9
$PDSIZE
 40
-1.0
  9
$PLINEWID
 40
0.0
  9
$SPLFRAME
 70
     0
  9
$SPLINETYPE
 70
     6
  9
$SPLINESEGS
 70
     8
  9
$HANDSEED
  5
148
  9
$SURFTAB1
 70
     6
  9
$SURFTAB2
 70
     6
  9
$SURFTYPE
 70
     6
  9
$SURFU
 70
     6
  9
$SURFV
 70
     6
  9
$UCSBASE
  2

  9
$UCSNAME
  2

  9
$UCSORG
 10
0.0
 20
0.0
 30
0.0
  9
$UCSXDIR
 10
1.0
 20
0.0
 30
0.0
  9
$UCSYDIR
 10
0.0
 20
1.0
 30
0.0
  9
$UCSORTHOREF
  2

  9
$UCSORTHOVIEW
 70
     0
  9
$UCSORGTOP
 10
0.0
 20
0.0
 30
0.0
  9
$UCSORGBOTTOM
 10
0.0
 20
0.0
 30
0.0
  9
$UCSORGLEFT
 10
0.0
 20
0.0
 30
0.0
  9
$UCSORGRIGHT
 10
0.0
 20
0.0
 30
0.0
  9
$UCSORGFRONT
 10
0.0
 20
0.0
 30
0.0
  9
$UCSORGBACK
 10
0.0
 20
0.0
 30
0.0
  9
$PUCSBASE
  2

  9
$PUCSNAME
  2

  9
$PUCSORG
 10
0.0
 20
0.0
 30
0.0
  9
$PUCSXDIR
 10
1.0
 20
0.0
 30
0.0
  9
$PUCSYDIR
 10
0.0
 20
1.0
 30
0.0
  9
$PUCSORTHOREF
  2

  9
$PUCSORTHOVIEW
 70
     0
  9
$PUCSORGTOP
 10
0.0
 20
0.0
 30
0.0
  9
$PUCSORGBOTTOM
 10
0.0
 20
0.0
 30
0.0
  9
$PUCSORGLEFT
 10
0.0
 20
0.0
 30
0.0
  9
$PUCSORGRIGHT
 10
0.0
 20
0.0
 30
0.0
  9
$PUCSORGFRONT
 10
0.0
 20
0.0
 30
0.0
  9
$PUCSORGBACK
 10
0.0
 20
0.0
 30
0.0
  9
$USERI1
 70
     0
  9
$USERI2
 70
     0
  9
$USERI3
 70
     0
  9
$USERI4
 70
     0
  9
$USERI5
 70
     0
  9
$USERR1
 40
0.0
  9
$USERR2
 40
0.0
  9
$USERR3
 40
0.0
  9
$USERR4
 40
0.0
  9
$USERR5
 40
0.0
  9
$WORLDVIEW
 70
     1
  9
$SHADEDGE
 70
     3
  9
$SHADEDIF
 70
    70
  9
$TILEMODE
 70
     1
  9
$MAXACTVP
 70
    64
  9
$PINSBASE
 10
0.0
 20
0.0
 30
0.0
  9
$PLIMCHECK
 70
     0
  9
$PEXTMIN
 10
1.000000000000000E+20
 20
1.000000000000000E+20
 30
1.000000000000000E+20
  9
$PEXTMAX
 10
-1.000000000000000E+20
 20
-1.000000000000000E+20
 30
-1.000000000000000E+20
  9
$PLIMMIN
 10
0.0
 20
0.0
  9
$PLIMMAX
 10
0.0
 20
0.0
  9
$UNITMODE
 70
     0
  9
$VISRETAIN
 70
     1
  9
$PLINEGEN
 70
     0
  9
$PSLTSCALE
 70
     1
  9
$TREEDEPTH
 70
  3020
  9
$CMLSTYLE
  2
Standard
  9
$CMLJUST
 70
     0
  9
$CMLSCALE
 40
20.0
  9
$PROXYGRAPHICS
 70
     1
  9
$MEASUREMENT
 70
     1
  9
$CELWEIGHT
370
    -1
  9
$ENDCAPS
280
     0
  9
$JOINSTYLE
280
     0
  9
$LWDISPLAY
290
     1
  9
$INSUNITS
 70
     4
  9
$HYPERLINKBASE
  1

  9
$STYLESHEET
  1

  9
$XEDIT
290
     1
  9
$CEPSNTYPE
380
     0
  9
$PSTYLEMODE
290
     1
  9
$FINGERPRINTGUID
  2
{8574DB98-CB68-49FF-A7BF-267C097D3264}
  9
$VERSIONGUID
  2
{FAEB1C32-E019-11D5-929B-00C0DF256EC4}
  9
$EXTNAMES
290
     1
  9
$PSVPSCALE
 40
0.0
  9
$OLESTARTUP
290
     0
  0
ENDSEC
  0
SECTION
  2
CLASSES
  0
CLASS
  1
ACDBDICTIONARYWDFLT
  2
AcDbDictionaryWithDefault
  3
ObjectDBX Classes
 90
        0
280
     0
281
     0
  0
CLASS
  1
VISUALSTYLE
  2
AcDbVisualStyle
  3
ObjectDBX Classes
 90
     4095
280
     0
281
     0
  0
CLASS
  1
MATERIAL
  2
AcDbMaterial
  3
ObjectDBX Classes
 90
     1153
280
     0
281
     0
  0
CLASS
  1
SCALE
  2
AcDbScale
  3
ObjectDBX Classes
 90
     1153
280
     0
281
     0
  0
CLASS
  1
SUN
  2
AcDbSun
  3
SCENEOE
 90
     1153
280
     0
281
     0
  0
CLASS
  1
ACDBPLACEHOLDER
  2
AcDbPlaceHolder
  3
ObjectDBX Classes
 90
        0
280
     0
281
     0
  0
CLASS
  1
LAYOUT
  2
AcDbLayout
  3
ObjectDBX Classes
 90
        0
280
     0
281
     0
  0
CLASS
  1
TABLESTYLE
  2
AcDbTableStyle
  3
ObjectDBX Classes
 90
     4095
280
     0
281
     0
  0
CLASS
  1
MLEADERSTYLE
  2
AcDbMLeaderStyle
  3
ACDB_MLEADERSTYLE_CLASS
 90
     4095
280
     0
281
     0
  0
CLASS
  1
RASTERVARIABLES
  2
AcDbRasterVariables
  3
ISM
 90
        0
280
     0
281
     0
  0
ENDSEC
  0
SECTION
  2
TABLES
  0
TABLE
  2
VPORT
  5
8
330
0
100
AcDbSymbolTable
 70
     1
  0
VPORT
  5
29
330
8
100
AcDbSymbolTableRecord
100
AcDbViewportTableRecord
  2
*Active
 70
     0
 10
0.0
 20
0.0
 11
1.0
 21
1.0
 12
5.859222360735519
 22
-3.420770517822702
 13
0.0
 23
0.0
 14
10.0
 24
10.0
 15
10.0
 25
10.0
 16
0.0
 26
0.0
 36
1.0
 17
0.0
 27
0.0
 37
0.0
 40
28.55696129201848
 41
1.627413127413128
 42
50.0
 43
0.0
 44
0.0
 50
0.0
 51
0.0
 71
    16
 72
  2000
 73
     1
 74
     3
 75
     0
 76
     0
 77
     0
 78
     0
281
     0
 65
     1
110
0.0
120
0.0
130
0.0
111
1.0
121
0.0
131
0.0
112
0.0
122
1.0
132
0.0
 79
     0
146
0.0
  0
ENDTAB
  0
TABLE
  2
LTYPE
  5
5
330
0
100
AcDbSymbolTable
 70
     6
  0
LTYPE
  5
14
330
5
100
AcDbSymbolTableRecord
100
AcDbLinetypeTableRecord
  2
ByBlock
 70
     0
  3

 72
    65
 73
     0
 40
0.0
  0
LTYPE
  5
15
330
5
100
AcDbSymbolTableRecord
100
AcDbLinetypeTableRecord
  2
ByLayer
 70
     0
  3

 72
    65
 73
     0
 40
0.0
  0
LTYPE
  5
16
330
5
100
AcDbSymbolTableRecord
100
AcDbLinetypeTableRecord
  2
Continuous
 70
     0
  3
Solid line
 72
    65
 73
     0
 40
0.0
  0
LTYPE
  5
6A
330
5
100
AcDbSymbolTableRecord
100
AcDbLinetypeTableRecord
  2
HIDDEN
 70
     0
  3
Hidden __ __ __ __ __ __ __ __ __ __ __ __ __ __
 72
    65
 73
     2
 40
1.905
 49
1.27
 74
     0
 49
-0.635
 74
     0
  0
LTYPE
  5
6B
330
5
100
AcDbSymbolTableRecord
100
AcDbLinetypeTableRecord
  2
PHANTOM
 70
     0
  3
Phantom ______  __  __  ______  __  __  ______
 72
    65
 73
     6
 40
12.7
 49
6.35
 74
     0
 49
-1.27
 74
     0
 49
1.27
 74
     0
 49
-1.27
 74
     0
 49
1.27
 74
     0
 49
-1.27
 74
     0
  0
LTYPE
  5
6C
330
5
100
AcDbSymbolTableRecord
100
AcDbLinetypeTableRecord
  2
CENTER
 70
     0
  3
Center ____ _ ____ _ ____ _ ____ _ ____ _ ____
 72
    65
 73
     4
 40
10.16
 49
6.35
 74
     0
 49
-1.27
 74
     0
 49
1.27
 74
     0
 49
-1.27
 74
     0
  0
LTYPE
  5
6D
330
5
100
AcDbSymbolTableRecord
100
AcDbLinetypeTableRecord
  2
CENTERX2
 70
     0
  3
Center (2x) ________  __  ________  __  _____
 72
    65
 73
     4
 40
20.32
 49
12.7
 74
     0
 49
-2.54
 74
     0
 49
2.54
 74
     0
 49
-2.54
 74
     0
  0
LTYPE
  5
6E
330
5
100
AcDbSymbolTableRecord
100
AcDbLinetypeTableRecord
  2
DOT2
 70
     0
  3
Dot (.5x) ........................................
 72
    65
 73
     2
 40
0.635
 49
0.0
 74
     0
 49
-0.635
 74
     0
  0
ENDTAB
  0
TABLE
  2
LAYER
  5
2
330
0
100
AcDbSymbolTable
 70
    17
  0
LAYER
  5
10
330
2
100
AcDbSymbolTableRecord
100
AcDbLayerTableRecord
  2
0
 70
     0
 62
     7
  6
Continuous
370
    -3
390
F
  0
LAYER
  5
6F
330
2
100
AcDbSymbolTableRecord
100
AcDbLayerTableRecord
  2
FORMAT
 70
     0
 62
     2
  6
Continuous
370
    -3
390
F
  0
LAYER
  5
70
330
2
100
AcDbSymbolTableRecord
100
AcDbLayerTableRecord
  2
외형선
 70
     0
 62
   100
  6
Continuous
370
    30
390
F
  0
LAYER
  5
71
330
2
100
AcDbSymbolTableRecord
100
AcDbLayerTableRecord
  2
숨은선
 70
     0
 62
     2
  6
HIDDEN
370
    15
390
F
  0
LAYER
  5
72
330
2
100
AcDbSymbolTableRecord
100
AcDbLayerTableRecord
  2
중심선
 70
     0
 62
     1
  6
CENTERX2
370
    -3
390
F
  0
LAYER
  5
73
330
2
100
AcDbSymbolTableRecord
100
AcDbLayerTableRecord
  2
파단선
 70
     0
 62
     4
  6
Continuous
370
    -3
390
F
  0
LAYER
  5
74
330
2
100
AcDbSymbolTableRecord
100
AcDbLayerTableRecord
  2
해칭선
 70
     0
 62
     4
  6
Continuous
370
    -3
390
F
  0
LAYER
  5
75
330
2
100
AcDbSymbolTableRecord
100
AcDbLayerTableRecord
  2
가는실선
 70
     0
 62
     4
  6
Continuous
370
    -3
390
F
  0
LAYER
  5
76
330
2
100
AcDbSymbolTableRecord
100
AcDbLayerTableRecord
  2
치수_보조선
 70
     0
 62
     4
  6
Continuous
370
    -3
390
F
  0
LAYER
  5
77
330
2
100
AcDbSymbolTableRecord
100
AcDbLayerTableRecord
  2
치수문자_일반주서
 70
     0
 62
     7
  6
Continuous
370
    15
390
F
  0
LAYER
  5
78
330
2
100
AcDbSymbolTableRecord
100
AcDbLayerTableRecord
  2
개별주서
 70
     0
 62
   100
  6
Continuous
370
    30
390
F
  0
LAYER
  5
79
330
2
100
AcDbSymbolTableRecord
100
AcDbLayerTableRecord
  2
중간선
 70
     0
 62
     2
  6
Continuous
370
    15
390
F
  0
LAYER
  5
7A
330
2
100
AcDbSymbolTableRecord
100
AcDbLayerTableRecord
  2
윤곽선
 70
     0
 62
     3
  6
Continuous
370
    40
390
F
  0
LAYER
  5
7B
330
2
100
AcDbSymbolTableRecord
100
AcDbLayerTableRecord
  2
중심마크
 70
     0
 62
   100
  6
Continuous
370
    30
390
F
  0
LAYER
  5
7C
330
2
100
AcDbSymbolTableRecord
100
AcDbLayerTableRecord
  2
가상선
 70
     0
 62
     4
  6
PHANTOM
370
    -3
390
F
  0
LAYER
  5
7D
330
2
100
AcDbSymbolTableRecord
100
AcDbLayerTableRecord
  2
특수지정선
 70
     0
 62
     5
  6
CENTERX2
370
    60
390
F
  0
LAYER
  5
13F
330
2
100
AcDbSymbolTableRecord
100
AcDbLayerTableRecord
  2
Defpoints
 70
     0
 62
     7
  6
Continuous
290
     0
370
    -3
390
F
  0
ENDTAB
  0
TABLE
  2
STYLE
  5
3
330
0
100
AcDbSymbolTable
 70
     2
  0
STYLE
  5
11
330
3
100
AcDbSymbolTableRecord
100
AcDbTextStyleTableRecord
  2
Standard
 70
     0
 40
0.0
 41
1.0
 50
0.0
 71
     0
 42
3.5
  3
txt
  4

  0
STYLE
  5
93
330
3
100
AcDbSymbolTableRecord
100
AcDbTextStyleTableRecord
  2
SLDTEXTSTYLE0
 70
     0
 40
0.0
 41
0.75
 50
0.0
 71
     0
 42
3.5
  3
TXT
  4

  0
ENDTAB
  0
TABLE
  2
VIEW
  5
6
330
0
100
AcDbSymbolTable
 70
     0
  0
ENDTAB
  0
TABLE
  2
UCS
  5
7
330
0
100
AcDbSymbolTable
 70
     0
  0
ENDTAB
  0
TABLE
  2
APPID
  5
9
330
0
100
AcDbSymbolTable
 70
     1
  0
APPID
  5
12
330
9
100
AcDbSymbolTableRecord
100
AcDbRegAppTableRecord
  2
ACAD
 70
     0
  0
ENDTAB
  0
TABLE
  2
DIMSTYLE
  5
A
330
0
100
AcDbSymbolTable
 70
     3
100
AcDbDimStyleTable
  0
DIMSTYLE
105
27
330
A
100
AcDbSymbolTableRecord
100
AcDbDimStyleTableRecord
  2
ISO-25
 70
     0
 41
2.5
 42
0.625
 43
3.75
 44
1.25
 73
     0
 74
     0
 77
     1
 78
     8
140
2.5
141
2.5
143
0.03937007874016
147
0.625
171
     3
172
     1
178
     0
271
     2
272
     2
274
     3
278
    44
283
     0
284
     8
340
11
  0
DIMSTYLE
105
E5
102
{ACAD_REACTORS
330
E4
330
F2
102
}
330
A
100
AcDbSymbolTableRecord
100
AcDbDimStyleTableRecord
  2
SLDDIMSTYLE0
 70
     0
 41
3.302
 44
0.0
 45
0.000000001
 73
     0
 74
     0
 77
     1
 78
    12
 79
     3
140
3.5
147
0.875
172
     1
173
     1
178
     0
271
     2
272
     2
276
     2
284
    12
289
     0
340
93
  0
DIMSTYLE
105
100
102
{ACAD_REACTORS
330
FF
330
10A
102
}
330
A
100
AcDbSymbolTableRecord
100
AcDbDimStyleTableRecord
  2
SLDDIMSTYLE1
 70
     0
 41
3.302
 44
0.0
 45
0.000000001
 73
     0
 74
     0
 77
     1
 78
    12
 79
     3
140
3.5
147
0.875
173
     1
178
     0
271
     2
272
     2
276
     2
284
    12
340
93
  0
ENDTAB
  0
TABLE
  2
BLOCK_RECORD
  5
1
330
0
100
AcDbSymbolTable
 70
     7
  0
BLOCK_RECORD
  5
1F
330
1
100
AcDbSymbolTableRecord
100
AcDbBlockTableRecord
  2
*Model_Space
340
22
  0
BLOCK_RECORD
  5
1B
330
1
100
AcDbSymbolTableRecord
100
AcDbBlockTableRecord
  2
*Paper_Space
340
1E
  0
BLOCK_RECORD
  5
23
330
1
100
AcDbSymbolTableRecord
100
AcDbBlockTableRecord
  2
*Paper_Space0
340
26
  0
BLOCK_RECORD
  5
7E
330
1
100
AcDbSymbolTableRecord
100
AcDbBlockTableRecord
  2
블럭10
340
0
102
{BLKREFS
331
DD
102
}
  0
BLOCK_RECORD
  5
E6
330
1
100
AcDbSymbolTableRecord
100
AcDbBlockTableRecord
  2
_D
340
0
  0
BLOCK_RECORD
  5
F3
330
1
100
AcDbSymbolTableRecord
100
AcDbBlockTableRecord
  2
_D_1
340
0
  0
BLOCK_RECORD
  5
101
330
1
100
AcDbSymbolTableRecord
100
AcDbBlockTableRecord
  2
_D_2
340
0
  0
BLOCK_RECORD
  5
10B
330
1
100
AcDbSymbolTableRecord
100
AcDbBlockTableRecord
  2
_D_3
340
0
  0
BLOCK_RECORD
  5
114
330
1
100
AcDbSymbolTableRecord
100
AcDbBlockTableRecord
  2
SW_DOWELSYMBOL_0
340
0
102
{BLKREFS
331
11A
102
}
  0
ENDTAB
  0
ENDSEC
  0
SECTION
  2
BLOCKS
  0
BLOCK
  5
20
330
1F
100
AcDbEntity
  8
0
100
AcDbBlockBegin
  2
*Model_Space
 70
     0
 10
0.0
 20
0.0
 30
0.0
  3
*Model_Space
  1
*Model_Space
  0
ENDBLK
  5
21
330
1F
100
AcDbEntity
  8
0
100
AcDbBlockEnd
  0
BLOCK
  5
1C
330
1B
100
AcDbEntity
 67
     1
  8
0
100
AcDbBlockBegin
  2
*Paper_Space
 70
     0
 10
0.0
 20
0.0
 30
0.0
  3
*Paper_Space
  1
*Paper_Space
  0
ENDBLK
  5
1D
330
1B
100
AcDbEntity
 67
     1
  8
0
100
AcDbBlockEnd
  0
BLOCK
  5
24
330
23
100
AcDbEntity
  8
0
100
AcDbBlockBegin
  2
*Paper_Space0
 70
     0
 10
0.0
 20
0.0
 30
0.0
  3
*Paper_Space0
  1
*Paper_Space0
  0
ENDBLK
  5
25
330
23
100
AcDbEntity
  8
0
100
AcDbBlockEnd
  0
BLOCK
  5
7F
330
7E
100
AcDbEntity
  8
0
100
AcDbBlockBegin
  2
블럭10
 70
     2
 10
0.0
 20
0.0
 30
0.0
  3
블럭10
  1
블럭10
  0
ELLIPSE
  5
81
330
7E
100
AcDbEntity
  8
중심선
100
AcDbEllipse
 10
20.54032771741204
 20
12.0471743016438
 30
0.0
 11
6.600054785286829
 21
-1.261213355974178E-13
 31
0.0
210
0.0
220
0.0
230
1.0
 40
0.636358354079598
 41
0.9219305317359503
 42
6.513795318482858
  0
ELLIPSE
  5
82
330
7E
100
AcDbEntity
  8
중심선
100
AcDbEllipse
 10
20.54032771746488
 20
12.04717430159265
 30
0.0
 11
3.960054785062283
 21
1.540847449632565E-10
 31
0.0
210
0.0
220
0.0
230
1.0
 40
0.3939339440162632
 41
1.131841032648279
 42
5.62031148352944
  0
LINE
  5
83
330
7E
100
AcDbEntity
  8
중심선
100
AcDbLine
 10
2.268634060543552
 20
16.24717430164393
 30
0.0
 11
5.714909304380834
 21
16.24717430164393
 31
0.0
  0
LINE
  5
84
330
7E
100
AcDbEntity
  8
중심선
100
AcDbLine
 10
5.245725140726316
 20
7.84717430164391
 30
0.0
 11
8.692000384563599
 21
7.84717430164391
 31
0.0
  0
LINE
  5
85
330
7E
100
AcDbEntity
  8
중심선
100
AcDbLine
 10
15.74043728645272
 20
16.24717430164393
 30
0.0
 11
8.692000384563599
 21
7.84717430164391
 31
0.0
  0
LINE
  5
86
330
7E
100
AcDbEntity
  8
중심선
100
AcDbLine
 10
0.1404042013395286
 20
13.71084872107135
 30
0.0
 11
3.58671253028996
 21
13.71088815037384
 31
0.0
  0
LINE
  5
87
330
7E
100
AcDbEntity
  8
중심선
100
AcDbLine
 10
2.750260043222114
 20
10.84717430164391
 30
0.0
 11
6.196535287059397
 21
10.84717430164391
 31
0.0
  0
LINE
  5
88
330
7E
100
AcDbEntity
  8
중심선
100
AcDbLine
 10
12.29416204261559
 20
16.24717430164393
 30
0.0
 11
5.245725140726316
 21
7.84717430164391
 31
0.0
  0
LINE
  5
89
330
7E
100
AcDbEntity
  8
중심선
100
AcDbLine
 10
10.72767329541681
 20
16.24717430164393
 30
0.0
 11
6.196535287059397
 21
10.84717430164391
 31
0.0
  0
LINE
  5
8A
330
7E
100
AcDbEntity
  8
중심선
100
AcDbLine
 10
7.28139805157953
 20
16.24717430164393
 30
0.0
 11
2.750260043222114
 21
10.84717430164391
 31
0.0
  0
LINE
  5
8B
330
7E
100
AcDbEntity
  8
중심선
100
AcDbLine
 10
5.714909304380834
 20
16.24717430164393
 30
0.0
 11
3.58671253028996
 21
13.71088815037384
 31
0.0
  0
LINE
  5
8C
330
7E
100
AcDbEntity
  8
중심선
100
AcDbLine
 10
2.268634060543552
 20
16.24717430164393
 30
0.0
 11
0.1404042013395286
 21
13.71084872107135
 31
0.0
  0
LINE
  5
8D
330
7E
100
AcDbEntity
  8
중심선
100
AcDbLine
 10
7.28139805157953
 20
16.24717430164393
 30
0.0
 11
10.72767329541681
 21
16.24717430164393
 31
0.0
  0
LINE
  5
8E
330
7E
100
AcDbEntity
  8
중심선
100
AcDbLine
 10
12.29416204261559
 20
16.24717430164393
 30
0.0
 11
15.74043728645272
 21
16.24717430164393
 31
0.0
  0
LINE
  5
8F
330
7E
100
AcDbEntity
  8
중심선
100
AcDbLine
 10
19.22036997980202
 20
11.08717430171403
 30
0.0
 11
23.66174974927406
 21
11.08717430171406
 31
0.0
  0
LINE
  5
90
330
7E
100
AcDbEntity
  8
중심선
100
AcDbLine
 10
19.22039502424796
 20
13.00717430171391
 30
0.0
 11
19.22036997980202
 21
11.08717430171403
 31
0.0
  0
LINE
  5
91
330
7E
100
AcDbEntity
  8
중심선
100
AcDbLine
 10
19.22039502424796
 20
13.00717430171391
 30
0.0
 11
26.96566020931264
 21
13.00717430171391
 31
0.0
  0
LINE
  5
92
330
7E
100
AcDbEntity
  8
중심선
100
AcDbLine
 10
22.22332737316547
 20
13.45928029700563
 30
0.0
 11
24.52862924686651
 21
15.39360700705356
 31
0.0
  0
ATTDEF
  5
94
330
7E
100
AcDbEntity
  8
FORMAT
 62
     2
100
AcDbText
 10
-16.11926103943555
 20
2.075366912832191
 30
0.0
 40
4.233333333333333
  1
SEME7512040E [ 6 FLUTE ]
 41
0.75
  7
SLDTEXTSTYLE0
 11
-16.11926103943555
 21
-0.0412997538344756
 31
0.0
100
AcDbAttributeDefinition
  3

  2
AUTOATTR0
 70
     0
 74
     1
  0
ENDBLK
  5
80
330
7E
100
AcDbEntity
  8
0
100
AcDbBlockEnd
  0
BLOCK
  5
E7
330
E6
100
AcDbEntity
  8
0
100
AcDbBlockBegin
  2
_D
 70
     0
 10
0.0
 20
0.0
 30
0.0
  3
_D
  1
_D
  0
LINE
  5
E9
330
E6
100
AcDbEntity
  8
치수문자_일반주서
 62
     0
370
    -2
100
AcDbLine
 10
-38.86250000000002
 20
5.999999999999982
 30
0.0
 11
-57.42890613132348
 21
5.999999999999913
 31
0.0
  0
LINE
  5
EA
330
E6
100
AcDbEntity
  8
치수문자_일반주서
 62
     0
370
    -2
100
AcDbLine
 10
-38.86250000000002
 20
-6.000000000000028
 30
0.0
 11
-57.42890613132344
 21
-6.000000000000098
 31
0.0
  0
LINE
  5
EB
330
E6
100
AcDbEntity
  8
치수문자_일반주서
 62
     0
370
    -2
100
AcDbLine
 10
-57.42890613132347
 20
2.697999999999913
 30
0.0
 11
-57.42890613132345
 21
-2.698000000000098
 31
0.0
  0
SOLID
  5
EC
330
E6
100
AcDbEntity
  8
치수문자_일반주서
 62
     0
100
AcDbTrace
 10
-56.87857279799013
 20
2.697999999999915
 30
0.0
 11
-57.9792394646568
 21
2.697999999999912
 31
0.0
 12
-57.42890613132348
 22
5.999999999999913
 32
0.0
 13
-57.42890613132348
 23
5.999999999999913
 33
0.0
  0
SOLID
  5
ED
330
E6
100
AcDbEntity
  8
치수문자_일반주서
 62
     0
100
AcDbTrace
 10
-57.97923946465679
 20
-2.6980000000001
 30
0.0
 11
-56.87857279799012
 21
-2.698000000000096
 31
0.0
 12
-57.42890613132344
 22
-6.000000000000098
 32
0.0
 13
-57.42890613132344
 23
-6.000000000000098
 33
0.0
  0
MTEXT
  5
EE
330
E6
100
AcDbEntity
  8
치수문자_일반주서
 62
     0
100
AcDbMText
 10
-61.80390613132346
 20
-0.000000000000036
 30
0.0
 40
3.5
 41
0.0
 71
     2
 72
     1
  1
\A1;%%c12
  7
SLDTEXTSTYLE0
 11
-3.552713678800498E-15
 21
1.0
 31
0.0
 73
     1
 44
1.0
  0
POINT
  5
EF
330
E6
100
AcDbEntity
  8
Defpoints
 62
     0
100
AcDbPoint
 10
-38.80000000000002
 20
5.999999999999982
 30
0.0
  0
POINT
  5
F0
330
E6
100
AcDbEntity
  8
Defpoints
 62
     0
100
AcDbPoint
 10
-38.80000000000002
 20
-6.000000000000028
 30
0.0
  0
POINT
  5
F1
330
E6
100
AcDbEntity
  8
Defpoints
 62
     0
100
AcDbPoint
 10
-57.42890613132346
 20
-6.000000000000098
 30
0.0
  0
ENDBLK
  5
E8
330
E6
100
AcDbEntity
  8
0
100
AcDbBlockEnd
  0
BLOCK
  5
F4
330
F3
100
AcDbEntity
  8
0
100
AcDbBlockBegin
  2
_D_1
 70
     0
 10
0.0
 20
0.0
 30
0.0
  3
_D_1
  1
_D_1
  0
LINE
  5
F6
330
F3
100
AcDbEntity
  8
치수문자_일반주서
 62
     0
370
    -2
100
AcDbLine
 10
50.06249999999997
 20
5.99999999999998
 30
0.0
 11
59.99999999999994
 21
6.000000000000018
 31
0.0
  0
LINE
  5
F7
330
F3
100
AcDbEntity
  8
치수문자_일반주서
 62
     0
370
    -2
100
AcDbLine
 10
50.06249999999997
 20
-6.000000000000025
 30
0.0
 11
59.99999999999998
 21
-5.999999999999988
 31
0.0
  0
LINE
  5
F8
330
F3
100
AcDbEntity
  8
치수문자_일반주서
 62
     0
370
    -2
100
AcDbLine
 10
59.99999999999995
 20
2.698000000000018
 30
0.0
 11
59.99999999999996
 21
-2.697999999999988
 31
0.0
  0
SOLID
  5
F9
330
F3
100
AcDbEntity
  8
치수문자_일반주서
 62
     0
100
AcDbTrace
 10
60.55033333333328
 20
2.69800000000002
 30
0.0
 11
59.44966666666662
 21
2.698000000000016
 31
0.0
 12
59.99999999999994
 22
6.000000000000018
 32
0.0
 13
59.99999999999994
 23
6.000000000000018
 33
0.0
  0
SOLID
  5
FA
330
F3
100
AcDbEntity
  8
치수문자_일반주서
 62
     0
100
AcDbTrace
 10
59.44966666666663
 20
-2.69799999999999
 30
0.0
 11
60.5503333333333
 21
-2.697999999999986
 31
0.0
 12
59.99999999999998
 22
-5.999999999999988
 32
0.0
 13
59.99999999999998
 23
-5.999999999999988
 33
0.0
  0
MTEXT
  5
FB
330
F3
100
AcDbEntity
  8
치수문자_일반주서
 62
     0
100
AcDbMText
 10
55.62499999999996
 20
0.791316900115152
 30
0.0
 40
3.5
 41
0.0
 71
     2
 72
     1
  1
\A1;%%c12
  7
SLDTEXTSTYLE0
 11
-3.552713678800499E-15
 21
1.0
 31
0.0
 73
     1
 44
1.0
  0
POINT
  5
FC
330
F3
100
AcDbEntity
  8
Defpoints
 62
     0
100
AcDbPoint
 10
49.99999999999997
 20
5.99999999999998
 30
0.0
  0
POINT
  5
FD
330
F3
100
AcDbEntity
  8
Defpoints
 62
     0
100
AcDbPoint
 10
49.99999999999997
 20
-6.000000000000025
 30
0.0
  0
POINT
  5
FE
330
F3
100
AcDbEntity
  8
Defpoints
 62
     0
100
AcDbPoint
 10
59.99999999999998
 20
-5.999999999999988
 30
0.0
  0
ENDBLK
  5
F5
330
F3
100
AcDbEntity
  8
0
100
AcDbBlockEnd
  0
BLOCK
  5
102
330
101
100
AcDbEntity
  8
0
100
AcDbBlockBegin
  2
_D_2
 70
     0
 10
0.0
 20
0.0
 30
0.0
  3
_D_2
  1
_D_2
  0
LINE
  5
104
330
101
100
AcDbEntity
  8
치수문자_일반주서
 62
     0
370
    -2
100
AcDbLine
 10
9.999999999999964
 20
5.856771504865648
 30
0.0
 11
9.999999999999964
 21
49.28911212350746
 31
0.0
  0
LINE
  5
105
330
101
100
AcDbEntity
  8
치수문자_일반주서
 62
     0
370
    -2
100
AcDbLine
 10
49.99999999999997
 20
6.018715305426005
 30
0.0
 11
49.99999999999997
 21
49.28911212350746
 31
0.0
  0
LINE
  5
106
330
101
100
AcDbEntity
  8
치수문자_일반주서
 62
     0
370
    -2
100
AcDbLine
 10
13.30199999999996
 20
49.28911212350746
 30
0.0
 11
46.69799999999997
 21
49.28911212350746
 31
0.0
  0
SOLID
  5
107
330
101
100
AcDbEntity
  8
치수문자_일반주서
 62
     0
100
AcDbTrace
 10
13.30199999999996
 20
49.83944545684079
 30
0.0
 11
13.30199999999996
 21
48.73877879017412
 31
0.0
 12
9.999999999999964
 22
49.28911212350746
 32
0.0
 13
9.999999999999964
 23
49.28911212350746
 33
0.0
  0
SOLID
  5
108
330
101
100
AcDbEntity
  8
치수문자_일반주서
 62
     0
100
AcDbTrace
 10
46.69799999999997
 20
48.73877879017412
 30
0.0
 11
46.69799999999997
 21
49.83944545684079
 31
0.0
 12
49.99999999999997
 22
49.28911212350746
 32
0.0
 13
49.99999999999997
 23
49.28911212350746
 33
0.0
  0
MTEXT
  5
109
330
101
100
AcDbEntity
  8
치수문자_일반주서
 62
     0
100
AcDbMText
 10
26.36999510565234
 20
53.66411212350746
 30
0.0
 40
3.5
 41
0.0
 71
     2
 72
     1
  1
\A1;40
  7
SLDTEXTSTYLE0
 73
     1
 44
1.0
  0
POINT
  5
141
330
101
100
AcDbEntity
  8
Defpoints
 62
     0
100
AcDbPoint
 10
9.999999999999964
 20
5.794271504865648
 30
0.0
  0
POINT
  5
142
330
101
100
AcDbEntity
  8
Defpoints
 62
     0
100
AcDbPoint
 10
49.99999999999997
 20
5.956215305426005
 30
0.0
  0
POINT
  5
143
330
101
100
AcDbEntity
  8
Defpoints
 62
     0
100
AcDbPoint
 10
49.99999999999997
 20
49.28911212350746
 30
0.0
  0
ENDBLK
  5
103
330
101
100
AcDbEntity
  8
0
100
AcDbBlockEnd
  0
BLOCK
  5
10C
330
10B
100
AcDbEntity
  8
0
100
AcDbBlockBegin
  2
_D_3
 70
     0
 10
0.0
 20
0.0
 30
0.0
  3
_D_3
  1
_D_3
  0
LINE
  5
10E
330
10B
100
AcDbEntity
  8
치수문자_일반주서
 62
     0
370
    -2
100
AcDbLine
 10
49.99999999999997
 20
6.018715305426005
 30
0.0
 11
49.99999999999998
 21
76.90089796629564
 31
0.0
  0
LINE
  5
10F
330
10B
100
AcDbEntity
  8
치수문자_일반주서
 62
     0
370
    -2
100
AcDbLine
 10
-40.00000000000002
 20
4.862499999999981
 30
0.0
 11
-40.00000000000001
 21
76.90089796629564
 31
0.0
  0
LINE
  5
110
330
10B
100
AcDbEntity
  8
치수문자_일반주서
 62
     0
370
    -2
100
AcDbLine
 10
46.69799999999998
 20
76.90089796629564
 30
0.0
 11
-36.69800000000001
 21
76.90089796629564
 31
0.0
  0
SOLID
  5
111
330
10B
100
AcDbEntity
  8
치수문자_일반주서
 62
     0
100
AcDbTrace
 10
46.69799999999998
 20
76.35056463296232
 30
0.0
 11
46.69799999999998
 21
77.45123129962897
 31
0.0
 12
49.99999999999998
 22
76.90089796629564
 32
0.0
 13
49.99999999999998
 23
76.90089796629564
 33
0.0
  0
SOLID
  5
112
330
10B
100
AcDbEntity
  8
치수문자_일반주서
 62
     0
100
AcDbTrace
 10
-36.69800000000001
 20
77.45123129962897
 30
0.0
 11
-36.69800000000001
 21
76.35056463296232
 31
0.0
 12
-40.00000000000001
 22
76.90089796629564
 32
0.0
 13
-40.00000000000001
 23
76.90089796629564
 33
0.0
  0
MTEXT
  5
113
330
10B
100
AcDbEntity
  8
치수문자_일반주서
 62
     0
100
AcDbMText
 10
7.788346878584434
 20
81.27589796629564
 30
0.0
 40
3.5
 41
0.0
 71
     2
 72
     1
  1
\A1;90
  7
SLDTEXTSTYLE0
 73
     1
 44
1.0
  0
POINT
  5
144
330
10B
100
AcDbEntity
  8
Defpoints
 62
     0
100
AcDbPoint
 10
49.99999999999997
 20
5.956215305426005
 30
0.0
  0
POINT
  5
145
330
10B
100
AcDbEntity
  8
Defpoints
 62
     0
100
AcDbPoint
 10
-40.00000000000002
 20
4.799999999999981
 30
0.0
  0
POINT
  5
146
330
10B
100
AcDbEntity
  8
Defpoints
 62
     0
100
AcDbPoint
 10
-40.00000000000002
 20
76.90089796629564
 30
0.0
  0
ENDBLK
  5
10D
330
10B
100
AcDbEntity
  8
0
100
AcDbBlockEnd
  0
BLOCK
  5
115
330
114
100
AcDbEntity
  8
0
100
AcDbBlockBegin
  2
SW_DOWELSYMBOL_0
 70
     0
 10
0.0
 20
0.0
 30
0.0
  3
SW_DOWELSYMBOL_0
  1
SW_DOWELSYMBOL_0
  0
CIRCLE
  5
117
330
114
100
AcDbEntity
  8
외형선
 62
     0
100
AcDbCircle
 10
0.0
 20
0.0
 30
0.0
 40
3.000000000000001
  0
HATCH
  5
118
330
114
100
AcDbEntity
  8
0
  6
Continuous
 62
     0
370
    30
100
AcDbHatch
 10
0.0
 20
0.0
 30
0.0
210
0.0
220
0.0
230
1.0
  2
SOLID
 70
     1
 71
     0
 91
        1
 92
        0
 93
        3
 72
     2
 10
-0.0000000000000208
 20
0.0
 40
3.000000000000001
 50
0.0
 51
90.0
 73
     1
 72
     1
 10
-0.0000000000000208
 20
3.000000000000001
 11
-0.0000000000000208
 21
0.0
 72
     1
 10
-0.0000000000000208
 20
0.0
 11
2.99999999999998
 21
0.0
 97
        0
 75
     0
 76
     1
 98
        1
 10
0.0
 20
0.0
  0
HATCH
  5
119
330
114
100
AcDbEntity
  8
0
  6
Continuous
 62
     0
370
    30
100
AcDbHatch
 10
0.0
 20
0.0
 30
0.0
210
0.0
220
0.0
230
1.0
  2
SOLID
 70
     1
 71
     0
 91
        1
 92
        0
 93
        3
 72
     2
 10
-0.0000000000000208
 20
0.0
 40
3.000000000000001
 50
180.0
 51
270.0000000000008
 73
     1
 72
     1
 10
-0.0000000000000208
 20
-3.000000000000001
 11
-0.0000000000000208
 21
0.0
 72
     1
 10
-0.0000000000000208
 20
0.0
 11
-3.000000000000022
 21
0.0
 97
        0
 75
     0
 76
     1
 98
        1
 10
0.0
 20
0.0
  0
ENDBLK
  5
116
330
114
100
AcDbEntity
  8
0
100
AcDbBlockEnd
  0
ENDSEC
  0
SECTION
  2
ENTITIES
  0
LINE
  5
95
330
1F
100
AcDbEntity
  8
0
  6
Continuous
 62
   131
370
    15
100
AcDbLine
 10
13.55619799417683
 20
1.155119766669584
 30
0.0
 11
13.51000529497464
 21
1.199891668070926
 31
0.0
  0
LINE
  5
96
330
1F
100
AcDbEntity
  8
0
  6
Continuous
 62
     1
370
    15
100
AcDbLine
 10
49.27404757477122
 20
-6.000000000000025
 30
0.0
 11
49.99999999999997
 21
-6.000000000000025
 31
0.0
  0
LINE
  5
97
330
1F
100
AcDbEntity
  8
0
  6
Continuous
 62
     1
370
    15
100
AcDbLine
 10
11.57564701236863
 20
-6.000000000000025
 30
0.0
 11
13.02639089332536
 21
-6.000000000000025
 31
0.0
  0
LINE
  5
98
330
1F
100
AcDbEntity
  8
0
  6
Continuous
 62
     1
370
    15
100
AcDbLine
 10
31.87516941527145
 20
5.99999999999998
 30
0.0
 11
30.42575659629095
 21
5.99999999999998
 31
0.0
  0
LINE
  5
99
330
1F
100
AcDbEntity
  8
0
  6
Continuous
 62
     1
370
    15
100
AcDbLine
 10
17.85923825494442
 20
-6.000000000000025
 30
0.0
 11
19.30890218780985
 21
-6.000000000000025
 31
0.0
  0
LINE
  5
9A
330
1F
100
AcDbEntity
  8
0
  6
Continuous
 62
     1
370
    15
100
AcDbLine
 10
38.15878038356028
 20
5.99999999999998
 30
0.0
 11
36.70830431936227
 21
5.99999999999998
 31
0.0
  0
LINE
  5
9B
330
1F
100
AcDbEntity
  8
0
  6
Continuous
 62
     1
370
    15
100
AcDbLine
 10
30.42575659629092
 20
-6.000000000000025
 30
0.0
 11
31.87516941527141
 21
-6.000000000000025
 31
0.0
  0
LINE
  5
9C
330
1F
100
AcDbEntity
  8
0
  6
Continuous
 62
     1
370
    15
100
AcDbLine
 10
13.02639089332532
 20
5.99999999999998
 30
0.0
 11
11.57564701236862
 21
5.99999999999998
 31
0.0
  0
LINE
  5
9D
330
1F
100
AcDbEntity
  8
0
  6
Continuous
 62
   131
370
    15
100
AcDbLine
 10
49.99999999999997
 20
5.99999999999998
 30
0.0
 11
49.27404757477119
 21
5.99999999999998
 31
0.0
  0
LINE
  5
9E
330
1F
100
AcDbEntity
  8
0
  6
Continuous
 62
     1
370
    15
100
AcDbLine
 10
24.14269655443355
 20
-6.000000000000025
 30
0.0
 11
25.59180519264403
 21
-6.000000000000025
 31
0.0
  0
LINE
  5
9F
330
1F
100
AcDbEntity
  8
0
  6
Continuous
 62
     1
370
    15
100
AcDbLine
 10
44.44244059586833
 20
5.99999999999998
 30
0.0
 11
42.9909430599898
 21
5.99999999999998
 31
0.0
  0
LINE
  5
A0
330
1F
100
AcDbEntity
  8
0
  6
Continuous
 62
     1
370
    15
100
AcDbLine
 10
36.70830431936223
 20
-6.000000000000025
 30
0.0
 11
38.15878038356024
 21
-6.000000000000025
 31
0.0
  0
LINE
  5
A1
330
1F
100
AcDbEntity
  8
0
  6
Continuous
 62
     1
370
    15
100
AcDbLine
 10
19.30890218780978
 20
5.99999999999998
 30
0.0
 11
17.85923825494437
 21
5.99999999999998
 31
0.0
  0
LINE
  5
A2
330
1F
100
AcDbEntity
  8
0
  6
Continuous
 62
     1
370
    15
100
AcDbLine
 10
42.99094305998975
 20
-6.000000000000025
 30
0.0
 11
44.44244059586834
 21
-6.000000000000025
 31
0.0
  0
LINE
  5
A3
330
1F
100
AcDbEntity
  8
0
  6
Continuous
 62
     1
370
    15
100
AcDbLine
 10
25.59180519264403
 20
5.99999999999998
 30
0.0
 11
24.1426965544335
 21
5.99999999999998
 31
0.0
  0
LINE
  5
A4
330
1F
100
AcDbEntity
  8
0
  6
Continuous
 62
   131
370
    15
100
AcDbLine
 10
-38.80000000000003
 20
-6.000000000000023
 30
0.0
 11
9.000282674015313
 21
-6.000000000000023
 31
0.0
  0
LINE
  5
A5
330
1F
100
AcDbEntity
  8
0
  6
Continuous
 62
   131
370
    15
100
AcDbLine
 10
9.000282674015313
 20
5.999999999999977
 30
0.0
 11
-38.80000000000003
 21
5.999999999999977
 31
0.0
  0
LINE
  5
A6
330
1F
100
AcDbEntity
  8
0
  6
Continuous
 62
   131
370
    15
100
AcDbLine
 10
-38.80000000000003
 20
5.999999999999979
 30
0.0
 11
-40.00000000000002
 21
4.799999999999981
 31
0.0
  0
LINE
  5
A7
330
1F
100
AcDbEntity
  8
0
  6
Continuous
 62
   131
370
    15
100
AcDbLine
 10
-40.00000000000002
 20
-4.800000000000027
 30
0.0
 11
-38.80000000000003
 21
-6.000000000000025
 31
0.0
  0
LINE
  5
A8
330
1F
100
AcDbEntity
  8
0
  6
Continuous
 62
     1
370
    15
100
AcDbLine
 10
49.99999999999997
 20
3.591730432868993
 30
0.0
 11
49.99999999999997
 21
5.956215305426005
 31
0.0
  0
SPLINE
  5
A9
330
1F
100
AcDbEntity
  8
0
  6
Continuous
 62
     1
370
    15
100
AcDbSpline
210
0.0
220
0.0
230
1.0
 70
     8
 71
     3
 72
    25
 73
    21
 74
     0
 42
0.000000001
 43
0.00000001
 40
0.0
 40
0.0
 40
0.0
 40
0.0
 40
0.0572019617064177
 40
0.1145526631312367
 40
0.1717673546806164
 40
0.2289789158318793
 40
0.285989881219162
 40
0.3428518356245923
 40
0.399738425937024
 40
0.456743760600788
 40
0.5135952463414303
 40
0.5705020226486469
 40
0.6274947209993156
 40
0.6843394772612805
 40
0.7412701508877811
 40
0.7982432154636891
 40
0.8550849848277899
 40
0.9120430370812156
 40
0.9689897010232468
 40
1.0
 40
1.0
 40
1.0
 40
1.0
 10
10.0
 20
5.137572480993557
 30
0.0
 10
10.34306558736991
 20
4.945381447926671
 30
0.0
 10
11.03008882030729
 20
4.560499635992493
 30
0.0
 10
12.0628810488403
 20
3.810222331230442
 30
0.0
 10
13.09325699292936
 20
2.956798372753824
 30
0.0
 10
14.12151897933931
 20
2.014919210523376
 30
0.0
 10
15.1502566401434
 20
1.019379190069236
 30
0.0
 10
16.17426439488496
 20
-0.0068387587011329
 30
0.0
 10
17.19871357341841
 20
-1.032296649676061
 30
0.0
 10
18.22530870544494
 20
-2.02555146930648
 30
0.0
 10
19.24912599328598
 20
-2.962676742276088
 30
0.0
 10
20.27394183479206
 20
-3.812361753799736
 30
0.0
 10
21.30031193158453
 20
-4.550028902428277
 30
0.0
 10
22.32401059039246
 20
-5.157095905106004
 30
0.0
 10
23.34925987231189
 20
-5.612980775367332
 30
0.0
 10
24.37528173937063
 20
-5.904949903314078
 30
0.0
 10
25.39892522470504
 20
-6.027486981996891
 30
0.0
 10
26.42469122341906
 20
-5.966478127476895
 30
0.0
 10
27.29502606593445
 20
-5.792190545779667
 30
0.0
 10
27.82259225961182
 20
-5.576213573073812
 30
0.0
 10
28.00859214925182
 20
-5.500068259804106
 30
0.0
  0
SPLINE
  5
AA
330
1F
100
AcDbEntity
  8
0
  6
Continuous
 62
     1
370
    15
100
AcDbSpline
210
0.0
220
0.0
230
1.0
 70
     8
 71
     3
 72
    13
 73
     9
 74
     0
 42
0.000000001
 43
0.00000001
 40
0.0
 40
0.0
 40
0.0
 40
0.0
 40
0.077984949092579
 40
0.2621842442807594
 40
0.4466418806112939
 40
0.6312681985436692
 40
0.8154553621393831
 40
1.0
 40
1.0
 40
1.0
 40
1.0
 10
44.44244059586834
 20
5.978625100178476
 30
0.0
 10
44.58704540254768
 20
5.983737562065967
 30
0.0
 10
45.07320462172706
 20
6.000925583241626
 30
0.0
 10
45.89941629738754
 20
5.845450667762579
 30
0.0
 10
46.92460690476427
 20
5.522298161758322
 30
0.0
 10
47.95069933144617
 20
5.026623456107577
 30
0.0
 10
48.97435456986879
 20
4.393302022270831
 30
0.0
 10
49.65789729866204
 20
3.867740614258973
 30
0.0
 10
49.99999999999997
 20
3.604705152354147
 30
0.0
  0
SPLINE
  5
AB
330
1F
100
AcDbEntity
  8
0
  6
Continuous
 62
   131
370
    15
100
AcDbSpline
210
0.0
220
0.0
230
1.0
 70
    24
 71
     3
 72
     9
 73
     5
 74
     0
 42
0.000000001
 43
0.00000001
 40
0.0
 40
0.0
 40
0.0
 40
0.0
 40
0.8742355814684885
 40
1.0
 40
1.0
 40
1.0
 40
1.0
 10
10.00000000000001
 20
5.794271504865648
 30
0.0
 10
9.999999999999993
 20
5.615999736048312
 30
0.0
 10
9.999999999999979
 20
5.412082425204151
 30
0.0
 10
9.999999999999943
 20
5.223785484530756
 30
0.0
 10
9.99999999999995
 20
5.200104429275706
 30
0.0
  0
SPLINE
  5
AC
330
1F
100
AcDbEntity
  8
0
  6
Continuous
 62
     1
370
    15
100
AcDbSpline
210
0.0
220
0.0
230
1.0
 70
     8
 71
     3
 72
    11
 73
     7
 74
     0
 42
0.000000001
 43
0.00000001
 40
0.0
 40
0.0
 40
0.0
 40
0.0
 40
0.3264259921153719
 40
0.6522196770939427
 40
0.978790146441328
 40
1.0
 40
1.0
 40
1.0
 40
1.0
 10
49.99999999999996
 20
5.956215305426005
 30
0.0
 10
49.65789045906788
 20
5.981587728000227
 30
0.0
 10
48.97433406433499
 20
6.032283425212357
 30
0.0
 10
47.95078124953833
 20
5.869717948161135
 30
0.0
 10
47.24427588242773
 20
5.694021962802424
 30
0.0
 10
46.88001673442513
 20
5.52539696813745
 30
0.0
 10
46.85780189742118
 20
5.515113144678748
 30
0.0
  0
SPLINE
  5
AD
330
1F
100
AcDbEntity
  8
0
  6
Continuous
 62
     1
370
    15
100
AcDbSpline
210
0.0
220
0.0
230
1.0
 70
     8
 71
     3
 72
    27
 73
    23
 74
     0
 42
0.000000001
 43
0.00000001
 40
0.0
 40
0.0
 40
0.0
 40
0.0
 40
0.0453107771526327
 40
0.095550201501709
 40
0.1456667900684018
 40
0.1958751938823077
 40
0.2460936384764398
 40
0.2962095594482969
 40
0.3464412400196962
 40
0.3966355455851063
 40
0.4467541000277186
 40
0.4970030911915803
 40
0.5471763271073634
 40
0.5973008147576386
 40
0.6475609470326152
 40
0.6977163854777937
 40
0.7478501030796179
 40
0.7981151998181938
 40
0.8485571566645271
 40
0.8990018735020859
 40
0.9495665067364268
 40
1.0
 40
1.0
 40
1.0
 40
1.0
 10
30.42575659629093
 20
-5.992335018800777
 30
0.0
 10
30.1173220265791
 20
-5.981663230150019
 30
0.0
 10
29.46690313866677
 20
-5.959158836713364
 30
0.0
 10
28.47385870555276
 20
-5.711118972295692
 30
0.0
 10
27.45022477273221
 20
-5.303333666120286
 30
0.0
 10
26.42467653556707
 20
-4.737708322329947
 30
0.0
 10
25.39892915139695
 20
-4.035718273056057
 30
0.0
 10
24.37528068539244
 20
-3.214010849342913
 30
0.0
 10
23.34926015477823
 20
-2.300997732173416
 30
0.0
 10
22.32401051486302
 20
-1.320377417682951
 30
0.0
 10
21.3003119518693
 20
-0.2995283943153413
 30
0.0
 10
20.27394182935979
 20
0.7271211069314909
 30
0.0
 10
19.24912599473893
 20
1.734249045846796
 30
0.0
 10
18.22530870505456
 20
2.691860648535708
 30
0.0
 10
17.19871357352288
 20
3.568474740645015
 30
0.0
 10
16.17426439485703
 20
4.343167051054824
 30
0.0
 10
15.15025664015093
 20
4.991512649680754
 30
0.0
 10
14.12151897933725
 20
5.493857368336718
 30
0.0
 10
13.09325699292988
 20
5.838355802711693
 30
0.0
 10
12.06288104884009
 20
6.007781783789802
 30
0.0
 10
11.03008882030734
 20
6.012533479096733
 30
0.0
 10
10.34306558736991
 20
5.866962491229103
 30
0.0
 10
9.999999999999993
 20
5.794271504865652
 30
0.0
  0
SPLINE
  5
AE
330
1F
100
AcDbEntity
  8
0
  6
Continuous
 62
     1
370
    15
100
AcDbSpline
210
0.0
220
0.0
230
1.0
 70
     8
 71
     3
 72
    28
 73
    24
 74
     0
 42
0.000000001
 43
0.00000001
 40
0.0
 40
0.0
 40
0.0
 40
0.0
 40
0.045373470509417
 40
0.0936381263174988
 40
0.141777496357448
 40
0.189989626104294
 40
0.2382376549161384
 40
0.2863744954812334
 40
0.3346098110052628
 40
0.3828354822600156
 40
0.4309729640565909
 40
0.4792284308439163
 40
0.5274319974578493
 40
0.5755732908687016
 40
0.6238429889794752
 40
0.6720275880372183
 40
0.7201758615221432
 40
0.7684538618652084
 40
0.8166226399993616
 40
0.8647810584974068
 40
0.9130614266406903
 40
0.9612175384535429
 40
0.9999999999999999
 40
0.9999999999999999
 40
0.9999999999999999
 40
0.9999999999999999
 10
19.30890218780979
 20
5.995189663497458
 30
0.0
 10
19.6304030555651
 20
5.982155581816496
 30
0.0
 10
20.29389073962511
 20
5.955256890286583
 30
0.0
 10
21.30032751841744
 20
5.698511103467638
 30
0.0
 10
22.32400634861709
 20
5.284271440421104
 30
0.0
 10
23.34926124611131
 20
4.712880770594646
 30
0.0
 10
24.37528049339272
 20
4.006110395649912
 30
0.0
 10
25.39892883145373
 20
3.180340309796887
 30
0.0
 10
26.42467801129152
 20
2.263971039693252
 30
0.0
 10
27.45021919652857
 20
1.281613683611775
 30
0.0
 10
28.47387951534878
 20
0.2598013146004652
 30
0.0
 10
29.50005666236782
 20
-0.7667845236615404
 30
0.0
 10
30.52512262888839
 20
-1.772235728180412
 30
0.0
 10
31.54886094150983
 20
-2.727431737326661
 30
0.0
 10
32.5753370076043
 20
-3.600581833294237
 30
0.0
 10
33.59999659427046
 20
-4.370627493937182
 30
0.0
 10
34.62388174946101
 20
-5.013709756418903
 30
0.0
 10
35.65053140921512
 20
-5.509382877402885
 30
0.0
 10
36.67485567465504
 20
-5.845556167670336
 30
0.0
 10
37.69894489803077
 20
-6.012456882295474
 30
0.0
 10
38.72568658679429
 20
-5.999526904337092
 30
0.0
 10
39.68310269644675
 20
-5.840749987726696
 30
0.0
 10
40.29926165015323
 20
-5.610220750567752
 30
0.0
 10
40.5741242342201
 20
-5.507383874714032
 30
0.0
  0
SPLINE
  5
AF
330
1F
100
AcDbEntity
  8
0
  6
Continuous
 62
     1
370
    15
100
AcDbSpline
210
0.0
220
0.0
230
1.0
 70
     8
 71
     3
 72
    29
 73
    25
 74
     0
 42
0.000000001
 43
0.00000001
 40
0.0
 40
0.0
 40
0.0
 40
0.0
 40
0.0078314644754535
 40
0.0559786271741536
 40
0.1042559848866847
 40
0.1524282647322648
 40
0.2005849328754901
 40
0.2488658587846343
 40
0.2970248336397006
 40
0.3451941682505558
 40
0.3934727263321282
 40
0.4416215560568721
 40
0.4898067117740921
 40
0.53807696752746
 40
0.5862188170974929
 40
0.6344229405900269
 40
0.6826789648555375
 40
0.7308170027672598
 40
0.7790432311559803
 40
0.8272791039253942
 40
0.8754165005982285
 40
0.9236650868023296
 40
0.9718777735267032
 40
0.9999999999999999
 40
0.9999999999999999
 40
0.9999999999999999
 40
0.9999999999999999
 10
42.99094305998975
 20
-5.988103673457298
 30
0.0
 10
42.93543448371574
 20
-5.991888325027405
 30
0.0
 10
42.53866400662931
 20
-6.018940685398997
 30
0.0
 10
41.80078698314739
 20
-5.900355985903019
 30
0.0
 10
40.77406991376498
 20
-5.625412740425405
 30
0.0
 10
39.74971027068825
 20
-5.169843894404567
 30
0.0
 10
38.72565245657676
 20
-4.567542030795678
 30
0.0
 10
37.69895402730487
 20
-3.833080218793796
 30
0.0
 10
36.67485323067325
 20
-2.985350552063957
 30
0.0
 10
35.6505320658455
 20
-2.050621176030398
 30
0.0
 10
34.62388157389179
 20
-1.058606854544377
 30
0.0
 10
33.59999664125682
 20
-0.0328776460202591
 30
0.0
 10
32.57533699513692
 20
0.9929275558423558
 30
0.0
 10
31.54886094427331
 20
1.988009270381707
 30
0.0
 10
30.52512263026717
 20
2.928030726067548
 30
0.0
 10
29.50005665407039
 20
3.781310098453206
 30
0.0
 10
28.47387954716106
 20
4.523841908154358
 30
0.0
 10
27.45021907781513
 20
5.136414496136732
 30
0.0
 10
26.42467845537281
 20
5.598243005646184
 30
0.0
 10
25.39892717525663
 20
5.896839533685565
 30
0.0
 10
24.37528666631619
 20
6.025990312706739
 30
0.0
 10
23.34923815490604
 20
5.972195128236088
 30
0.0
 10
22.46600726110125
 20
5.799625107524301
 30
0.0
 10
21.92532577608623
 20
5.581010114341025
 30
0.0
 10
21.72613556895079
 20
5.500471077991588
 30
0.0
  0
SPLINE
  5
B0
330
1F
100
AcDbEntity
  8
0
  6
Continuous
 62
     1
370
    15
100
AcDbSpline
210
0.0
220
0.0
230
1.0
 70
     8
 71
     3
 72
    29
 73
    25
 74
     0
 42
0.000000001
 43
0.00000001
 40
0.0
 40
0.0
 40
0.0
 40
0.0
 40
0.0031458765821137
 40
0.0515966022842645
 40
0.0998774495537692
 40
0.1480321039688393
 40
0.196207621781945
 40
0.2444837005634865
 40
0.2926294893857305
 40
0.340822102101976
 40
0.3890874795754715
 40
0.4372275694075297
 40
0.4854404200344063
 40
0.5336891702630532
 40
0.5818267305824358
 40
0.6300627673331755
 40
0.678289159670435
 40
0.7264273612308857
 40
0.7746835495462281
 40
0.8228878369121536
 40
0.8710298501438736
 40
0.9193002699954547
 40
0.9674855895215825
 40
1.0
 40
1.0
 40
1.0
 40
1.0
 10
13.02639089332533
 20
5.994635522895157
 30
0.0
 10
13.04868196532153
 20
5.996404260718888
 30
0.0
 10
13.41428549306856
 20
6.025413937244329
 30
0.0
 10
14.12145656532094
 20
5.916783157597866
 30
0.0
 10
15.1502732901971
 20
5.659211051910368
 30
0.0
 10
16.17425993656106
 20
5.217247896140877
 30
0.0
 10
17.1987147712098
 20
4.628439486006387
 30
0.0
 10
18.22530838486606
 20
3.905160963008681
 30
0.0
 10
19.2491260803856
 20
3.066344314375699
 30
0.0
 10
20.27394180687919
 20
2.138933557148193
 30
0.0
 10
21.30031195594327
 20
1.150911921548553
 30
0.0
 10
22.3240105209756
 20
0.1265009306348332
 30
0.0
 10
23.34926012618617
 20
-0.8998321922961717
 30
0.0
 10
24.37528079361416
 20
-1.899234925884947
 30
0.0
 10
25.39892874779757
 20
-2.845834626602737
 30
0.0
 10
26.42467804534715
 20
-3.707371397172081
 30
0.0
 10
27.45021914408789
 20
-4.461385705093278
 30
0.0
 10
28.47387969094522
 20
-5.086728047478051
 30
0.0
 10
29.50005601087127
 20
-5.56251918006855
 30
0.0
 10
30.52512505445065
 20
-5.876703312782547
 30
0.0
 10
31.54885189212671
 20
-6.021435622842695
 30
0.0
 10
32.57537085684457
 20
-5.984569523355376
 30
0.0
 10
33.48910222978611
 20
-5.816879605536354
 30
0.0
 10
34.06081004460513
 20
-5.592696230061938
 30
0.0
 10
34.29115458929814
 20
-5.502371388923041
 30
0.0
  0
SPLINE
  5
B1
330
1F
100
AcDbEntity
  8
0
  6
Continuous
 62
     1
370
    15
100
AcDbSpline
210
0.0
220
0.0
230
1.0
 70
     8
 71
     3
 72
    29
 73
    25
 74
     0
 42
0.000000001
 43
0.00000001
 40
0.0
 40
0.0
 40
0.0
 40
0.0
 40
0.0015721588388895
 40
0.0497415650785372
 40
0.0980201949513197
 40
0.1461690962743649
 40
0.1943543236439037
 40
0.2426246511761359
 40
0.2907665723340904
 40
0.3389707675071487
 40
0.3872268635303611
 40
0.435364973024337
 40
0.4835912731264522
 40
0.5318272176236022
 40
0.5799646858777366
 40
0.6282133438284789
 40
0.6764261022461105
 40
0.7245661000080825
 40
0.7728313851718732
 40
0.8210239057175795
 40
0.8691696024588376
 40
0.9174455889102074
 40
0.9656210145854689
 40
1.0
 40
1.0
 40
1.0
 40
1.0
 10
36.70830431936223
 20
-5.997243586445737
 30
0.0
 10
36.69716519167419
 20
-5.998158454719437
 30
0.0
 10
36.34473410703677
 20
-6.027103990405081
 30
0.0
 10
35.65058745861612
 20
-5.922730396199904
 30
0.0
 10
34.62386676208838
 20
-5.673077852274513
 30
0.0
 10
33.60000060871332
 20
-5.236977149114399
 30
0.0
 10
32.57533592939441
 20
-4.653943957765655
 30
0.0
 10
31.5488612297337
 20
-3.93541067444139
 30
0.0
 10
30.52512255174121
 20
-3.100462233436185
 30
0.0
 10
29.500056682688
 20
-2.17625688103539
 30
0.0
 10
28.47387951136906
 20
-1.189927345947837
 30
0.0
 10
27.45021919218873
 20
-0.1661866420623051
 30
0.0
 10
26.42467803268669
 20
0.8602570937230739
 30
0.0
 10
25.39892875028053
 20
1.861497946356086
 30
0.0
 10
24.37528079630735
 20
2.810751387240534
 30
0.0
 10
23.34926011289182
 20
3.675743887109492
 30
0.0
 10
22.32401057137404
 20
4.43459066612755
 30
0.0
 10
21.30031176772949
 20
5.065261025506112
 30
0.0
 10
20.27394251098746
 20
5.546973197866183
 30
0.0
 10
19.24912345830535
 20
5.86773149542625
 30
0.0
 10
18.22531817163585
 20
6.019069008770117
 30
0.0
 10
17.19867816739058
 20
5.989349360562054
 30
0.0
 10
16.27197220814751
 20
5.824075083127408
 30
0.0
 10
15.68706310060883
 20
5.597807418436927
 30
0.0
 10
15.44348336439065
 20
5.503580439630026
 30
0.0
  0
SPLINE
  5
B2
330
1F
100
AcDbEntity
  8
0
  6
Continuous
 62
     1
370
    15
100
AcDbSpline
210
0.0
220
0.0
230
1.0
 70
     8
 71
     3
 72
    28
 73
    24
 74
     0
 42
0.000000001
 43
0.00000001
 40
0.0
 40
0.0
 40
0.0
 40
0.0
 40
0.0391524130122566
 40
0.0873768308060599
 40
0.1355130614338682
 40
0.1837672739858114
 40
0.2319695877133293
 40
0.2801096298563447
 40
0.3283780733618417
 40
0.3765614200261662
 40
0.4247084420618312
 40
0.4729851875838316
 40
0.5211527137357769
 40
0.5693098805208774
 40
0.6175889937815534
 40
0.6657438539414154
 40
0.7139143252175093
 40
0.7621898704155348
 40
0.8103352254877422
 40
0.8585221542911484
 40
0.9067881979209791
 40
0.9549272136030432
 40
0.9999999999999999
 40
0.9999999999999999
 40
0.9999999999999999
 40
0.9999999999999999
 10
25.59180519264405
 20
5.986626912218963
 30
0.0
 10
25.86942442115966
 20
5.980873523617921
 30
0.0
 10
26.48899002369159
 20
5.968033628866159
 30
0.0
 10
27.45024818171735
 20
5.739789509754882
 30
0.0
 10
28.47387173326349
 20
5.347409545500286
 30
0.0
 10
29.50005874752301
 20
4.79543003591241
 30
0.0
 10
30.52512207047144
 20
4.104805320716132
 30
0.0
 10
31.54886109451396
 20
3.292957220900271
 30
0.0
 10
32.57533695539388
 20
2.387845251613071
 30
0.0
 10
33.5999966500986
 20
1.411576432027398
 30
0.0
 10
34.62388157819625
 20
0.3932638436572554
 30
0.0
 10
35.6505320397001
 20
-0.6335398344606725
 30
0.0
 10
36.67485333066077
 20
-1.644360522112068
 30
0.0
 10
37.69895365309217
 20
-2.607429155926303
 30
0.0
 10
38.72565385578165
 20
-3.492198085261436
 30
0.0
 10
39.74970506341226
 20
-4.2777060017383
 30
0.0
 10
40.77408937408945
 20
-4.93807552496056
 30
0.0
 10
41.80071426320822
 20
-5.453632524398083
 30
0.0
 10
42.8245653167203
 20
-5.81152574580401
 30
0.0
 10
43.84929673834044
 20
-6.000531654412653
 30
0.0
 10
44.8757407574946
 20
-6.011386293776818
 30
0.0
 10
45.87720675216632
 20
-5.863763219909924
 30
0.0
 10
46.53818453433636
 20
-5.628752925809616
 30
0.0
 10
46.8578018974212
 20
-5.515113144678796
 30
0.0
  0
SPLINE
  5
B3
330
1F
100
AcDbEntity
  8
0
  6
Continuous
 62
     1
370
    15
100
AcDbSpline
210
0.0
220
0.0
230
1.0
 70
     8
 71
     3
 72
    29
 73
    25
 74
     0
 42
0.000000001
 43
0.00000001
 40
0.0
 40
0.0
 40
0.0
 40
0.0
 40
0.0141029245372939
 40
0.0622394680517343
 40
0.1104907827121325
 40
0.158698013142615
 40
0.2068377271979191
 40
0.2551044710438394
 40
0.3032920989155812
 40
0.3514381524529971
 40
0.3997143980049547
 40
0.4478855681106294
 40
0.4960411268735944
 40
0.544320940539965
 40
0.5924788059616316
 40
0.6406470309004305
 40
0.6889244767937767
 40
0.7370721973188333
 40
0.7852562429995277
 40
0.8335253867559292
 40
0.8816661272870758
 40
0.9298691403061257
 40
0.9781240529025192
 40
1.0
 40
1.0
 40
1.0
 40
1.0
 10
49.2740475747712
 20
-5.981890015993685
 30
0.0
 10
49.17403172665696
 20
-5.987130720609795
 30
0.0
 10
48.73263865482204
 20
-6.010259162278782
 30
0.0
 10
47.95075984984844
 20
-5.874562609876415
 30
0.0
 10
46.92458396052564
 20
-5.575040949536607
 30
0.0
 10
45.8994474956711
 20
-5.100133061552038
 30
0.0
 10
44.87572512592499
 20
-4.479074460233809
 30
0.0
 10
43.84930092391619
 20
-3.728660952553152
 30
0.0
 10
42.8245641971473
 20
-2.868766962263463
 30
0.0
 10
41.80071456401397
 20
-1.924204584851458
 30
0.0
 10
40.7740892935857
 20
-0.9264962538162931
 30
0.0
 10
39.74970508497677
 20
0.1004702098896474
 30
0.0
 10
38.72565384990128
 20
1.124882033190886
 30
0.0
 10
37.69895365498625
 20
2.113823371490601
 30
0.0
 10
36.67485332895902
 20
3.043875776915729
 30
0.0
 10
35.65053204462193
 20
3.884865014355027
 30
0.0
 10
34.62388156018868
 20
4.611067443664103
 30
0.0
 10
33.59999671701631
 20
5.20498403758029
 30
0.0
 10
32.57533670526391
 20
5.646735355653545
 30
0.0
 10
31.54886202877011
 20
5.9230774409272
 30
0.0
 10
30.52511859241465
 20
6.029994712102125
 30
0.0
 10
29.50007175351588
 20
5.951890222103488
 30
0.0
 10
28.66020807046523
 20
5.774370023613255
 30
0.0
 10
28.16352324530284
 20
5.565287465676981
 30
0.0
 10
28.0085921492518
 20
5.50006825980406
 30
0.0
  0
SPLINE
  5
B4
330
1F
100
AcDbEntity
  8
0
  6
Continuous
 62
     1
370
    15
100
AcDbSpline
210
0.0
220
0.0
230
1.0
 70
     8
 71
     3
 72
     9
 73
     5
 74
     0
 42
0.000000001
 43
0.00000001
 40
0.0
 40
0.0
 40
0.0
 40
0.0
 40
0.3462389425583469
 40
1.0
 40
1.0
 40
1.0
 40
1.0
 10
11.57564701236863
 20
-5.977897049754205
 30
0.0
 10
11.39360167927437
 20
-5.982395533167704
 30
0.0
 10
10.86782219372848
 20
-5.995387957937313
 30
0.0
 10
10.34306549455272
 20
-5.873776403374078
 30
0.0
 10
9.999999999999993
 20
-5.794271504865698
 30
0.0
  0
LINE
  5
B5
330
1F
100
AcDbEntity
  8
0
  6
Continuous
 62
     1
370
    15
100
AcDbLine
 10
49.99999999999997
 20
-5.956215305426046
 30
0.0
 11
49.99999999999997
 21
-3.587283048653886
 31
0.0
  0
SPLINE
  5
B6
330
1F
100
AcDbEntity
  8
0
  6
Continuous
 62
     1
370
    15
100
AcDbSpline
210
0.0
220
0.0
230
1.0
 70
     8
 71
     3
 72
    13
 73
     9
 74
     0
 42
0.000000001
 43
0.00000001
 40
0.0
 40
0.0
 40
0.0
 40
0.0
 40
0.1892498061648398
 40
0.37899171018851
 40
0.5682836323969473
 40
0.7575651978410518
 40
0.9461831023141274
 40
1.0
 40
1.0
 40
1.0
 40
1.0
 10
9.999999999999957
 20
-5.252815255225023
 30
0.0
 10
10.34306599213911
 20
-5.403965123685468
 30
0.0
 10
11.03009003566754
 20
-5.706657888890717
 30
0.0
 10
12.06287617746736
 20
-5.949367643662022
 30
0.0
 10
13.09327521021268
 20
-6.031812049534391
 30
0.0
 10
14.12145106810695
 20
-5.921201789734477
 30
0.0
 10
14.90633082729453
 20
-5.740375707863626
 30
0.0
 10
15.34590457194578
 20
-5.546596519300497
 30
0.0
 10
15.44348336439069
 20
-5.50358043963007
 30
0.0
  0
SPLINE
  5
B7
330
1F
100
AcDbEntity
  8
0
  6
Continuous
 62
     1
370
    15
100
AcDbSpline
210
0.0
220
0.0
230
1.0
 70
     8
 71
     3
 72
    25
 73
    21
 74
     0
 42
0.000000001
 43
0.00000001
 40
0.0
 40
0.0
 40
0.0
 40
0.0
 40
0.0386194558500854
 40
0.0951536869308911
 40
0.1516452977893021
 40
0.2082891151269389
 40
0.2648047837673044
 40
0.3213082976098074
 40
0.3779548930501434
 40
0.4344557004952441
 40
0.4909748246931976
 40
0.5476172336730163
 40
0.6041068886586239
 40
0.6606453227160312
 40
0.717276583365791
 40
0.7737588002514725
 40
0.830320233946415
 40
0.8869333915679342
 40
0.94341188846524
 40
0.9999999999999999
 40
0.9999999999999999
 40
0.9999999999999999
 40
0.9999999999999999
 10
31.87516941527145
 20
5.980997802714231
 30
0.0
 10
32.10869027299874
 20
5.980673286873158
 30
0.0
 10
32.68405753540325
 20
5.979873718933479
 30
0.0
 10
33.60002093763327
 20
5.778075439364077
 30
0.0
 10
34.6238750524105
 20
5.40809717690891
 30
0.0
 10
35.6505337859579
 20
4.875488881316867
 30
0.0
 10
36.67485286299195
 20
4.201489533919966
 30
0.0
 10
37.69895378008932
 20
3.404205020927353
 30
0.0
 10
38.72565381682852
 20
2.510330531494036
 30
0.0
 10
39.74970509238952
 20
1.540867562570362
 30
0.0
 10
40.7740892969836
 20
0.5268068145500171
 30
0.0
 10
41.80071454295896
 20
-0.5002254698947755
 30
0.0
 10
42.82456427773737
 20
-1.515673938484616
 30
0.0
 10
43.84930062202748
 20
-2.485899660177535
 30
0.0
 10
44.8757262535277
 20
-3.382349764625402
 30
0.0
 10
45.89944329743482
 20
-4.182537853839651
 30
0.0
 10
46.92459966041569
 20
-4.860433231510964
 30
0.0
 10
47.95070125876089
 20
-5.393212285360482
 30
0.0
 10
48.97435408742812
 20
-5.782507818337063
 30
0.0
 10
49.65789713774458
 20
-5.89827539868053
 30
0.0
 10
49.99999999999997
 20
-5.956215305426046
 30
0.0
  0
SPLINE
  5
B8
330
1F
100
AcDbEntity
  8
0
  6
Continuous
 62
   131
370
    15
100
AcDbSpline
210
0.0
220
0.0
230
1.0
 70
    24
 71
     3
 72
    21
 73
    17
 74
     0
 42
0.000000001
 43
0.00000001
 40
0.0
 40
0.0
 40
0.0
 40
0.0
 40
0.0417799039792849
 40
0.1148671449333272
 40
0.1900739208263187
 40
0.2631611617803616
 40
0.3383679376733535
 40
0.4114551786274007
 40
0.4866619545203855
 40
0.5597491954744299
 40
0.6349559713674231
 40
0.7080432123214638
 40
0.7832499882144583
 40
0.8563372291685029
 40
0.9315440050614953
 40
1.0
 40
1.0
 40
1.0
 40
1.0
 10
9.999999999999986
 20
-1.304838262940842
 30
0.0
 10
9.999999999999986
 20
-1.303665093645602
 30
0.0
 10
9.999999999999986
 20
-1.30043965283237
 30
0.0
 10
9.999999999999986
 20
-1.370671182655564
 30
0.0
 10
9.999999999999986
 20
-1.506150206812479
 30
0.0
 10
10.00000000000001
 20
-1.708617003713511
 30
0.0
 10
9.99999999999991
 20
-1.964555485418368
 30
0.0
 10
10.00000000000011
 20
-2.27243915679645
 30
0.0
 10
9.999999999999869
 20
-2.617716198438551
 30
0.0
 10
10.00000000000001
 20
-2.996902372682585
 30
0.0
 10
9.999999999999986
 20
-3.392438866202069
 30
0.0
 10
9.99999999999993
 20
-3.800179823882079
 30
0.0
 10
10.00000000000004
 20
-4.201523062064993
 30
0.0
 10
9.99999999999989
 20
-4.591288967120812
 30
0.0
 10
10.00000000000003
 20
-4.947701692708961
 30
0.0
 10
9.999999999999993
 20
-5.154347529300596
 30
0.0
 10
9.999999999999957
 20
-5.252815255225025
 30
0.0
  0
SPLINE
  5
B9
330
1F
100
AcDbEntity
  8
0
  6
Continuous
 62
     1
370
    15
100
AcDbSpline
210
0.0
220
0.0
230
1.0
 70
     8
 71
     3
 72
    23
 73
    19
 74
     0
 42
0.000000001
 43
0.00000001
 40
0.0
 40
0.0
 40
0.0
 40
0.0
 40
0.0652915963893561
 40
0.1304567189580993
 40
0.1957772136256193
 40
0.2610380290134057
 40
0.3262074437200738
 40
0.3915488257362125
 40
0.4567831040473886
 40
0.5219611008644177
 40
0.5873153458697393
 40
0.6525273443854696
 40
0.717718208956241
 40
0.783077284316966
 40
0.848271271540218
 40
0.9134792830193554
 40
0.9788351529937337
 40
1.0
 40
1.0
 40
1.0
 40
1.0
 10
49.99999999999996
 20
-3.604705152354162
 30
0.0
 10
49.65789713774396
 20
-3.321447159470097
 30
0.0
 10
48.97435408742624
 20
-2.755479861780683
 30
0.0
 10
47.95070125876846
 20
-1.795849086580881
 30
0.0
 10
46.92459966038728
 20
-0.7940271516157248
 30
0.0
 10
45.89944329754056
 20
0.233849117228037
 30
0.0
 10
44.87572625313349
 20
1.256002092924478
 30
0.0
 10
43.84930062350205
 20
2.238845127802892
 30
0.0
 10
42.82456427224694
 20
3.158228743047963
 30
0.0
 10
41.80071456345427
 20
3.986318118968956
 30
0.0
 10
40.77408922033185
 20
4.696204863846603
 30
0.0
 10
39.7497053777006
 20
5.271005994161868
 30
0.0
 10
38.72565275118567
 20
5.692364006184604
 30
0.0
 10
37.69895776435145
 20
5.946448896677094
 30
0.0
 10
36.67483803523523
 20
6.031099279116022
 30
0.0
 10
35.65058919453102
 20
5.928438729839161
 30
0.0
 10
34.85458347841409
 20
5.748286195756208
 30
0.0
 10
34.40189261021338
 20
5.550704230118248
 30
0.0
 10
34.29115458929818
 20
5.502371388922997
 30
0.0
  0
SPLINE
  5
BA
330
1F
100
AcDbEntity
  8
0
  6
Continuous
 62
     1
370
    15
100
AcDbSpline
210
0.0
220
0.0
230
1.0
 70
     8
 71
     3
 72
    15
 73
    11
 74
     0
 42
0.000000001
 43
0.00000001
 40
0.0
 40
0.0
 40
0.0
 40
0.0
 40
0.0840248480989946
 40
0.2143768478608805
 40
0.3446723960104286
 40
0.4753093933374432
 40
0.6064060430857896
 40
0.737509865942112
 40
0.8689253467683252
 40
1.0
 40
1.0
 40
1.0
 40
1.0
 10
17.85923825494442
 20
-5.979892463002063
 30
0.0
 10
17.63890762249749
 20
-5.980830347239285
 30
0.0
 10
17.07676692793152
 20
-5.983223218764591
 30
0.0
 10
16.1742448270026
 20
-5.788894876957405
 30
0.0
 10
15.15026189705153
 20
-5.425700367574596
 30
0.0
 10
14.12151756371795
 20
-4.89774172732602
 30
0.0
 10
13.09325737267174
 20
-4.225891695720003
 30
0.0
 10
12.06288094729563
 20
-3.426557414893186
 30
0.0
 10
11.0300888456417
 20
-2.531885919738344
 30
0.0
 10
10.34306559580739
 20
-1.87576545898693
 30
0.0
 10
9.999999999999993
 20
-1.548131195017861
 30
0.0
  0
LINE
  5
BB
330
1F
100
AcDbEntity
  8
0
  6
Continuous
 62
     1
370
    15
100
AcDbLine
 10
49.99999999999997
 20
-2.351510153071818
 30
0.0
 11
49.99999999999997
 21
2.351510153071885
 31
0.0
  0
SPLINE
  5
BC
330
1F
100
AcDbEntity
  8
0
  6
Continuous
 62
     1
370
    15
100
AcDbSpline
210
0.0
220
0.0
230
1.0
 70
     8
 71
     3
 72
    19
 73
    15
 74
     0
 42
0.000000001
 43
0.00000001
 40
0.0
 40
0.0
 40
0.0
 40
0.0
 40
0.0878500114984589
 40
0.1759284554768894
 40
0.2637980172987504
 40
0.3516627714968453
 40
0.4392194533903113
 40
0.5265472862010077
 40
0.6139129545098019
 40
0.7014609888130262
 40
0.7887727439876666
 40
0.8761694136786001
 40
0.9636980413003468
 40
1.0
 40
1.0
 40
1.0
 40
1.0
 10
10.0
 20
-0.115242774231418
 30
0.0
 10
10.34306558743245
 20
-0.4585385765114257
 30
0.0
 10
11.0300888204951
 20
-1.146022837886631
 30
0.0
 10
12.06288104808754
 20
-2.139688079079208
 30
0.0
 10
13.09325699574434
 20
-3.07298391351013
 30
0.0
 10
14.12151896884544
 20
-3.913849224709204
 30
0.0
 10
15.15025667911236
 20
-4.636642354839077
 30
0.0
 10
16.17426424983016
 20
-5.224911741685577
 30
0.0
 10
17.19871411556117
 20
-5.660622692850906
 30
0.0
 10
18.22530667976744
 20
-5.93033829667192
 30
0.0
 10
19.2491335330776
 20
-6.030626078723904
 30
0.0
 10
20.27391364506339
 20
-5.94523727951856
 30
0.0
 10
21.10077648484636
 20
-5.766687339754849
 30
0.0
 10
21.58436701315459
 20
-5.560822156146507
 30
0.0
 10
21.72613556895084
 20
-5.500471077991632
 30
0.0
  0
SPLINE
  5
BD
330
1F
100
AcDbEntity
  8
0
  6
Continuous
 62
     1
370
    15
100
AcDbSpline
210
0.0
220
0.0
230
1.0
 70
     8
 71
     3
 72
    19
 73
    15
 74
     0
 42
0.000000001
 43
0.00000001
 40
0.0
 40
0.0
 40
0.0
 40
0.0
 40
0.0478696382017692
 40
0.1343523283371849
 40
0.2208630549225715
 40
0.3075624867684771
 40
0.3940281064452178
 40
0.4805683895744346
 40
0.567250757282364
 40
0.6537049918670998
 40
0.740280479281284
 40
0.826935137675796
 40
0.9133836782781529
 40
1.0
 40
1.0
 40
1.0
 40
1.0
 10
38.15878038356028
 20
5.978326932526425
 30
0.0
 10
38.34792464484384
 20
5.981607234052879
 30
0.0
 10
38.87878246724789
 20
5.990813824373646
 30
0.0
 10
39.74970873718805
 20
5.813352543188747
 30
0.0
 10
40.77408831777113
 20
5.466295935483434
 30
0.0
 10
41.80071480478302
 20
4.952988281020234
 30
0.0
 10
42.82456420759793
 20
4.296115788546665
 30
0.0
 10
43.84930064086416
 20
3.513993513518043
 30
0.0
 10
44.87572624849194
 20
2.631327517036269
 30
0.0
 10
45.89944329878469
 20
1.669450802702354
 30
0.0
 10
46.92459966005351
 20
0.6601107307318338
 30
0.0
 10
47.95070125885728
 20
-0.3661221351781743
 30
0.0
 10
48.97435408740398
 20
-1.389322617770025
 30
0.0
 10
49.65789713773655
 20
-2.030573750149104
 30
0.0
 10
49.99999999999997
 20
-2.351510153071819
 30
0.0
  0
SPLINE
  5
BE
330
1F
100
AcDbEntity
  8
0
  6
Continuous
 62
   131
370
    15
100
AcDbSpline
210
0.0
220
0.0
230
1.0
 70
    24
 71
     3
 72
    22
 73
    18
 74
     0
 42
0.000000001
 43
0.00000001
 40
0.0
 40
0.0
 40
0.0
 40
0.0
 40
0.0894142658196615
 40
0.1565673631038073
 40
0.22566790475847
 40
0.2928210020425776
 40
0.3619215436971986
 40
0.4290746409813069
 40
0.4981751826359281
 40
0.5653282799200401
 40
0.6344288215746551
 40
0.7015819188587645
 40
0.7706824605133873
 40
0.8378355577974936
 40
0.9069360994521173
 40
0.9740891967362268
 40
1.0
 40
1.0
 40
1.0
 40
1.0
 10
10.0
 20
4.246140309847807
 30
0.0
 10
9.999999999999964
 20
4.138930523142154
 30
0.0
 10
9.99999999999993
 20
3.951202609150437
 30
0.0
 10
10.00000000000003
 20
3.598866332811081
 30
0.0
 10
9.999999999999993
 20
3.247370839397622
 30
0.0
 10
9.999999999999979
 20
2.862864760790747
 30
0.0
 10
9.99999999999995
 20
2.464691788189651
 30
0.0
 10
10.00000000000003
 20
2.056541865507145
 30
0.0
 10
9.999999999999883
 20
1.657426224504623
 30
0.0
 10
10.00000000000011
 20
1.271420942670417
 30
0.0
 10
9.999999999999883
 20
0.9164363230013011
 30
0.0
 10
9.999999999999993
 20
0.5960200537349214
 30
0.0
 10
9.999999999999993
 20
0.3254146405636252
 30
0.0
 10
9.99999999999993
 20
0.105891887666751
 30
0.0
 10
10.00000000000003
 20
-0.0467324154621122
 30
0.0
 10
9.999999999999936
 20
-0.1298755758591089
 30
0.0
 10
9.99999999999995
 20
-0.1369845919179729
 30
0.0
 10
9.999999999999964
 20
-0.1389638805080257
 30
0.0
  0
SPLINE
  5
BF
330
1F
100
AcDbEntity
  8
0
  6
Continuous
 62
     1
370
    15
100
AcDbSpline
210
0.0
220
0.0
230
1.0
 70
     8
 71
     3
 72
    17
 73
    13
 74
     0
 42
0.000000001
 43
0.00000001
 40
0.0
 40
0.0
 40
0.0
 40
0.0
 40
0.1088146179953619
 40
0.2174184554119443
 40
0.3262812351198851
 40
0.4350445536661214
 40
0.5436555443363306
 40
0.6525531347854169
 40
0.7612722267846891
 40
0.8698975203531604
 40
0.978816548189776
 40
1.0
 40
1.0
 40
1.0
 40
1.0
 10
49.99999999999996
 20
2.351510153071885
 30
0.0
 10
49.65789713511412
 20
2.659229326190056
 30
0.0
 10
48.97435407954181
 20
3.274071601543587
 30
0.0
 10
47.95070129026602
 20
4.084782847451036
 30
0.0
 10
46.92459954199497
 20
4.779398695804755
 30
0.0
 10
45.89944373879451
 20
5.334372285571598
 30
0.0
 10
44.87572460700343
 20
5.735127597156579
 30
0.0
 10
43.84930678103342
 20
5.966909276427536
 30
0.0
 10
42.8245413442479
 20
6.029326099025555
 30
0.0
 10
41.8008001515809
 20
5.901794559710556
 30
0.0
 10
41.04923339013294
 20
5.721451289270027
 30
0.0
 10
40.64065026087671
 20
5.53735815399239
 30
0.0
 10
40.57412423422014
 20
5.507383874713987
 30
0.0
  0
SPLINE
  5
C0
330
1F
100
AcDbEntity
  8
0
  6
Continuous
 62
     1
370
    15
100
AcDbSpline
210
0.0
220
0.0
230
1.0
 70
     8
 71
     3
 72
    21
 73
    17
 74
     0
 42
0.000000001
 43
0.00000001
 40
0.0
 40
0.0
 40
0.0
 40
0.0
 40
0.056084508967744
 40
0.128578652548996
 40
0.2009633910351743
 40
0.2735365154008264
 40
0.3460002287133845
 40
0.4183935363550351
 40
0.4909827514963184
 40
0.5634207604510839
 40
0.6358273986374108
 40
0.7084237838059098
 40
0.781275602771154
 40
0.8541314079096886
 40
0.9271604047357694
 40
1.0
 40
1.0
 40
1.0
 40
1.0
 10
24.14269655443355
 20
-5.984642595878547
 30
0.0
 10
23.87817262347042
 20
-5.980698649624493
 30
0.0
 10
23.27172832652986
 20
-5.971656807154888
 30
0.0
 10
22.32398085734474
 20
-5.751500450557828
 30
0.0
 10
21.30031991693267
 20
-5.365737826225692
 30
0.0
 10
20.27393969631251
 20
-4.819534073267066
 30
0.0
 10
19.24912656525637
 20
-4.133805908492574
 30
0.0
 10
18.22530855177654
 20
-3.326231794905339
 30
0.0
 10
17.19871361454549
 20
-2.424464959659404
 30
0.0
 10
16.17426438388108
 20
-1.450157641609343
 30
0.0
 10
15.1502566430996
 20
-0.4329976486952868
 30
0.0
 10
14.12151897854321
 20
0.5957951698731299
 30
0.0
 10
13.09325699314287
 20
1.612550073824005
 30
0.0
 10
12.06288104878313
 20
2.581201381029037
 30
0.0
 10
11.03008882032156
 20
3.480653294608314
 30
0.0
 10
10.34306558737464
 20
3.99119894233658
 30
0.0
 10
9.999999999999993
 20
4.246140309847808
 30
0.0
  0
LINE
  5
C1
330
1F
100
AcDbEntity
  8
0
  6
Continuous
 62
   131
370
    15
100
AcDbLine
 10
49.99999999999997
 20
-6.000000000000025
 30
0.0
 11
49.99999999999997
 21
-5.956215305426046
 31
0.0
  0
LINE
  5
C2
330
1F
100
AcDbEntity
  8
0
  6
Continuous
 62
   131
370
    15
100
AcDbLine
 10
10.0
 20
-5.794271504865693
 30
0.0
 11
9.999999999999957
 21
-5.252815255225025
 31
0.0
  0
LINE
  5
C3
330
1F
100
AcDbEntity
  8
0
  6
Continuous
 62
     1
370
    15
100
AcDbLine
 10
49.99999999999997
 20
-3.604705152354162
 30
0.0
 11
49.99999999999997
 21
-2.351510153071818
 31
0.0
  0
LINE
  5
C4
330
1F
100
AcDbEntity
  8
0
  6
Continuous
 62
   131
370
    15
100
AcDbLine
 10
10.0
 20
-1.548131195017859
 30
0.0
 11
10.0
 21
-0.11524277423141
 31
0.0
  0
LINE
  5
C5
330
1F
100
AcDbEntity
  8
0
  6
Continuous
 62
   131
370
    15
100
AcDbLine
 10
49.99999999999997
 20
5.956215305426005
 30
0.0
 11
49.99999999999997
 21
5.999999999999979
 31
0.0
  0
LINE
  5
C6
330
1F
100
AcDbEntity
  8
0
  6
Continuous
 62
   131
370
    15
100
AcDbLine
 10
10.0
 20
4.246140309847807
 30
0.0
 11
10.0
 21
5.137572480993562
 31
0.0
  0
LINE
  5
C7
330
1F
100
AcDbEntity
  8
0
  6
Continuous
 62
     1
370
    15
100
AcDbLine
 10
49.99999999999997
 20
2.351510153071885
 30
0.0
 11
49.99999999999997
 21
3.604705152354148
 31
0.0
  0
SPLINE
  5
C8
330
1F
100
AcDbEntity
  8
0
  6
Continuous
 62
   131
370
    15
100
AcDbSpline
210
0.0
220
0.0
230
1.0
 70
    24
 71
     3
 72
    23
 73
    19
 74
     0
 42
0.000000001
 43
0.00000001
 40
0.0
 40
0.0
 40
0.0
 40
0.0
 40
0.0043648544444763
 40
0.0716556744949444
 40
0.1408979328854795
 40
0.2081887529359467
 40
0.2774310113264823
 40
0.3447218313769315
 40
0.4139640897674837
 40
0.4812549098179503
 40
0.5504971682084832
 40
0.6177879882589495
 40
0.6870302466494834
 40
0.7543210666999198
 40
0.8235633250904211
 40
0.8908541451409203
 40
0.9600964035314907
 40
1.0
 40
1.0
 40
1.0
 40
1.0
 10
9.999999999999993
 20
-0.1426477785589834
 30
0.0
 10
9.999999999999993
 20
-0.1430723696570899
 30
0.0
 10
9.999999999999986
 20
-0.1500426734567685
 30
0.0
 10
9.99999999999995
 20
-0.0744763498302599
 30
0.0
 10
9.999999999999943
 20
0.0534708572269994
 30
0.0
 10
9.999999999999993
 20
0.2579317399276343
 30
0.0
 10
9.999999999999917
 20
0.5133294972977488
 30
0.0
 10
10.00000000000007
 20
0.8213565330693049
 30
0.0
 10
9.999999999999964
 20
1.166593925319531
 30
0.0
 10
10.00000000000001
 20
1.545793466788921
 30
0.0
 10
10.00000000000001
 20
1.941315495940325
 30
0.0
 10
9.999999999999897
 20
2.349100263156521
 30
0.0
 10
9.999999999999993
 20
2.750280614112926
 30
0.0
 10
9.999999999999936
 20
3.140646592866945
 30
0.0
 10
9.999999999999964
 20
3.502408348314893
 30
0.0
 10
9.99999999999995
 20
3.83076882099266
 30
0.0
 10
10.00000000000002
 20
4.076379681264555
 30
0.0
 10
9.999999999999986
 20
4.200691906254979
 30
0.0
 10
9.999999999999964
 20
4.246140309847814
 30
0.0
  0
SPLINE
  5
C9
330
1F
100
AcDbEntity
  8
0
  6
Continuous
 62
   131
370
    15
100
AcDbSpline
210
0.0
220
0.0
230
1.0
 70
     8
 71
     3
 72
     8
 73
     4
 74
     0
 42
0.000000001
 43
0.00000001
 40
0.0
 40
0.0
 40
0.0
 40
0.0
 40
1.0
 40
1.0
 40
1.0
 40
1.0
 10
9.999999999999964
 20
-0.1152427742313941
 30
0.0
 10
9.665101121976317
 20
0.2186530231382719
 30
0.0
 10
9.332478219619194
 20
0.5523178792312423
 30
0.0
 10
9.000282674015319
 20
0.8817589192264672
 30
0.0
  0
SPLINE
  5
CA
330
1F
100
AcDbEntity
  8
0
  6
Continuous
 62
   131
370
    15
100
AcDbSpline
210
0.0
220
0.0
230
1.0
 70
     8
 71
     3
 72
     8
 73
     4
 74
     0
 42
0.000000001
 43
0.00000001
 40
0.0
 40
0.0
 40
0.0
 40
0.0
 40
1.0
 40
1.0
 40
1.0
 40
1.0
 10
9.999999999999979
 20
4.246140309847807
 30
0.0
 10
9.665101121976324
 20
4.482088906408944
 30
0.0
 10
9.332478219619173
 20
4.697742786390798
 30
0.0
 10
9.000282674015326
 20
4.890683099589559
 30
0.0
  0
LINE
  5
CB
330
1F
100
AcDbEntity
  8
0
  6
Continuous
 62
   131
370
    15
100
AcDbLine
 10
9.000282674015313
 20
0.8817462614826593
 30
0.0
 11
9.000282674015313
 21
4.890693778467337
 31
0.0
  0
SPLINE
  5
CC
330
1F
100
AcDbEntity
  8
0
  6
Continuous
 62
   131
370
    15
100
AcDbSpline
210
0.0
220
0.0
230
1.0
 70
     8
 71
     3
 72
     8
 73
     4
 74
     0
 42
0.000000001
 43
0.00000001
 40
0.0
 40
0.0
 40
0.0
 40
0.0
 40
1.0
 40
1.0
 40
1.0
 40
1.0
 10
9.999999999999979
 20
-1.548131195017858
 30
0.0
 10
9.665101121976324
 20
-1.22548189704145
 30
0.0
 10
9.332478219619173
 20
-0.8963720289754872
 30
0.0
 10
9.000282674015326
 20
-0.5647936821411194
 30
0.0
  0
SPLINE
  5
CD
330
1F
100
AcDbEntity
  8
0
  6
Continuous
 62
   131
370
    15
100
AcDbSpline
210
0.0
220
0.0
230
1.0
 70
     8
 71
     3
 72
     8
 73
     4
 74
     0
 42
0.000000001
 43
0.00000001
 40
0.0
 40
0.0
 40
0.0
 40
0.0
 40
1.0
 40
1.0
 40
1.0
 40
1.0
 10
9.999999999999964
 20
-5.252815255225027
 30
0.0
 10
9.665101121976317
 20
-5.091422357802411
 30
0.0
 10
9.332478219619194
 20
-4.905964568625933
 30
0.0
 10
9.000282674015319
 20
-4.69885554389362
 30
0.0
  0
SPLINE
  5
CE
330
1F
100
AcDbEntity
  8
0
  6
Continuous
 62
   131
370
    15
100
AcDbSpline
210
0.0
220
0.0
230
1.0
 70
     8
 71
     3
 72
     8
 73
     4
 74
     0
 42
0.000000001
 43
0.00000001
 40
0.0
 40
0.0
 40
0.0
 40
0.0
 40
1.0
 40
1.0
 40
1.0
 40
1.0
 10
9.999999999999979
 20
-5.794271504865693
 30
0.0
 10
9.665101121976324
 20
-5.707570803450423
 30
0.0
 10
9.332478219619173
 20
-5.594114815366316
 30
0.0
 10
9.000282674015326
 20
-5.455476781730717
 30
0.0
  0
LINE
  5
CF
330
1F
100
AcDbEntity
  8
0
  6
Continuous
 62
   131
370
    15
100
AcDbLine
 10
9.000282674015313
 20
-6.000000000000023
 30
0.0
 11
9.000282674015313
 21
-5.455469108338049
 31
0.0
  0
LINE
  5
D0
330
1F
100
AcDbEntity
  8
0
  6
Continuous
 62
   131
370
    15
100
AcDbLine
 10
9.000282674015319
 20
-5.580614463120076
 30
0.0
 11
9.160293463194959
 21
-5.509702921069984
 31
0.0
  0
LINE
  5
D1
330
1F
100
AcDbEntity
  8
0
  6
Continuous
 62
   131
370
    15
100
AcDbLine
 10
9.999999999999979
 20
5.794271504865646
 30
0.0
 11
9.160293463194959
 21
5.509702921069936
 31
0.0
  0
LINE
  5
D2
330
1F
100
AcDbEntity
  8
0
  6
Continuous
 62
   131
370
    15
100
AcDbLine
 10
9.000282674015313
 20
5.580609762882183
 30
0.0
 11
9.000282674015313
 21
5.999999999999977
 31
0.0
  0
SPLINE
  5
D3
330
1F
100
AcDbEntity
  8
0
  6
Continuous
 62
   131
370
    15
100
AcDbSpline
210
0.0
220
0.0
230
1.0
 70
     8
 71
     3
 72
     8
 73
     4
 74
     0
 42
0.000000001
 43
0.00000001
 40
0.0
 40
0.0
 40
0.0
 40
0.0
 40
1.0
 40
1.0
 40
1.0
 40
1.0
 10
9.999999999999964
 20
5.137572480993567
 30
0.0
 10
9.665101121976317
 20
5.310075380940619
 30
0.0
 10
9.332478219619194
 20
5.458282447857115
 30
0.0
 10
9.000282674015319
 20
5.58061446312003
 30
0.0
  0
LINE
  5
D4
330
1F
100
AcDbEntity
  8
0
  6
Continuous
 62
   131
370
    15
100
AcDbLine
 10
-38.80000000000003
 20
-0.0000000000000229
 30
0.0
 11
-38.80000000000003
 21
5.999999999999977
 31
0.0
  0
LINE
  5
D5
330
1F
100
AcDbEntity
  8
0
  6
Continuous
 62
   131
370
    15
100
AcDbLine
 10
-38.80000000000003
 20
-6.000000000000023
 30
0.0
 11
-38.80000000000003
 21
-0.0000000000000229
 31
0.0
  0
LINE
  5
D6
330
1F
100
AcDbEntity
  8
0
  6
Continuous
 62
   131
370
    15
100
AcDbLine
 10
9.000282674015313
 20
-4.698863501399581
 30
0.0
 11
9.000282674015313
 21
-0.5647753298706749
 31
0.0
  0
LINE
  5
D7
330
1F
100
AcDbEntity
  8
0
  6
Continuous
 62
   131
370
    15
100
AcDbLine
 10
-40.00000000000002
 20
-0.0000000000000229
 30
0.0
 11
-40.00000000000002
 21
4.799999999999981
 31
0.0
  0
LINE
  5
D8
330
1F
100
AcDbEntity
  8
0
  6
Continuous
 62
   131
370
    15
100
AcDbLine
 10
-40.00000000000002
 20
-4.800000000000027
 30
0.0
 11
-40.00000000000002
 21
-0.0000000000000229
 31
0.0
  0
SPLINE
  5
D9
330
1F
100
AcDbEntity
  8
0
  6
Continuous
 62
   131
370
    15
100
AcDbSpline
210
0.0
220
0.0
230
1.0
 70
    24
 71
     3
 72
    20
 73
    16
 74
     0
 42
0.000000001
 43
0.00000001
 40
0.0
 40
0.0
 40
0.0
 40
0.0
 40
0.1224726803774896
 40
0.1967298984801338
 40
0.2709871165827784
 40
0.3452443346854224
 40
0.4195015527880666
 40
0.4937587708907098
 40
0.5680159889933533
 40
0.6422732070959954
 40
0.7165304251986377
 40
0.7907876433012805
 40
0.8650448614039232
 40
0.9393020795065318
 40
1.0
 40
1.0
 40
1.0
 40
1.0
 10
9.999999999999964
 20
-5.25281525522503
 30
0.0
 10
9.999999999999979
 20
-5.071640774559386
 30
0.0
 10
10.00000000000001
 20
-4.780617200332996
 30
0.0
 10
9.999999999999972
 20
-4.311391317249502
 30
0.0
 10
9.999999999999957
 20
-3.912144627682069
 30
0.0
 10
9.99999999999995
 20
-3.505676967075652
 30
0.0
 10
9.999999999999943
 20
-3.10476431496086
 30
0.0
 10
9.999999999999979
 20
-2.720913641139039
 30
0.0
 10
10.0
 20
-2.364206045449698
 30
0.0
 10
9.999999999999972
 20
-2.046044203447951
 30
0.0
 10
9.999999999999979
 20
-1.773904207582396
 30
0.0
 10
9.999999999999972
 20
-1.556920066696718
 30
0.0
 10
9.999999999999964
 20
-1.401408782479828
 30
0.0
 10
9.999999999999972
 20
-1.310801895152516
 30
0.0
 10
9.999999999999972
 20
-1.304262964033869
 30
0.0
 10
9.999999999999964
 20
-1.301321990275621
 30
0.0
  0
SPLINE
  5
DA
330
1F
100
AcDbEntity
  8
0
  6
Continuous
 62
   131
370
    15
100
AcDbSpline
210
0.0
220
0.0
230
1.0
 70
    24
 71
     3
 72
     9
 73
     5
 74
     0
 42
0.000000001
 43
0.00000001
 40
0.0
 40
0.0
 40
0.0
 40
0.0
 40
0.6103789565823456
 40
1.0
 40
1.0
 40
1.0
 40
1.0
 10
9.999999999999993
 20
5.200104429275706
 30
0.0
 10
10.00000000000001
 20
5.318961429880222
 30
0.0
 10
10.00000000000002
 20
5.513687999862292
 30
0.0
 10
9.999999999999986
 20
5.715601684411343
 30
0.0
 10
9.999999999999972
 20
5.794271504865648
 30
0.0
  0
LINE
  5
DB
330
1F
100
AcDbEntity
  8
중심선
 62
     1
100
AcDbLine
 10
-43.20259277488957
 20
-0.0000000000000283
 30
0.0
 11
52.99999999999998
 21
0.0000000000000353
 31
0.0
  0
CIRCLE
  5
DC
330
1F
100
AcDbEntity
  8
외형선
100
AcDbCircle
 10
0.0
 20
0.0
 30
0.0
 40
3.000000000000001
  0
INSERT
  5
DD
330
1F
100
AcDbEntity
  8
0
  6
Continuous
 62
     7
100
AcDbBlockReference
 66
     1
  2
블럭10
 10
-18.94078629968146
 20
-52.04717430164396
 30
0.0
  0
ATTRIB
  5
DE
330
DD
100
AcDbEntity
  8
FORMAT
 62
     2
100
AcDbText
 10
-35.06004733911701
 20
-49.97180738881177
 30
0.0
 40
4.233333333333333
  1
SEME7512040E [ 6 FLUTE ]
 41
0.75
  7
SLDTEXTSTYLE0
 11
-35.06004733911701
 21
-52.08847405547844
 31
0.0
100
AcDbAttribute
  2
AUTOATTR0
 70
     0
 74
     1
  0
SEQEND
  5
DF
330
DD
100
AcDbEntity
  8
0
  6
Continuous
 62
     7
  0
HATCH
  5
E0
330
1F
100
AcDbEntity
  8
중심선
100
AcDbHatch
 10
0.0
 20
0.0
 30
0.0
210
0.0
220
0.0
230
1.0
  2
SOLID
 70
     1
 71
     0
 91
        1
 92
        0
 93
        4
 72
     1
 10
-13.22587699530061
 20
-35.80000000000002
 11
-16.67215223913789
 21
-35.80000000000002
 72
     1
 10
-16.67215223913789
 20
-35.80000000000002
 11
-18.80038209834191
 21
-38.33632558057262
 72
     1
 10
-18.80038209834191
 20
-38.33632558057262
 11
-15.35407376939148
 21
-38.33628615127013
 72
     1
 10
-15.35407376939148
 20
-38.33628615127013
 11
-13.22587699530061
 21
-35.80000000000002
 97
        0
 75
     0
 76
     1
 98
        1
 10
3.998657388384436
 20
-0.001074928723916
  0
HATCH
  5
E1
330
1F
100
AcDbEntity
  8
중심선
100
AcDbHatch
 10
0.0
 20
0.0
 30
0.0
210
0.0
220
0.0
230
1.0
  2
SOLID
 70
     1
 71
     0
 91
        1
 92
        0
 93
        4
 72
     1
 10
-8.213113004264653
 20
-35.80000000000002
 11
-11.65938824810194
 21
-35.80000000000002
 72
     1
 10
-11.65938824810194
 20
-35.80000000000002
 11
-16.19052625645933
 21
-41.20000000000004
 72
     1
 10
-16.19052625645933
 20
-41.20000000000004
 11
-12.74425101262204
 21
-41.20000000000004
 72
     1
 10
-12.74425101262204
 20
-41.20000000000004
 11
-8.213113004264653
 21
-35.80000000000002
 97
        0
 75
     0
 76
     1
 98
        1
 10
3.998657388384436
 20
-0.001074928723916
  0
HATCH
  5
E2
330
1F
100
AcDbEntity
  8
중심선
100
AcDbHatch
 10
0.0
 20
0.0
 30
0.0
210
0.0
220
0.0
230
1.0
  2
SOLID
 70
     1
 71
     0
 91
        1
 92
        0
 93
        4
 72
     1
 10
-3.200349013228759
 20
-35.80000000000005
 11
-6.646624257065874
 21
-35.80000000000002
 72
     1
 10
-6.646624257065874
 20
-35.80000000000002
 11
-13.69506115895512
 21
-44.20000000000004
 72
     1
 10
-13.69506115895512
 20
-44.20000000000004
 11
-10.24878591511784
 21
-44.20000000000004
 72
     1
 10
-10.24878591511784
 20
-44.20000000000004
 11
-3.20034901322876
 21
-35.80000000000005
 97
        0
 75
     0
 76
     1
 98
        1
 10
3.998657388384436
 20
-0.001074928723916
  0
HATCH
  5
E3
330
1F
100
AcDbEntity
  8
중심선
100
AcDbHatch
 10
0.0
 20
0.0
 30
0.0
210
0.0
220
0.0
230
1.0
  2
SOLID
 70
     1
 71
     0
 91
        1
 92
        0
 93
        6
 72
     3
 10
1.599541417783441
 20
-40.00000000005129
 11
3.960054785062284
 21
1.540882976769353E-10
 40
0.3939339440162627
 50
17.09539180608438
 51
320.0019657685081
 73
     0
 72
     1
 10
3.282541073484036
 20
-38.58789400463832
 11
5.587842947185074
 21
-36.6535672945904
 72
     3
 10
1.599541417730594
 20
-40.00000000000017
 11
6.600054785286831
 21
-1.278976924368180E-13
 40
0.6363583540795978
 50
39.99873849337411
 51
368.4976242363725
 73
     1
 72
     1
 10
8.024873909631204
 20
-39.03999999993005
 11
0.2796087245665166
 21
-39.03999999993002
 72
     1
 10
0.2796087245665166
 20
-39.03999999993002
 11
0.2795836801205827
 21
-40.95999999992993
 72
     1
 10
0.2795836801205827
 20
-40.95999999992993
 11
4.720963449592619
 21
-40.95999999992991
 97
        0
 75
     0
 76
     1
 98
        1
 10
3.998657388384436
 20
-0.001074928723916
  0
DIMENSION
  5
E4
330
1F
100
AcDbEntity
  8
치수문자_일반주서
100
AcDbDimension
  2
_D
 10
-57.42890613132344
 20
-6.000000000000098
 30
0.0
 11
-57.42890613132346
 21
-0.0000000000000205
 31
0.0
 70
   160
  1
%%c<>
 71
     2
 42
12.00000000000001
 52
-270.0
  3
SLDDIMSTYLE0
100
AcDbAlignedDimension
 13
-38.80000000000002
 23
5.999999999999982
 33
0.0
 14
-38.80000000000002
 24
-6.000000000000028
 34
0.0
 50
90.0000000000002
100
AcDbRotatedDimension
  0
DIMENSION
  5
F2
330
1F
100
AcDbEntity
  8
치수문자_일반주서
100
AcDbDimension
  2
_D_1
 10
59.99999999999998
 20
-5.999999999999988
 30
0.0
 11
59.99999999999996
 21
0.7913169001151674
 31
0.0
 70
   160
  1
%%c<>
 71
     2
 42
12.00000000000001
 52
-270.0
  3
SLDDIMSTYLE0
100
AcDbAlignedDimension
 13
49.99999999999997
 23
5.99999999999998
 33
0.0
 14
49.99999999999997
 24
-6.000000000000025
 34
0.0
 50
90.0000000000002
100
AcDbRotatedDimension
  0
DIMENSION
  5
FF
330
1F
100
AcDbEntity
  8
치수문자_일반주서
100
AcDbDimension
  2
_D_2
 10
49.99999999999997
 20
49.28911212350746
 30
0.0
 11
26.36999510565234
 21
49.28911212350746
 31
0.0
 70
   160
  1
<>
 71
     2
 42
40.00000000000001
  3
SLDDIMSTYLE1
100
AcDbAlignedDimension
 13
9.999999999999964
 23
5.794271504865648
 33
0.0
 14
49.99999999999997
 24
5.956215305426005
 34
0.0
100
AcDbRotatedDimension
  0
DIMENSION
  5
10A
330
1F
100
AcDbEntity
  8
치수문자_일반주서
100
AcDbDimension
  2
_D_3
 10
-40.00000000000001
 20
76.90089796629564
 30
0.0
 11
7.788346878584434
 21
76.90089796629564
 31
0.0
 70
   160
  1
<>
 71
     2
 42
90.0
  3
SLDDIMSTYLE1
100
AcDbAlignedDimension
 13
49.99999999999997
 23
5.956215305426005
 33
0.0
 14
-40.00000000000002
 24
4.799999999999981
 34
0.0
100
AcDbRotatedDimension
  0
INSERT
  5
11A
330
1F
100
AcDbEntity
  8
외형선
100
AcDbBlockReference
  2
SW_DOWELSYMBOL_0
 10
0.0
 20
0.0
 30
0.0
  0
ENDSEC
  0
SECTION
  2
OBJECTS
  0
DICTIONARY
  5
C
330
0
100
AcDbDictionary
281
     1
  3
ACAD_GROUP
350
D
  3
ACAD_IMAGE_VARS
350
13E
  3
ACAD_LAYOUT
350
1A
  3
ACAD_MLINESTYLE
350
17
  3
ACAD_PLOTSETTINGS
350
19
  3
ACAD_PLOTSTYLENAME
350
E
  3
ACAD_SCALELIST
350
47
  3
APPDATA
350
13C
  3
DWGPROPS
350
147
  0
DICTIONARY
  5
D
102
{ACAD_REACTORS
330
C
102
}
330
C
100
AcDbDictionary
281
     1
  0
RASTERVARIABLES
  5
13E
102
{ACAD_REACTORS
330
C
102
}
330
C
100
AcDbRasterVariables
 90
        0
 70
     1
 71
     1
 72
     1
  0
DICTIONARY
  5
1A
102
{ACAD_REACTORS
330
C
102
}
330
C
100
AcDbDictionary
281
     1
  3
Layout1
350
1E
  3
Layout2
350
26
  3
Model
350
22
  0
DICTIONARY
  5
17
102
{ACAD_REACTORS
330
C
102
}
330
C
100
AcDbDictionary
281
     1
  3
Standard
350
18
  0
DICTIONARY
  5
19
102
{ACAD_REACTORS
330
C
102
}
330
C
100
AcDbDictionary
281
     1
  0
ACDBDICTIONARYWDFLT
  5
E
102
{ACAD_REACTORS
330
C
102
}
330
C
100
AcDbDictionary
281
     1
  3
Normal
350
F
100
AcDbDictionaryWithDefault
340
F
  0
DICTIONARY
  5
47
102
{ACAD_REACTORS
330
C
102
}
330
C
100
AcDbDictionary
281
     1
  3
A0
350
48
  3
A1
350
49
  3
A2
350
4A
  3
A3
350
4B
  3
A4
350
4C
  3
A5
350
4D
  3
A6
350
4E
  3
A7
350
4F
  3
A8
350
50
  3
A9
350
51
  3
B0
350
52
  3
B1
350
53
  3
B2
350
54
  3
B3
350
55
  3
B4
350
56
  3
B5
350
57
  3
B6
350
58
  3
B7
350
59
  3
B8
350
5A
  3
B9
350
5B
  3
C0
350
5C
  3
C1
350
5D
  3
C2
350
5E
  3
C3
350
5F
  3
C4
350
60
  3
C5
350
61
  3
C6
350
62
  3
C7
350
63
  3
C8
350
64
  3
C9
350
65
  3
D0
350
66
  3
D1
350
67
  3
D2
350
68
  0
DICTIONARY
  5
13C
102
{ACAD_REACTORS
330
C
102
}
330
C
100
AcDbDictionary
281
     1
  0
XRECORD
  5
147
102
{ACAD_REACTORS
330
C
102
}
330
C
100
AcDbXrecord
280
     1
  1
DWGPROPS COOKIE
  2

  3

  4

  6

  7

  8
12016016
  9

300
=
301
=
302
=
303
=
304
=
305
=
306
=
307
=
308
=
309
=
 40
0.0
 41
2458268.396713206
 42
2458270.005087743
  1

 90
        0
  0
LAYOUT
  5
1E
102
{ACAD_REACTORS
330
1A
102
}
330
1A
100
AcDbPlotSettings
  1

  2
none_device
  4

  6

 40
0.0
 41
0.0
 42
0.0
 43
0.0
 44
0.0
 45
0.0
 46
0.0
 47
0.0
 48
0.0
 49
0.0
140
0.0
141
0.0
142
1.0
143
1.0
 70
   688
 72
     1
 73
     0
 74
     5
  7

 75
    16
147
1.0
148
0.0
149
0.0
100
AcDbLayout
  1
Layout1
 70
     1
 71
     1
 10
0.0
 20
0.0
 11
420.0
 21
297.0
 12
0.0
 22
0.0
 32
0.0
 14
1.000000000000000E+20
 24
1.000000000000000E+20
 34
1.000000000000000E+20
 15
-1.000000000000000E+20
 25
-1.000000000000000E+20
 35
-1.000000000000000E+20
146
0.0
 13
0.0
 23
0.0
 33
0.0
 16
1.0
 26
0.0
 36
0.0
 17
0.0
 27
1.0
 37
0.0
 76
     0
330
1B
  0
LAYOUT
  5
26
102
{ACAD_REACTORS
330
1A
102
}
330
1A
100
AcDbPlotSettings
  1

  2
none_device
  4

  6

 40
0.0
 41
0.0
 42
0.0
 43
0.0
 44
0.0
 45
0.0
 46
0.0
 47
0.0
 48
0.0
 49
0.0
140
0.0
141
0.0
142
1.0
143
1.0
 70
   688
 72
     1
 73
     0
 74
     5
  7

 75
    16
147
1.0
148
0.0
149
0.0
100
AcDbLayout
  1
Layout2
 70
     1
 71
     2
 10
0.0
 20
0.0
 11
0.0
 21
0.0
 12
0.0
 22
0.0
 32
0.0
 14
0.0
 24
0.0
 34
0.0
 15
0.0
 25
0.0
 35
0.0
146
0.0
 13
0.0
 23
0.0
 33
0.0
 16
1.0
 26
0.0
 36
0.0
 17
0.0
 27
1.0
 37
0.0
 76
     0
330
23
  0
LAYOUT
  5
22
102
{ACAD_REACTORS
330
1A
102
}
330
1A
100
AcDbPlotSettings
  1

  2
none_device
  4
ANSI_A_(11.00_x_8.50_Inches)
  6

 40
6.35
 41
19.05
 42
6.35000508
 43
19.05000254
 44
279.4
 45
215.9
 46
140.6226094054234
 47
64.06946629632628
 48
0.0
 49
0.0
140
0.0
141
0.0
142
0.0636880450381154
143
1.0
 70
  1696
 72
     0
 73
     0
 74
     0
  7

 75
     0
147
0.0235690232323232
148
0.0
149
0.0
100
AcDbLayout
  1
Model
 70
     1
 71
     0
 10
0.0
 20
0.0
 11
420.0
 21
297.0
 12
0.0
 22
0.0
 32
0.0
 14
-61.80390613132347
 24
-49.97180738881177
 34
0.0
 15
60.5503333333333
 25
81.27589796629564
 35
0.0
146
0.0
 13
0.0
 23
0.0
 33
0.0
 16
1.0
 26
0.0
 36
0.0
 17
0.0
 27
1.0
 37
0.0
 76
     0
330
1F
331
29
  0
MLINESTYLE
  5
18
102
{ACAD_REACTORS
330
17
102
}
330
17
100
AcDbMlineStyle
  2
Standard
 70
     0
  3

 62
   256
 51
90.0
 52
90.0
 71
     2
 49
0.5
 62
   256
  6
BYLAYER
 49
-0.5
 62
   256
  6
BYLAYER
  0
ACDBPLACEHOLDER
  5
F
102
{ACAD_REACTORS
330
E
102
}
330
E
  0
SCALE
  5
48
102
{ACAD_REACTORS
330
47
102
}
330
47
100
AcDbScale
 70
     0
300
1:1
140
1.0
141
1.0
290
     1
  0
SCALE
  5
49
102
{ACAD_REACTORS
330
47
102
}
330
47
100
AcDbScale
 70
     0
300
1:2
140
1.0
141
2.0
290
     0
  0
SCALE
  5
4A
102
{ACAD_REACTORS
330
47
102
}
330
47
100
AcDbScale
 70
     0
300
1:4
140
1.0
141
4.0
290
     0
  0
SCALE
  5
4B
102
{ACAD_REACTORS
330
47
102
}
330
47
100
AcDbScale
 70
     0
300
1:5
140
1.0
141
5.0
290
     0
  0
SCALE
  5
4C
102
{ACAD_REACTORS
330
47
102
}
330
47
100
AcDbScale
 70
     0
300
1:8
140
1.0
141
8.0
290
     0
  0
SCALE
  5
4D
102
{ACAD_REACTORS
330
47
102
}
330
47
100
AcDbScale
 70
     0
300
1:10
140
1.0
141
10.0
290
     0
  0
SCALE
  5
4E
102
{ACAD_REACTORS
330
47
102
}
330
47
100
AcDbScale
 70
     0
300
1:16
140
1.0
141
16.0
290
     0
  0
SCALE
  5
4F
102
{ACAD_REACTORS
330
47
102
}
330
47
100
AcDbScale
 70
     0
300
1:20
140
1.0
141
20.0
290
     0
  0
SCALE
  5
50
102
{ACAD_REACTORS
330
47
102
}
330
47
100
AcDbScale
 70
     0
300
1:30
140
1.0
141
30.0
290
     0
  0
SCALE
  5
51
102
{ACAD_REACTORS
330
47
102
}
330
47
100
AcDbScale
 70
     0
300
1:40
140
1.0
141
40.0
290
     0
  0
SCALE
  5
52
102
{ACAD_REACTORS
330
47
102
}
330
47
100
AcDbScale
 70
     0
300
1:50
140
1.0
141
50.0
290
     0
  0
SCALE
  5
53
102
{ACAD_REACTORS
330
47
102
}
330
47
100
AcDbScale
 70
     0
300
1:100
140
1.0
141
100.0
290
     0
  0
SCALE
  5
54
102
{ACAD_REACTORS
330
47
102
}
330
47
100
AcDbScale
 70
     0
300
2:1
140
2.0
141
1.0
290
     0
  0
SCALE
  5
55
102
{ACAD_REACTORS
330
47
102
}
330
47
100
AcDbScale
 70
     0
300
4:1
140
4.0
141
1.0
290
     0
  0
SCALE
  5
56
102
{ACAD_REACTORS
330
47
102
}
330
47
100
AcDbScale
 70
     0
300
8:1
140
8.0
141
1.0
290
     0
  0
SCALE
  5
57
102
{ACAD_REACTORS
330
47
102
}
330
47
100
AcDbScale
 70
     0
300
10:1
140
10.0
141
1.0
290
     0
  0
SCALE
  5
58
102
{ACAD_REACTORS
330
47
102
}
330
47
100
AcDbScale
 70
     0
300
100:1
140
100.0
141
1.0
290
     0
  0
SCALE
  5
59
102
{ACAD_REACTORS
330
47
102
}
330
47
100
AcDbScale
 70
     0
300
1/128" = 1'-0"
140
0.0078125
141
12.0
290
     0
  0
SCALE
  5
5A
102
{ACAD_REACTORS
330
47
102
}
330
47
100
AcDbScale
 70
     0
300
1/64" = 1'-0"
140
0.015625
141
12.0
290
     0
  0
SCALE
  5
5B
102
{ACAD_REACTORS
330
47
102
}
330
47
100
AcDbScale
 70
     0
300
1/32" = 1'-0"
140
0.03125
141
12.0
290
     0
  0
SCALE
  5
5C
102
{ACAD_REACTORS
330
47
102
}
330
47
100
AcDbScale
 70
     0
300
1/16" = 1'-0"
140
0.0625
141
12.0
290
     0
  0
SCALE
  5
5D
102
{ACAD_REACTORS
330
47
102
}
330
47
100
AcDbScale
 70
     0
300
3/32" = 1'-0"
140
0.09375
141
12.0
290
     0
  0
SCALE
  5
5E
102
{ACAD_REACTORS
330
47
102
}
330
47
100
AcDbScale
 70
     0
300
1/8" = 1'-0"
140
0.125
141
12.0
290
     0
  0
SCALE
  5
5F
102
{ACAD_REACTORS
330
47
102
}
330
47
100
AcDbScale
 70
     0
300
3/16" = 1'-0"
140
0.1875
141
12.0
290
     0
  0
SCALE
  5
60
102
{ACAD_REACTORS
330
47
102
}
330
47
100
AcDbScale
 70
     0
300
1/4" = 1'-0"
140
0.25
141
12.0
290
     0
  0
SCALE
  5
61
102
{ACAD_REACTORS
330
47
102
}
330
47
100
AcDbScale
 70
     0
300
3/8" = 1'-0"
140
0.375
141
12.0
290
     0
  0
SCALE
  5
62
102
{ACAD_REACTORS
330
47
102
}
330
47
100
AcDbScale
 70
     0
300
1/2" = 1'-0"
140
0.5
141
12.0
290
     0
  0
SCALE
  5
63
102
{ACAD_REACTORS
330
47
102
}
330
47
100
AcDbScale
 70
     0
300
3/4" = 1'-0"
140
0.75
141
12.0
290
     0
  0
SCALE
  5
64
102
{ACAD_REACTORS
330
47
102
}
330
47
100
AcDbScale
 70
     0
300
1" = 1'-0"
140
1.0
141
12.0
290
     0
  0
SCALE
  5
65
102
{ACAD_REACTORS
330
47
102
}
330
47
100
AcDbScale
 70
     0
300
1-1/2" = 1'-0"
140
1.5
141
12.0
290
     0
  0
SCALE
  5
66
102
{ACAD_REACTORS
330
47
102
}
330
47
100
AcDbScale
 70
     0
300
3" = 1'-0"
140
3.0
141
12.0
290
     0
  0
SCALE
  5
67
102
{ACAD_REACTORS
330
47
102
}
330
47
100
AcDbScale
 70
     0
300
6" = 1'-0"
140
6.0
141
12.0
290
     0
  0
SCALE
  5
68
102
{ACAD_REACTORS
330
47
102
}
330
47
100
AcDbScale
 70
     0
300
1'-0" = 1'-0"
140
12.0
141
12.0
290
     0
  0
ENDSEC
  0
EOF
