  0
SECTION
  2
HEADER
  9
$ACADVER
  1
AC1015
  9
$ACADMAINTVER
 70
     6
  9
$DWGCODEPAGE
  3
ANSI_949
  9
$INSBASE
 10
0.0
 20
0.0
 30
0.0
  9
$EXTMIN
 10
-112.0039061313234
 20
-49.97073246008785
 30
0.0
  9
$EXTMAX
 10
70.55033333333333
 20
80.28319541539129
 30
0.0
  9
$LIMMIN
 10
0.0
 20
0.0
  9
$LIMMAX
 10
420.0
 20
297.0
  9
$ORTHOMODE
 70
     1
  9
$REGENMODE
 70
     1
  9
$FILLMODE
 70
     1
  9
$QTEXTMODE
 70
     0
  9
$MIRRTEXT
 70
     1
  9
$LTSCALE
 40
1.0
  9
$ATTMODE
 70
     1
  9
$TEXTSIZE
 40
3.5
  9
$TRACEWID
 40
1.0
  9
$TEXTSTYLE
  7
Standard
  9
$CLAYER
  8
0
  9
$CELTYPE
  6
ByLayer
  9
$CECOLOR
 62
   256
  9
$CELTSCALE
 40
1.0
  9
$DISPSILH
 70
     0
  9
$DIMSCALE
 40
1.0
  9
$DIMASZ
 40
3.302
  9
$DIMEXO
 40
1.0
  9
$DIMDLI
 40
3.75
  9
$DIMRND
 40
0.0
  9
$DIMDLE
 40
0.0
  9
$DIMEXE
 40
1.0
  9
$DIMTP
 40
0.0
  9
$DIMTM
 40
0.0
  9
$DIMTXT
 40
3.5
  9
$DIMCEN
 40
2.5
  9
$DIMTSZ
 40
0.0
  9
$DIMTOL
 70
     0
  9
$DIMLIM
 70
     0
  9
$DIMTIH
 70
     1
  9
$DIMTOH
 70
     1
  9
$DIMSE1
 70
     0
  9
$DIMSE2
 70
     0
  9
$DIMTAD
 70
     1
  9
$DIMZIN
 70
     0
  9
$DIMBLK
  1

  9
$DIMASO
 70
     1
  9
$DIMSHO
 70
     1
  9
$DIMPOST
  1

  9
$DIMAPOST
  1

  9
$DIMALT
 70
     0
  9
$DIMALTD
 70
     3
  9
$DIMALTF
 40
0.0393700787401575
  9
$DIMLFAC
 40
1.0
  9
$DIMTOFL
 70
     1
  9
$DIMTVP
 40
0.0
  9
$DIMTIX
 70
     0
  9
$DIMSOXD
 70
     0
  9
$DIMSAH
 70
     0
  9
$DIMBLK1
  1

  9
$DIMBLK2
  1

  9
$DIMSTYLE
  2
ISO-25
  9
$DIMCLRD
 70
     0
  9
$DIMCLRE
 70
     0
  9
$DIMCLRT
 70
     0
  9
$DIMTFAC
 40
1.0
  9
$DIMGAP
 40
1.524
  9
$DIMJUST
 70
     0
  9
$DIMSD1
 70
     0
  9
$DIMSD2
 70
     0
  9
$DIMTOLJ
 70
     0
  9
$DIMTZIN
 70
     0
  9
$DIMALTZ
 70
     0
  9
$DIMALTTZ
 70
     0
  9
$DIMUPT
 70
     0
  9
$DIMDEC
 70
     2
  9
$DIMTDEC
 70
     2
  9
$DIMALTU
 70
     2
  9
$DIMALTTD
 70
     3
  9
$DIMTXSTY
  7
Standard
  9
$DIMAUNIT
 70
     0
  9
$DIMADEC
 70
     2
  9
$DIMALTRND
 40
0.0
  9
$DIMAZIN
 70
     0
  9
$DIMDSEP
 70
    44
  9
$DIMATFIT
 70
     3
  9
$DIMFRAC
 70
     0
  9
$DIMLDRBLK
  1

  9
$DIMLUNIT
 70
     2
  9
$DIMLWD
 70
    -2
  9
$DIMLWE
 70
    -2
  9
$DIMTMOVE
 70
     0
  9
$LUNITS
 70
     2
  9
$LUPREC
 70
     2
  9
$SKETCHINC
 40
1.0
  9
$FILLETRAD
 40
10.0
  9
$AUNITS
 70
     0
  9
$AUPREC
 70
     2
  9
$MENU
  1
.
  9
$ELEVATION
 40
0.0
  9
$PELEVATION
 40
0.0
  9
$THICKNESS
 40
0.0
  9
$LIMCHECK
 70
     0
  9
$CHAMFERA
 40
0.0
  9
$CHAMFERB
 40
0.0
  9
$CHAMFERC
 40
0.0
  9
$CHAMFERD
 40
0.0
  9
$SKPOLY
 70
     0
  9
$TDCREATE
 40
2458268.771150035
  9
$TDUCREATE
 40
2458268.396150035
  9
$TDUPDATE
 40
2458270.371190023
  9
$TDUUPDATE
 40
2458269.996190023
  9
$TDINDWG
 40
0.0002958218
  9
$TDUSRTIMER
 40
2458269.995610394
  9
$USRTIMER
 70
     1
  9
$ANGBASE
 50
0.0
  9
$ANGDIR
 70
     0
  9
$PDMODE
 70
     0
  9
$PDSIZE
 40
-1.0
  9
$PLINEWID
 40
0.0
  9
$SPLFRAME
 70
     0
  9
$SPLINETYPE
 70
     6
  9
$SPLINESEGS
 70
     8
  9
$HANDSEED
  5
15D
  9
$SURFTAB1
 70
     6
  9
$SURFTAB2
 70
     6
  9
$SURFTYPE
 70
     6
  9
$SURFU
 70
     6
  9
$SURFV
 70
     6
  9
$UCSBASE
  2

  9
$UCSNAME
  2

  9
$UCSORG
 10
0.0
 20
0.0
 30
0.0
  9
$UCSXDIR
 10
1.0
 20
0.0
 30
0.0
  9
$UCSYDIR
 10
0.0
 20
1.0
 30
0.0
  9
$UCSORTHOREF
  2

  9
$UCSORTHOVIEW
 70
     0
  9
$UCSORGTOP
 10
0.0
 20
0.0
 30
0.0
  9
$UCSORGBOTTOM
 10
0.0
 20
0.0
 30
0.0
  9
$UCSORGLEFT
 10
0.0
 20
0.0
 30
0.0
  9
$UCSORGRIGHT
 10
0.0
 20
0.0
 30
0.0
  9
$UCSORGFRONT
 10
0.0
 20
0.0
 30
0.0
  9
$UCSORGBACK
 10
0.0
 20
0.0
 30
0.0
  9
$PUCSBASE
  2

  9
$PUCSNAME
  2

  9
$PUCSORG
 10
0.0
 20
0.0
 30
0.0
  9
$PUCSXDIR
 10
1.0
 20
0.0
 30
0.0
  9
$PUCSYDIR
 10
0.0
 20
1.0
 30
0.0
  9
$PUCSORTHOREF
  2

  9
$PUCSORTHOVIEW
 70
     0
  9
$PUCSORGTOP
 10
0.0
 20
0.0
 30
0.0
  9
$PUCSORGBOTTOM
 10
0.0
 20
0.0
 30
0.0
  9
$PUCSORGLEFT
 10
0.0
 20
0.0
 30
0.0
  9
$PUCSORGRIGHT
 10
0.0
 20
0.0
 30
0.0
  9
$PUCSORGFRONT
 10
0.0
 20
0.0
 30
0.0
  9
$PUCSORGBACK
 10
0.0
 20
0.0
 30
0.0
  9
$USERI1
 70
     0
  9
$USERI2
 70
     0
  9
$USERI3
 70
     0
  9
$USERI4
 70
     0
  9
$USERI5
 70
     0
  9
$USERR1
 40
0.0
  9
$USERR2
 40
0.0
  9
$USERR3
 40
0.0
  9
$USERR4
 40
0.0
  9
$USERR5
 40
0.0
  9
$WORLDVIEW
 70
     1
  9
$SHADEDGE
 70
     3
  9
$SHADEDIF
 70
    70
  9
$TILEMODE
 70
     1
  9
$MAXACTVP
 70
    64
  9
$PINSBASE
 10
0.0
 20
0.0
 30
0.0
  9
$PLIMCHECK
 70
     0
  9
$PEXTMIN
 10
1.000000000000000E+20
 20
1.000000000000000E+20
 30
1.000000000000000E+20
  9
$PEXTMAX
 10
-1.000000000000000E+20
 20
-1.000000000000000E+20
 30
-1.000000000000000E+20
  9
$PLIMMIN
 10
0.0
 20
0.0
  9
$PLIMMAX
 10
0.0
 20
0.0
  9
$UNITMODE
 70
     0
  9
$VISRETAIN
 70
     1
  9
$PLINEGEN
 70
     0
  9
$PSLTSCALE
 70
     1
  9
$TREEDEPTH
 70
  3020
  9
$CMLSTYLE
  2
Standard
  9
$CMLJUST
 70
     0
  9
$CMLSCALE
 40
20.0
  9
$PROXYGRAPHICS
 70
     1
  9
$MEASUREMENT
 70
     1
  9
$CELWEIGHT
370
    -1
  9
$ENDCAPS
280
     0
  9
$JOINSTYLE
280
     0
  9
$LWDISPLAY
290
     1
  9
$INSUNITS
 70
     4
  9
$HYPERLINKBASE
  1

  9
$STYLESHEET
  1

  9
$XEDIT
290
     1
  9
$CEPSNTYPE
380
     0
  9
$PSTYLEMODE
290
     1
  9
$FINGERPRINTGUID
  2
{8347A761-8104-450A-9E8E-BAEC371295FD}
  9
$VERSIONGUID
  2
{FAEB1C32-E019-11D5-929B-00C0DF256EC4}
  9
$EXTNAMES
290
     1
  9
$PSVPSCALE
 40
0.0
  9
$OLESTARTUP
290
     0
  0
ENDSEC
  0
SECTION
  2
CLASSES
  0
CLASS
  1
ACDBDICTIONARYWDFLT
  2
AcDbDictionaryWithDefault
  3
ObjectDBX Classes
 90
        0
280
     0
281
     0
  0
CLASS
  1
VISUALSTYLE
  2
AcDbVisualStyle
  3
ObjectDBX Classes
 90
     4095
280
     0
281
     0
  0
CLASS
  1
MATERIAL
  2
AcDbMaterial
  3
ObjectDBX Classes
 90
     1153
280
     0
281
     0
  0
CLASS
  1
SCALE
  2
AcDbScale
  3
ObjectDBX Classes
 90
     1153
280
     0
281
     0
  0
CLASS
  1
SUN
  2
AcDbSun
  3
SCENEOE
 90
     1153
280
     0
281
     0
  0
CLASS
  1
ACDBPLACEHOLDER
  2
AcDbPlaceHolder
  3
ObjectDBX Classes
 90
        0
280
     0
281
     0
  0
CLASS
  1
LAYOUT
  2
AcDbLayout
  3
ObjectDBX Classes
 90
        0
280
     0
281
     0
  0
CLASS
  1
TABLESTYLE
  2
AcDbTableStyle
  3
ObjectDBX Classes
 90
     4095
280
     0
281
     0
  0
CLASS
  1
MLEADERSTYLE
  2
AcDbMLeaderStyle
  3
ACDB_MLEADERSTYLE_CLASS
 90
     4095
280
     0
281
     0
  0
CLASS
  1
RASTERVARIABLES
  2
AcDbRasterVariables
  3
ISM
 90
        0
280
     0
281
     0
  0
ENDSEC
  0
SECTION
  2
TABLES
  0
TABLE
  2
VPORT
  5
8
330
0
100
AcDbSymbolTable
 70
     1
  0
VPORT
  5
29
330
8
100
AcDbSymbolTableRecord
100
AcDbViewportTableRecord
  2
*Active
 70
     0
 10
0.0
 20
0.0
 11
1.0
 21
1.0
 12
21.37433431240427
 22
-3.185721874149884
 13
0.0
 23
0.0
 14
10.0
 24
10.0
 15
10.0
 25
10.0
 16
0.0
 26
0.0
 36
1.0
 17
0.0
 27
0.0
 37
0.0
 40
69.2007147991577
 41
1.627413127413127
 42
50.0
 43
0.0
 44
0.0
 50
0.0
 51
0.0
 71
    16
 72
  2000
 73
     1
 74
     3
 75
     0
 76
     0
 77
     0
 78
     0
281
     0
 65
     1
110
0.0
120
0.0
130
0.0
111
1.0
121
0.0
131
0.0
112
0.0
122
1.0
132
0.0
 79
     0
146
0.0
  0
ENDTAB
  0
TABLE
  2
LTYPE
  5
5
330
0
100
AcDbSymbolTable
 70
     6
  0
LTYPE
  5
14
330
5
100
AcDbSymbolTableRecord
100
AcDbLinetypeTableRecord
  2
ByBlock
 70
     0
  3

 72
    65
 73
     0
 40
0.0
  0
LTYPE
  5
15
330
5
100
AcDbSymbolTableRecord
100
AcDbLinetypeTableRecord
  2
ByLayer
 70
     0
  3

 72
    65
 73
     0
 40
0.0
  0
LTYPE
  5
16
330
5
100
AcDbSymbolTableRecord
100
AcDbLinetypeTableRecord
  2
Continuous
 70
     0
  3
Solid line
 72
    65
 73
     0
 40
0.0
  0
LTYPE
  5
6A
330
5
100
AcDbSymbolTableRecord
100
AcDbLinetypeTableRecord
  2
HIDDEN
 70
     0
  3
Hidden __ __ __ __ __ __ __ __ __ __ __ __ __ __
 72
    65
 73
     2
 40
1.905
 49
1.27
 74
     0
 49
-0.635
 74
     0
  0
LTYPE
  5
6B
330
5
100
AcDbSymbolTableRecord
100
AcDbLinetypeTableRecord
  2
PHANTOM
 70
     0
  3
Phantom ______  __  __  ______  __  __  ______
 72
    65
 73
     6
 40
12.7
 49
6.35
 74
     0
 49
-1.27
 74
     0
 49
1.27
 74
     0
 49
-1.27
 74
     0
 49
1.27
 74
     0
 49
-1.27
 74
     0
  0
LTYPE
  5
6C
330
5
100
AcDbSymbolTableRecord
100
AcDbLinetypeTableRecord
  2
CENTER
 70
     0
  3
Center ____ _ ____ _ ____ _ ____ _ ____ _ ____
 72
    65
 73
     4
 40
10.16
 49
6.35
 74
     0
 49
-1.27
 74
     0
 49
1.27
 74
     0
 49
-1.27
 74
     0
  0
LTYPE
  5
6D
330
5
100
AcDbSymbolTableRecord
100
AcDbLinetypeTableRecord
  2
CENTERX2
 70
     0
  3
Center (2x) ________  __  ________  __  _____
 72
    65
 73
     4
 40
20.32
 49
12.7
 74
     0
 49
-2.54
 74
     0
 49
2.54
 74
     0
 49
-2.54
 74
     0
  0
LTYPE
  5
6E
330
5
100
AcDbSymbolTableRecord
100
AcDbLinetypeTableRecord
  2
DOT2
 70
     0
  3
Dot (.5x) ........................................
 72
    65
 73
     2
 40
0.635
 49
0.0
 74
     0
 49
-0.635
 74
     0
  0
ENDTAB
  0
TABLE
  2
LAYER
  5
2
330
0
100
AcDbSymbolTable
 70
    17
  0
LAYER
  5
10
330
2
100
AcDbSymbolTableRecord
100
AcDbLayerTableRecord
  2
0
 70
     0
 62
     7
  6
Continuous
370
    -3
390
F
  0
LAYER
  5
6F
330
2
100
AcDbSymbolTableRecord
100
AcDbLayerTableRecord
  2
FORMAT
 70
     0
 62
     2
  6
Continuous
370
    -3
390
F
  0
LAYER
  5
70
330
2
100
AcDbSymbolTableRecord
100
AcDbLayerTableRecord
  2
외형선
 70
     0
 62
   100
  6
Continuous
370
    30
390
F
  0
LAYER
  5
71
330
2
100
AcDbSymbolTableRecord
100
AcDbLayerTableRecord
  2
숨은선
 70
     0
 62
     2
  6
HIDDEN
370
    15
390
F
  0
LAYER
  5
72
330
2
100
AcDbSymbolTableRecord
100
AcDbLayerTableRecord
  2
중심선
 70
     0
 62
     1
  6
CENTERX2
370
    -3
390
F
  0
LAYER
  5
73
330
2
100
AcDbSymbolTableRecord
100
AcDbLayerTableRecord
  2
파단선
 70
     0
 62
     4
  6
Continuous
370
    -3
390
F
  0
LAYER
  5
74
330
2
100
AcDbSymbolTableRecord
100
AcDbLayerTableRecord
  2
해칭선
 70
     0
 62
     4
  6
Continuous
370
    -3
390
F
  0
LAYER
  5
75
330
2
100
AcDbSymbolTableRecord
100
AcDbLayerTableRecord
  2
가는실선
 70
     0
 62
     4
  6
Continuous
370
    -3
390
F
  0
LAYER
  5
76
330
2
100
AcDbSymbolTableRecord
100
AcDbLayerTableRecord
  2
치수_보조선
 70
     0
 62
     4
  6
Continuous
370
    -3
390
F
  0
LAYER
  5
77
330
2
100
AcDbSymbolTableRecord
100
AcDbLayerTableRecord
  2
치수문자_일반주서
 70
     0
 62
     7
  6
Continuous
370
    15
390
F
  0
LAYER
  5
78
330
2
100
AcDbSymbolTableRecord
100
AcDbLayerTableRecord
  2
개별주서
 70
     0
 62
   100
  6
Continuous
370
    30
390
F
  0
LAYER
  5
79
330
2
100
AcDbSymbolTableRecord
100
AcDbLayerTableRecord
  2
중간선
 70
     0
 62
     2
  6
Continuous
370
    15
390
F
  0
LAYER
  5
7A
330
2
100
AcDbSymbolTableRecord
100
AcDbLayerTableRecord
  2
윤곽선
 70
     0
 62
     3
  6
Continuous
370
    40
390
F
  0
LAYER
  5
7B
330
2
100
AcDbSymbolTableRecord
100
AcDbLayerTableRecord
  2
중심마크
 70
     0
 62
   100
  6
Continuous
370
    30
390
F
  0
LAYER
  5
7C
330
2
100
AcDbSymbolTableRecord
100
AcDbLayerTableRecord
  2
가상선
 70
     0
 62
     4
  6
PHANTOM
370
    -3
390
F
  0
LAYER
  5
7D
330
2
100
AcDbSymbolTableRecord
100
AcDbLayerTableRecord
  2
특수지정선
 70
     0
 62
     5
  6
CENTERX2
370
    60
390
F
  0
LAYER
  5
154
330
2
100
AcDbSymbolTableRecord
100
AcDbLayerTableRecord
  2
Defpoints
 70
     0
 62
     7
  6
Continuous
290
     0
370
    -3
390
F
  0
ENDTAB
  0
TABLE
  2
STYLE
  5
3
330
0
100
AcDbSymbolTable
 70
     2
  0
STYLE
  5
11
330
3
100
AcDbSymbolTableRecord
100
AcDbTextStyleTableRecord
  2
Standard
 70
     0
 40
0.0
 41
1.0
 50
0.0
 71
     0
 42
3.5
  3
txt
  4

  0
STYLE
  5
93
330
3
100
AcDbSymbolTableRecord
100
AcDbTextStyleTableRecord
  2
SLDTEXTSTYLE0
 70
     0
 40
0.0
 41
0.75
 50
0.0
 71
     0
 42
3.5
  3
TXT
  4

  0
ENDTAB
  0
TABLE
  2
VIEW
  5
6
330
0
100
AcDbSymbolTable
 70
     0
  0
ENDTAB
  0
TABLE
  2
UCS
  5
7
330
0
100
AcDbSymbolTable
 70
     0
  0
ENDTAB
  0
TABLE
  2
APPID
  5
9
330
0
100
AcDbSymbolTable
 70
     1
  0
APPID
  5
12
330
9
100
AcDbSymbolTableRecord
100
AcDbRegAppTableRecord
  2
ACAD
 70
     0
  0
ENDTAB
  0
TABLE
  2
DIMSTYLE
  5
A
330
0
100
AcDbSymbolTable
 70
     3
100
AcDbDimStyleTable
  0
DIMSTYLE
105
27
330
A
100
AcDbSymbolTableRecord
100
AcDbDimStyleTableRecord
  2
ISO-25
 70
     0
 41
2.5
 42
0.625
 43
3.75
 44
1.25
 73
     0
 74
     0
 77
     1
 78
     8
140
2.5
141
2.5
143
0.03937007874016
147
0.625
171
     3
172
     1
178
     0
271
     2
272
     2
274
     3
278
    44
283
     0
284
     8
340
11
  0
DIMSTYLE
105
FA
102
{ACAD_REACTORS
330
F9
330
107
102
}
330
A
100
AcDbSymbolTableRecord
100
AcDbDimStyleTableRecord
  2
SLDDIMSTYLE0
 70
     0
 41
3.302
 44
0.0
 45
0.000000001
 73
     0
 74
     0
 77
     1
 78
    12
 79
     3
140
3.5
147
0.875
172
     1
173
     1
178
     0
271
     2
272
     2
276
     2
284
    12
289
     0
340
93
  0
DIMSTYLE
105
115
102
{ACAD_REACTORS
330
114
330
11F
102
}
330
A
100
AcDbSymbolTableRecord
100
AcDbDimStyleTableRecord
  2
SLDDIMSTYLE1
 70
     0
 41
3.302
 44
0.0
 45
0.000000001
 73
     0
 74
     0
 77
     1
 78
    12
 79
     3
140
3.5
147
0.875
173
     1
178
     0
271
     2
272
     2
276
     2
284
    12
340
93
  0
ENDTAB
  0
TABLE
  2
BLOCK_RECORD
  5
1
330
0
100
AcDbSymbolTable
 70
     7
  0
BLOCK_RECORD
  5
1F
330
1
100
AcDbSymbolTableRecord
100
AcDbBlockTableRecord
  2
*Model_Space
340
22
  0
BLOCK_RECORD
  5
1B
330
1
100
AcDbSymbolTableRecord
100
AcDbBlockTableRecord
  2
*Paper_Space
340
1E
  0
BLOCK_RECORD
  5
23
330
1
100
AcDbSymbolTableRecord
100
AcDbBlockTableRecord
  2
*Paper_Space0
340
26
  0
BLOCK_RECORD
  5
7E
330
1
100
AcDbSymbolTableRecord
100
AcDbBlockTableRecord
  2
블럭10
340
0
102
{BLKREFS
331
F2
102
}
  0
BLOCK_RECORD
  5
FB
330
1
100
AcDbSymbolTableRecord
100
AcDbBlockTableRecord
  2
_D
340
0
  0
BLOCK_RECORD
  5
108
330
1
100
AcDbSymbolTableRecord
100
AcDbBlockTableRecord
  2
_D_1
340
0
  0
BLOCK_RECORD
  5
116
330
1
100
AcDbSymbolTableRecord
100
AcDbBlockTableRecord
  2
_D_2
340
0
  0
BLOCK_RECORD
  5
120
330
1
100
AcDbSymbolTableRecord
100
AcDbBlockTableRecord
  2
_D_3
340
0
  0
BLOCK_RECORD
  5
129
330
1
100
AcDbSymbolTableRecord
100
AcDbBlockTableRecord
  2
SW_DOWELSYMBOL_0
340
0
102
{BLKREFS
331
12F
102
}
  0
ENDTAB
  0
ENDSEC
  0
SECTION
  2
BLOCKS
  0
BLOCK
  5
20
330
1F
100
AcDbEntity
  8
0
100
AcDbBlockBegin
  2
*Model_Space
 70
     0
 10
0.0
 20
0.0
 30
0.0
  3
*Model_Space
  1
*Model_Space
  0
ENDBLK
  5
21
330
1F
100
AcDbEntity
  8
0
100
AcDbBlockEnd
  0
BLOCK
  5
1C
330
1B
100
AcDbEntity
 67
     1
  8
0
100
AcDbBlockBegin
  2
*Paper_Space
 70
     0
 10
0.0
 20
0.0
 30
0.0
  3
*Paper_Space
  1
*Paper_Space
  0
ENDBLK
  5
1D
330
1B
100
AcDbEntity
 67
     1
  8
0
100
AcDbBlockEnd
  0
BLOCK
  5
24
330
23
100
AcDbEntity
  8
0
100
AcDbBlockBegin
  2
*Paper_Space0
 70
     0
 10
0.0
 20
0.0
 30
0.0
  3
*Paper_Space0
  1
*Paper_Space0
  0
ENDBLK
  5
25
330
23
100
AcDbEntity
  8
0
100
AcDbBlockEnd
  0
BLOCK
  5
7F
330
7E
100
AcDbEntity
  8
0
100
AcDbBlockBegin
  2
블럭10
 70
     2
 10
0.0
 20
0.0
 30
0.0
  3
블럭10
  1
블럭10
  0
ELLIPSE
  5
81
330
7E
100
AcDbEntity
  8
중심선
100
AcDbEllipse
 10
20.54032771741204
 20
12.0471743016438
 30
0.0
 11
6.600054785286829
 21
-1.261213355974178E-13
 31
0.0
210
0.0
220
0.0
230
1.0
 40
0.636358354079598
 41
0.9219305317359503
 42
6.513795318482858
  0
ELLIPSE
  5
82
330
7E
100
AcDbEntity
  8
중심선
100
AcDbEllipse
 10
20.54032771746488
 20
12.04717430159265
 30
0.0
 11
3.960054785062283
 21
1.540847449632565E-10
 31
0.0
210
0.0
220
0.0
230
1.0
 40
0.3939339440162632
 41
1.131841032648279
 42
5.62031148352944
  0
LINE
  5
83
330
7E
100
AcDbEntity
  8
중심선
100
AcDbLine
 10
2.268634060543552
 20
16.24717430164393
 30
0.0
 11
5.714909304380834
 21
16.24717430164393
 31
0.0
  0
LINE
  5
84
330
7E
100
AcDbEntity
  8
중심선
100
AcDbLine
 10
5.245725140726316
 20
7.84717430164391
 30
0.0
 11
8.692000384563599
 21
7.84717430164391
 31
0.0
  0
LINE
  5
85
330
7E
100
AcDbEntity
  8
중심선
100
AcDbLine
 10
15.74043728645272
 20
16.24717430164393
 30
0.0
 11
8.692000384563599
 21
7.84717430164391
 31
0.0
  0
LINE
  5
86
330
7E
100
AcDbEntity
  8
중심선
100
AcDbLine
 10
0.1404042013395286
 20
13.71084872107135
 30
0.0
 11
3.58671253028996
 21
13.71088815037384
 31
0.0
  0
LINE
  5
87
330
7E
100
AcDbEntity
  8
중심선
100
AcDbLine
 10
2.750260043222114
 20
10.84717430164391
 30
0.0
 11
6.196535287059397
 21
10.84717430164391
 31
0.0
  0
LINE
  5
88
330
7E
100
AcDbEntity
  8
중심선
100
AcDbLine
 10
12.29416204261559
 20
16.24717430164393
 30
0.0
 11
5.245725140726316
 21
7.84717430164391
 31
0.0
  0
LINE
  5
89
330
7E
100
AcDbEntity
  8
중심선
100
AcDbLine
 10
10.72767329541681
 20
16.24717430164393
 30
0.0
 11
6.196535287059397
 21
10.84717430164391
 31
0.0
  0
LINE
  5
8A
330
7E
100
AcDbEntity
  8
중심선
100
AcDbLine
 10
7.28139805157953
 20
16.24717430164393
 30
0.0
 11
2.750260043222114
 21
10.84717430164391
 31
0.0
  0
LINE
  5
8B
330
7E
100
AcDbEntity
  8
중심선
100
AcDbLine
 10
5.714909304380834
 20
16.24717430164393
 30
0.0
 11
3.58671253028996
 21
13.71088815037384
 31
0.0
  0
LINE
  5
8C
330
7E
100
AcDbEntity
  8
중심선
100
AcDbLine
 10
2.268634060543552
 20
16.24717430164393
 30
0.0
 11
0.1404042013395286
 21
13.71084872107135
 31
0.0
  0
LINE
  5
8D
330
7E
100
AcDbEntity
  8
중심선
100
AcDbLine
 10
7.28139805157953
 20
16.24717430164393
 30
0.0
 11
10.72767329541681
 21
16.24717430164393
 31
0.0
  0
LINE
  5
8E
330
7E
100
AcDbEntity
  8
중심선
100
AcDbLine
 10
12.29416204261559
 20
16.24717430164393
 30
0.0
 11
15.74043728645272
 21
16.24717430164393
 31
0.0
  0
LINE
  5
8F
330
7E
100
AcDbEntity
  8
중심선
100
AcDbLine
 10
19.22036997980202
 20
11.08717430171403
 30
0.0
 11
23.66174974927406
 21
11.08717430171406
 31
0.0
  0
LINE
  5
90
330
7E
100
AcDbEntity
  8
중심선
100
AcDbLine
 10
19.22039502424796
 20
13.00717430171391
 30
0.0
 11
19.22036997980202
 21
11.08717430171403
 31
0.0
  0
LINE
  5
91
330
7E
100
AcDbEntity
  8
중심선
100
AcDbLine
 10
19.22039502424796
 20
13.00717430171391
 30
0.0
 11
26.96566020931264
 21
13.00717430171391
 31
0.0
  0
LINE
  5
92
330
7E
100
AcDbEntity
  8
중심선
100
AcDbLine
 10
22.22332737316547
 20
13.45928029700563
 30
0.0
 11
24.52862924686651
 21
15.39360700705356
 31
0.0
  0
ATTDEF
  5
94
330
7E
100
AcDbEntity
  8
FORMAT
 62
     2
100
AcDbText
 10
-20.85824753159254
 20
2.075366912832191
 30
0.0
 40
4.233333333333333
  1
SEME7510050150E [ 6 FLUTE ]
 41
0.75
  7
SLDTEXTSTYLE0
 11
-20.85824753159254
 21
-0.0412997538344756
 31
0.0
100
AcDbAttributeDefinition
  3

  2
AUTOATTR0
 70
     0
 74
     1
  0
ENDBLK
  5
80
330
7E
100
AcDbEntity
  8
0
100
AcDbBlockEnd
  0
BLOCK
  5
FC
330
FB
100
AcDbEntity
  8
0
100
AcDbBlockBegin
  2
_D
 70
     0
 10
0.0
 20
0.0
 30
0.0
  3
_D
  1
_D
  0
LINE
  5
FE
330
FB
100
AcDbEntity
  8
치수문자_일반주서
 62
     0
370
    -2
100
AcDbLine
 10
-89.0625
 20
4.999999999999978
 30
0.0
 11
-107.6289061313235
 21
4.999999999999909
 31
0.0
  0
LINE
  5
FF
330
FB
100
AcDbEntity
  8
치수문자_일반주서
 62
     0
370
    -2
100
AcDbLine
 10
-89.0625
 20
-5.000000000000031
 30
0.0
 11
-107.6289061313234
 21
-5.0000000000001
 31
0.0
  0
LINE
  5
100
330
FB
100
AcDbEntity
  8
치수문자_일반주서
 62
     0
370
    -2
100
AcDbLine
 10
-107.6289061313234
 20
1.697999999999909
 30
0.0
 11
-107.6289061313234
 21
-1.698000000000101
 31
0.0
  0
SOLID
  5
101
330
FB
100
AcDbEntity
  8
치수문자_일반주서
 62
     0
100
AcDbTrace
 10
-107.0785727979901
 20
1.69799999999991
 30
0.0
 11
-108.1792394646568
 21
1.697999999999907
 31
0.0
 12
-107.6289061313235
 22
4.999999999999909
 32
0.0
 13
-107.6289061313235
 23
4.999999999999909
 33
0.0
  0
SOLID
  5
102
330
FB
100
AcDbEntity
  8
치수문자_일반주서
 62
     0
100
AcDbTrace
 10
-108.1792394646568
 20
-1.698000000000102
 30
0.0
 11
-107.0785727979901
 21
-1.698000000000099
 31
0.0
 12
-107.6289061313234
 22
-5.0000000000001
 32
0.0
 13
-107.6289061313234
 23
-5.0000000000001
 33
0.0
  0
MTEXT
  5
103
330
FB
100
AcDbEntity
  8
치수문자_일반주서
 62
     0
100
AcDbMText
 10
-112.0039061313234
 20
-0.0000000000000368
 30
0.0
 40
3.5
 41
0.0
 71
     2
 72
     1
  1
\A1;%%c10
  7
SLDTEXTSTYLE0
 11
-2.842170943040398E-15
 21
1.0
 31
0.0
 73
     1
 44
1.0
  0
POINT
  5
104
330
FB
100
AcDbEntity
  8
Defpoints
 62
     0
100
AcDbPoint
 10
-89.0
 20
4.999999999999978
 30
0.0
  0
POINT
  5
105
330
FB
100
AcDbEntity
  8
Defpoints
 62
     0
100
AcDbPoint
 10
-89.0
 20
-5.000000000000031
 30
0.0
  0
POINT
  5
106
330
FB
100
AcDbEntity
  8
Defpoints
 62
     0
100
AcDbPoint
 10
-107.6289061313234
 20
-5.0000000000001
 30
0.0
  0
ENDBLK
  5
FD
330
FB
100
AcDbEntity
  8
0
100
AcDbBlockEnd
  0
BLOCK
  5
109
330
108
100
AcDbEntity
  8
0
100
AcDbBlockBegin
  2
_D_1
 70
     0
 10
0.0
 20
0.0
 30
0.0
  3
_D_1
  1
_D_1
  0
LINE
  5
10B
330
108
100
AcDbEntity
  8
치수문자_일반주서
 62
     0
370
    -2
100
AcDbLine
 10
60.06250000000001
 20
4.999999999999976
 30
0.0
 11
69.99999999999999
 21
5.000000000000013
 31
0.0
  0
LINE
  5
10C
330
108
100
AcDbEntity
  8
치수문자_일반주서
 62
     0
370
    -2
100
AcDbLine
 10
60.06250000000001
 20
-5.000000000000029
 30
0.0
 11
70.00000000000001
 21
-4.999999999999992
 31
0.0
  0
LINE
  5
10D
330
108
100
AcDbEntity
  8
치수문자_일반주서
 62
     0
370
    -2
100
AcDbLine
 10
70.0
 20
1.698000000000014
 30
0.0
 11
70.0
 21
-1.697999999999992
 31
0.0
  0
SOLID
  5
10E
330
108
100
AcDbEntity
  8
치수문자_일반주서
 62
     0
100
AcDbTrace
 10
70.55033333333333
 20
1.698000000000015
 30
0.0
 11
69.44966666666667
 21
1.698000000000012
 31
0.0
 12
69.99999999999999
 22
5.000000000000013
 32
0.0
 13
69.99999999999999
 23
5.000000000000013
 33
0.0
  0
SOLID
  5
10F
330
108
100
AcDbEntity
  8
치수문자_일반주서
 62
     0
100
AcDbTrace
 10
69.44966666666667
 20
-1.697999999999994
 30
0.0
 11
70.55033333333333
 21
-1.697999999999991
 31
0.0
 12
70.00000000000001
 22
-4.999999999999992
 32
0.0
 13
70.00000000000001
 23
-4.999999999999992
 33
0.0
  0
MTEXT
  5
110
330
108
100
AcDbEntity
  8
치수문자_일반주서
 62
     0
100
AcDbMText
 10
65.625
 20
0.6594307500959514
 30
0.0
 40
3.5
 41
0.0
 71
     2
 72
     1
  1
\A1;%%c10
  7
SLDTEXTSTYLE0
 11
-2.842170943040399E-15
 21
1.0
 31
0.0
 73
     1
 44
1.0
  0
POINT
  5
111
330
108
100
AcDbEntity
  8
Defpoints
 62
     0
100
AcDbPoint
 10
60.00000000000001
 20
4.999999999999976
 30
0.0
  0
POINT
  5
112
330
108
100
AcDbEntity
  8
Defpoints
 62
     0
100
AcDbPoint
 10
60.00000000000001
 20
-5.000000000000029
 30
0.0
  0
POINT
  5
113
330
108
100
AcDbEntity
  8
Defpoints
 62
     0
100
AcDbPoint
 10
70.00000000000001
 20
-4.999999999999992
 30
0.0
  0
ENDBLK
  5
10A
330
108
100
AcDbEntity
  8
0
100
AcDbBlockEnd
  0
BLOCK
  5
117
330
116
100
AcDbEntity
  8
0
100
AcDbBlockBegin
  2
_D_2
 70
     0
 10
0.0
 20
0.0
 30
0.0
  3
_D_2
  1
_D_2
  0
LINE
  5
119
330
116
100
AcDbEntity
  8
치수문자_일반주서
 62
     0
370
    -2
100
AcDbLine
 10
9.999999999999993
 20
4.757734506804522
 30
0.0
 11
9.999999999999993
 21
48.19007512544633
 31
0.0
  0
LINE
  5
11A
330
116
100
AcDbEntity
  8
치수문자_일반주서
 62
     0
370
    -2
100
AcDbLine
 10
60.00000000000001
 20
5.026012754521663
 30
0.0
 11
60.00000000000001
 21
48.19007512544633
 31
0.0
  0
LINE
  5
11B
330
116
100
AcDbEntity
  8
치수문자_일반주서
 62
     0
370
    -2
100
AcDbLine
 10
13.30199999999999
 20
48.19007512544633
 30
0.0
 11
56.69800000000001
 21
48.19007512544633
 31
0.0
  0
SOLID
  5
11C
330
116
100
AcDbEntity
  8
치수문자_일반주서
 62
     0
100
AcDbTrace
 10
13.30199999999999
 20
48.74040845877966
 30
0.0
 11
13.30199999999999
 21
47.63974179211299
 31
0.0
 12
9.999999999999993
 22
48.19007512544633
 32
0.0
 13
9.999999999999993
 23
48.19007512544633
 33
0.0
  0
SOLID
  5
11D
330
116
100
AcDbEntity
  8
치수문자_일반주서
 62
     0
100
AcDbTrace
 10
56.69800000000001
 20
47.63974179211299
 30
0.0
 11
56.69800000000001
 21
48.74040845877966
 31
0.0
 12
60.00000000000001
 22
48.19007512544633
 32
0.0
 13
60.00000000000001
 23
48.19007512544633
 33
0.0
  0
MTEXT
  5
11E
330
116
100
AcDbEntity
  8
치수문자_일반주서
 62
     0
100
AcDbMText
 10
30.46249388206546
 20
52.56507512544633
 30
0.0
 40
3.5
 41
0.0
 71
     2
 72
     1
  1
\A1;50
  7
SLDTEXTSTYLE0
 73
     1
 44
1.0
  0
POINT
  5
156
330
116
100
AcDbEntity
  8
Defpoints
 62
     0
100
AcDbPoint
 10
9.999999999999993
 20
4.695234506804522
 30
0.0
  0
POINT
  5
157
330
116
100
AcDbEntity
  8
Defpoints
 62
     0
100
AcDbPoint
 10
60.00000000000001
 20
4.963512754521663
 30
0.0
  0
POINT
  5
158
330
116
100
AcDbEntity
  8
Defpoints
 62
     0
100
AcDbPoint
 10
60.00000000000001
 20
48.19007512544633
 30
0.0
  0
ENDBLK
  5
118
330
116
100
AcDbEntity
  8
0
100
AcDbBlockEnd
  0
BLOCK
  5
121
330
120
100
AcDbEntity
  8
0
100
AcDbBlockBegin
  2
_D_3
 70
     0
 10
0.0
 20
0.0
 30
0.0
  3
_D_3
  1
_D_3
  0
LINE
  5
123
330
120
100
AcDbEntity
  8
치수문자_일반주서
 62
     0
370
    -2
100
AcDbLine
 10
60.00000000000001
 20
5.026012754521663
 30
0.0
 11
59.99999999999999
 21
75.90819541539129
 31
0.0
  0
LINE
  5
124
330
120
100
AcDbEntity
  8
치수문자_일반주서
 62
     0
370
    -2
100
AcDbLine
 10
-90.0
 20
4.062499999999977
 30
0.0
 11
-90.0
 21
75.90819541539129
 31
0.0
  0
LINE
  5
125
330
120
100
AcDbEntity
  8
치수문자_일반주서
 62
     0
370
    -2
100
AcDbLine
 10
56.69799999999999
 20
75.90819541539129
 30
0.0
 11
-86.69800000000001
 21
75.90819541539129
 31
0.0
  0
SOLID
  5
126
330
120
100
AcDbEntity
  8
치수문자_일반주서
 62
     0
100
AcDbTrace
 10
56.69799999999999
 20
75.35786208205796
 30
0.0
 11
56.69799999999999
 21
76.45852874872462
 31
0.0
 12
59.99999999999999
 22
75.90819541539129
 32
0.0
 13
59.99999999999999
 23
75.90819541539129
 33
0.0
  0
SOLID
  5
127
330
120
100
AcDbEntity
  8
치수문자_일반주서
 62
     0
100
AcDbTrace
 10
-86.69800000000001
 20
76.45852874872462
 30
0.0
 11
-86.69800000000001
 21
75.35786208205796
 31
0.0
 12
-90.0
 22
75.90819541539129
 32
0.0
 13
-90.0
 23
75.90819541539129
 33
0.0
  0
MTEXT
  5
128
330
120
100
AcDbEntity
  8
치수문자_일반주서
 62
     0
100
AcDbMText
 10
-10.35275520235921
 20
80.28319541539129
 30
0.0
 40
3.5
 41
0.0
 71
     2
 72
     1
  1
\A1;150
  7
SLDTEXTSTYLE0
 73
     1
 44
1.0
  0
POINT
  5
159
330
120
100
AcDbEntity
  8
Defpoints
 62
     0
100
AcDbPoint
 10
60.00000000000001
 20
4.963512754521663
 30
0.0
  0
POINT
  5
15A
330
120
100
AcDbEntity
  8
Defpoints
 62
     0
100
AcDbPoint
 10
-90.0
 20
3.999999999999977
 30
0.0
  0
POINT
  5
15B
330
120
100
AcDbEntity
  8
Defpoints
 62
     0
100
AcDbPoint
 10
-90.0
 20
75.90819541539129
 30
0.0
  0
ENDBLK
  5
122
330
120
100
AcDbEntity
  8
0
100
AcDbBlockEnd
  0
BLOCK
  5
12A
330
129
100
AcDbEntity
  8
0
100
AcDbBlockBegin
  2
SW_DOWELSYMBOL_0
 70
     0
 10
0.0
 20
0.0
 30
0.0
  3
SW_DOWELSYMBOL_0
  1
SW_DOWELSYMBOL_0
  0
CIRCLE
  5
12C
330
129
100
AcDbEntity
  8
외형선
 62
     0
100
AcDbCircle
 10
0.0
 20
0.0
 30
0.0
 40
3.000000000000001
  0
HATCH
  5
12D
330
129
100
AcDbEntity
  8
0
  6
Continuous
 62
     0
370
    30
100
AcDbHatch
 10
0.0
 20
0.0
 30
0.0
210
0.0
220
0.0
230
1.0
  2
SOLID
 70
     1
 71
     0
 91
        1
 92
        0
 93
        3
 72
     2
 10
0.0
 20
0.0
 40
3.000000000000001
 50
0.0
 51
90.0
 73
     1
 72
     1
 10
0.0
 20
3.000000000000001
 11
0.0
 21
0.0
 72
     1
 10
0.0
 20
0.0
 11
3.000000000000003
 21
0.0
 97
        0
 75
     0
 76
     1
 98
        1
 10
0.0
 20
0.0
  0
HATCH
  5
12E
330
129
100
AcDbEntity
  8
0
  6
Continuous
 62
     0
370
    30
100
AcDbHatch
 10
0.0
 20
0.0
 30
0.0
210
0.0
220
0.0
230
1.0
  2
SOLID
 70
     1
 71
     0
 91
        1
 92
        0
 93
        3
 72
     2
 10
0.0
 20
0.0
 40
3.000000000000001
 50
180.0
 51
270.0000000000008
 73
     1
 72
     1
 10
0.0
 20
-3.000000000000001
 11
0.0
 21
0.0
 72
     1
 10
0.0
 20
0.0
 11
-3.000000000000003
 21
0.0
 97
        0
 75
     0
 76
     1
 98
        1
 10
0.0
 20
0.0
  0
ENDBLK
  5
12B
330
129
100
AcDbEntity
  8
0
100
AcDbBlockEnd
  0
ENDSEC
  0
SECTION
  2
ENTITIES
  0
LINE
  5
95
330
1F
100
AcDbEntity
  8
0
  6
Continuous
 62
     1
370
    15
100
AcDbLine
 10
32.73903035914879
 20
-0.9295936546885422
 30
0.0
 11
32.81244305438304
 21
-0.9998895953411089
 31
0.0
  0
LINE
  5
96
330
1F
100
AcDbEntity
  8
0
  6
Continuous
 62
     1
370
    15
100
AcDbLine
 10
11.76183937710273
 20
-0.8973780576561364
 30
0.0
 11
11.84277866074638
 21
-0.9746871965652105
 31
0.0
  0
LINE
  5
97
330
1F
100
AcDbEntity
  8
0
  6
Continuous
 62
     1
370
    15
100
AcDbLine
 10
13.9716597174551
 20
0.915610045140048
 30
0.0
 11
13.88356922341685
 21
1.000045460636619
 31
0.0
  0
LINE
  5
98
330
1F
100
AcDbEntity
  8
0
  6
Continuous
 62
     1
370
    15
100
AcDbLine
 10
16.8419142360677
 20
-0.7486387265884318
 30
0.0
 11
17.10466690603793
 21
-1.000072866147688
 31
0.0
  0
LINE
  5
99
330
1F
100
AcDbEntity
  8
0
  6
Continuous
 62
     1
370
    15
100
AcDbLine
 10
19.16870635344482
 20
0.9530619749458091
 30
0.0
 11
19.1199078691151
 21
0.9997017861746981
 31
0.0
  0
LINE
  5
9A
330
1F
100
AcDbEntity
  8
0
  6
Continuous
 62
     1
370
    15
100
AcDbLine
 10
50.61010455666053
 20
0.9286415671856809
 30
0.0
 11
50.53521059229551
 21
1.000312767015697
 31
0.0
  0
LINE
  5
9B
330
1F
100
AcDbEntity
  8
0
  6
Continuous
 62
     1
370
    15
100
AcDbLine
 10
58.85594326182746
 20
-0.8701665794331548
 30
0.0
 11
59.03925083696376
 21
-1.045735759366126
 31
0.0
  0
LINE
  5
9C
330
1F
100
AcDbEntity
  8
0
  6
Continuous
 62
     1
370
    15
100
AcDbLine
 10
27.49370179095419
 20
-0.9206890849564885
 30
0.0
 11
27.57546988073364
 21
-0.9989244153078253
 31
0.0
  0
LINE
  5
9D
330
1F
100
AcDbEntity
  8
0
  6
Continuous
 62
     1
370
    15
100
AcDbLine
 10
22.25769213456323
 20
-0.9207163654529792
 30
0.0
 11
22.33923372445688
 21
-0.99868110819571
 31
0.0
  0
LINE
  5
9E
330
1F
100
AcDbEntity
  8
0
  6
Continuous
 62
     1
370
    15
100
AcDbLine
 10
53.67526908959677
 20
-0.921661797875209
 30
0.0
 11
53.75655097373297
 21
-1.000043263759983
 31
0.0
  0
LINE
  5
9F
330
1F
100
AcDbEntity
  8
0
  6
Continuous
 62
     1
370
    15
100
AcDbLine
 10
59.3955901239995
 20
-5.000000000000029
 30
0.0
 11
60.00000000000001
 21
-5.000000000000029
 31
0.0
  0
LINE
  5
A0
330
1F
100
AcDbEntity
  8
0
  6
Continuous
 62
     1
370
    15
100
AcDbLine
 10
27.98071690382405
 20
-5.000000000000029
 30
0.0
 11
29.1895754301613
 21
-5.000000000000029
 31
0.0
  0
LINE
  5
A1
330
1F
100
AcDbEntity
  8
0
  6
Continuous
 62
     1
370
    15
100
AcDbLine
 10
13.48149812442514
 20
4.999999999999976
 30
0.0
 11
12.27302643124641
 21
4.999999999999976
 31
0.0
  0
LINE
  5
A2
330
1F
100
AcDbEntity
  8
0
  6
Continuous
 62
     1
370
    15
100
AcDbLine
 10
44.89521392359543
 20
4.999999999999976
 30
0.0
 11
43.68639960446873
 21
4.999999999999976
 31
0.0
  0
LINE
  5
A3
330
1F
100
AcDbEntity
  8
0
  6
Continuous
 62
     1
370
    15
100
AcDbLine
 10
43.68639960446876
 20
-5.000000000000029
 30
0.0
 11
44.89521392359538
 21
-5.000000000000029
 31
0.0
  0
LINE
  5
A4
330
1F
100
AcDbEntity
  8
0
  6
Continuous
 62
     1
370
    15
100
AcDbLine
 10
12.27302643124639
 20
-5.000000000000029
 30
0.0
 11
13.48149812442514
 21
-5.000000000000029
 31
0.0
  0
LINE
  5
A5
330
1F
100
AcDbEntity
  8
0
  6
Continuous
 62
     1
370
    15
100
AcDbLine
 10
29.18957543016126
 20
4.999999999999976
 30
0.0
 11
27.980716903824
 21
4.999999999999976
 31
0.0
  0
LINE
  5
A6
330
1F
100
AcDbEntity
  8
0
  6
Continuous
 62
     1
370
    15
100
AcDbLine
 10
60.00000000000001
 20
4.999999999999976
 30
0.0
 11
59.3955901239995
 21
4.999999999999976
 31
0.0
  0
LINE
  5
A7
330
1F
100
AcDbEntity
  8
0
  6
Continuous
 62
     1
370
    15
100
AcDbLine
 10
48.92233661545181
 20
-5.000000000000029
 30
0.0
 11
50.13108365993578
 21
-5.000000000000029
 31
0.0
  0
LINE
  5
A8
330
1F
100
AcDbEntity
  8
0
  6
Continuous
 62
     1
370
    15
100
AcDbLine
 10
17.5088423330042
 20
-5.000000000000029
 30
0.0
 11
18.71758492984706
 21
-5.000000000000029
 31
0.0
  0
LINE
  5
A9
330
1F
100
AcDbEntity
  8
0
  6
Continuous
 62
     1
370
    15
100
AcDbLine
 10
34.424895178261
 20
4.999999999999976
 30
0.0
 11
33.21586737849549
 21
4.999999999999976
 31
0.0
  0
LINE
  5
AA
330
1F
100
AcDbEntity
  8
0
  6
Continuous
 62
     1
370
    15
100
AcDbLine
 10
38.45091335465608
 20
-5.000000000000029
 30
0.0
 11
39.65986916609612
 21
-5.000000000000029
 31
0.0
  0
LINE
  5
AB
330
1F
100
AcDbEntity
  8
0
  6
Continuous
 62
     1
370
    15
100
AcDbLine
 10
23.95380784144793
 20
4.999999999999976
 30
0.0
 11
22.74504431796839
 21
4.999999999999976
 31
0.0
  0
LINE
  5
AC
330
1F
100
AcDbEntity
  8
0
  6
Continuous
 62
     1
370
    15
100
AcDbLine
 10
55.36748519999429
 20
4.999999999999976
 30
0.0
 11
54.15873146978878
 21
4.999999999999976
 31
0.0
  0
LINE
  5
AD
330
1F
100
AcDbEntity
  8
0
  6
Continuous
 62
     1
370
    15
100
AcDbLine
 10
33.2158673784955
 20
-5.000000000000029
 30
0.0
 11
34.42489517826102
 21
-5.000000000000029
 31
0.0
  0
LINE
  5
AE
330
1F
100
AcDbEntity
  8
0
  6
Continuous
 62
     1
370
    15
100
AcDbLine
 10
18.71758492984711
 20
4.999999999999976
 30
0.0
 11
17.50884233300422
 21
4.999999999999976
 31
0.0
  0
LINE
  5
AF
330
1F
100
AcDbEntity
  8
0
  6
Continuous
 62
     1
370
    15
100
AcDbLine
 10
50.13108365993581
 20
4.999999999999976
 30
0.0
 11
48.92233661545184
 21
4.999999999999976
 31
0.0
  0
LINE
  5
B0
330
1F
100
AcDbEntity
  8
0
  6
Continuous
 62
     1
370
    15
100
AcDbLine
 10
54.15873146978875
 20
-5.000000000000029
 30
0.0
 11
55.36748519999426
 21
-5.000000000000029
 31
0.0
  0
LINE
  5
B1
330
1F
100
AcDbEntity
  8
0
  6
Continuous
 62
     1
370
    15
100
AcDbLine
 10
22.74504431796838
 20
-5.000000000000029
 30
0.0
 11
23.95380784144794
 21
-5.000000000000029
 31
0.0
  0
LINE
  5
B2
330
1F
100
AcDbEntity
  8
0
  6
Continuous
 62
     1
370
    15
100
AcDbLine
 10
39.65986916609612
 20
4.999999999999976
 30
0.0
 11
38.45091335465605
 21
4.999999999999976
 31
0.0
  0
LINE
  5
B3
330
1F
100
AcDbEntity
  8
0
  6
Continuous
 62
   131
370
    15
100
AcDbLine
 10
-89.0
 20
-5.000000000000026
 30
0.0
 11
8.999888058875428
 21
-5.000000000000026
 31
0.0
  0
LINE
  5
B4
330
1F
100
AcDbEntity
  8
0
  6
Continuous
 62
   131
370
    15
100
AcDbLine
 10
8.999888058875428
 20
4.999999999999972
 30
0.0
 11
-89.0
 21
4.999999999999972
 31
0.0
  0
LINE
  5
B5
330
1F
100
AcDbEntity
  8
0
  6
Continuous
 62
   131
370
    15
100
AcDbLine
 10
-89.0
 20
4.999999999999974
 30
0.0
 11
-90.0
 21
3.999999999999977
 31
0.0
  0
LINE
  5
B6
330
1F
100
AcDbEntity
  8
0
  6
Continuous
 62
   131
370
    15
100
AcDbLine
 10
-90.0
 20
-4.00000000000003
 30
0.0
 11
-89.0
 21
-5.000000000000028
 31
0.0
  0
LINE
  5
B7
330
1F
100
AcDbEntity
  8
0
  6
Continuous
 62
     1
370
    15
100
AcDbLine
 10
60.00000000000001
 20
2.988560031709172
 30
0.0
 11
60.00000000000001
 21
4.963512754521663
 31
0.0
  0
LINE
  5
B8
330
1F
100
AcDbEntity
  8
0
  6
Continuous
 62
     1
370
    15
100
AcDbLine
 10
9.999999999999993
 20
-4.695234506804583
 30
0.0
 11
10.26038435943804
 21
-4.574122798512325
 31
0.0
  0
SPLINE
  5
B9
330
1F
100
AcDbEntity
  8
0
  6
Continuous
 62
     1
370
    15
100
AcDbSpline
210
0.0
220
0.0
230
1.0
 70
     8
 71
     3
 72
    22
 73
    18
 74
     0
 42
0.000000001
 43
0.00000001
 40
0.0
 40
0.0
 40
0.0
 40
0.0
 40
0.0196056305794048
 40
0.0915572750778578
 40
0.1635082285506355
 40
0.2354585798342618
 40
0.3074084178902827
 40
0.3793578317868566
 40
0.4513069106802881
 40
0.5232557437965267
 40
0.5952044204126292
 40
0.6671530298382062
 40
0.7391016613968412
 40
0.8110504044075153
 40
0.8829993481660241
 40
0.9549485819264193
 40
1.0
 40
1.0
 40
1.0
 40
1.0
 10
23.95380784144793
 20
4.967846040854938
 30
0.0
 10
24.06960743891449
 20
4.977314690658521
 30
0.0
 10
24.61038553611522
 20
5.021532792757881
 30
0.0
 10
25.57613095756268
 20
4.774920675361218
 30
0.0
 10
26.85104133080912
 20
4.233192632527561
 30
0.0
 10
28.1259351299521
 20
3.392888520202147
 30
0.0
 10
29.40081543031616
 20
2.339823167219708
 30
0.0
 10
30.67568440979575
 20
1.133664548735027
 30
0.0
 10
31.95054449029692
 20
-0.1453213478826566
 30
0.0
 10
33.22539803077791
 20
-1.415052532331952
 30
0.0
 10
34.50024741036744
 20
-2.593175141000442
 30
0.0
 10
35.7750949995513
 20
-3.603851322122974
 30
0.0
 10
37.049943189007
 20
-4.380575772917764
 30
0.0
 10
38.32479429977403
 20
-4.87736254580067
 30
0.0
 10
39.59965091043473
 20
-5.046260162569022
 30
0.0
 10
40.71564558726115
 20
-4.949215380386789
 30
0.0
 10
41.40669004708258
 20
-4.671850064873416
 30
0.0
 10
41.67277858914494
 20
-4.565049798443834
 30
0.0
  0
SPLINE
  5
BA
330
1F
100
AcDbEntity
  8
0
  6
Continuous
 62
     1
370
    15
100
AcDbSpline
210
0.0
220
0.0
230
1.0
 70
     8
 71
     3
 72
    11
 73
     7
 74
     0
 42
0.000000001
 43
0.00000001
 40
0.0
 40
0.0
 40
0.0
 40
0.0
 40
0.1741752034814574
 40
0.4494441924192002
 40
0.7247190143830533
 40
1.0
 40
1.0
 40
1.0
 40
1.0
 10
55.36748519999429
 20
4.962283862592209
 30
0.0
 10
55.63643654342422
 20
4.964674894824565
 30
0.0
 10
56.33044244628395
 20
4.970844748679987
 30
0.0
 10
57.44952636543668
 20
4.612105023173066
 30
0.0
 10
58.72474454743578
 20
3.968593767121352
 30
0.0
 10
59.57491167651187
 20
3.325480962523555
 30
0.0
 10
60.00000000000001
 20
3.003920960295118
 30
0.0
  0
LINE
  5
BB
330
1F
100
AcDbEntity
  8
0
  6
Continuous
 62
   131
370
    15
100
AcDbLine
 10
9.999999999999993
 20
-4.595358600327438
 30
0.0
 11
10.00000000000001
 21
-4.695234506804578
 31
0.0
  0
SPLINE
  5
BC
330
1F
100
AcDbEntity
  8
0
  6
Continuous
 62
     1
370
    15
100
AcDbSpline
210
0.0
220
0.0
230
1.0
 70
     8
 71
     3
 72
    10
 73
     6
 74
     0
 42
0.000000001
 43
0.00000001
 40
0.0
 40
0.0
 40
0.0
 40
0.0
 40
0.486932211775062
 40
0.9738535209400994
 40
1.0
 40
1.0
 40
1.0
 40
1.0
 10
60.00000000000004
 20
4.963512754521664
 30
0.0
 10
59.57491197602646
 20
4.977583022022349
 30
0.0
 10
58.72474544597283
 20
5.005723241984716
 30
0.0
 10
57.85176238552874
 20
4.826642786368711
 30
0.0
 10
57.40386883213469
 20
4.603791192634594
 30
0.0
 10
57.38104370125792
 20
4.592434438882437
 30
0.0
  0
SPLINE
  5
BD
330
1F
100
AcDbEntity
  8
0
  6
Continuous
 62
     1
370
    15
100
AcDbSpline
210
0.0
220
0.0
230
1.0
 70
     8
 71
     3
 72
    22
 73
    18
 74
     0
 42
0.000000001
 43
0.00000001
 40
0.0
 40
0.0
 40
0.0
 40
0.0
 40
0.0147937303202219
 40
0.08674536675864
 40
0.1586965348763651
 40
0.230647323790257
 40
0.3025978226959964
 40
0.3745481208495589
 40
0.4464983075486763
 40
0.5184484721142548
 40
0.590398703871813
 40
0.6623490921328892
 40
0.7342997261764705
 40
0.8062506952304345
 40
0.8782020884530144
 40
0.9501539949142922
 40
1.0
 40
1.0
 40
1.0
 40
1.0
 10
43.68639960446876
 20
-4.973523023182652
 30
0.0
 10
43.59902422950439
 20
-4.981732768780353
 30
0.0
 10
43.08668496260564
 20
-5.029871904579948
 30
0.0
 10
42.14938957298577
 20
-4.799832114159648
 30
0.0
 10
40.87451493174923
 20
-4.280275099293436
 30
0.0
 10
39.59965083089772
 20
-3.456124719647359
 30
0.0
 10
38.32479432108309
 20
-2.415922655661996
 30
0.0
 10
37.04994318330748
 20
-1.217492405921082
 30
0.0
 10
35.7750950010407
 20
0.0591307693074379
 30
0.0
 10
34.50024741010917
 20
1.332088439604641
 30
0.0
 10
33.22539803032151
 20
2.518807931343781
 30
0.0
 10
31.95054449238083
 20
3.542865474420676
 30
0.0
 10
30.67568440191629
 20
4.33701703785255
 30
0.0
 10
29.40081545975036
 20
4.853666692759123
 30
0.0
 10
28.12593502009386
 20
5.045375069450294
 30
0.0
 10
26.98160775641058
 20
4.961639868201304
 30
0.0
 10
26.26223771798695
 20
4.682478998138507
 30
0.0
 10
25.96783429071688
 20
4.56823193123775
 30
0.0
  0
SPLINE
  5
BE
330
1F
100
AcDbEntity
  8
0
  6
Continuous
 62
     1
370
    15
100
AcDbSpline
210
0.0
220
0.0
230
1.0
 70
     8
 71
     3
 72
     9
 73
     5
 74
     0
 42
0.000000001
 43
0.00000001
 40
0.0
 40
0.0
 40
0.0
 40
0.0
 40
0.408697707556905
 40
0.9999999999999999
 40
0.9999999999999999
 40
0.9999999999999999
 40
0.9999999999999999
 10
12.27302643124639
 20
-4.961524440477191
 30
0.0
 10
11.96336814503208
 20
-4.962322269511789
 30
0.0
 10
11.20569742535673
 20
-4.964274394566194
 30
0.0
 10
10.44801773678817
 20
-4.667766755613665
 30
0.0
 10
9.999999999999993
 20
-4.492441108974147
 30
0.0
  0
SPLINE
  5
BF
330
1F
100
AcDbEntity
  8
0
  6
Continuous
 62
     1
370
    15
100
AcDbSpline
210
0.0
220
0.0
230
1.0
 70
     8
 71
     3
 72
    16
 73
    12
 74
     0
 42
0.000000001
 43
0.00000001
 40
0.0
 40
0.0
 40
0.0
 40
0.0
 40
0.1252274866575946
 40
0.2504529974699805
 40
0.3756763734046235
 40
0.500897455902112
 40
0.6197158147944557
 40
0.7385320141730114
 40
0.8573461984375763
 40
0.9761585124038069
 40
0.9999999999999999
 40
0.9999999999999999
 40
0.9999999999999999
 40
0.9999999999999999
 10
9.999999999999993
 20
0.8589669604913209
 30
0.0
 10
10.44801724954743
 20
0.4116115419221927
 30
0.0
 10
11.3440446798049
 20
-0.4830922368211059
 30
0.0
 10
12.68806460833442
 20
-1.807020854319625
 30
0.0
 10
14.03203816561007
 20
-2.996565572794259
 30
0.0
 10
15.35312443604909
 20
-3.956007954884274
 30
0.0
 10
16.65110848576989
 20
-4.627933633369471
 30
0.0
 10
17.92620556148266
 20
-4.995636909380037
 30
0.0
 10
19.20125793044014
 20
-5.014922196528409
 30
0.0
 10
20.13656774413403
 20
-4.860346667821777
 30
0.0
 10
20.64685640785875
 20
-4.616784731707403
 30
0.0
 10
20.73214008563963
 20
-4.576078638948743
 30
0.0
  0
SPLINE
  5
C0
330
1F
100
AcDbEntity
  8
0
  6
Continuous
 62
     1
370
    15
100
AcDbSpline
210
0.0
220
0.0
230
1.0
 70
     8
 71
     3
 72
    22
 73
    18
 74
     0
 42
0.000000001
 43
0.00000001
 40
0.0
 40
0.0
 40
0.0
 40
0.0
 40
0.0042526674464563
 40
0.076201197679386
 40
0.1481497500453492
 40
0.2200984138632289
 40
0.2920472784287225
 40
0.3639964329957831
 40
0.4359459667580646
 40
0.5078959688303988
 40
0.5798465282303188
 40
0.6517977338596137
 40
0.7237496744859478
 40
0.7957024387245263
 40
0.8676561150198471
 40
0.9396107916275226
 40
1.0
 40
1.0
 40
1.0
 40
1.0
 10
34.424895178261
 20
4.991000800592776
 30
0.0
 10
34.45001268829419
 20
4.993970782371222
 30
0.0
 10
34.90007946905097
 20
5.047188244458977
 30
0.0
 10
35.77509494084102
 20
4.848676962752171
 30
0.0
 10
37.04994319808301
 20
4.379492577778731
 30
0.0
 10
38.32479432218061
 20
3.591299852196498
 30
0.0
 10
39.59965081173199
 20
2.580454907425959
 30
0.0
 10
40.87451500731495
 20
1.400163290747645
 30
0.0
 10
42.14938928988634
 20
0.1300134979217314
 30
0.0
 10
43.42427602618079
 20
-1.148744342478649
 30
0.0
 10
44.69917758542246
 20
-2.353126233885903
 30
0.0
 10
45.97409632379265
 20
-3.405509586715497
 30
0.0
 10
47.24903462656901
 20
-4.237062257044552
 30
0.0
 10
48.52399475182969
 20
-4.796827175344816
 30
0.0
 10
49.79897941025027
 20
-5.038075591076587
 30
0.0
 10
51.00567126212692
 20
-4.987340118691697
 30
0.0
 10
51.78737347379511
 20
-4.707555706576112
 30
0.0
 10
52.14406829012702
 20
-4.579888612889439
 30
0.0
  0
SPLINE
  5
C1
330
1F
100
AcDbEntity
  8
0
  6
Continuous
 62
   131
370
    15
100
AcDbSpline
210
0.0
220
0.0
230
1.0
 70
    24
 71
     3
 72
    20
 73
    16
 74
     0
 42
0.000000001
 43
0.00000001
 40
0.0
 40
0.0
 40
0.0
 40
0.0
 40
0.0254692692660243
 40
0.1085972333173187
 40
0.1941359139575884
 40
0.2772638780088691
 40
0.3628025586491267
 40
0.4459305227004188
 40
0.5314692033406869
 40
0.6145971673919716
 40
0.7001358480322312
 40
0.7832638120835156
 40
0.8688024927237755
 40
0.9519304567750632
 40
1.0
 40
1.0
 40
1.0
 40
1.0
 10
10.00000000000001
 20
4.147136034407059
 30
0.0
 10
10.00000000000001
 20
4.122975860455385
 30
0.0
 10
9.999999999999964
 20
4.019960417797319
 30
0.0
 10
10.0000000000001
 20
3.813824741383215
 30
0.0
 10
9.999999999999908
 20
3.517008654868506
 30
0.0
 10
9.99999999999995
 20
3.194356923715157
 30
0.0
 10
9.999999999999993
 20
2.861344356820162
 30
0.0
 10
10.00000000000013
 20
2.521255498943441
 30
0.0
 10
9.999999999999908
 20
2.18989224200508
 30
0.0
 10
10.00000000000007
 20
1.870598247849375
 30
0.0
 10
9.999999999999936
 20
1.578388966897709
 30
0.0
 10
10.00000000000001
 20
1.315421240498225
 30
0.0
 10
9.99999999999995
 20
1.097053137999922
 30
0.0
 10
10.00000000000002
 20
0.9406716694351908
 30
0.0
 10
10.00000000000001
 20
0.8808756605411998
 30
0.0
 10
10.00000000000001
 20
0.858966960491307
 30
0.0
  0
SPLINE
  5
C2
330
1F
100
AcDbEntity
  8
0
  6
Continuous
 62
     1
370
    15
100
AcDbSpline
210
0.0
220
0.0
230
1.0
 70
     8
 71
     3
 72
    22
 73
    18
 74
     0
 42
0.000000001
 43
0.00000001
 40
0.0
 40
0.0
 40
0.0
 40
0.0
 40
0.0301684765930394
 40
0.1021189412389322
 40
0.1740682298060358
 40
0.2460164301101075
 40
0.3179636301918585
 40
0.3899099182989558
 40
0.461855382867939
 40
0.5338001125060404
 40
0.6057441959729273
 40
0.677687722162392
 40
0.7496307800839522
 40
0.8215734588444222
 40
0.8935158476294289
 40
0.9654580356848871
 40
1.0
 40
1.0
 40
1.0
 40
1.0
 10
54.15873146978878
 20
-4.960474255480738
 30
0.0
 10
53.9805193880656
 20
-4.969959581943968
 30
0.0
 10
53.37727947817389
 20
-5.002066986928221
 30
0.0
 10
52.34903065061566
 20
-4.714769885101959
 30
0.0
 10
51.07399014355006
 20
-4.125849414761364
 30
0.0
 10
49.79897926432218
 20
-3.250737800604549
 30
0.0
 10
48.52399479093083
 20
-2.170586859210391
 30
0.0
 10
47.2490346160898
 20
-0.9486753884403001
 30
0.0
 10
45.974096326609
 20
0.3342024182429575
 30
0.0
 10
44.69917758463615
 20
1.59558247784063
 30
0.0
 10
43.42427602650952
 20
2.753661353747322
 30
0.0
 10
42.14938928935743
 20
3.733973897591706
 30
0.0
 10
40.87451500910154
 20
4.471658389279186
 30
0.0
 10
39.59965080511454
 20
4.924461665583179
 30
0.0
 10
38.32479434686388
 20
5.042775974342264
 30
0.0
 10
37.27085919214271
 20
4.920454536816278
 30
0.0
 10
36.64187598850151
 20
4.650343786963717
 30
0.0
 10
36.43784266625302
 20
4.562723651245624
 30
0.0
  0
SPLINE
  5
C3
330
1F
100
AcDbEntity
  8
0
  6
Continuous
 62
     1
370
    15
100
AcDbSpline
210
0.0
220
0.0
230
1.0
 70
     8
 71
     3
 72
    17
 73
    13
 74
     0
 42
0.000000001
 43
0.00000001
 40
0.0
 40
0.0
 40
0.0
 40
0.0
 40
0.0779774853411946
 40
0.1780223521694272
 40
0.2780686716209433
 40
0.3781165659636359
 40
0.4781661571400252
 40
0.5782175667424619
 40
0.6836604118769263
 40
0.7891051882080712
 40
0.8945517622203918
 40
1.0
 40
1.0
 40
1.0
 40
1.0
 10
22.74504431796838
 20
-4.972126571150095
 30
0.0
 10
22.41379196533605
 20
-4.96426286341047
 30
0.0
 10
21.65754389296954
 20
-4.946310043536172
 30
0.0
 10
20.47628426285395
 20
-4.53695630787846
 30
0.0
 10
19.20125848231369
 20
-3.839357244640524
 30
0.0
 10
17.92620541362346
 20
-2.883385711890195
 30
0.0
 10
16.65110852532042
 20
-1.743488742613331
 30
0.0
 10
15.35312442481419
 20
-0.4681086651918689
 30
0.0
 10
14.03203816868597
 20
0.8653615743385008
 30
0.0
 10
12.6880646075142
 20
2.153983986439843
 30
0.0
 10
11.34404468001
 20
3.309316852565857
 30
0.0
 10
10.44801724961577
 20
3.86786150499108
 30
0.0
 10
9.999999999999993
 20
4.147136034407065
 30
0.0
  0
SPLINE
  5
C4
330
1F
100
AcDbEntity
  8
0
  6
Continuous
 62
     1
370
    15
100
AcDbSpline
210
0.0
220
0.0
230
1.0
 70
     8
 71
     3
 72
    20
 73
    16
 74
     0
 42
0.000000001
 43
0.00000001
 40
0.0
 40
0.0
 40
0.0
 40
0.0
 40
0.0841642888145502
 40
0.1683272496809698
 40
0.252488775714896
 40
0.3366487603499472
 40
0.4165055309456031
 40
0.496360850151097
 40
0.5762148150162583
 40
0.6560675228704121
 40
0.7359190713025744
 40
0.8157695581415556
 40
0.8956190814359123
 40
0.9754677394338402
 40
1.0
 40
1.0
 40
1.0
 40
1.0
 10
10.00000000000001
 20
4.69523450680453
 30
0.0
 10
10.44801724961049
 20
4.508370143795852
 30
0.0
 10
11.34404467999406
 20
4.134644366133257
 30
0.0
 10
12.68806460757789
 20
3.18670706620324
 30
0.0
 10
14.03203816844722
 20
2.03414850569375
 30
0.0
 10
15.35312442568608
 20
0.7510924405392351
 30
0.0
 10
16.65110852225103
 20
-0.5567866261054916
 30
0.0
 10
17.92620542509826
 20
-1.806151464704752
 30
0.0
 10
19.20125843948489
 20
-2.938435716040687
 30
0.0
 10
20.4762844226909
 20
-3.881118878126617
 30
0.0
 10
21.75128178055989
 20
-4.571253201211936
 30
0.0
 10
23.02625404051373
 20
-4.971451942840871
 30
0.0
 10
24.30120273310324
 20
-5.028865957410319
 30
0.0
 10
25.28172741147424
 20
-4.883951463576962
 30
0.0
 10
25.83726771209886
 20
-4.628313560481818
 30
0.0
 10
25.96783429071691
 20
-4.568231931237805
 30
0.0
  0
SPLINE
  5
C5
330
1F
100
AcDbEntity
  8
0
  6
Continuous
 62
     1
370
    15
100
AcDbSpline
210
0.0
220
0.0
230
1.0
 70
     8
 71
     3
 72
    21
 73
    17
 74
     0
 42
0.000000001
 43
0.00000001
 40
0.0
 40
0.0
 40
0.0
 40
0.0
 40
0.0685442372639627
 40
0.1404871404991281
 40
0.2124305120011888
 40
0.2843744407794749
 40
0.3563190157275823
 40
0.4282643256049952
 40
0.5002104590187523
 40
0.5721575044052007
 40
0.64410555001182
 40
0.7160546838791297
 40
0.7880049938227008
 40
0.8599565674152542
 40
0.9319094919688865
 40
1.0
 40
1.0
 40
1.0
 40
1.0
 10
39.65986916609614
 20
4.992718646131777
 30
0.0
 10
40.06475034387418
 20
4.96717160191765
 30
0.0
 10
40.89458814174637
 20
4.914810800585419
 30
0.0
 10
42.14938932525433
 20
4.436468302182672
 30
0.0
 10
43.42427601692962
 20
3.689570226933506
 30
0.0
 10
44.69917758705871
 20
2.697099627739741
 30
0.0
 10
45.97409632649889
 20
1.532068897924789
 30
0.0
 10
47.24903461410739
 20
0.2674542632885317
 30
0.0
 10
48.52399479897068
 20
-1.014339408506042
 30
0.0
 10
49.79897923414488
 20
-2.230543969720577
 30
0.0
 10
51.07399025622175
 20
-3.302617021748512
 30
0.0
 10
52.3490302300972
 20
-4.160637866924968
 30
0.0
 10
53.62410138711235
 20
-4.751327025160709
 30
0.0
 10
54.8992064245414
 20
-5.028186565995433
 30
0.0
 10
56.15152137586287
 20
-5.004665090335689
 30
0.0
 10
56.97880848904788
 20
-4.727294685127724
 30
0.0
 10
57.38104370125792
 20
-4.59243443888249
 30
0.0
  0
SPLINE
  5
C6
330
1F
100
AcDbEntity
  8
0
  6
Continuous
 62
     1
370
    15
100
AcDbSpline
210
0.0
220
0.0
230
1.0
 70
     8
 71
     3
 72
    22
 73
    18
 74
     0
 42
0.000000001
 43
0.00000001
 40
0.0
 40
0.0
 40
0.0
 40
0.0
 40
0.0378501819760468
 40
0.1098002012527502
 40
0.1817486959209265
 40
0.2536957527114832
 40
0.3256414586511286
 40
0.3975859010448439
 40
0.4695291674582076
 40
0.5414713456996271
 40
0.6134125238024445
 40
0.6853527900069404
 40
0.7572922327422523
 40
0.8292309406081962
 40
0.9011690023570099
 40
0.9731065068750459
 40
0.9999999999999999
 40
0.9999999999999999
 40
0.9999999999999999
 40
0.9999999999999999
 10
59.3955901239995
 20
-4.959519767166426
 30
0.0
 10
59.17197242412684
 20
-4.966511653460081
 30
0.0
 10
58.52327624440333
 20
-4.986794528788536
 30
0.0
 10
57.44952632533381
 20
-4.666450656357219
 30
0.0
 10
56.17434682688527
 20
-4.04431598400551
 30
0.0
 10
54.89920627432696
 20
-3.144496812381914
 30
0.0
 10
53.62410142736506
 20
-2.045627962670423
 30
0.0
 10
52.34903021929668
 20
-0.8133080124383946
 30
0.0
 10
51.07399025917192
 20
0.4712849952435832
 30
0.0
 10
49.79897923314421
 20
1.725497814207244
 30
0.0
 10
48.52399480002303
 20
2.867988495780897
 30
0.0
 10
47.24903461089849
 20
3.825366990638681
 30
0.0
 10
45.97409633828202
 20
4.533976771001301
 30
0.0
 10
44.69917754313602
 20
4.954485296412898
 30
0.0
 10
43.42427618083514
 20
5.035492663910611
 30
0.0
 10
42.4154781262353
 20
4.898301647278128
 30
0.0
 10
41.83164807251008
 20
4.636335084633939
 30
0.0
 10
41.67277858914494
 20
4.565049798443781
 30
0.0
  0
SPLINE
  5
C7
330
1F
100
AcDbEntity
  8
0
  6
Continuous
 62
     1
370
    15
100
AcDbSpline
210
0.0
220
0.0
230
1.0
 70
     8
 71
     3
 72
    21
 73
    17
 74
     0
 42
0.000000001
 43
0.00000001
 40
0.0
 40
0.0
 40
0.0
 40
0.0
 40
0.0637541783794681
 40
0.1357046183390539
 40
0.2076557493193828
 40
0.2796076600129642
 40
0.3515604389506346
 40
0.4235141744833443
 40
0.4954689547640244
 40
0.5674248677295367
 40
0.6393820010827306
 40
0.7113404422746076
 40
0.7871764829747053
 40
0.8630139126197797
 40
0.9388526351835214
 40
1.0
 40
1.0
 40
1.0
 40
1.0
 10
27.98071690382405
 20
-4.983654850961321
 30
0.0
 10
27.60415954197268
 20
-4.965647473546694
 30
0.0
 10
26.80263445966912
 20
-4.927317683383072
 30
0.0
 10
25.57613123312058
 20
-4.476264023478612
 30
0.0
 10
24.30120301631331
 20
-3.748128379292973
 30
0.0
 10
23.0262539646253
 20
-2.769500061905136
 30
0.0
 10
21.75128180089888
 20
-1.613924696299887
 30
0.0
 10
20.47628441722443
 20
-0.3533871020879264
 30
0.0
 10
19.20125844101123
 20
0.9298722217538032
 30
0.0
 10
17.92620542445955
 20
2.152994918234055
 30
0.0
 10
16.65110852327943
 20
3.237055580325323
 30
0.0
 10
15.35312442213025
 20
4.12677033624455
 30
0.0
 10
14.03203818240694
 20
4.752062543660325
 30
0.0
 10
12.6880645555972
 20
5.036884095833953
 30
0.0
 10
11.43083910394439
 20
4.99936577973547
 30
0.0
 10
10.62160666930046
 20
4.705360039978633
 30
0.0
 10
10.26038435943804
 20
4.574122798512272
 30
0.0
  0
LINE
  5
C8
330
1F
100
AcDbEntity
  8
0
  6
Continuous
 62
     1
370
    15
100
AcDbLine
 10
60.00000000000001
 20
-1.959591794226523
 30
0.0
 11
60.00000000000001
 21
1.959591794226563
 31
0.0
  0
SPLINE
  5
C9
330
1F
100
AcDbEntity
  8
0
  6
Continuous
 62
     1
370
    15
100
AcDbSpline
210
0.0
220
0.0
230
1.0
 70
     8
 71
     3
 72
    22
 73
    18
 74
     0
 42
0.000000001
 43
0.00000001
 40
0.0
 40
0.0
 40
0.0
 40
0.0
 40
0.0272942362952614
 40
0.0992450612278861
 40
0.1711948414699676
 40
0.2431436651695953
 40
0.3150916206728592
 40
0.3870387965057334
 40
0.4589852813558493
 40
0.5309311640542138
 40
0.6028765335568477
 40
0.6748214789263776
 40
0.7467660893135708
 40
0.8187104539388358
 40
0.890654662073684
 40
0.9625988030221799
 40
1.0
 40
1.0
 40
1.0
 40
1.0
 10
18.71758492984713
 20
4.961786072125881
 30
0.0
 10
18.87881143136374
 20
4.971653427589219
 30
0.0
 10
19.46504999988356
 20
5.007532295439654
 30
0.0
 10
20.4762838633645
 20
4.731867650294753
 30
0.0
 10
21.75128194798837
 20
4.155603910197466
 30
0.0
 10
23.02625393011685
 20
3.289870943623045
 30
0.0
 10
24.30120300726071
 20
2.216934965722256
 30
0.0
 10
25.57613130383785
 20
0.999144972513686
 30
0.0
 10
26.85104123803251
 20
-0.2828497131550758
 30
0.0
 10
28.12593515478753
 20
-1.546674684904
 30
0.0
 10
29.40081542374998
 20
-2.710367114458254
 30
0.0
 10
30.6756844112253
 20
-3.699076400853797
 30
0.0
 10
31.95054449114488
 20
-4.447491286554589
 30
0.0
 10
33.22539802595662
 20
-4.912313225917721
 30
0.0
 10
34.50024742880464
 20
-5.044467317150027
 30
0.0
 10
35.5710616568618
 20
-4.92847962799256
 30
0.0
 10
36.21692673600602
 20
-4.655943646805108
 30
0.0
 10
36.43784266625305
 20
-4.562723651245679
 30
0.0
  0
SPLINE
  5
CA
330
1F
100
AcDbEntity
  8
0
  6
Continuous
 62
     1
370
    15
100
AcDbSpline
210
0.0
220
0.0
230
1.0
 70
     8
 71
     3
 72
    15
 73
    11
 74
     0
 42
0.000000001
 43
0.00000001
 40
0.0
 40
0.0
 40
0.0
 40
0.0
 40
0.0955456181878936
 40
0.2247462674534416
 40
0.3539490286251155
 40
0.4831540589591847
 40
0.6123615152439105
 40
0.7415715537678281
 40
0.8707843302882464
 40
1.0
 40
1.0
 40
1.0
 40
1.0
 10
50.13108365993578
 20
4.968757314245932
 30
0.0
 10
50.44538382836511
 20
4.964088674175524
 30
0.0
 10
51.18469339644554
 20
4.953106910178305
 30
0.0
 10
52.34903041112557
 20
4.558732630407924
 30
0.0
 10
53.62410138092288
 20
3.872707215324116
 30
0.0
 10
54.89920626826199
 20
2.925464087509807
 30
0.0
 10
56.17434689759101
 20
1.791271582472679
 30
0.0
 10
57.44952604856765
 20
0.54286549701663
 30
0.0
 10
58.72474462665583
 20
-0.749558585765533
 30
0.0
 10
59.57491170291875
 20
-1.556244381035383
 30
0.0
 10
60.00000000000001
 20
-1.959591794226523
 30
0.0
  0
SPLINE
  5
CB
330
1F
100
AcDbEntity
  8
0
  6
Continuous
 62
     1
370
    15
100
AcDbSpline
210
0.0
220
0.0
230
1.0
 70
     8
 71
     3
 72
    14
 73
    10
 74
     0
 42
0.000000001
 43
0.00000001
 40
0.0
 40
0.0
 40
0.0
 40
0.0
 40
0.1623267284560289
 40
0.324649822350667
 40
0.4869694766468782
 40
0.6492858870142315
 40
0.8115992497896383
 40
0.973909761937808
 40
1.0
 40
1.0
 40
1.0
 40
1.0
 10
60.00000000000001
 20
1.959591794226563
 30
0.0
 10
59.57491170394252
 20
2.338250698875917
 30
0.0
 10
58.7247446297271
 20
3.095560029847929
 30
0.0
 10
57.44952603628283
 20
3.997824841686399
 30
0.0
 10
56.17434694365767
 20
4.64867560295033
 30
0.0
 10
54.89920609628487
 20
5.003638190637322
 30
0.0
 10
53.62410202274792
 20
5.00866414979143
 30
0.0
 10
52.70572595872299
 20
4.851328372674264
 30
0.0
 10
52.21238716170836
 20
4.612905981168436
 30
0.0
 10
52.14406829012709
 20
4.579888612889389
 30
0.0
  0
SPLINE
  5
CC
330
1F
100
AcDbEntity
  8
0
  6
Continuous
 62
     1
370
    15
100
AcDbSpline
210
0.0
220
0.0
230
1.0
 70
     8
 71
     3
 72
    22
 73
    18
 74
     0
 42
0.000000001
 43
0.00000001
 40
0.0
 40
0.0
 40
0.0
 40
0.0
 40
0.0071179353680907
 40
0.0790678554348885
 40
0.151017664047827
 40
0.2229674505273429
 40
0.2949173041984853
 40
0.3668673143723234
 40
0.4388175703273751
 40
0.5107681612910489
 40
0.5827191764211098
 40
0.6546707047871716
 40
0.726622835352237
 40
0.7985756569542822
 40
0.8705292582879007
 40
0.9424837278860091
 40
1.0
 40
1.0
 40
1.0
 40
1.0
 10
38.45091335465608
 20
-4.98556736357297
 30
0.0
 10
38.40887337982102
 20
-4.990277046410942
 30
0.0
 10
37.94188253474475
 20
-5.04259341380118
 30
0.0
 10
37.0499433157517
 20
-4.836202576899352
 30
0.0
 10
35.77509496559844
 20
-4.353051561828861
 30
0.0
 10
34.50024741943419
 20
-3.555014072507031
 30
0.0
 10
33.225398028464
 20
-2.536026309590808
 30
0.0
 10
31.95054449048587
 20
-1.350639835815643
 30
0.0
 10
30.67568441135384
 20
-0.0785533846520309
 30
0.0
 10
29.4008154238949
 20
1.198800544824019
 30
0.0
 10
28.12593515407946
 20
2.398540697663707
 30
0.0
 10
26.85104124071962
 20
3.443358882555526
 30
0.0
 10
25.5761312937976
 20
4.264850109560374
 30
0.0
 10
24.3012030447351
 20
4.812950104100763
 30
0.0
 10
23.02625379025727
 20
5.040786614715725
 30
0.0
 10
21.83656556604832
 20
4.980561859050446
 30
0.0
 10
21.07185585071353
 20
4.700495658488629
 30
0.0
 10
20.73214008563964
 20
4.576078638948687
 30
0.0
  0
SPLINE
  5
CD
330
1F
100
AcDbEntity
  8
0
  6
Continuous
 62
     1
370
    15
100
AcDbSpline
210
0.0
220
0.0
230
1.0
 70
     8
 71
     3
 72
    12
 73
     8
 74
     0
 42
0.000000001
 43
0.00000001
 40
0.0
 40
0.0
 40
0.0
 40
0.0
 40
0.244566101144801
 40
0.4891283435140895
 40
0.73368641652136
 40
0.9782400105041219
 40
1.0
 40
1.0
 40
1.0
 40
1.0
 10
10.00000000000002
 20
-3.836267546313257
 30
0.0
 10
10.44801709616874
 20
-4.096316185340666
 30
0.0
 10
11.34404421967126
 20
-4.616409360335759
 30
0.0
 10
12.688066448822
 20
-4.999036755560384
 30
0.0
 10
14.03203126396294
 20
-5.010806469567173
 30
0.0
 10
14.9679138549303
 20
-4.847171474827117
 30
0.0
 10
15.45571417702354
 20
-4.606967825733277
 30
0.0
 10
15.49557143757401
 20
-4.587341230601029
 30
0.0
  0
SPLINE
  5
CE
330
1F
100
AcDbEntity
  8
0
  6
Continuous
 62
     1
370
    15
100
AcDbSpline
210
0.0
220
0.0
230
1.0
 70
     8
 71
     3
 72
    22
 73
    18
 74
     0
 42
0.000000001
 43
0.00000001
 40
0.0
 40
0.0
 40
0.0
 40
0.0
 40
0.0119220756106926
 40
0.08387336336582
 40
0.1558243161090803
 40
0.2277750230687466
 40
0.2997255735242008
 40
0.3716760567873796
 40
0.4436265621841929
 40
0.515577179035948
 40
0.5875279966407662
 40
0.6594791042550234
 40
0.7314305910747948
 40
0.803382546217331
 40
0.8753350587025817
 40
0.947288217434749
 40
1.0
 40
1.0
 40
1.0
 40
1.0
 10
29.18957543016126
 20
4.977599801380745
 30
0.0
 10
29.25998940094705
 20
4.984707218070743
 30
0.0
 10
29.75536090760396
 20
5.034708825349408
 30
0.0
 10
30.67568417702579
 20
4.813932077271328
 30
0.0
 10
31.95054455263308
 20
4.307835517367911
 30
0.0
 10
33.22539801420213
 20
3.493407160434431
 30
0.0
 10
34.50024741433475
 20
2.461040726302449
 30
0.0
 10
35.77509500025779
 20
1.267387327914068
 30
0.0
 10
37.0499431822138
 20
-0.0076493290435386
 30
0.0
 10
38.32479432624064
 20
-1.282359872789278
 30
0.0
 10
39.5996508113611
 20
-2.474050420713796
 30
0.0
 10
40.8745150047386
 20
-3.505959121787003
 30
0.0
 10
42.14938930056266
 20
-4.310404922095332
 30
0.0
 10
43.42427598605136
 20
-4.838854766962752
 30
0.0
 10
44.69917773526562
 20
-5.044114835355662
 30
0.0
 10
45.86044727056174
 20
-4.968848697726671
 30
0.0
 10
46.59675307270192
 20
-4.68906674289298
 30
0.0
 10
46.90808351524672
 20
-4.570767200011153
 30
0.0
  0
SPLINE
  5
CF
330
1F
100
AcDbEntity
  8
0
  6
Continuous
 62
   131
370
    15
100
AcDbSpline
210
0.0
220
0.0
230
1.0
 70
    24
 71
     3
 72
    22
 73
    18
 74
     0
 42
0.000000001
 43
0.00000001
 40
0.0
 40
0.0
 40
0.0
 40
0.0
 40
0.0105263445532337
 40
0.0805170900937018
 40
0.1525375719963531
 40
0.2225283175368306
 40
0.294548799439492
 40
0.364539544979963
 40
0.4365600268826173
 40
0.5065507724230883
 40
0.5785712543257423
 40
0.6485619998662158
 40
0.7205824817688727
 40
0.7905732273092799
 40
0.8625937092120046
 40
0.930377947531879
 40
1.0
 40
1.0
 40
1.0
 40
1.0
 10
9.99999999999995
 20
-0.2848409496076855
 30
0.0
 10
9.99999999999995
 20
-0.2852136099890977
 30
0.0
 10
9.999999999999964
 20
-0.2880641275028248
 30
0.0
 10
10.00000000000014
 20
-0.3479935953694961
 30
0.0
 10
9.999999999999979
 20
-0.4653465428268997
 30
0.0
 10
10.00000000000013
 20
-0.64087650730306
 30
0.0
 10
9.999999999999922
 20
-0.8594706921066266
 30
0.0
 10
10.00000000000004
 20
-1.120751437401453
 30
0.0
 10
9.999999999999936
 20
-1.412118812706035
 30
0.0
 10
10.00000000000003
 20
-1.730705857612534
 30
0.0
 10
9.999999999999964
 20
-2.061719543496944
 30
0.0
 10
10.00000000000002
 20
-2.401778293351102
 30
0.0
 10
10.00000000000002
 20
-2.735057677850956
 30
0.0
 10
10.00000000000002
 20
-3.058407843511785
 30
0.0
 10
9.999999999999865
 20
-3.352701642473241
 30
0.0
 10
10.0000000000001
 20
-3.619592422731453
 30
0.0
 10
10.00000000000004
 20
-3.763401355214548
 30
0.0
 10
10.00000000000002
 20
-3.836267546313255
 30
0.0
  0
SPLINE
  5
D0
330
1F
100
AcDbEntity
  8
0
  6
Continuous
 62
     1
370
    15
100
AcDbSpline
210
0.0
220
0.0
230
1.0
 70
     8
 71
     3
 72
    22
 73
    18
 74
     0
 42
0.000000001
 43
0.00000001
 40
0.0
 40
0.0
 40
0.0
 40
0.0
 40
0.0224802102490723
 40
0.0944316204747387
 40
0.1663822071036603
 40
0.2383320587493778
 40
0.3102812641778773
 40
0.3822299122892803
 40
0.4541780920994409
 40
0.5261258927215176
 40
0.5980734033474864
 40
0.6700207132296161
 40
0.7419679116619295
 40
0.8139150879616235
 40
0.8858623314505064
 40
0.9578097314364072
 40
1.0
 40
1.0
 40
1.0
 40
1.0
 10
48.92233661545181
 20
-4.965146211273332
 30
0.0
 10
48.78955457387195
 20
-4.975001476054605
 30
0.0
 10
48.23178295085761
 20
-5.016400048985728
 30
0.0
 10
47.24903499264002
 20
-4.759286240297041
 30
0.0
 10
45.97409622570716
 20
-4.204524839592128
 30
0.0
 10
44.69917761169891
 20
-3.354656837270165
 30
0.0
 10
43.42427601915909
 20
-2.294064658211749
 30
0.0
 10
42.14938929169672
 20
-1.083454073983629
 30
0.0
 10
40.87451500709471
 20
0.1967669595223685
 30
0.0
 10
39.59965081080243
 20
1.464398003902285
 30
0.0
 10
38.32479432611932
 20
2.637225396887813
 30
0.0
 10
37.04994318325774
 20
3.639772992803927
 30
0.0
 10
35.77509499620365
 20
4.405980185247783
 30
0.0
 10
34.50024742950716
 20
4.89084829723004
 30
0.0
 10
33.2253979575666
 20
5.04605323343738
 30
0.0
 10
32.12630405326702
 20
4.941588866507585
 30
0.0
 10
31.45215850789332
 20
4.665746838990126
 30
0.0
 10
31.20296486330845
 20
4.5637835750652
 30
0.0
  0
SPLINE
  5
D1
330
1F
100
AcDbEntity
  8
0
  6
Continuous
 62
     1
370
    15
100
AcDbSpline
210
0.0
220
0.0
230
1.0
 70
     8
 71
     3
 72
    13
 73
     9
 74
     0
 42
0.000000001
 43
0.00000001
 40
0.0
 40
0.0
 40
0.0
 40
0.0
 40
0.1142369602329137
 40
0.2840646590589103
 40
0.4630438040605404
 40
0.642026227083835
 40
0.821011701498994
 40
1.0
 40
1.0
 40
1.0
 40
1.0
 10
17.5088423330042
 20
-4.964270777798553
 30
0.0
 10
17.22293460064182
 20
-4.964219789247671
 30
0.0
 10
16.51198884061599
 20
-4.964092999762966
 30
0.0
 10
15.35312439698112
 20
-4.586831552308891
 30
0.0
 10
14.03203817630605
 20
-3.888329266651779
 30
0.0
 10
12.6880646054821
 20
-2.884602351283528
 30
0.0
 10
11.344044680518
 20
-1.679021282383498
 30
0.0
 10
10.44801724978511
 20
-0.7898794820112194
 30
0.0
 10
10.00000000000001
 20
-0.3453050745670571
 30
0.0
  0
LINE
  5
D2
330
1F
100
AcDbEntity
  8
0
  6
Continuous
 62
     1
370
    15
100
AcDbLine
 10
60.00000000000001
 20
-4.963512754521716
 30
0.0
 11
60.00000000000001
 21
-2.980565741879334
 31
0.0
  0
SPLINE
  5
D3
330
1F
100
AcDbEntity
  8
0
  6
Continuous
 62
     1
370
    15
100
AcDbSpline
210
0.0
220
0.0
230
1.0
 70
     8
 71
     3
 72
    22
 73
    18
 74
     0
 42
0.000000001
 43
0.00000001
 40
0.0
 40
0.0
 40
0.0
 40
0.0
 40
0.0310633677730487
 40
0.1068922482684733
 40
0.1788438953666409
 40
0.2507942347496083
 40
0.3227433538601187
 40
0.3946913403927433
 40
0.4666382822760369
 40
0.5385842676546115
 40
0.610529384871072
 40
0.6824737224479
 40
0.7544173690692286
 40
0.8263604135625601
 40
0.8983029448804061
 40
0.9702450520818797
 40
1.0
 40
1.0
 40
1.0
 40
1.0
 10
13.48149812442517
 20
4.956385338895002
 30
0.0
 10
13.6650157652992
 20
4.967062968253363
 30
0.0
 10
14.2965188712493
 20
5.003805790751922
 30
0.0
 10
15.35312472388253
 20
4.694002001763353
 30
0.0
 10
16.65110844422023
 20
4.075628025692674
 30
0.0
 10
17.92620544566882
 20
3.184349461427485
 30
0.0
 10
19.20125843523158
 20
2.09254911291257
 30
0.0
 10
20.47628441913422
 20
0.8639703238756397
 30
0.0
 10
21.75128179903933
 20
-0.420079409052284
 30
0.0
 10
23.02625397015389
 20
-1.677081893972221
 30
0.0
 10
24.301202996059
 20
-2.825497140326851
 30
0.0
 10
25.57613130860804
 20
-3.791530780938466
 30
0.0
 10
26.85104123015338
 20
-4.511074234200536
 30
0.0
 10
28.12593518153382
 20
-4.94368073131558
 30
0.0
 10
29.40081532464488
 20
-5.038688348043864
 30
0.0
 10
30.42649056232473
 20
-4.90669859017888
 30
0.0
 10
31.0272052563674
 20
-4.641404441839874
 30
0.0
 10
31.20296486330851
 20
-4.563783575065253
 30
0.0
  0
SPLINE
  5
D4
330
1F
100
AcDbEntity
  8
0
  6
Continuous
 62
     1
370
    15
100
AcDbSpline
210
0.0
220
0.0
230
1.0
 70
     8
 71
     3
 72
    19
 73
    15
 74
     0
 42
0.000000001
 43
0.00000001
 40
0.0
 40
0.0
 40
0.0
 40
0.0
 40
0.0714291571230002
 40
0.1558383084401874
 40
0.2402484259635665
 40
0.324659613450242
 40
0.4090719744357305
 40
0.4934856122127353
 40
0.5779006298100409
 40
0.6623171299715099
 40
0.7467352151352307
 40
0.8311549874127934
 40
0.9155765485687105
 40
1.0
 40
1.0
 40
1.0
 40
1.0
 10
44.89521392359543
 20
4.978917655316267
 30
0.0
 10
45.25483995732843
 20
4.964975840193195
 30
0.0
 10
46.03944270255613
 20
4.934558725209965
 30
0.0
 10
47.24903471480337
 20
4.499372371609847
 30
0.0
 10
48.52399477220689
 20
3.782573364696926
 30
0.0
 10
49.79897924050236
 20
2.812333567542622
 30
0.0
 10
51.0739902575564
 20
1.662556847571762
 30
0.0
 10
52.34903021840076
 20
0.4046461179503061
 30
0.0
 10
53.62410143256457
 20
-0.8793949338965219
 30
0.0
 10
54.89920625442451
 20
-2.106173598329272
 30
0.0
 10
56.1743469012976
 20
-3.198384757488761
 30
0.0
 10
57.44952604757921
 20
-4.077567158280369
 30
0.0
 10
58.72474462690296
 20
-4.716070372088819
 30
0.0
 10
59.57491170300108
 20
-4.881031344779993
 30
0.0
 10
60.00000000000001
 20
-4.963512754521716
 30
0.0
  0
SPLINE
  5
D5
330
1F
100
AcDbEntity
  8
0
  6
Continuous
 62
     1
370
    15
100
AcDbSpline
210
0.0
220
0.0
230
1.0
 70
     8
 71
     3
 72
    18
 73
    14
 74
     0
 42
0.000000001
 43
0.00000001
 40
0.0
 40
0.0
 40
0.0
 40
0.0
 40
0.0974040372214905
 40
0.1948058935270198
 40
0.2922056859039751
 40
0.3896035317637411
 40
0.486999548918141
 40
0.5843938555557077
 40
0.6817865702177561
 40
0.7791778117743291
 40
0.8765676993999737
 40
0.9739563525493781
 40
1.0
 40
1.0
 40
1.0
 40
1.0
 10
60.00000000000001
 20
-3.003920960295143
 30
0.0
 10
59.57491170300413
 20
-2.645258149678801
 30
0.0
 10
58.72474462691201
 20
-1.927940559052143
 30
0.0
 10
57.44952604754305
 20
-0.6751971235611115
 30
0.0
 10
56.17434690143318
 20
0.6072455665070547
 30
0.0
 10
54.89920625391834
 20
1.854168842008118
 30
0.0
 10
53.62410143445348
 20
2.980039998984482
 30
0.0
 10
52.34903021135145
 20
3.91386980519552
 30
0.0
 10
51.07399028386388
 20
4.592863321545815
 30
0.0
 10
49.79897914232356
 20
4.980912221956438
 30
0.0
 10
48.52399513860745
 20
5.024140215365693
 30
0.0
 10
47.56036563908194
 20
4.875219269182537
 30
0.0
 10
47.02173260657582
 20
4.623812806735912
 30
0.0
 10
46.90808351524677
 20
4.570767200011099
 30
0.0
  0
SPLINE
  5
D6
330
1F
100
AcDbEntity
  8
0
  6
Continuous
 62
     1
370
    15
100
AcDbSpline
210
0.0
220
0.0
230
1.0
 70
     8
 71
     3
 72
    21
 73
    17
 74
     0
 42
0.000000001
 43
0.00000001
 40
0.0
 40
0.0
 40
0.0
 40
0.0
 40
0.0714071525054151
 40
0.1433524425785425
 40
0.2152980676371702
 40
0.28724411683291
 40
0.3591906792292279
 40
0.4311378437829866
 40
0.503085699326031
 40
0.5750343345468331
 40
0.6469838379721987
 40
0.7189342979490567
 40
0.790885802626325
 40
0.8628384399368622
 40
0.934792297579525
 40
1.0
 40
1.0
 40
1.0
 40
1.0
 10
33.21586737849552
 20
-4.998800176611912
 30
0.0
 10
32.79409358526912
 20
-4.968313710890828
 30
0.0
 10
31.94736743315106
 20
-4.907111027779037
 30
0.0
 10
30.67568439451303
 20
-4.412054920941654
 30
0.0
 10
29.4008154281909
 20
-3.654085508509092
 30
0.0
 10
28.12593515373636
 20
-2.653472522772469
 30
0.0
 10
26.85104123779617
 20
-1.482954677086642
 30
0.0
 10
25.57613130583456
 20
-0.2160771644870229
 30
0.0
 10
24.30120299951008
 20
1.06466836812814
 30
0.0
 10
23.02625395912308
 20
2.276563392048061
 30
0.0
 10
21.75128183971205
 20
3.341365546434255
 30
0.0
 10
20.47628426747107
 20
4.189567141398777
 30
0.0
 10
19.20125900122322
 20
4.768742147508611
 30
0.0
 10
17.92620333331772
 20
5.032331734024906
 30
0.0
 10
16.69097334726023
 20
4.998324965257843
 30
0.0
 10
15.88075548698467
 20
4.71976897550779
 30
0.0
 10
15.49557143757404
 20
4.587341230600972
 30
0.0
  0
LINE
  5
D7
330
1F
100
AcDbEntity
  8
0
  6
Continuous
 62
   131
370
    15
100
AcDbLine
 10
60.00000000000001
 20
-5.000000000000028
 30
0.0
 11
60.00000000000001
 21
-4.963512754521716
 31
0.0
  0
LINE
  5
D8
330
1F
100
AcDbEntity
  8
0
  6
Continuous
 62
   131
370
    15
100
AcDbLine
 10
60.00000000000001
 20
4.963512754521663
 30
0.0
 11
60.00000000000001
 21
4.999999999999974
 31
0.0
  0
LINE
  5
D9
330
1F
100
AcDbEntity
  8
0
  6
Continuous
 62
   131
370
    15
100
AcDbLine
 10
10.00000000000001
 20
-4.492441108974147
 30
0.0
 11
10.00000000000002
 21
-3.836267546313255
 31
0.0
  0
LINE
  5
DA
330
1F
100
AcDbEntity
  8
0
  6
Continuous
 62
   131
370
    15
100
AcDbLine
 10
10.00000000000001
 20
-0.3453050745670631
 30
0.0
 11
10.00000000000001
 21
0.858966960491306
 31
0.0
  0
LINE
  5
DB
330
1F
100
AcDbEntity
  8
0
  6
Continuous
 62
     1
370
    15
100
AcDbLine
 10
60.00000000000001
 20
1.959591794226563
 30
0.0
 11
60.00000000000001
 21
3.003920960295118
 31
0.0
  0
LINE
  5
DC
330
1F
100
AcDbEntity
  8
0
  6
Continuous
 62
     1
370
    15
100
AcDbLine
 10
60.00000000000001
 20
-3.003920960295143
 30
0.0
 11
60.00000000000001
 21
-1.959591794226523
 31
0.0
  0
LINE
  5
DD
330
1F
100
AcDbEntity
  8
0
  6
Continuous
 62
   131
370
    15
100
AcDbLine
 10
10.00000000000001
 20
4.147136034407059
 30
0.0
 11
10.00000000000001
 21
4.695234506804524
 31
0.0
  0
SPLINE
  5
DE
330
1F
100
AcDbEntity
  8
0
  6
Continuous
 62
   131
370
    15
100
AcDbSpline
210
0.0
220
0.0
230
1.0
 70
    24
 71
     3
 72
    15
 73
    11
 74
     0
 42
0.000000001
 43
0.00000001
 40
0.0
 40
0.0
 40
0.0
 40
0.0
 40
0.069708816211361
 40
0.2214318407182995
 40
0.3731548652252434
 40
0.5248778897321833
 40
0.6766009142391161
 40
0.8283239387460667
 40
0.9800469632529881
 40
1.0
 40
1.0
 40
1.0
 40
1.0
 10
9.999999999999993
 20
-3.836267546313247
 30
0.0
 10
10.00000000000003
 20
-3.768353940992446
 30
0.0
 10
10.00000000000007
 20
-3.55262463366345
 30
0.0
 10
9.999999999999794
 20
-3.075801859361884
 30
0.0
 10
10.00000000000003
 20
-2.4121406350631
 30
0.0
 10
10.00000000000014
 20
-1.731904936862444
 30
0.0
 10
9.999999999999993
 20
-1.107478197139307
 30
0.0
 10
10.00000000000007
 20
-0.6358494780090579
 30
0.0
 10
9.999999999999993
 20
-0.3745911319381843
 30
0.0
 10
9.999999999999993
 20
-0.3483544328586649
 30
0.0
 10
10.00000000000002
 20
-0.3453050745670647
 30
0.0
  0
SPLINE
  5
DF
330
1F
100
AcDbEntity
  8
0
  6
Continuous
 62
   131
370
    15
100
AcDbSpline
210
0.0
220
0.0
230
1.0
 70
     8
 71
     3
 72
     8
 73
     4
 74
     0
 42
0.000000001
 43
0.00000001
 40
0.0
 40
0.0
 40
0.0
 40
0.0
 40
1.0
 40
1.0
 40
1.0
 40
1.0
 10
9.999999999999993
 20
-3.836267546313247
 30
0.0
 10
9.667255267383347
 20
-3.622804638382001
 30
0.0
 10
9.330561239492106
 20
-3.382762724723421
 30
0.0
 10
8.999888058875456
 20
-3.123396129356087
 30
0.0
  0
SPLINE
  5
E0
330
1F
100
AcDbEntity
  8
0
  6
Continuous
 62
   131
370
    15
100
AcDbSpline
210
0.0
220
0.0
230
1.0
 70
     8
 71
     3
 72
     8
 73
     4
 74
     0
 42
0.000000001
 43
0.00000001
 40
0.0
 40
0.0
 40
0.0
 40
0.0
 40
1.0
 40
1.0
 40
1.0
 40
1.0
 10
10.00000000000001
 20
-0.3453050745670495
 30
0.0
 10
9.66725526738336
 20
-0.0132628771095692
 30
0.0
 10
9.330561239492106
 20
0.3223830203743675
 30
0.0
 10
8.999888058875442
 20
0.6516955634697488
 30
0.0
  0
LINE
  5
E1
330
1F
100
AcDbEntity
  8
0
  6
Continuous
 62
   131
370
    15
100
AcDbLine
 10
8.999888058875428
 20
4.943010382856333
 30
0.0
 11
8.999888058875428
 21
4.999999999999972
 31
0.0
  0
SPLINE
  5
E2
330
1F
100
AcDbEntity
  8
0
  6
Continuous
 62
   131
370
    15
100
AcDbSpline
210
0.0
220
0.0
230
1.0
 70
     8
 71
     3
 72
     8
 73
     4
 74
     0
 42
0.000000001
 43
0.00000001
 40
0.0
 40
0.0
 40
0.0
 40
0.0
 40
1.0
 40
1.0
 40
1.0
 40
1.0
 10
9.999999999999993
 20
4.695234506804522
 30
0.0
 10
9.667255267383347
 20
4.809660179797685
 30
0.0
 10
9.330561239492106
 20
4.89301031443214
 30
0.0
 10
8.999888058875456
 20
4.943014001460999
 30
0.0
  0
SPLINE
  5
E3
330
1F
100
AcDbEntity
  8
0
  6
Continuous
 62
   131
370
    15
100
AcDbSpline
210
0.0
220
0.0
230
1.0
 70
     8
 71
     3
 72
     8
 73
     4
 74
     0
 42
0.000000001
 43
0.00000001
 40
0.0
 40
0.0
 40
0.0
 40
0.0
 40
1.0
 40
1.0
 40
1.0
 40
1.0
 10
10.00000000000001
 20
4.147136034407066
 30
0.0
 10
9.66725526738336
 20
4.333063637907332
 30
0.0
 10
9.330561239492106
 20
4.491871892840707
 30
0.0
 10
8.999888058875442
 20
4.619036534796552
 30
0.0
  0
LINE
  5
E4
330
1F
100
AcDbEntity
  8
0
  6
Continuous
 62
   131
370
    15
100
AcDbLine
 10
8.999888058875428
 20
1.819595484313252
 30
0.0
 11
8.999888058875428
 21
4.619046587317101
 31
0.0
  0
SPLINE
  5
E5
330
1F
100
AcDbEntity
  8
0
  6
Continuous
 62
   131
370
    15
100
AcDbSpline
210
0.0
220
0.0
230
1.0
 70
     8
 71
     3
 72
     8
 73
     4
 74
     0
 42
0.000000001
 43
0.00000001
 40
0.0
 40
0.0
 40
0.0
 40
0.0
 40
1.0
 40
1.0
 40
1.0
 40
1.0
 10
9.999999999999993
 20
0.8589669604913187
 30
0.0
 10
9.667255267383347
 20
1.186855541415726
 30
0.0
 10
9.330561239492106
 20
1.51024758970876
 30
0.0
 10
8.999888058875456
 20
1.819617872104952
 30
0.0
  0
SPLINE
  5
E6
330
1F
100
AcDbEntity
  8
0
  6
Continuous
 62
   131
370
    15
100
AcDbSpline
210
0.0
220
0.0
230
1.0
 70
     8
 71
     3
 72
     8
 73
     4
 74
     0
 42
0.000000001
 43
0.00000001
 40
0.0
 40
0.0
 40
0.0
 40
0.0
 40
1.0
 40
1.0
 40
1.0
 40
1.0
 10
10.00000000000001
 20
-4.492441108974141
 30
0.0
 10
9.66725526738336
 20
-4.346326515016928
 30
0.0
 10
9.330561239492106
 20
-4.169488872466366
 30
0.0
 10
8.999888058875442
 20
-3.967340971326833
 30
0.0
  0
LINE
  5
E7
330
1F
100
AcDbEntity
  8
0
  6
Continuous
 62
   131
370
    15
100
AcDbLine
 10
8.999888058875428
 20
-5.000000000000026
 30
0.0
 11
8.999888058875428
 21
-3.967324991131948
 31
0.0
  0
SPLINE
  5
E8
330
1F
100
AcDbEntity
  8
0
  6
Continuous
 62
   131
370
    15
100
AcDbSpline
210
0.0
220
0.0
230
1.0
 70
     8
 71
     3
 72
     8
 73
     4
 74
     0
 42
0.000000001
 43
0.00000001
 40
0.0
 40
0.0
 40
0.0
 40
0.0
 40
1.0
 40
1.0
 40
1.0
 40
1.0
 10
9.999999999999993
 20
-4.695234506804576
 30
0.0
 10
9.667255267383347
 20
-4.809660179797739
 30
0.0
 10
9.330561239492106
 20
-4.893010314432193
 30
0.0
 10
8.999888058875456
 20
-4.943014001461052
 30
0.0
  0
LINE
  5
E9
330
1F
100
AcDbEntity
  8
0
  6
Continuous
 62
   131
370
    15
100
AcDbLine
 10
-89.0
 20
-0.0000000000000268
 30
0.0
 11
-89.0
 21
4.999999999999972
 31
0.0
  0
LINE
  5
EA
330
1F
100
AcDbEntity
  8
0
  6
Continuous
 62
   131
370
    15
100
AcDbLine
 10
-89.0
 20
-5.000000000000026
 30
0.0
 11
-89.0
 21
-0.0000000000000268
 31
0.0
  0
LINE
  5
EB
330
1F
100
AcDbEntity
  8
0
  6
Continuous
 62
   131
370
    15
100
AcDbLine
 10
8.999888058875428
 20
-3.123414898543121
 30
0.0
 11
8.999888058875428
 21
0.6517215961851813
 31
0.0
  0
LINE
  5
EC
330
1F
100
AcDbEntity
  8
0
  6
Continuous
 62
   131
370
    15
100
AcDbLine
 10
-90.0
 20
-0.0000000000000268
 30
0.0
 11
-90.0
 21
3.999999999999977
 31
0.0
  0
LINE
  5
ED
330
1F
100
AcDbEntity
  8
0
  6
Continuous
 62
   131
370
    15
100
AcDbLine
 10
-90.0
 20
-4.00000000000003
 30
0.0
 11
-90.0
 21
-0.0000000000000268
 31
0.0
  0
SPLINE
  5
EE
330
1F
100
AcDbEntity
  8
0
  6
Continuous
 62
   131
370
    15
100
AcDbSpline
210
0.0
220
0.0
230
1.0
 70
    24
 71
     3
 72
    15
 73
    11
 74
     0
 42
0.000000001
 43
0.00000001
 40
0.0
 40
0.0
 40
0.0
 40
0.0
 40
0.0469100239992256
 40
0.1899654095353273
 40
0.333020795071425
 40
0.4760761806075159
 40
0.619131566143624
 40
0.7621869516797042
 40
0.9052423372158228
 40
1.0
 40
1.0
 40
1.0
 40
1.0
 10
9.999999999999922
 20
0.7457691046937116
 30
0.0
 10
9.999999999999893
 20
0.7393428026515565
 30
0.0
 10
9.999999999999837
 20
0.7133190449306935
 30
0.0
 10
10.00000000000007
 20
0.8998420531591399
 30
0.0
 10
10.00000000000009
 20
1.287087486892037
 30
0.0
 10
10.00000000000001
 20
1.851439633817528
 30
0.0
 10
10.00000000000003
 20
2.510304648791179
 30
0.0
 10
10.00000000000002
 20
3.191376455880144
 30
0.0
 10
9.99999999999995
 20
3.757183306235221
 30
0.0
 10
9.99999999999995
 20
4.036028808532825
 30
0.0
 10
9.99999999999995
 20
4.147136034407216
 30
0.0
  0
LINE
  5
EF
330
1F
100
AcDbEntity
  8
0
  6
Continuous
 62
   131
370
    15
100
AcDbLine
 10
9.999999999999993
 20
-4.695234506804576
 30
0.0
 11
9.999999999999993
 21
-4.595358600327439
 31
0.0
  0
LINE
  5
F0
330
1F
100
AcDbEntity
  8
중심선
 62
     1
100
AcDbLine
 10
-93.20259277488955
 20
-0.0000000000000312
 30
0.0
 11
63.00000000000003
 21
0.0000000000000211
 31
0.0
  0
CIRCLE
  5
F1
330
1F
100
AcDbEntity
  8
외형선
100
AcDbCircle
 10
0.0
 20
0.0
 30
0.0
 40
2.999999999999997
  0
INSERT
  5
F2
330
1F
100
AcDbEntity
  8
0
  6
Continuous
 62
     7
100
AcDbBlockReference
 66
     1
  2
블럭10
 10
-22.93944368806589
 20
-52.04609937292004
 30
0.0
  0
ATTRIB
  5
F3
330
F2
100
AcDbEntity
  8
FORMAT
 62
     2
100
AcDbText
 10
-43.79769121965843
 20
-49.97073246008785
 30
0.0
 40
4.233333333333333
  1
SEME7510050150E [ 6 FLUTE ]
 41
0.75
  7
SLDTEXTSTYLE0
 11
-43.79769121965843
 21
-52.08739912675452
 31
0.0
100
AcDbAttribute
  2
AUTOATTR0
 70
     0
 74
     1
  0
SEQEND
  5
F4
330
F2
100
AcDbEntity
  8
0
  6
Continuous
 62
     7
  0
HATCH
  5
F5
330
1F
100
AcDbEntity
  8
중심선
100
AcDbHatch
 10
0.0
 20
0.0
 30
0.0
210
0.0
220
0.0
230
1.0
  2
SOLID
 70
     1
 71
     0
 91
        1
 92
        0
 93
        4
 72
     1
 10
-17.22453438368504
 20
-35.7989250712761
 11
-20.67080962752232
 21
-35.7989250712761
 72
     1
 10
-20.67080962752232
 20
-35.7989250712761
 11
-22.79903948672635
 21
-38.3352506518487
 72
     1
 10
-22.79903948672635
 20
-38.3352506518487
 11
-19.35273115777591
 21
-38.33521122254621
 72
     1
 10
-19.35273115777591
 20
-38.33521122254621
 11
-17.22453438368504
 21
-35.7989250712761
 97
        0
 75
     0
 76
     1
 98
        1
 10
0.0
 20
0.0
  0
HATCH
  5
F6
330
1F
100
AcDbEntity
  8
중심선
100
AcDbHatch
 10
0.0
 20
0.0
 30
0.0
210
0.0
220
0.0
230
1.0
  2
SOLID
 70
     1
 71
     0
 91
        1
 92
        0
 93
        4
 72
     1
 10
-12.21177039264909
 20
-35.7989250712761
 11
-15.65804563648637
 21
-35.7989250712761
 72
     1
 10
-15.65804563648637
 20
-35.7989250712761
 11
-20.18918364484376
 21
-41.19892507127612
 72
     1
 10
-20.18918364484376
 20
-41.19892507127612
 11
-16.74290840100648
 21
-41.19892507127612
 72
     1
 10
-16.74290840100648
 20
-41.19892507127612
 11
-12.21177039264909
 21
-35.7989250712761
 97
        0
 75
     0
 76
     1
 98
        1
 10
0.0
 20
0.0
  0
HATCH
  5
F7
330
1F
100
AcDbEntity
  8
중심선
100
AcDbHatch
 10
0.0
 20
0.0
 30
0.0
210
0.0
220
0.0
230
1.0
  2
SOLID
 70
     1
 71
     0
 91
        1
 92
        0
 93
        4
 72
     1
 10
-7.199006401613195
 20
-35.79892507127613
 11
-10.64528164545031
 21
-35.7989250712761
 72
     1
 10
-10.64528164545031
 20
-35.7989250712761
 11
-17.69371854733956
 21
-44.19892507127612
 72
     1
 10
-17.69371854733956
 20
-44.19892507127612
 11
-14.24744330350228
 21
-44.19892507127612
 72
     1
 10
-14.24744330350228
 20
-44.19892507127612
 11
-7.199006401613195
 21
-35.79892507127613
 97
        0
 75
     0
 76
     1
 98
        1
 10
0.0
 20
0.0
  0
HATCH
  5
F8
330
1F
100
AcDbEntity
  8
중심선
100
AcDbHatch
 10
0.0
 20
0.0
 30
0.0
210
0.0
220
0.0
230
1.0
  2
SOLID
 70
     1
 71
     0
 91
        1
 92
        0
 93
        6
 72
     3
 10
-2.399115970600996
 20
-39.99892507132738
 11
3.960054785062284
 21
1.540850780301639E-10
 40
0.3939339440162633
 50
17.09539180608433
 51
320.0019657685079
 73
     0
 72
     1
 10
-0.7161163149004002
 20
-38.58681907591441
 11
1.589185558800638
 21
-36.65249236586649
 72
     3
 10
-2.399115970653842
 20
-39.99892507127625
 11
6.600054785286829
 21
-1.249000902703301E-13
 40
0.6363583540795982
 50
39.99873849337408
 51
368.4976242363725
 73
     1
 72
     1
 10
4.026216521246767
 20
-39.03892507120613
 11
-3.71904866381792
 21
-39.0389250712061
 72
     1
 10
-3.71904866381792
 20
-39.0389250712061
 11
-3.719073708263854
 21
-40.95892507120602
 72
     1
 10
-3.719073708263854
 20
-40.95892507120602
 11
0.7223060612081831
 21
-40.95892507120599
 97
        0
 75
     0
 76
     1
 98
        1
 10
0.0
 20
0.0
  0
DIMENSION
  5
F9
330
1F
100
AcDbEntity
  8
치수문자_일반주서
100
AcDbDimension
  2
_D
 10
-107.6289061313234
 20
-5.0000000000001
 30
0.0
 11
-107.6289061313234
 21
-0.0000000000000244
 31
0.0
 70
   160
  1
%%c<>
 71
     2
 42
10.00000000000001
 52
-270.0
  3
SLDDIMSTYLE0
100
AcDbAlignedDimension
 13
-89.0
 23
4.999999999999978
 33
0.0
 14
-89.0
 24
-5.000000000000031
 34
0.0
 50
90.0000000000002
100
AcDbRotatedDimension
  0
DIMENSION
  5
107
330
1F
100
AcDbEntity
  8
치수문자_일반주서
100
AcDbDimension
  2
_D_1
 10
70.00000000000001
 20
-4.999999999999992
 30
0.0
 11
70.0
 21
0.6594307500959639
 31
0.0
 70
   160
  1
%%c<>
 71
     2
 42
10.00000000000001
 52
-270.0
  3
SLDDIMSTYLE0
100
AcDbAlignedDimension
 13
60.00000000000001
 23
4.999999999999976
 33
0.0
 14
60.00000000000001
 24
-5.000000000000029
 34
0.0
 50
90.0000000000002
100
AcDbRotatedDimension
  0
DIMENSION
  5
114
330
1F
100
AcDbEntity
  8
치수문자_일반주서
100
AcDbDimension
  2
_D_2
 10
60.00000000000001
 20
48.19007512544633
 30
0.0
 11
30.46249388206546
 21
48.19007512544633
 31
0.0
 70
   160
  1
<>
 71
     2
 42
50.00000000000002
  3
SLDDIMSTYLE1
100
AcDbAlignedDimension
 13
9.999999999999993
 23
4.695234506804522
 33
0.0
 14
60.00000000000001
 24
4.963512754521663
 34
0.0
100
AcDbRotatedDimension
  0
DIMENSION
  5
11F
330
1F
100
AcDbEntity
  8
치수문자_일반주서
100
AcDbDimension
  2
_D_3
 10
-90.0
 20
75.90819541539129
 30
0.0
 11
-10.35275520235921
 21
75.90819541539129
 31
0.0
 70
   160
  1
<>
 71
     2
 42
150.0
  3
SLDDIMSTYLE1
100
AcDbAlignedDimension
 13
60.00000000000001
 23
4.963512754521663
 33
0.0
 14
-90.0
 24
3.999999999999977
 34
0.0
100
AcDbRotatedDimension
  0
INSERT
  5
12F
330
1F
100
AcDbEntity
  8
외형선
100
AcDbBlockReference
  2
SW_DOWELSYMBOL_0
 10
0.0
 20
0.0
 30
0.0
  0
ENDSEC
  0
SECTION
  2
OBJECTS
  0
DICTIONARY
  5
C
330
0
100
AcDbDictionary
281
     1
  3
ACAD_GROUP
350
D
  3
ACAD_IMAGE_VARS
350
153
  3
ACAD_LAYOUT
350
1A
  3
ACAD_MLINESTYLE
350
17
  3
ACAD_PLOTSETTINGS
350
19
  3
ACAD_PLOTSTYLENAME
350
E
  3
ACAD_SCALELIST
350
47
  3
APPDATA
350
151
  3
DWGPROPS
350
15C
  0
DICTIONARY
  5
D
102
{ACAD_REACTORS
330
C
102
}
330
C
100
AcDbDictionary
281
     1
  0
RASTERVARIABLES
  5
153
102
{ACAD_REACTORS
330
C
102
}
330
C
100
AcDbRasterVariables
 90
        0
 70
     1
 71
     1
 72
     1
  0
DICTIONARY
  5
1A
102
{ACAD_REACTORS
330
C
102
}
330
C
100
AcDbDictionary
281
     1
  3
Layout1
350
1E
  3
Layout2
350
26
  3
Model
350
22
  0
DICTIONARY
  5
17
102
{ACAD_REACTORS
330
C
102
}
330
C
100
AcDbDictionary
281
     1
  3
Standard
350
18
  0
DICTIONARY
  5
19
102
{ACAD_REACTORS
330
C
102
}
330
C
100
AcDbDictionary
281
     1
  0
ACDBDICTIONARYWDFLT
  5
E
102
{ACAD_REACTORS
330
C
102
}
330
C
100
AcDbDictionary
281
     1
  3
Normal
350
F
100
AcDbDictionaryWithDefault
340
F
  0
DICTIONARY
  5
47
102
{ACAD_REACTORS
330
C
102
}
330
C
100
AcDbDictionary
281
     1
  3
A0
350
48
  3
A1
350
49
  3
A2
350
4A
  3
A3
350
4B
  3
A4
350
4C
  3
A5
350
4D
  3
A6
350
4E
  3
A7
350
4F
  3
A8
350
50
  3
A9
350
51
  3
B0
350
52
  3
B1
350
53
  3
B2
350
54
  3
B3
350
55
  3
B4
350
56
  3
B5
350
57
  3
B6
350
58
  3
B7
350
59
  3
B8
350
5A
  3
B9
350
5B
  3
C0
350
5C
  3
C1
350
5D
  3
C2
350
5E
  3
C3
350
5F
  3
C4
350
60
  3
C5
350
61
  3
C6
350
62
  3
C7
350
63
  3
C8
350
64
  3
C9
350
65
  3
D0
350
66
  3
D1
350
67
  3
D2
350
68
  0
DICTIONARY
  5
151
102
{ACAD_REACTORS
330
C
102
}
330
C
100
AcDbDictionary
281
     1
  0
XRECORD
  5
15C
102
{ACAD_REACTORS
330
C
102
}
330
C
100
AcDbXrecord
280
     1
  1
DWGPROPS COOKIE
  2

  3

  4

  6

  7

  8
12016016
  9

300
=
301
=
302
=
303
=
304
=
305
=
306
=
307
=
308
=
309
=
 40
0.0
 41
2458268.396150035
 42
2458269.996190023
  1

 90
        0
  0
LAYOUT
  5
1E
102
{ACAD_REACTORS
330
1A
102
}
330
1A
100
AcDbPlotSettings
  1

  2
none_device
  4

  6

 40
0.0
 41
0.0
 42
0.0
 43
0.0
 44
0.0
 45
0.0
 46
0.0
 47
0.0
 48
0.0
 49
0.0
140
0.0
141
0.0
142
1.0
143
1.0
 70
   688
 72
     1
 73
     0
 74
     5
  7

 75
    16
147
1.0
148
0.0
149
0.0
100
AcDbLayout
  1
Layout1
 70
     1
 71
     1
 10
0.0
 20
0.0
 11
420.0
 21
297.0
 12
0.0
 22
0.0
 32
0.0
 14
1.000000000000000E+20
 24
1.000000000000000E+20
 34
1.000000000000000E+20
 15
-1.000000000000000E+20
 25
-1.000000000000000E+20
 35
-1.000000000000000E+20
146
0.0
 13
0.0
 23
0.0
 33
0.0
 16
1.0
 26
0.0
 36
0.0
 17
0.0
 27
1.0
 37
0.0
 76
     0
330
1B
  0
LAYOUT
  5
26
102
{ACAD_REACTORS
330
1A
102
}
330
1A
100
AcDbPlotSettings
  1

  2
none_device
  4

  6

 40
0.0
 41
0.0
 42
0.0
 43
0.0
 44
0.0
 45
0.0
 46
0.0
 47
0.0
 48
0.0
 49
0.0
140
0.0
141
0.0
142
1.0
143
1.0
 70
   688
 72
     1
 73
     0
 74
     5
  7

 75
    16
147
1.0
148
0.0
149
0.0
100
AcDbLayout
  1
Layout2
 70
     1
 71
     2
 10
0.0
 20
0.0
 11
0.0
 21
0.0
 12
0.0
 22
0.0
 32
0.0
 14
0.0
 24
0.0
 34
0.0
 15
0.0
 25
0.0
 35
0.0
146
0.0
 13
0.0
 23
0.0
 33
0.0
 16
1.0
 26
0.0
 36
0.0
 17
0.0
 27
1.0
 37
0.0
 76
     0
330
23
  0
LAYOUT
  5
22
102
{ACAD_REACTORS
330
1A
102
}
330
1A
100
AcDbPlotSettings
  1

  2
none_device
  4
ANSI_A_(11.00_x_8.50_Inches)
  6

 40
6.35
 41
19.05
 42
6.35000508
 43
19.05000254
 44
279.4
 45
215.9
 46
94.99190054506164
 47
66.47312299155818
 48
0.0
 49
0.0
140
0.0
141
0.0
142
0.0594451408899749
143
1.0
 70
  1696
 72
     0
 73
     0
 74
     0
  7

 75
     0
147
0.0235690232323232
148
0.0
149
0.0
100
AcDbLayout
  1
Model
 70
     1
 71
     0
 10
0.0
 20
0.0
 11
420.0
 21
297.0
 12
0.0
 22
0.0
 32
0.0
 14
-112.0039061313234
 24
-49.97073246008785
 34
0.0
 15
70.55033333333333
 25
80.28319541539129
 35
0.0
146
0.0
 13
0.0
 23
0.0
 33
0.0
 16
1.0
 26
0.0
 36
0.0
 17
0.0
 27
1.0
 37
0.0
 76
     0
330
1F
331
29
  0
MLINESTYLE
  5
18
102
{ACAD_REACTORS
330
17
102
}
330
17
100
AcDbMlineStyle
  2
Standard
 70
     0
  3

 62
   256
 51
90.0
 52
90.0
 71
     2
 49
0.5
 62
   256
  6
BYLAYER
 49
-0.5
 62
   256
  6
BYLAYER
  0
ACDBPLACEHOLDER
  5
F
102
{ACAD_REACTORS
330
E
102
}
330
E
  0
SCALE
  5
48
102
{ACAD_REACTORS
330
47
102
}
330
47
100
AcDbScale
 70
     0
300
1:1
140
1.0
141
1.0
290
     1
  0
SCALE
  5
49
102
{ACAD_REACTORS
330
47
102
}
330
47
100
AcDbScale
 70
     0
300
1:2
140
1.0
141
2.0
290
     0
  0
SCALE
  5
4A
102
{ACAD_REACTORS
330
47
102
}
330
47
100
AcDbScale
 70
     0
300
1:4
140
1.0
141
4.0
290
     0
  0
SCALE
  5
4B
102
{ACAD_REACTORS
330
47
102
}
330
47
100
AcDbScale
 70
     0
300
1:5
140
1.0
141
5.0
290
     0
  0
SCALE
  5
4C
102
{ACAD_REACTORS
330
47
102
}
330
47
100
AcDbScale
 70
     0
300
1:8
140
1.0
141
8.0
290
     0
  0
SCALE
  5
4D
102
{ACAD_REACTORS
330
47
102
}
330
47
100
AcDbScale
 70
     0
300
1:10
140
1.0
141
10.0
290
     0
  0
SCALE
  5
4E
102
{ACAD_REACTORS
330
47
102
}
330
47
100
AcDbScale
 70
     0
300
1:16
140
1.0
141
16.0
290
     0
  0
SCALE
  5
4F
102
{ACAD_REACTORS
330
47
102
}
330
47
100
AcDbScale
 70
     0
300
1:20
140
1.0
141
20.0
290
     0
  0
SCALE
  5
50
102
{ACAD_REACTORS
330
47
102
}
330
47
100
AcDbScale
 70
     0
300
1:30
140
1.0
141
30.0
290
     0
  0
SCALE
  5
51
102
{ACAD_REACTORS
330
47
102
}
330
47
100
AcDbScale
 70
     0
300
1:40
140
1.0
141
40.0
290
     0
  0
SCALE
  5
52
102
{ACAD_REACTORS
330
47
102
}
330
47
100
AcDbScale
 70
     0
300
1:50
140
1.0
141
50.0
290
     0
  0
SCALE
  5
53
102
{ACAD_REACTORS
330
47
102
}
330
47
100
AcDbScale
 70
     0
300
1:100
140
1.0
141
100.0
290
     0
  0
SCALE
  5
54
102
{ACAD_REACTORS
330
47
102
}
330
47
100
AcDbScale
 70
     0
300
2:1
140
2.0
141
1.0
290
     0
  0
SCALE
  5
55
102
{ACAD_REACTORS
330
47
102
}
330
47
100
AcDbScale
 70
     0
300
4:1
140
4.0
141
1.0
290
     0
  0
SCALE
  5
56
102
{ACAD_REACTORS
330
47
102
}
330
47
100
AcDbScale
 70
     0
300
8:1
140
8.0
141
1.0
290
     0
  0
SCALE
  5
57
102
{ACAD_REACTORS
330
47
102
}
330
47
100
AcDbScale
 70
     0
300
10:1
140
10.0
141
1.0
290
     0
  0
SCALE
  5
58
102
{ACAD_REACTORS
330
47
102
}
330
47
100
AcDbScale
 70
     0
300
100:1
140
100.0
141
1.0
290
     0
  0
SCALE
  5
59
102
{ACAD_REACTORS
330
47
102
}
330
47
100
AcDbScale
 70
     0
300
1/128" = 1'-0"
140
0.0078125
141
12.0
290
     0
  0
SCALE
  5
5A
102
{ACAD_REACTORS
330
47
102
}
330
47
100
AcDbScale
 70
     0
300
1/64" = 1'-0"
140
0.015625
141
12.0
290
     0
  0
SCALE
  5
5B
102
{ACAD_REACTORS
330
47
102
}
330
47
100
AcDbScale
 70
     0
300
1/32" = 1'-0"
140
0.03125
141
12.0
290
     0
  0
SCALE
  5
5C
102
{ACAD_REACTORS
330
47
102
}
330
47
100
AcDbScale
 70
     0
300
1/16" = 1'-0"
140
0.0625
141
12.0
290
     0
  0
SCALE
  5
5D
102
{ACAD_REACTORS
330
47
102
}
330
47
100
AcDbScale
 70
     0
300
3/32" = 1'-0"
140
0.09375
141
12.0
290
     0
  0
SCALE
  5
5E
102
{ACAD_REACTORS
330
47
102
}
330
47
100
AcDbScale
 70
     0
300
1/8" = 1'-0"
140
0.125
141
12.0
290
     0
  0
SCALE
  5
5F
102
{ACAD_REACTORS
330
47
102
}
330
47
100
AcDbScale
 70
     0
300
3/16" = 1'-0"
140
0.1875
141
12.0
290
     0
  0
SCALE
  5
60
102
{ACAD_REACTORS
330
47
102
}
330
47
100
AcDbScale
 70
     0
300
1/4" = 1'-0"
140
0.25
141
12.0
290
     0
  0
SCALE
  5
61
102
{ACAD_REACTORS
330
47
102
}
330
47
100
AcDbScale
 70
     0
300
3/8" = 1'-0"
140
0.375
141
12.0
290
     0
  0
SCALE
  5
62
102
{ACAD_REACTORS
330
47
102
}
330
47
100
AcDbScale
 70
     0
300
1/2" = 1'-0"
140
0.5
141
12.0
290
     0
  0
SCALE
  5
63
102
{ACAD_REACTORS
330
47
102
}
330
47
100
AcDbScale
 70
     0
300
3/4" = 1'-0"
140
0.75
141
12.0
290
     0
  0
SCALE
  5
64
102
{ACAD_REACTORS
330
47
102
}
330
47
100
AcDbScale
 70
     0
300
1" = 1'-0"
140
1.0
141
12.0
290
     0
  0
SCALE
  5
65
102
{ACAD_REACTORS
330
47
102
}
330
47
100
AcDbScale
 70
     0
300
1-1/2" = 1'-0"
140
1.5
141
12.0
290
     0
  0
SCALE
  5
66
102
{ACAD_REACTORS
330
47
102
}
330
47
100
AcDbScale
 70
     0
300
3" = 1'-0"
140
3.0
141
12.0
290
     0
  0
SCALE
  5
67
102
{ACAD_REACTORS
330
47
102
}
330
47
100
AcDbScale
 70
     0
300
6" = 1'-0"
140
6.0
141
12.0
290
     0
  0
SCALE
  5
68
102
{ACAD_REACTORS
330
47
102
}
330
47
100
AcDbScale
 70
     0
300
1'-0" = 1'-0"
140
12.0
141
12.0
290
     0
  0
ENDSEC
  0
EOF
