  0
SECTION
  2
HEADER
  9
$ACADVER
  1
AC1015
  9
$ACADMAINTVER
 70
     6
  9
$DWGCODEPAGE
  3
ANSI_949
  9
$INSBASE
 10
0.0
 20
0.0
 30
0.0
  9
$EXTMIN
 10
-62.20390613132348
 20
-49.97180738881174
 30
0.0
  9
$EXTMAX
 10
40.55033333333328
 20
79.29049286448698
 30
0.0
  9
$LIMMIN
 10
0.0
 20
0.0
  9
$LIMMAX
 10
420.0
 20
297.0
  9
$ORTHOMODE
 70
     1
  9
$REGENMODE
 70
     1
  9
$FILLMODE
 70
     1
  9
$QTEXTMODE
 70
     0
  9
$MIRRTEXT
 70
     1
  9
$LTSCALE
 40
1.0
  9
$ATTMODE
 70
     1
  9
$TEXTSIZE
 40
3.5
  9
$TRACEWID
 40
1.0
  9
$TEXTSTYLE
  7
Standard
  9
$CLAYER
  8
0
  9
$CELTYPE
  6
ByLayer
  9
$CECOLOR
 62
   256
  9
$CELTSCALE
 40
1.0
  9
$DISPSILH
 70
     0
  9
$DIMSCALE
 40
1.0
  9
$DIMASZ
 40
3.302
  9
$DIMEXO
 40
1.0
  9
$DIMDLI
 40
3.75
  9
$DIMRND
 40
0.0
  9
$DIMDLE
 40
0.0
  9
$DIMEXE
 40
1.0
  9
$DIMTP
 40
0.0
  9
$DIMTM
 40
0.0
  9
$DIMTXT
 40
3.5
  9
$DIMCEN
 40
2.5
  9
$DIMTSZ
 40
0.0
  9
$DIMTOL
 70
     0
  9
$DIMLIM
 70
     0
  9
$DIMTIH
 70
     1
  9
$DIMTOH
 70
     1
  9
$DIMSE1
 70
     0
  9
$DIMSE2
 70
     0
  9
$DIMTAD
 70
     1
  9
$DIMZIN
 70
     0
  9
$DIMBLK
  1

  9
$DIMASO
 70
     1
  9
$DIMSHO
 70
     1
  9
$DIMPOST
  1

  9
$DIMAPOST
  1

  9
$DIMALT
 70
     0
  9
$DIMALTD
 70
     3
  9
$DIMALTF
 40
0.0393700787401575
  9
$DIMLFAC
 40
1.0
  9
$DIMTOFL
 70
     1
  9
$DIMTVP
 40
0.0
  9
$DIMTIX
 70
     0
  9
$DIMSOXD
 70
     0
  9
$DIMSAH
 70
     0
  9
$DIMBLK1
  1

  9
$DIMBLK2
  1

  9
$DIMSTYLE
  2
ISO-25
  9
$DIMCLRD
 70
     0
  9
$DIMCLRE
 70
     0
  9
$DIMCLRT
 70
     0
  9
$DIMTFAC
 40
1.0
  9
$DIMGAP
 40
1.524
  9
$DIMJUST
 70
     0
  9
$DIMSD1
 70
     0
  9
$DIMSD2
 70
     0
  9
$DIMTOLJ
 70
     0
  9
$DIMTZIN
 70
     0
  9
$DIMALTZ
 70
     0
  9
$DIMALTTZ
 70
     0
  9
$DIMUPT
 70
     0
  9
$DIMDEC
 70
     2
  9
$DIMTDEC
 70
     2
  9
$DIMALTU
 70
     2
  9
$DIMALTTD
 70
     3
  9
$DIMTXSTY
  7
Standard
  9
$DIMAUNIT
 70
     0
  9
$DIMADEC
 70
     2
  9
$DIMALTRND
 40
0.0
  9
$DIMAZIN
 70
     0
  9
$DIMDSEP
 70
    44
  9
$DIMATFIT
 70
     3
  9
$DIMFRAC
 70
     0
  9
$DIMLDRBLK
  1

  9
$DIMLUNIT
 70
     2
  9
$DIMLWD
 70
    -2
  9
$DIMLWE
 70
    -2
  9
$DIMTMOVE
 70
     0
  9
$LUNITS
 70
     2
  9
$LUPREC
 70
     2
  9
$SKETCHINC
 40
1.0
  9
$FILLETRAD
 40
10.0
  9
$AUNITS
 70
     0
  9
$AUPREC
 70
     2
  9
$MENU
  1
.
  9
$ELEVATION
 40
0.0
  9
$PELEVATION
 40
0.0
  9
$THICKNESS
 40
0.0
  9
$LIMCHECK
 70
     0
  9
$CHAMFERA
 40
0.0
  9
$CHAMFERB
 40
0.0
  9
$CHAMFERC
 40
0.0
  9
$CHAMFERD
 40
0.0
  9
$SKPOLY
 70
     0
  9
$TDCREATE
 40
2458268.770586493
  9
$TDUCREATE
 40
2458268.395586493
  9
$TDUPDATE
 40
2458268.790130382
  9
$TDUUPDATE
 40
2458268.415130382
  9
$TDINDWG
 40
0.0015027431
  9
$TDUSRTIMER
 40
0.0015027315
  9
$USRTIMER
 70
     1
  9
$ANGBASE
 50
0.0
  9
$ANGDIR
 70
     0
  9
$PDMODE
 70
     0
  9
$PDSIZE
 40
-1.0
  9
$PLINEWID
 40
0.0
  9
$SPLFRAME
 70
     0
  9
$SPLINETYPE
 70
     6
  9
$SPLINESEGS
 70
     8
  9
$HANDSEED
  5
142
  9
$SURFTAB1
 70
     6
  9
$SURFTAB2
 70
     6
  9
$SURFTYPE
 70
     6
  9
$SURFU
 70
     6
  9
$SURFV
 70
     6
  9
$UCSBASE
  2

  9
$UCSNAME
  2

  9
$UCSORG
 10
0.0
 20
0.0
 30
0.0
  9
$UCSXDIR
 10
1.0
 20
0.0
 30
0.0
  9
$UCSYDIR
 10
0.0
 20
1.0
 30
0.0
  9
$UCSORTHOREF
  2

  9
$UCSORTHOVIEW
 70
     0
  9
$UCSORGTOP
 10
0.0
 20
0.0
 30
0.0
  9
$UCSORGBOTTOM
 10
0.0
 20
0.0
 30
0.0
  9
$UCSORGLEFT
 10
0.0
 20
0.0
 30
0.0
  9
$UCSORGRIGHT
 10
0.0
 20
0.0
 30
0.0
  9
$UCSORGFRONT
 10
0.0
 20
0.0
 30
0.0
  9
$UCSORGBACK
 10
0.0
 20
0.0
 30
0.0
  9
$PUCSBASE
  2

  9
$PUCSNAME
  2

  9
$PUCSORG
 10
0.0
 20
0.0
 30
0.0
  9
$PUCSXDIR
 10
1.0
 20
0.0
 30
0.0
  9
$PUCSYDIR
 10
0.0
 20
1.0
 30
0.0
  9
$PUCSORTHOREF
  2

  9
$PUCSORTHOVIEW
 70
     0
  9
$PUCSORGTOP
 10
0.0
 20
0.0
 30
0.0
  9
$PUCSORGBOTTOM
 10
0.0
 20
0.0
 30
0.0
  9
$PUCSORGLEFT
 10
0.0
 20
0.0
 30
0.0
  9
$PUCSORGRIGHT
 10
0.0
 20
0.0
 30
0.0
  9
$PUCSORGFRONT
 10
0.0
 20
0.0
 30
0.0
  9
$PUCSORGBACK
 10
0.0
 20
0.0
 30
0.0
  9
$USERI1
 70
     0
  9
$USERI2
 70
     0
  9
$USERI3
 70
     0
  9
$USERI4
 70
     0
  9
$USERI5
 70
     0
  9
$USERR1
 40
0.0
  9
$USERR2
 40
0.0
  9
$USERR3
 40
0.0
  9
$USERR4
 40
0.0
  9
$USERR5
 40
0.0
  9
$WORLDVIEW
 70
     1
  9
$SHADEDGE
 70
     3
  9
$SHADEDIF
 70
    70
  9
$TILEMODE
 70
     1
  9
$MAXACTVP
 70
    64
  9
$PINSBASE
 10
0.0
 20
0.0
 30
0.0
  9
$PLIMCHECK
 70
     0
  9
$PEXTMIN
 10
1.000000000000000E+20
 20
1.000000000000000E+20
 30
1.000000000000000E+20
  9
$PEXTMAX
 10
-1.000000000000000E+20
 20
-1.000000000000000E+20
 30
-1.000000000000000E+20
  9
$PLIMMIN
 10
0.0
 20
0.0
  9
$PLIMMAX
 10
0.0
 20
0.0
  9
$UNITMODE
 70
     0
  9
$VISRETAIN
 70
     1
  9
$PLINEGEN
 70
     0
  9
$PSLTSCALE
 70
     1
  9
$TREEDEPTH
 70
  3020
  9
$CMLSTYLE
  2
Standard
  9
$CMLJUST
 70
     0
  9
$CMLSCALE
 40
20.0
  9
$PROXYGRAPHICS
 70
     1
  9
$MEASUREMENT
 70
     1
  9
$CELWEIGHT
370
    -1
  9
$ENDCAPS
280
     0
  9
$JOINSTYLE
280
     0
  9
$LWDISPLAY
290
     1
  9
$INSUNITS
 70
     4
  9
$HYPERLINKBASE
  1

  9
$STYLESHEET
  1

  9
$XEDIT
290
     1
  9
$CEPSNTYPE
380
     0
  9
$PSTYLEMODE
290
     1
  9
$FINGERPRINTGUID
  2
{8411C91A-B052-442C-AC29-C4E2CCA733C8}
  9
$VERSIONGUID
  2
{FAEB1C32-E019-11D5-929B-00C0DF256EC4}
  9
$EXTNAMES
290
     1
  9
$PSVPSCALE
 40
0.0
  9
$OLESTARTUP
290
     0
  0
ENDSEC
  0
SECTION
  2
CLASSES
  0
CLASS
  1
ACDBDICTIONARYWDFLT
  2
AcDbDictionaryWithDefault
  3
ObjectDBX Classes
 90
        0
280
     0
281
     0
  0
CLASS
  1
VISUALSTYLE
  2
AcDbVisualStyle
  3
ObjectDBX Classes
 90
     4095
280
     0
281
     0
  0
CLASS
  1
MATERIAL
  2
AcDbMaterial
  3
ObjectDBX Classes
 90
     1153
280
     0
281
     0
  0
CLASS
  1
SCALE
  2
AcDbScale
  3
ObjectDBX Classes
 90
     1153
280
     0
281
     0
  0
CLASS
  1
SUN
  2
AcDbSun
  3
SCENEOE
 90
     1153
280
     0
281
     0
  0
CLASS
  1
ACDBPLACEHOLDER
  2
AcDbPlaceHolder
  3
ObjectDBX Classes
 90
        0
280
     0
281
     0
  0
CLASS
  1
LAYOUT
  2
AcDbLayout
  3
ObjectDBX Classes
 90
        0
280
     0
281
     0
  0
CLASS
  1
TABLESTYLE
  2
AcDbTableStyle
  3
ObjectDBX Classes
 90
     4095
280
     0
281
     0
  0
CLASS
  1
MLEADERSTYLE
  2
AcDbMLeaderStyle
  3
ACDB_MLEADERSTYLE_CLASS
 90
     4095
280
     0
281
     0
  0
ENDSEC
  0
SECTION
  2
TABLES
  0
TABLE
  2
VPORT
  5
8
330
0
100
AcDbSymbolTable
 70
     1
  0
VPORT
  5
29
330
8
100
AcDbSymbolTableRecord
100
AcDbViewportTableRecord
  2
*Active
 70
     0
 10
0.0
 20
0.0
 11
1.0
 21
1.0
 12
-27.21906428460818
 22
38.62570023818062
 13
0.0
 23
0.0
 14
10.0
 24
10.0
 15
10.0
 25
10.0
 16
0.0
 26
0.0
 36
1.0
 17
0.0
 27
0.0
 37
0.0
 40
167.681361862728
 41
2.727272727272727
 42
50.0
 43
0.0
 44
0.0
 50
0.0
 51
0.0
 71
    16
 72
  2000
 73
     1
 74
     3
 75
     0
 76
     0
 77
     0
 78
     0
281
     0
 65
     1
110
0.0
120
0.0
130
0.0
111
1.0
121
0.0
131
0.0
112
0.0
122
1.0
132
0.0
 79
     0
146
0.0
  0
ENDTAB
  0
TABLE
  2
LTYPE
  5
5
330
0
100
AcDbSymbolTable
 70
     6
  0
LTYPE
  5
14
330
5
100
AcDbSymbolTableRecord
100
AcDbLinetypeTableRecord
  2
ByBlock
 70
     0
  3

 72
    65
 73
     0
 40
0.0
  0
LTYPE
  5
15
330
5
100
AcDbSymbolTableRecord
100
AcDbLinetypeTableRecord
  2
ByLayer
 70
     0
  3

 72
    65
 73
     0
 40
0.0
  0
LTYPE
  5
16
330
5
100
AcDbSymbolTableRecord
100
AcDbLinetypeTableRecord
  2
Continuous
 70
     0
  3
Solid line
 72
    65
 73
     0
 40
0.0
  0
LTYPE
  5
6A
330
5
100
AcDbSymbolTableRecord
100
AcDbLinetypeTableRecord
  2
HIDDEN
 70
     0
  3
Hidden __ __ __ __ __ __ __ __ __ __ __ __ __ __
 72
    65
 73
     2
 40
1.905
 49
1.27
 74
     0
 49
-0.635
 74
     0
  0
LTYPE
  5
6B
330
5
100
AcDbSymbolTableRecord
100
AcDbLinetypeTableRecord
  2
PHANTOM
 70
     0
  3
Phantom ______  __  __  ______  __  __  ______
 72
    65
 73
     6
 40
12.7
 49
6.35
 74
     0
 49
-1.27
 74
     0
 49
1.27
 74
     0
 49
-1.27
 74
     0
 49
1.27
 74
     0
 49
-1.27
 74
     0
  0
LTYPE
  5
6C
330
5
100
AcDbSymbolTableRecord
100
AcDbLinetypeTableRecord
  2
CENTER
 70
     0
  3
Center ____ _ ____ _ ____ _ ____ _ ____ _ ____
 72
    65
 73
     4
 40
10.16
 49
6.35
 74
     0
 49
-1.27
 74
     0
 49
1.27
 74
     0
 49
-1.27
 74
     0
  0
LTYPE
  5
6D
330
5
100
AcDbSymbolTableRecord
100
AcDbLinetypeTableRecord
  2
CENTERX2
 70
     0
  3
Center (2x) ________  __  ________  __  _____
 72
    65
 73
     4
 40
20.32
 49
12.7
 74
     0
 49
-2.54
 74
     0
 49
2.54
 74
     0
 49
-2.54
 74
     0
  0
LTYPE
  5
6E
330
5
100
AcDbSymbolTableRecord
100
AcDbLinetypeTableRecord
  2
DOT2
 70
     0
  3
Dot (.5x) ........................................
 72
    65
 73
     2
 40
0.635
 49
0.0
 74
     0
 49
-0.635
 74
     0
  0
ENDTAB
  0
TABLE
  2
LAYER
  5
2
330
0
100
AcDbSymbolTable
 70
    17
  0
LAYER
  5
10
330
2
100
AcDbSymbolTableRecord
100
AcDbLayerTableRecord
  2
0
 70
     0
 62
     7
  6
Continuous
370
    -3
390
F
  0
LAYER
  5
6F
330
2
100
AcDbSymbolTableRecord
100
AcDbLayerTableRecord
  2
FORMAT
 70
     0
 62
     2
  6
Continuous
370
    -3
390
F
  0
LAYER
  5
70
330
2
100
AcDbSymbolTableRecord
100
AcDbLayerTableRecord
  2
외형선
 70
     0
 62
   100
  6
Continuous
370
    30
390
F
  0
LAYER
  5
71
330
2
100
AcDbSymbolTableRecord
100
AcDbLayerTableRecord
  2
숨은선
 70
     0
 62
     2
  6
HIDDEN
370
    15
390
F
  0
LAYER
  5
72
330
2
100
AcDbSymbolTableRecord
100
AcDbLayerTableRecord
  2
중심선
 70
     0
 62
     1
  6
CENTERX2
370
    -3
390
F
  0
LAYER
  5
73
330
2
100
AcDbSymbolTableRecord
100
AcDbLayerTableRecord
  2
파단선
 70
     0
 62
     4
  6
Continuous
370
    -3
390
F
  0
LAYER
  5
74
330
2
100
AcDbSymbolTableRecord
100
AcDbLayerTableRecord
  2
해칭선
 70
     0
 62
     4
  6
Continuous
370
    -3
390
F
  0
LAYER
  5
75
330
2
100
AcDbSymbolTableRecord
100
AcDbLayerTableRecord
  2
가는실선
 70
     0
 62
     4
  6
Continuous
370
    -3
390
F
  0
LAYER
  5
76
330
2
100
AcDbSymbolTableRecord
100
AcDbLayerTableRecord
  2
치수_보조선
 70
     0
 62
     4
  6
Continuous
370
    -3
390
F
  0
LAYER
  5
77
330
2
100
AcDbSymbolTableRecord
100
AcDbLayerTableRecord
  2
치수문자_일반주서
 70
     0
 62
     7
  6
Continuous
370
    15
390
F
  0
LAYER
  5
78
330
2
100
AcDbSymbolTableRecord
100
AcDbLayerTableRecord
  2
개별주서
 70
     0
 62
   100
  6
Continuous
370
    30
390
F
  0
LAYER
  5
79
330
2
100
AcDbSymbolTableRecord
100
AcDbLayerTableRecord
  2
중간선
 70
     0
 62
     2
  6
Continuous
370
    15
390
F
  0
LAYER
  5
7A
330
2
100
AcDbSymbolTableRecord
100
AcDbLayerTableRecord
  2
윤곽선
 70
     0
 62
     3
  6
Continuous
370
    40
390
F
  0
LAYER
  5
7B
330
2
100
AcDbSymbolTableRecord
100
AcDbLayerTableRecord
  2
중심마크
 70
     0
 62
   100
  6
Continuous
370
    30
390
F
  0
LAYER
  5
7C
330
2
100
AcDbSymbolTableRecord
100
AcDbLayerTableRecord
  2
가상선
 70
     0
 62
     4
  6
PHANTOM
370
    -3
390
F
  0
LAYER
  5
7D
330
2
100
AcDbSymbolTableRecord
100
AcDbLayerTableRecord
  2
특수지정선
 70
     0
 62
     5
  6
CENTERX2
370
    60
390
F
  0
LAYER
  5
135
330
2
100
AcDbSymbolTableRecord
100
AcDbLayerTableRecord
  2
Defpoints
 70
     0
 62
     7
  6
Continuous
290
     0
370
    -3
390
F
  0
ENDTAB
  0
TABLE
  2
STYLE
  5
3
330
0
100
AcDbSymbolTable
 70
     2
  0
STYLE
  5
11
330
3
100
AcDbSymbolTableRecord
100
AcDbTextStyleTableRecord
  2
Standard
 70
     0
 40
0.0
 41
1.0
 50
0.0
 71
     0
 42
3.5
  3
txt
  4

  0
STYLE
  5
93
330
3
100
AcDbSymbolTableRecord
100
AcDbTextStyleTableRecord
  2
SLDTEXTSTYLE0
 70
     0
 40
0.0
 41
0.75
 50
0.0
 71
     0
 42
3.5
  3
TXT
  4

  0
ENDTAB
  0
TABLE
  2
VIEW
  5
6
330
0
100
AcDbSymbolTable
 70
     0
  0
ENDTAB
  0
TABLE
  2
UCS
  5
7
330
0
100
AcDbSymbolTable
 70
     0
  0
ENDTAB
  0
TABLE
  2
APPID
  5
9
330
0
100
AcDbSymbolTable
 70
     2
  0
APPID
  5
12
330
9
100
AcDbSymbolTableRecord
100
AcDbRegAppTableRecord
  2
ACAD
 70
     0
  0
APPID
  5
136
330
9
100
AcDbSymbolTableRecord
100
AcDbRegAppTableRecord
  2
PE_URL
 70
     0
  0
ENDTAB
  0
TABLE
  2
DIMSTYLE
  5
A
330
0
100
AcDbSymbolTable
 70
     3
100
AcDbDimStyleTable
  0
DIMSTYLE
105
27
330
A
100
AcDbSymbolTableRecord
100
AcDbDimStyleTableRecord
  2
ISO-25
 70
     0
 41
2.5
 42
0.625
 43
3.75
 44
1.25
 73
     0
 74
     0
 77
     1
 78
     8
140
2.5
141
2.5
143
0.03937007874016
147
0.625
171
     3
172
     1
178
     0
271
     2
272
     2
274
     3
278
    44
283
     0
284
     8
340
11
  0
DIMSTYLE
105
DD
102
{ACAD_REACTORS
330
DC
330
EA
330
F7
330
101
102
}
330
A
100
AcDbSymbolTableRecord
100
AcDbDimStyleTableRecord
  2
SLDDIMSTYLE0
 70
     0
 41
3.302
 44
0.0
 45
0.000000001
 73
     0
 74
     0
 77
     1
 78
    12
 79
     3
140
3.5
147
0.875
172
     1
173
     1
178
     0
271
     2
272
     2
276
     2
284
    12
289
     0
340
93
  0
DIMSTYLE
105
102
330
A
100
AcDbSymbolTableRecord
100
AcDbDimStyleTableRecord
  2
SLDDIMSTYLE1
 70
     0
 41
3.302
 44
0.0
 45
0.000000001
 73
     0
 74
     0
 77
     1
 78
    12
 79
     3
140
3.5
147
0.875
173
     1
178
     0
271
     2
272
     2
276
     2
284
    12
340
93
  0
ENDTAB
  0
TABLE
  2
BLOCK_RECORD
  5
1
330
0
100
AcDbSymbolTable
 70
     7
  0
BLOCK_RECORD
  5
1F
330
1
100
AcDbSymbolTableRecord
100
AcDbBlockTableRecord
  2
*Model_Space
340
22
  0
BLOCK_RECORD
  5
1B
330
1
100
AcDbSymbolTableRecord
100
AcDbBlockTableRecord
  2
*Paper_Space
340
1E
  0
BLOCK_RECORD
  5
23
330
1
100
AcDbSymbolTableRecord
100
AcDbBlockTableRecord
  2
*Paper_Space0
340
26
  0
BLOCK_RECORD
  5
7E
330
1
100
AcDbSymbolTableRecord
100
AcDbBlockTableRecord
  2
블럭10
340
0
102
{BLKREFS
331
D5
102
}
  0
BLOCK_RECORD
  5
DE
330
1
100
AcDbSymbolTableRecord
100
AcDbBlockTableRecord
  2
_D
340
0
  0
BLOCK_RECORD
  5
EB
330
1
100
AcDbSymbolTableRecord
100
AcDbBlockTableRecord
  2
_D_1
340
0
  0
BLOCK_RECORD
  5
F8
330
1
100
AcDbSymbolTableRecord
100
AcDbBlockTableRecord
  2
_D_2
340
0
  0
BLOCK_RECORD
  5
103
330
1
100
AcDbSymbolTableRecord
100
AcDbBlockTableRecord
  2
_D_3
340
0
  0
BLOCK_RECORD
  5
10C
330
1
100
AcDbSymbolTableRecord
100
AcDbBlockTableRecord
  2
SW_DOWELSYMBOL_0
340
0
102
{BLKREFS
331
112
102
}
  0
ENDTAB
  0
ENDSEC
  0
SECTION
  2
BLOCKS
  0
BLOCK
  5
20
330
1F
100
AcDbEntity
  8
0
100
AcDbBlockBegin
  2
*Model_Space
 70
     0
 10
0.0
 20
0.0
 30
0.0
  3
*Model_Space
  1

  0
ENDBLK
  5
21
330
1F
100
AcDbEntity
  8
0
100
AcDbBlockEnd
  0
BLOCK
  5
1C
330
1B
100
AcDbEntity
 67
     1
  8
0
100
AcDbBlockBegin
  2
*Paper_Space
 70
     0
 10
0.0
 20
0.0
 30
0.0
  3
*Paper_Space
  1

  0
ENDBLK
  5
1D
330
1B
100
AcDbEntity
 67
     1
  8
0
100
AcDbBlockEnd
  0
BLOCK
  5
24
330
23
100
AcDbEntity
  8
0
100
AcDbBlockBegin
  2
*Paper_Space0
 70
     0
 10
0.0
 20
0.0
 30
0.0
  3
*Paper_Space0
  1

  0
ENDBLK
  5
25
330
23
100
AcDbEntity
  8
0
100
AcDbBlockEnd
  0
BLOCK
  5
7F
330
7E
100
AcDbEntity
  8
0
100
AcDbBlockBegin
  2
블럭10
 70
     2
 10
0.0
 20
0.0
 30
0.0
  3
블럭10
  1

  0
ELLIPSE
  5
81
330
7E
100
AcDbEntity
  8
중심선
100
AcDbEllipse
 10
20.54032771741204
 20
12.0471743016438
 30
0.0
 11
6.600054785286829
 21
-1.261213355974178E-13
 31
0.0
210
0.0
220
0.0
230
1.0
 40
0.636358354079598
 41
0.9219305317359503
 42
6.513795318482858
  0
ELLIPSE
  5
82
330
7E
100
AcDbEntity
  8
중심선
100
AcDbEllipse
 10
20.54032771746488
 20
12.04717430159265
 30
0.0
 11
3.960054785062283
 21
1.540847449632565E-10
 31
0.0
210
0.0
220
0.0
230
1.0
 40
0.3939339440162632
 41
1.131841032648279
 42
5.62031148352944
  0
LINE
  5
83
330
7E
100
AcDbEntity
  8
중심선
100
AcDbLine
 10
2.268634060543552
 20
16.24717430164393
 30
0.0
 11
5.714909304380834
 21
16.24717430164393
 31
0.0
  0
LINE
  5
84
330
7E
100
AcDbEntity
  8
중심선
100
AcDbLine
 10
5.245725140726316
 20
7.84717430164391
 30
0.0
 11
8.692000384563599
 21
7.84717430164391
 31
0.0
  0
LINE
  5
85
330
7E
100
AcDbEntity
  8
중심선
100
AcDbLine
 10
15.74043728645272
 20
16.24717430164393
 30
0.0
 11
8.692000384563599
 21
7.84717430164391
 31
0.0
  0
LINE
  5
86
330
7E
100
AcDbEntity
  8
중심선
100
AcDbLine
 10
0.1404042013395286
 20
13.71084872107135
 30
0.0
 11
3.58671253028996
 21
13.71088815037384
 31
0.0
  0
LINE
  5
87
330
7E
100
AcDbEntity
  8
중심선
100
AcDbLine
 10
2.750260043222114
 20
10.84717430164391
 30
0.0
 11
6.196535287059397
 21
10.84717430164391
 31
0.0
  0
LINE
  5
88
330
7E
100
AcDbEntity
  8
중심선
100
AcDbLine
 10
12.29416204261559
 20
16.24717430164393
 30
0.0
 11
5.245725140726316
 21
7.84717430164391
 31
0.0
  0
LINE
  5
89
330
7E
100
AcDbEntity
  8
중심선
100
AcDbLine
 10
10.72767329541681
 20
16.24717430164393
 30
0.0
 11
6.196535287059397
 21
10.84717430164391
 31
0.0
  0
LINE
  5
8A
330
7E
100
AcDbEntity
  8
중심선
100
AcDbLine
 10
7.28139805157953
 20
16.24717430164393
 30
0.0
 11
2.750260043222114
 21
10.84717430164391
 31
0.0
  0
LINE
  5
8B
330
7E
100
AcDbEntity
  8
중심선
100
AcDbLine
 10
5.714909304380834
 20
16.24717430164393
 30
0.0
 11
3.58671253028996
 21
13.71088815037384
 31
0.0
  0
LINE
  5
8C
330
7E
100
AcDbEntity
  8
중심선
100
AcDbLine
 10
2.268634060543552
 20
16.24717430164393
 30
0.0
 11
0.1404042013395286
 21
13.71084872107135
 31
0.0
  0
LINE
  5
8D
330
7E
100
AcDbEntity
  8
중심선
100
AcDbLine
 10
7.28139805157953
 20
16.24717430164393
 30
0.0
 11
10.72767329541681
 21
16.24717430164393
 31
0.0
  0
LINE
  5
8E
330
7E
100
AcDbEntity
  8
중심선
100
AcDbLine
 10
12.29416204261559
 20
16.24717430164393
 30
0.0
 11
15.74043728645272
 21
16.24717430164393
 31
0.0
  0
LINE
  5
8F
330
7E
100
AcDbEntity
  8
중심선
100
AcDbLine
 10
19.22036997980202
 20
11.08717430171403
 30
0.0
 11
23.66174974927406
 21
11.08717430171406
 31
0.0
  0
LINE
  5
90
330
7E
100
AcDbEntity
  8
중심선
100
AcDbLine
 10
19.22039502424796
 20
13.00717430171391
 30
0.0
 11
19.22036997980202
 21
11.08717430171403
 31
0.0
  0
LINE
  5
91
330
7E
100
AcDbEntity
  8
중심선
100
AcDbLine
 10
19.22039502424796
 20
13.00717430171391
 30
0.0
 11
26.96566020931264
 21
13.00717430171391
 31
0.0
  0
LINE
  5
92
330
7E
100
AcDbEntity
  8
중심선
100
AcDbLine
 10
22.22332737316547
 20
13.45928029700563
 30
0.0
 11
24.52862924686651
 21
15.39360700705356
 31
0.0
  0
ATTDEF
  5
94
330
7E
100
AcDbEntity
  8
FORMAT
 62
     2
100
AcDbText
 10
-12.95993919485777
 20
2.075366912832191
 30
0.0
 40
4.233333333333333
  1
SEME75080E [ 6 FLUTE ]
 41
0.75
  7
SLDTEXTSTYLE0
 11
-12.95993919485777
 21
-0.0412997538344756
 31
0.0
100
AcDbAttributeDefinition
  3

  2
AUTOATTR0
 70
     0
 74
     1
  0
ENDBLK
  5
80
330
7E
100
AcDbEntity
  8
0
100
AcDbBlockEnd
  0
BLOCK
  5
DF
330
DE
100
AcDbEntity
  8
0
100
AcDbBlockBegin
  2
_D
 70
     0
 10
0.0
 20
0.0
 30
0.0
  3
_D
  1

  0
LINE
  5
E1
330
DE
100
AcDbEntity
  8
치수문자_일반주서
 62
     0
370
    -2
100
AcDbLine
 10
-39.26250000000003
 20
4.000000000000007
 30
0.0
 11
-57.82890613132349
 21
3.999999999999938
 31
0.0
  0
LINE
  5
E2
330
DE
100
AcDbEntity
  8
치수문자_일반주서
 62
     0
370
    -2
100
AcDbLine
 10
-39.26250000000003
 20
-4.0
 30
0.0
 11
-57.82890613132346
 21
-4.000000000000069
 31
0.0
  0
LINE
  5
E3
330
DE
100
AcDbEntity
  8
치수문자_일반주서
 62
     0
370
    -2
100
AcDbLine
 10
-57.82890613132347
 20
0.6979999999999387
 30
0.0
 11
-57.82890613132347
 21
-0.6980000000000697
 31
0.0
  0
SOLID
  5
E4
330
DE
100
AcDbEntity
  8
치수문자_일반주서
 62
     0
100
AcDbTrace
 10
-57.27857279799014
 20
0.6979999999999407
 30
0.0
 11
-58.37923946465681
 21
0.6979999999999367
 31
0.0
 12
-57.82890613132349
 22
3.999999999999938
 32
0.0
 13
-57.82890613132349
 23
3.999999999999938
 33
0.0
  0
SOLID
  5
E5
330
DE
100
AcDbEntity
  8
치수문자_일반주서
 62
     0
100
AcDbTrace
 10
-58.37923946465681
 20
-0.6980000000000717
 30
0.0
 11
-57.27857279799014
 21
-0.6980000000000677
 31
0.0
 12
-57.82890613132346
 22
-4.000000000000069
 32
0.0
 13
-57.82890613132346
 23
-4.000000000000069
 33
0.0
  0
MTEXT
  5
E6
330
DE
100
AcDbEntity
  8
치수문자_일반주서
 62
     0
100
AcDbMText
 10
-62.20390613132347
 20
-0.0000000000000115
 30
0.0
 40
3.5
 41
0.0
 71
     2
 72
     1
  1
\A1;%%c8
  7
SLDTEXTSTYLE0
 11
-3.552713678800498E-15
 21
1.0
 31
0.0
 73
     1
 44
1.0
  0
POINT
  5
E7
330
DE
100
AcDbEntity
  8
Defpoints
 62
     0
100
AcDbPoint
 10
-39.20000000000003
 20
4.000000000000007
 30
0.0
  0
POINT
  5
E8
330
DE
100
AcDbEntity
  8
Defpoints
 62
     0
100
AcDbPoint
 10
-39.20000000000003
 20
-4.0
 30
0.0
  0
POINT
  5
E9
330
DE
100
AcDbEntity
  8
Defpoints
 62
     0
100
AcDbPoint
 10
-57.82890613132347
 20
-4.000000000000069
 30
0.0
  0
ENDBLK
  5
E0
330
DE
100
AcDbEntity
  8
0
100
AcDbBlockEnd
  0
BLOCK
  5
EC
330
EB
100
AcDbEntity
  8
0
100
AcDbBlockBegin
  2
_D_1
 70
     0
 10
0.0
 20
0.0
 30
0.0
  3
_D_1
  1

  0
LINE
  5
EE
330
EB
100
AcDbEntity
  8
치수문자_일반주서
 62
     0
370
    -2
100
AcDbLine
 10
30.06249999999997
 20
4.000000000000005
 30
0.0
 11
39.99999999999994
 21
4.000000000000043
 31
0.0
  0
LINE
  5
EF
330
EB
100
AcDbEntity
  8
치수문자_일반주서
 62
     0
370
    -2
100
AcDbLine
 10
30.06249999999997
 20
-3.999999999999998
 30
0.0
 11
39.99999999999997
 21
-3.999999999999961
 31
0.0
  0
LINE
  5
F0
330
EB
100
AcDbEntity
  8
치수문자_일반주서
 62
     0
370
    -2
100
AcDbLine
 10
39.99999999999996
 20
0.698000000000043
 30
0.0
 11
39.99999999999996
 21
-0.6979999999999618
 31
0.0
  0
SOLID
  5
F1
330
EB
100
AcDbEntity
  8
치수문자_일반주서
 62
     0
100
AcDbTrace
 10
40.55033333333329
 20
0.698000000000045
 30
0.0
 11
39.44966666666662
 21
0.698000000000041
 31
0.0
 12
39.99999999999994
 22
4.000000000000043
 32
0.0
 13
39.99999999999994
 23
4.000000000000043
 33
0.0
  0
SOLID
  5
F2
330
EB
100
AcDbEntity
  8
치수문자_일반주서
 62
     0
100
AcDbTrace
 10
39.44966666666662
 20
-0.6979999999999638
 30
0.0
 11
40.55033333333329
 21
-0.6979999999999598
 31
0.0
 12
39.99999999999997
 22
-3.999999999999961
 32
0.0
 13
39.99999999999997
 23
-3.999999999999961
 33
0.0
  0
MTEXT
  5
F3
330
EB
100
AcDbEntity
  8
치수문자_일반주서
 62
     0
100
AcDbMText
 10
35.62499999999996
 20
0.5275446000767819
 30
0.0
 40
3.5
 41
0.0
 71
     2
 72
     1
  1
\A1;%%c8
  7
SLDTEXTSTYLE0
 11
-3.552713678800499E-15
 21
1.0
 31
0.0
 73
     1
 44
1.0
  0
POINT
  5
F4
330
EB
100
AcDbEntity
  8
Defpoints
 62
     0
100
AcDbPoint
 10
29.99999999999997
 20
4.000000000000005
 30
0.0
  0
POINT
  5
F5
330
EB
100
AcDbEntity
  8
Defpoints
 62
     0
100
AcDbPoint
 10
29.99999999999997
 20
-3.999999999999999
 30
0.0
  0
POINT
  5
F6
330
EB
100
AcDbEntity
  8
Defpoints
 62
     0
100
AcDbPoint
 10
39.99999999999997
 20
-3.999999999999961
 30
0.0
  0
ENDBLK
  5
ED
330
EB
100
AcDbEntity
  8
0
100
AcDbBlockEnd
  0
BLOCK
  5
F9
330
F8
100
AcDbEntity
  8
0
100
AcDbBlockBegin
  2
_D_2
 70
     0
 10
0.0
 20
0.0
 30
0.0
  3
_D_2
  1

  0
LINE
  5
FB
330
F8
100
AcDbEntity
  8
치수문자_일반주서
 62
     0
370
    -2
100
AcDbLine
 10
9.999999999999984
 20
4.036027866332345
 30
0.0
 11
9.999999999999986
 21
47.46836848497415
 31
0.0
  0
LINE
  5
FC
330
F8
100
AcDbEntity
  8
치수문자_일반주서
 62
     0
370
    -2
100
AcDbLine
 10
29.99999999999997
 20
4.033310203617356
 30
0.0
 11
29.99999999999997
 21
47.46836848497415
 31
0.0
  0
LINE
  5
FD
330
F8
100
AcDbEntity
  8
치수문자_일반주서
 62
     0
370
    -2
100
AcDbLine
 10
13.30199999999999
 20
47.46836848497415
 30
0.0
 11
26.69799999999997
 21
47.46836848497415
 31
0.0
  0
SOLID
  5
FE
330
F8
100
AcDbEntity
  8
치수문자_일반주서
 62
     0
100
AcDbTrace
 10
13.30199999999999
 20
48.01870181830748
 30
0.0
 11
13.30199999999999
 21
46.91803515164082
 31
0.0
 12
9.999999999999986
 22
47.46836848497415
 32
0.0
 13
9.999999999999986
 23
47.46836848497415
 33
0.0
  0
SOLID
  5
FF
330
F8
100
AcDbEntity
  8
치수문자_일반주서
 62
     0
100
AcDbTrace
 10
26.69799999999997
 20
46.91803515164082
 30
0.0
 11
26.69799999999997
 21
48.01870181830748
 31
0.0
 12
29.99999999999997
 22
47.46836848497415
 32
0.0
 13
29.99999999999997
 23
47.46836848497415
 33
0.0
  0
MTEXT
  5
100
330
F8
100
AcDbEntity
  8
치수문자_일반주서
 62
     0
100
AcDbMText
 10
18.18499755282616
 20
51.84336848497415
 30
0.0
 40
3.5
 41
0.0
 71
     2
 72
     1
  1
\A1;20
  7
SLDTEXTSTYLE0
 73
     1
 44
1.0
  0
POINT
  5
137
330
F8
100
AcDbEntity
  8
Defpoints
 62
     0
100
AcDbPoint
 10
9.999999999999984
 20
3.973527866332345
 30
0.0
  0
POINT
  5
138
330
F8
100
AcDbEntity
  8
Defpoints
 62
     0
100
AcDbPoint
 10
29.99999999999997
 20
3.970810203617356
 30
0.0
  0
POINT
  5
139
330
F8
100
AcDbEntity
  8
Defpoints
 62
     0
100
AcDbPoint
 10
29.99999999999997
 20
47.46836848497415
 30
0.0
  0
ENDBLK
  5
FA
330
F8
100
AcDbEntity
  8
0
100
AcDbBlockEnd
  0
BLOCK
  5
104
330
103
100
AcDbEntity
  8
0
100
AcDbBlockBegin
  2
_D_3
 70
     0
 10
0.0
 20
0.0
 30
0.0
  3
_D_3
  1

  0
LINE
  5
106
330
103
100
AcDbEntity
  8
치수문자_일반주서
 62
     0
370
    -2
100
AcDbLine
 10
29.99999999999997
 20
4.033310203617356
 30
0.0
 11
29.99999999999997
 21
74.91549286448698
 31
0.0
  0
LINE
  5
107
330
103
100
AcDbEntity
  8
치수문자_일반주서
 62
     0
370
    -2
100
AcDbLine
 10
-40.00000000000003
 20
3.262500000000007
 30
0.0
 11
-40.00000000000003
 21
74.91549286448698
 31
0.0
  0
LINE
  5
108
330
103
100
AcDbEntity
  8
치수문자_일반주서
 62
     0
370
    -2
100
AcDbLine
 10
26.69799999999997
 20
74.91549286448698
 30
0.0
 11
-36.69800000000003
 21
74.91549286448698
 31
0.0
  0
SOLID
  5
109
330
103
100
AcDbEntity
  8
치수문자_일반주서
 62
     0
100
AcDbTrace
 10
26.69799999999997
 20
74.36515953115365
 30
0.0
 11
26.69799999999997
 21
75.4658261978203
 31
0.0
 12
29.99999999999997
 22
74.91549286448698
 32
0.0
 13
29.99999999999997
 23
74.91549286448698
 33
0.0
  0
SOLID
  5
10A
330
103
100
AcDbEntity
  8
치수문자_일반주서
 62
     0
100
AcDbTrace
 10
-36.69800000000003
 20
75.4658261978203
 30
0.0
 11
-36.69800000000003
 21
74.36515953115365
 31
0.0
 12
-40.00000000000003
 22
74.91549286448698
 32
0.0
 13
-40.00000000000003
 23
74.91549286448698
 33
0.0
  0
MTEXT
  5
10B
330
103
100
AcDbEntity
  8
치수문자_일반주서
 62
     0
100
AcDbMText
 10
-2.831285761101008
 20
79.29049286448698
 30
0.0
 40
3.5
 41
0.0
 71
     2
 72
     1
  1
\A1;70
  7
SLDTEXTSTYLE0
 73
     1
 44
1.0
  0
POINT
  5
13A
330
103
100
AcDbEntity
  8
Defpoints
 62
     0
100
AcDbPoint
 10
29.99999999999997
 20
3.970810203617356
 30
0.0
  0
POINT
  5
13B
330
103
100
AcDbEntity
  8
Defpoints
 62
     0
100
AcDbPoint
 10
-40.00000000000003
 20
3.200000000000007
 30
0.0
  0
POINT
  5
13C
330
103
100
AcDbEntity
  8
Defpoints
 62
     0
100
AcDbPoint
 10
-40.00000000000003
 20
74.91549286448698
 30
0.0
  0
ENDBLK
  5
105
330
103
100
AcDbEntity
  8
0
100
AcDbBlockEnd
  0
BLOCK
  5
10D
330
10C
100
AcDbEntity
  8
0
100
AcDbBlockBegin
  2
SW_DOWELSYMBOL_0
 70
     0
 10
0.0
 20
0.0
 30
0.0
  3
SW_DOWELSYMBOL_0
  1

  0
CIRCLE
  5
10F
330
10C
100
AcDbEntity
  8
외형선
 62
     0
100
AcDbCircle
 10
0.0
 20
0.0
 30
0.0
 40
3.000000000000001
  0
HATCH
  5
110
330
10C
100
AcDbEntity
  8
0
  6
Continuous
 62
     0
370
    30
100
AcDbHatch
 10
0.0
 20
0.0
 30
0.0
210
0.0
220
0.0
230
1.0
  2
SOLID
 70
     1
 71
     0
 91
        1
 92
        0
 93
        3
 72
     2
 10
0.0000000000000139
 20
0.0
 40
3.000000000000001
 50
0.0
 51
90.0
 73
     1
 72
     1
 10
0.0000000000000139
 20
3.000000000000001
 11
0.0000000000000139
 21
0.0
 72
     1
 10
0.0000000000000139
 20
0.0
 11
3.000000000000015
 21
0.0
 97
        0
 75
     0
 76
     1
 98
        1
 10
0.0
 20
0.0
  0
HATCH
  5
111
330
10C
100
AcDbEntity
  8
0
  6
Continuous
 62
     0
370
    30
100
AcDbHatch
 10
0.0
 20
0.0
 30
0.0
210
0.0
220
0.0
230
1.0
  2
SOLID
 70
     1
 71
     0
 91
        1
 92
        0
 93
        3
 72
     2
 10
0.0000000000000139
 20
0.0
 40
3.000000000000001
 50
180.0
 51
270.0000000000008
 73
     1
 72
     1
 10
0.0000000000000139
 20
-3.000000000000001
 11
0.0000000000000139
 21
0.0
 72
     1
 10
0.0000000000000139
 20
0.0
 11
-2.999999999999988
 21
0.0
 97
        0
 75
     0
 76
     1
 98
        1
 10
0.0
 20
0.0
  0
ENDBLK
  5
10E
330
10C
100
AcDbEntity
  8
0
100
AcDbBlockEnd
  0
ENDSEC
  0
SECTION
  2
ENTITIES
  0
LINE
  5
95
330
1F
100
AcDbEntity
  8
0
  6
Continuous
 62
     1
370
    15
100
AcDbLine
 10
26.65261792177067
 20
0.7650641446735262
 30
0.0
 11
26.61611183021533
 21
0.800260753437076
 31
0.0
1001
PE_URL
1000

  0
LINE
  5
96
330
1F
100
AcDbEntity
  8
0
  6
Continuous
 62
     1
370
    15
100
AcDbLine
 10
24.97181642744873
 20
-0.7668974554090011
 30
0.0
 11
25.0062771376033
 21
-0.8000318748288279
 31
0.0
1001
PE_URL
1000

  0
LINE
  5
97
330
1F
100
AcDbEntity
  8
0
  6
Continuous
 62
     1
370
    15
100
AcDbLine
 10
25.32750596027547
 20
-3.999999999999999
 30
0.0
 11
26.29525212950952
 21
-3.999999999999999
 31
0.0
1001
PE_URL
1000

  0
LINE
  5
98
330
1F
100
AcDbEntity
  8
0
  6
Continuous
 62
     1
370
    15
100
AcDbLine
 10
13.72783574745415
 20
4.000000000000005
 30
0.0
 11
12.76150239880116
 21
4.000000000000005
 31
0.0
1001
PE_URL
1000

  0
LINE
  5
99
330
1F
100
AcDbEntity
  8
0
  6
Continuous
 62
     1
370
    15
100
AcDbLine
 10
16.95033725873441
 20
-3.999999999999999
 30
0.0
 11
17.91739173071878
 21
-3.999999999999999
 31
0.0
1001
PE_URL
1000

  0
LINE
  5
9A
330
1F
100
AcDbEntity
  8
0
  6
Continuous
 62
     1
370
    15
100
AcDbLine
 10
29.99999999999997
 20
4.000000000000005
 30
0.0
 11
29.51596787660543
 21
4.000000000000005
 31
0.0
1001
PE_URL
1000

  0
LINE
  5
9B
330
1F
100
AcDbEntity
  8
0
  6
Continuous
 62
     1
370
    15
100
AcDbLine
 10
29.51596787660543
 20
-3.999999999999999
 30
0.0
 11
29.99999999999997
 21
-3.999999999999999
 31
0.0
1001
PE_URL
1000

  0
LINE
  5
9C
330
1F
100
AcDbEntity
  8
0
  6
Continuous
 62
     1
370
    15
100
AcDbLine
 10
17.91739173071881
 20
4.000000000000005
 30
0.0
 11
16.95033725873441
 21
4.000000000000005
 31
0.0
1001
PE_URL
1000

  0
LINE
  5
9D
330
1F
100
AcDbEntity
  8
0
  6
Continuous
 62
     1
370
    15
100
AcDbLine
 10
22.10619750878369
 20
4.000000000000005
 30
0.0
 11
21.13830505516408
 21
4.000000000000005
 31
0.0
1001
PE_URL
1000

  0
LINE
  5
9E
330
1F
100
AcDbEntity
  8
0
  6
Continuous
 62
     1
370
    15
100
AcDbLine
 10
21.13830505516405
 20
-3.999999999999999
 30
0.0
 11
22.10619750878367
 21
-3.999999999999999
 31
0.0
1001
PE_URL
1000

  0
LINE
  5
9F
330
1F
100
AcDbEntity
  8
0
  6
Continuous
 62
     1
370
    15
100
AcDbLine
 10
12.76150239880119
 20
-3.999999999999999
 30
0.0
 11
13.72783574745417
 21
-3.999999999999999
 31
0.0
1001
PE_URL
1000

  0
LINE
  5
A0
330
1F
100
AcDbEntity
  8
0
  6
Continuous
 62
     1
370
    15
100
AcDbLine
 10
26.29525212950952
 20
4.000000000000005
 30
0.0
 11
25.32750596027551
 21
4.000000000000005
 31
0.0
1001
PE_URL
1000

  0
LINE
  5
A1
330
1F
100
AcDbEntity
  8
0
  6
Continuous
 62
   131
370
    15
100
AcDbLine
 10
-39.20000000000003
 20
-3.999999999999997
 30
0.0
 11
9.53920745822873
 21
-3.999999999999997
 31
0.0
  0
LINE
  5
A2
330
1F
100
AcDbEntity
  8
0
  6
Continuous
 62
   131
370
    15
100
AcDbLine
 10
9.539207458228702
 20
4.000000000000004
 30
0.0
 11
-39.20000000000003
 21
4.000000000000004
 31
0.0
  0
LINE
  5
A3
330
1F
100
AcDbEntity
  8
0
  6
Continuous
 62
   131
370
    15
100
AcDbLine
 10
-39.20000000000003
 20
4.000000000000005
 30
0.0
 11
-40.00000000000003
 21
3.200000000000007
 31
0.0
  0
LINE
  5
A4
330
1F
100
AcDbEntity
  8
0
  6
Continuous
 62
   131
370
    15
100
AcDbLine
 10
-40.00000000000003
 20
-3.200000000000001
 30
0.0
 11
-39.20000000000003
 21
-3.999999999999999
 31
0.0
  0
SPLINE
  5
A5
330
1F
100
AcDbEntity
  8
0
  6
Continuous
 62
     1
370
    15
100
AcDbSpline
210
0.0
220
0.0
230
1.0
 70
     8
 71
     3
 72
    25
 73
    21
 74
     0
 42
0.000000001
 43
0.00000001
 40
0.0
 40
0.0
 40
0.0
 40
0.0
 40
0.0619018900422547
 40
0.1239198273626133
 40
0.1859143884637605
 40
0.2478085539774403
 40
0.3097166317102963
 40
0.3645014168150185
 40
0.419143947004531
 40
0.4737655942420109
 40
0.5285539058349824
 40
0.5831834383819219
 40
0.6378165565989496
 40
0.6926042626764898
 40
0.7472229576947572
 40
0.8018697058946156
 40
0.8566526746919072
 40
0.9112626956531032
 40
0.9659252286186985
 40
1.0
 40
1.0
 40
1.0
 40
1.0
 10
9.999999999999964
 20
3.973527866332353
 30
0.0
 10
10.2828803537384
 20
3.92365597481273
 30
0.0
 10
10.84917137612258
 20
3.823818697095683
 30
0.0
 10
11.7000433737537
 20
3.454472317426108
 30
0.0
 10
12.55055004508766
 20
2.942576361798883
 30
0.0
 10
13.39963744986079
 20
2.294644408281689
 30
0.0
 10
14.21564246577136
 20
1.573165064408264
 30
0.0
 10
15.00029285323284
 20
0.8227143635727703
 30
0.0
 10
15.74980365108008
 20
0.073607106980231
 30
0.0
 10
16.49896680224306
 20
-0.6784419326089652
 30
0.0
 10
17.25043468445203
 20
-1.404385279453978
 30
0.0
 10
17.99971804277575
 20
-2.083289714031485
 30
0.0
 10
18.74905193923023
 20
-2.688910515411349
 30
0.0
 10
19.50050798322953
 20
-3.198765464014223
 30
0.0
 10
20.24964382175815
 20
-3.598189819499111
 30
0.0
 10
20.99916344756688
 20
-3.870535679871697
 30
0.0
 10
21.75056168471158
 20
-4.008405804578763
 30
0.0
 10
22.49955455849998
 20
-4.00061259310785
 30
0.0
 10
23.15476910372253
 20
-3.888859357368769
 30
0.0
 10
23.56087257686134
 20
-3.726951513915756
 30
0.0
 10
23.7168146928204
 20
-3.664779546994904
 30
0.0
1001
PE_URL
1000

  0
SPLINE
  5
A6
330
1F
100
AcDbEntity
  8
0
  6
Continuous
 62
     1
370
    15
100
AcDbSpline
210
0.0
220
0.0
230
1.0
 70
     8
 71
     3
 72
    26
 73
    22
 74
     0
 42
0.000000001
 43
0.00000001
 40
0.0
 40
0.0
 40
0.0
 40
0.0
 40
0.0407840885452146
 40
0.0936134839151832
 40
0.1466079252648357
 40
0.1994944229261275
 40
0.2523301147456988
 40
0.305333135169215
 40
0.3582043609261338
 40
0.4110484449747908
 40
0.4640560487600208
 40
0.5169140873846215
 40
0.5697686568408076
 40
0.6227768464677234
 40
0.6756237868153113
 40
0.7284909316088681
 40
0.7814957093263376
 40
0.841392337429801
 40
0.9012755053347156
 40
0.9612558068833482
 40
1.0
 40
1.0
 40
1.0
 40
1.0
 10
25.32750596027547
 20
-3.987599284928399
 30
0.0
 10
25.13473253100925
 20
-3.984530989946681
 30
0.0
 10
24.69225133396391
 20
-3.977488199653606
 30
0.0
 10
24.0006059610642
 20
-3.800789121163238
 30
0.0
 10
23.24930615969939
 20
-3.493732164305487
 30
0.0
 10
22.4995748323115
 20
-3.059221280817233
 30
0.0
 10
21.75055623496507
 20
-2.517862509848723
 30
0.0
 10
20.99916490573532
 20
-1.889926903458011
 30
0.0
 10
20.24964343173745
 20
-1.194253326091332
 30
0.0
 10
19.50050808799811
 20
-0.4561680089546422
 30
0.0
 10
18.74905191152464
 20
0.2954835663754378
 30
0.0
 10
17.99971804901681
 20
1.038984710627276
 30
0.0
 10
17.25043468715544
 20
1.746007324151515
 30
0.0
 10
16.49896678512933
 20
2.389891474455617
 30
0.0
 10
15.74980371659915
 20
2.951993492922748
 30
0.0
 10
15.00029260781483
 20
3.4101936753683
 30
0.0
 10
14.21564343496577
 20
3.76265869709492
 30
0.0
 10
13.3996333061655
 20
3.980160257467227
 30
0.0
 10
12.55056545357152
 20
4.020344383436235
 30
0.0
 10
11.80051728249299
 20
3.9185200031942
 30
0.0
 10
11.33366079612512
 20
3.73357829119468
 30
0.0
 10
11.15044407846122
 20
3.660998356201573
 30
0.0
1001
PE_URL
1000

  0
LINE
  5
A7
330
1F
100
AcDbEntity
  8
0
  6
Continuous
 62
     1
370
    15
100
AcDbLine
 10
29.99999999999997
 20
-1.567673435381193
 30
0.0
 11
29.99999999999997
 21
1.567673435381275
 31
0.0
1001
PE_URL
1000

  0
SPLINE
  5
A8
330
1F
100
AcDbEntity
  8
0
  6
Continuous
 62
     1
370
    15
100
AcDbSpline
210
0.0
220
0.0
230
1.0
 70
     8
 71
     3
 72
     9
 73
     5
 74
     0
 42
0.000000001
 43
0.00000001
 40
0.0
 40
0.0
 40
0.0
 40
0.0
 40
0.7380296848994109
 40
1.0
 40
1.0
 40
1.0
 40
1.0
 10
9.999999999999964
 20
-3.97352786633235
 30
0.0
 10
10.28285330672923
 20
-3.932387888493679
 30
0.0
 10
10.66610795422733
 20
-3.876644903244679
 30
0.0
 10
11.04990154940023
 20
-3.705764063606287
 30
0.0
 10
11.15044407846126
 20
-3.660998356201564
 30
0.0
  0
SPLINE
  5
A9
330
1F
100
AcDbEntity
  8
0
  6
Continuous
 62
     1
370
    15
100
AcDbSpline
210
0.0
220
0.0
230
1.0
 70
     8
 71
     3
 72
    18
 73
    14
 74
     0
 42
0.000000001
 43
0.00000001
 40
0.0
 40
0.0
 40
0.0
 40
0.0
 40
0.0498515276855928
 40
0.1448281716454306
 40
0.2399986671498126
 40
0.3348727634985949
 40
0.4298805690984277
 40
0.5250284881475434
 40
0.6198950441945348
 40
0.7149377372640755
 40
0.8100559191016926
 40
0.9049187044130975
 40
1.0
 40
1.0
 40
1.0
 40
1.0
 10
22.10619750878369
 20
3.982502604886836
 30
0.0
 10
22.23728291739007
 20
3.985536723663119
 30
0.0
 10
22.6181109669855
 20
3.994351415916796
 30
0.0
 10
23.24928449353385
 20
3.85552655588358
 30
0.0
 10
24.00059095225231
 20
3.58241591002401
 30
0.0
 10
24.74950954154695
 20
3.175606599015923
 30
0.0
 10
25.49949834325104
 20
2.659807412559912
 30
0.0
 10
26.25059252082959
 20
2.051314195800697
 30
0.0
 10
26.9994623494083
 20
1.369058638742386
 30
0.0
 10
27.74972557384242
 20
0.6398347521457319
 30
0.0
 10
28.5005879213236
 20
-0.1100954905005765
 30
0.0
 10
29.24942936974226
 20
-0.8622902889344026
 30
0.0
 10
29.74961798547756
 20
-1.332365462889814
 30
0.0
 10
30.0
 20
-1.567673435381194
 30
0.0
1001
PE_URL
1000

  0
SPLINE
  5
AA
330
1F
100
AcDbEntity
  8
0
  6
Continuous
 62
   131
370
    15
100
AcDbSpline
210
0.0
220
0.0
230
1.0
 70
    24
 71
     3
 72
    11
 73
     7
 74
     0
 42
0.000000001
 43
0.00000001
 40
0.0
 40
0.0
 40
0.0
 40
0.0
 40
0.1856724254014591
 40
0.491877172525968
 40
0.806961878060871
 40
1.0
 40
1.0
 40
1.0
 40
1.0
 10
9.999999999999964
 20
-3.132576403168707
 30
0.0
 10
9.999999999999991
 20
-3.180574324935235
 30
0.0
 10
10.00000000000007
 20
-3.307728812170458
 30
0.0
 10
9.99999999999997
 20
-3.535757981205339
 30
0.0
 10
9.999999999999936
 20
-3.770772811704769
 30
0.0
 10
9.99999999999995
 20
-3.917706938210594
 30
0.0
 10
9.999999999999964
 20
-3.973527866332349
 30
0.0
  0
SPLINE
  5
AB
330
1F
100
AcDbEntity
  8
0
  6
Continuous
 62
     1
370
    15
100
AcDbSpline
210
0.0
220
0.0
230
1.0
 70
     8
 71
     3
 72
    16
 73
    12
 74
     0
 42
0.000000001
 43
0.00000001
 40
0.0
 40
0.0
 40
0.0
 40
0.0
 40
0.1194538751924842
 40
0.2386332284717336
 40
0.3581334451193083
 40
0.4775388226523666
 40
0.5967229132353659
 40
0.7162604897561817
 40
0.8356220369709189
 40
0.9548156006922822
 40
1.0
 40
1.0
 40
1.0
 40
1.0
 10
29.99999999999997
 20
1.567673435381275
 30
0.0
 10
29.74961798270454
 20
1.792362894004538
 30
0.0
 10
29.24942936142961
 20
2.241225443071583
 30
0.0
 10
28.50058795452235
 20
2.822997425540096
 30
0.0
 10
27.74972544900495
 20
3.308050027086249
 30
0.0
 10
26.99946281465258
 20
3.676876594921345
 30
0.0
 10
26.25059078584635
 20
3.916865053917935
 30
0.0
 10
25.49950483605812
 20
4.021109519352896
 30
0.0
 10
24.74948536643974
 20
3.976526210487729
 30
0.0
 10
24.15620736945903
 20
3.854784017546809
 30
0.0
 10
23.81155352823313
 20
3.705747007811517
 30
0.0
 10
23.71681469282042
 20
3.66477954699491
 30
0.0
1001
PE_URL
1000

  0
SPLINE
  5
AC
330
1F
100
AcDbEntity
  8
0
  6
Continuous
 62
     1
370
    15
100
AcDbSpline
210
0.0
220
0.0
230
1.0
 70
     8
 71
     3
 72
    11
 73
     7
 74
     0
 42
0.000000001
 43
0.00000001
 40
0.0
 40
0.0
 40
0.0
 40
0.0
 40
0.0763235709579132
 40
0.3843304729040793
 40
0.6924535146652668
 40
1.0
 40
1.0
 40
1.0
 40
1.0
 10
12.76150239880119
 20
-3.983195023291545
 30
0.0
 10
12.69129248526013
 20
-3.988262890198113
 30
0.0
 10
12.33774758510508
 20
-4.013782341926726
 30
0.0
 10
11.70001309155054
 20
-3.878373535554358
 30
0.0
 10
10.84917893133561
 20
-3.587487019225727
 30
0.0
 10
10.28288287057009
 20
-3.251836931980833
 30
0.0
 10
10.00000000000013
 20
-3.084169051581775
 30
0.0
1001
PE_URL
1000

  0
SPLINE
  5
AD
330
1F
100
AcDbEntity
  8
0
  6
Continuous
 62
     1
370
    15
100
AcDbSpline
210
0.0
220
0.0
230
1.0
 70
     8
 71
     3
 72
    20
 73
    16
 74
     0
 42
0.000000001
 43
0.00000001
 40
0.0
 40
0.0
 40
0.0
 40
0.0
 40
0.0891127707445267
 40
0.1783926009194219
 40
0.2676387791385849
 40
0.3567404298002911
 40
0.4458621082252395
 40
0.524729231539128
 40
0.603391567412153
 40
0.6820238405889394
 40
0.7608960405675093
 40
0.8395396652841862
 40
0.918188451862582
 40
0.9970597801527789
 40
1.0
 40
1.0
 40
1.0
 40
1.0
 10
9.999999999999964
 20
1.588885532633747
 30
0.0
 10
10.28288035366523
 20
1.32200446503399
 30
0.0
 10
10.84917137590294
 20
0.7877420087384435
 30
0.0
 10
11.70004337463403
 20
-0.0671773984541993
 30
0.0
 10
12.5505500417903
 20
-0.9142227011084676
 30
0.0
 10
13.39963746215005
 20
-1.72191005578299
 30
0.0
 10
14.21564242212317
 20
-2.423571674691563
 30
0.0
 10
15.000292995258
 20
-2.999464348427944
 30
0.0
 10
15.74980312049719
 20
-3.447065473124181
 30
0.0
 10
16.49896878486586
 20
-3.773945213450253
 30
0.0
 10
17.25042726886441
 20
-3.966821086637333
 30
0.0
 10
17.99974562690268
 20
-4.025137815409132
 30
0.0
 10
18.74894885398434
 20
-3.927363280985945
 30
0.0
 10
19.25988777818735
 20
-3.804859324733333
 30
0.0
 10
19.51954870548634
 20
-3.682092329392729
 30
0.0
 10
19.5288806424729
 20
-3.677680214422384
 30
0.0
1001
PE_URL
1000

  0
SPLINE
  5
AE
330
1F
100
AcDbEntity
  8
0
  6
Continuous
 62
     1
370
    15
100
AcDbSpline
210
0.0
220
0.0
230
1.0
 70
     8
 71
     3
 72
    22
 73
    18
 74
     0
 42
0.000000001
 43
0.00000001
 40
0.0
 40
0.0
 40
0.0
 40
0.0
 40
0.0125087490962168
 40
0.0798054499704549
 40
0.1470676037466077
 40
0.2145378922622462
 40
0.2818178080045662
 40
0.349093308044664
 40
0.4165643422440294
 40
0.4838301316365694
 40
0.5511216380904642
 40
0.6185883294692099
 40
0.6948272554095032
 40
0.7710490486477933
 40
0.8473944776382817
 40
0.9237686941135461
 40
1.0
 40
1.0
 40
1.0
 40
1.0
 10
21.13830505516405
 20
-3.989377474250046
 30
0.0
 10
21.09181916632497
 20
-3.992715265238441
 30
0.0
 10
20.79524056781417
 20
-4.014010273211442
 30
0.0
 10
20.24965755342483
 20
-3.916762236272566
 30
0.0
 10
19.50050429161898
 20
-3.692166471795955
 30
0.0
 10
18.74905292657112
 20
-3.326722400499782
 30
0.0
 10
17.99971777857752
 20
-2.846980768325195
 30
0.0
 10
17.25043475547781
 20
-2.266206351963367
 30
0.0
 10
16.49896678325365
 20
-1.608221509990668
 30
0.0
 10
15.74980365616193
 20
-0.8916785412137278
 30
0.0
 10
15.0002928518725
 20
-0.1441506484394234
 30
0.0
 10
14.21564246618942
 20
0.6399465456893499
 30
0.0
 10
13.39963744974309
 20
1.434693713432051
 30
0.0
 10
12.55055004511934
 20
2.197508826450394
 30
0.0
 10
11.70004337374536
 20
2.857929364931418
 30
0.0
 10
10.84917137612481
 20
3.401827186951671
 30
0.0
 10
10.28288035373926
 20
3.632660396274182
 30
0.0
 10
10.00000000000013
 20
3.747968916675605
 30
0.0
1001
PE_URL
1000

  0
SPLINE
  5
AF
330
1F
100
AcDbEntity
  8
0
  6
Continuous
 62
   131
370
    15
100
AcDbSpline
210
0.0
220
0.0
230
1.0
 70
    24
 71
     3
 72
    17
 73
    13
 74
     0
 42
0.000000001
 43
0.00000001
 40
0.0
 40
0.0
 40
0.0
 40
0.0
 40
0.0918620785837148
 40
0.1854513540216486
 40
0.2985433322949876
 40
0.4149149855995065
 40
0.5280069638726617
 40
0.644378617177133
 40
0.7574705954502855
 40
0.8738422487547546
 40
0.98693422702791
 40
1.0
 40
1.0
 40
1.0
 40
1.0
 10
9.999999999999991
 20
3.747968916676867
 30
0.0
 10
10.00000000000002
 20
3.685404943957805
 30
0.0
 10
10.00000000000004
 20
3.559100666582349
 30
0.0
 10
9.999999999999881
 20
3.338214296270833
 30
0.0
 10
10.00000000000008
 20
3.089501318637109
 30
0.0
 10
9.999999999999929
 20
2.819974604355032
 30
0.0
 10
9.999999999999964
 20
2.550312657143601
 30
0.0
 10
9.999999999999957
 20
2.293228053296893
 30
0.0
 10
9.999999999999957
 20
2.05010227096347
 30
0.0
 10
9.999999999999943
 20
1.837029619185198
 30
0.0
 10
9.999999999999964
 20
1.697514127805931
 30
0.0
 10
9.999999999999936
 20
1.642953555997074
 30
0.0
 10
9.999999999999943
 20
1.637302884219514
 30
0.0
  0
LINE
  5
B0
330
1F
100
AcDbEntity
  8
0
  6
Continuous
 62
     1
370
    15
100
AcDbLine
 10
29.99999999999997
 20
-3.970810203617346
 30
0.0
 11
29.99999999999997
 21
-2.40313676823609
 31
0.0
1001
PE_URL
1000

  0
SPLINE
  5
B1
330
1F
100
AcDbEntity
  8
0
  6
Continuous
 62
     1
370
    15
100
AcDbSpline
210
0.0
220
0.0
230
1.0
 70
     8
 71
     3
 72
    24
 73
    20
 74
     0
 42
0.000000001
 43
0.00000001
 40
0.0
 40
0.0
 40
0.0
 40
0.0
 40
0.0068162994777098
 40
0.0688339078053572
 40
0.1310269988749448
 40
0.1930282344909341
 40
0.2550613150992108
 40
0.3172490285736587
 40
0.3792404177029086
 40
0.441291416626137
 40
0.5034690643914416
 40
0.5654530659831379
 40
0.6275244237104803
 40
0.6896873216221049
 40
0.7516663969157263
 40
0.8137605476399049
 40
0.8759040173679071
 40
0.9378806291304953
 40
1.0
 40
1.0
 40
1.0
 40
1.0
 10
17.91739173071881
 20
3.993141559803987
 30
0.0
 10
17.94483203293784
 20
3.995372462225183
 30
0.0
 10
18.22193594236436
 20
4.017901069145326
 30
0.0
 10
18.74900286802178
 20
3.927542928936912
 30
0.0
 10
19.50052119168718
 20
3.715354457499136
 30
0.0
 10
20.24963995209103
 20
3.357864682267933
 30
0.0
 10
20.99916573394532
 20
2.886381832986438
 30
0.0
 10
21.75055641383309
 20
2.314230042976015
 30
0.0
 10
22.49957329626768
 20
1.659253536632544
 30
0.0
 10
23.24931213842137
 20
0.9466039861409321
 30
0.0
 10
24.00058356451272
 20
0.2023923947040393
 30
0.0
 10
24.74951152149398
 20
-0.551393361601949
 30
0.0
 10
25.4994978114886
 20
-1.284638705274394
 30
0.0
 10
26.25059266292514
 20
-1.971933385124566
 30
0.0
 10
26.99946231130468
 20
-2.591964304579829
 30
0.0
 10
27.74972558406666
 20
-3.120499856915488
 30
0.0
 10
28.50058791860459
 20
-3.536858064173551
 30
0.0
 10
29.24942937042309
 20
-3.840127367279347
 30
0.0
 10
29.74961798570466
 20
-3.927215862849471
 30
0.0
 10
29.99999999999999
 20
-3.970810203617346
 30
0.0
1001
PE_URL
1000

  0
SPLINE
  5
B2
330
1F
100
AcDbEntity
  8
0
  6
Continuous
 62
     1
370
    15
100
AcDbSpline
210
0.0
220
0.0
230
1.0
 70
     8
 71
     3
 72
    21
 73
    17
 74
     0
 42
0.000000001
 43
0.00000001
 40
0.0
 40
0.0
 40
0.0
 40
0.0
 40
0.0716772013996341
 40
0.1431896784449362
 40
0.2148946866093515
 40
0.2865427874335837
 40
0.3580581070545195
 40
0.4297855326679648
 40
0.5014073335119859
 40
0.5729283374026477
 40
0.644672782316483
 40
0.7162710919035528
 40
0.7878006199954358
 40
0.8595566793517778
 40
0.9311343136703834
 40
1.0
 40
1.0
 40
1.0
 40
1.0
 10
29.99999999999997
 20
-2.40313676823609
 30
0.0
 10
29.74961798570934
 20
-2.195146493929977
 30
0.0
 10
29.24942937043715
 20
-1.779643936407994
 30
0.0
 10
28.5005879185484
 20
-1.069459622223488
 30
0.0
 10
27.74972558427794
 20
-0.3298947414807312
 30
0.0
 10
26.99946231051731
 20
0.4234320426887686
 30
0.0
 10
26.25059266586136
 20
1.162973764347852
 30
0.0
 10
25.49949780050026
 20
1.859575680436251
 30
0.0
 10
24.74951156240757
 20
2.492121419788857
 30
0.0
 10
24.00058341185256
 20
3.038003131830955
 30
0.0
 10
23.24931270967491
 20
3.475843432766476
 30
0.0
 10
22.49957117023067
 20
3.792700735741851
 30
0.0
 10
21.75056435091567
 20
3.977236331617525
 30
0.0
 10
20.99913603806286
 20
4.019371939243076
 30
0.0
 10
20.25908033856071
 20
3.931999167109405
 30
0.0
 10
19.76912688870392
 20
3.761354822965514
 30
0.0
 10
19.52888064247292
 20
3.677680214422389
 30
0.0
1001
PE_URL
1000

  0
SPLINE
  5
B3
330
1F
100
AcDbEntity
  8
0
  6
Continuous
 62
     1
370
    15
100
AcDbSpline
210
0.0
220
0.0
230
1.0
 70
     8
 71
     3
 72
    27
 73
    23
 74
     0
 42
0.000000001
 43
0.00000001
 40
0.0
 40
0.0
 40
0.0
 40
0.0
 40
0.0367318617938539
 40
0.0897310726760159
 40
0.1425926650891849
 40
0.1954340551783601
 40
0.2484366776116314
 40
0.3012856960081572
 40
0.3541381832087462
 40
0.4071402198618601
 40
0.4599787539520876
 40
0.5128444269000146
 40
0.5658418806727828
 40
0.6186720234153205
 40
0.6715529666636861
 40
0.7245418422636095
 40
0.7773656892178294
 40
0.8302639825940518
 40
0.8832402881114799
 40
0.936059936788582
 40
0.9889776547541432
 40
1.0
 40
1.0
 40
1.0
 40
1.0
 10
13.72783574745415
 20
3.978624474717385
 30
0.0
 10
13.90134731335761
 20
3.980612425348089
 30
0.0
 10
14.32521308464877
 20
3.985468725405003
 30
0.0
 10
15.00031110142007
 20
3.818138298196641
 30
0.0
 10
15.74979876928398
 20
3.521797071739647
 30
0.0
 10
16.498968115135
 20
3.095038041669215
 30
0.0
 10
17.25043433162563
 20
2.563169919492054
 30
0.0
 10
17.99971814360863
 20
1.939384817376759
 30
0.0
 10
18.74905188816592
 20
1.247586454521359
 30
0.0
 10
19.5005080864991
 20
0.5141787788076405
 30
0.0
 10
20.24964346092863
 20
-0.2396187878997517
 30
0.0
 10
20.9991647902497
 20
-0.9845719814967632
 30
0.0
 10
21.75055666828657
 20
-1.693210474456988
 30
0.0
 10
22.49957321984173
 20
-2.344791194432553
 30
0.0
 10
23.24931218987998
 20
-2.913326041724742
 30
0.0
 10
24.00058343520756
 20
-3.378814277260212
 30
0.0
 10
24.74951198590697
 20
-3.727444790695138
 30
0.0
 10
25.49949607881318
 20
-3.94387486479192
 30
0.0
 10
26.25059913041138
 20
-4.025087304521525
 30
0.0
 10
26.99943823645973
 20
-3.954252605784706
 30
0.0
 10
27.55152043006268
 20
-3.830200590221974
 30
0.0
 10
27.85386891962403
 20
-3.69299460419175
 30
0.0
 10
27.90598944108004
 20
-3.66934226992954
 30
0.0
  0
SPLINE
  5
B4
330
1F
100
AcDbEntity
  8
0
  6
Continuous
 62
     1
370
    15
100
AcDbSpline
210
0.0
220
0.0
230
1.0
 70
     8
 71
     3
 72
    27
 73
    23
 74
     0
 42
0.000000001
 43
0.00000001
 40
0.0
 40
0.0
 40
0.0
 40
0.0
 40
0.0188134743663448
 40
0.0716357824121656
 40
0.1246003025376457
 40
0.1775227883611773
 40
0.230347196060261
 40
0.2833282747143671
 40
0.3362313341984161
 40
0.3890599405528798
 40
0.4420535904220391
 40
0.4949392982149941
 40
0.5477742009250219
 40
0.6007764297399152
 40
0.6536468658565854
 40
0.7064901606703596
 40
0.7594969727785135
 40
0.8123542219598177
 40
0.8652080020245199
 40
0.9182153999656097
 40
0.9710615510356557
 40
1.0
 40
1.0
 40
1.0
 40
1.0
 10
29.51596787660543
 20
-3.983895392034782
 30
0.0
 10
29.42701192763214
 20
-3.988217073630473
 30
0.0
 10
29.0882957032479
 20
-4.004672675419661
 30
0.0
 10
28.50063104023384
 20
-3.888235594955493
 30
0.0
 10
27.7497140261225
 20
-3.639101049140797
 30
0.0
 10
26.9994654005032
 20
-3.253043124088948
 30
0.0
 10
26.25059183313902
 20
-2.754343497642119
 30
0.0
 10
25.49949803342298
 20
-2.160123342189735
 30
0.0
 10
24.74951146338519
 20
-1.489581507563986
 30
0.0
 10
24.00058357556906
 20
-0.765570822996502
 30
0.0
 10
23.24931215253332
 20
-0.0171734584917037
 30
0.0
 10
22.49957322897938
 20
0.7334006532176179
 30
0.0
 10
21.75055666899935
 20
1.458975206285588
 30
0.0
 10
20.9991647781961
 20
2.131123154521236
 30
0.0
 10
20.24964350827092
 20
2.730351169838046
 30
0.0
 10
19.50050790900147
 20
3.233871572061741
 30
0.0
 10
18.74905255228107
 20
3.622844364032165
 30
0.0
 10
17.99971567315131
 20
3.885536062121087
 30
0.0
 10
17.25044356296375
 20
4.013295381150738
 30
0.0
 10
16.49893359597531
 20
3.99420885555455
 30
0.0
 10
15.86284404368534
 20
3.878667274565376
 30
0.0
 10
15.4764580118828
 20
3.720102602834973
 30
0.0
 10
15.33974018900231
 20
3.663996494123934
 30
0.0
1001
PE_URL
1000

  0
LINE
  5
B5
330
1F
100
AcDbEntity
  8
0
  6
Continuous
 62
     1
370
    15
100
AcDbLine
 10
29.99999999999997
 20
2.393394616421078
 30
0.0
 11
29.99999999999997
 21
3.970810203617356
 31
0.0
1001
PE_URL
1000

  0
SPLINE
  5
B6
330
1F
100
AcDbEntity
  8
0
  6
Continuous
 62
     1
370
    15
100
AcDbSpline
210
0.0
220
0.0
230
1.0
 70
     8
 71
     3
 72
    14
 73
    10
 74
     0
 42
0.000000001
 43
0.00000001
 40
0.0
 40
0.0
 40
0.0
 40
0.0
 40
0.1590354669406418
 40
0.3183690771697669
 40
0.4776426302999078
 40
0.636658251739743
 40
0.795709615808299
 40
0.936460146598634
 40
1.0
 40
1.0
 40
1.0
 40
1.0
 10
9.999999999999984
 20
-2.384642333698621
 30
0.0
 10
10.2828802791764
 20
-2.601642736236283
 30
0.0
 10
10.84917115229679
 20
-3.036050351282108
 30
0.0
 10
11.70004427087444
 20
-3.521755278049581
 30
0.0
 10
12.55054668481004
 20
-3.856403666616636
 30
0.0
 10
13.39964997356877
 20
-4.018028100540295
 30
0.0
 10
14.21559798499059
 20
-3.991502785950482
 30
0.0
 10
14.86342498819234
 20
-3.865795752164356
 30
0.0
 10
15.226739512513
 20
-3.711871205312718
 30
0.0
 10
15.33974018900231
 20
-3.663996494123927
 30
0.0
1001
PE_URL
1000

  0
SPLINE
  5
B7
330
1F
100
AcDbEntity
  8
0
  6
Continuous
 62
     1
370
    15
100
AcDbSpline
210
0.0
220
0.0
230
1.0
 70
     8
 71
     3
 72
    12
 73
     8
 74
     0
 42
0.000000001
 43
0.00000001
 40
0.0
 40
0.0
 40
0.0
 40
0.0
 40
0.190154045860037
 40
0.3926505912939948
 40
0.5953079719722079
 40
0.7974212086178442
 40
1.0
 40
1.0
 40
1.0
 40
1.0
 10
26.29525212950954
 20
3.996098730902836
 30
0.0
 10
26.52987302691273
 20
3.985671551066794
 30
0.0
 10
27.01434357119506
 20
3.964140385060662
 30
0.0
 10
27.74969909526479
 20
3.758388277069063
 30
0.0
 10
28.5005949629292
 20
3.427280173313144
 30
0.0
 10
29.24942760658671
 20
2.97770747598797
 30
0.0
 10
29.74961739730847
 20
2.594807166054765
 30
0.0
 10
29.99999999999999
 20
2.403136768236118
 30
0.0
1001
PE_URL
1000

  0
SPLINE
  5
B8
330
1F
100
AcDbEntity
  8
0
  6
Continuous
 62
     1
370
    15
100
AcDbSpline
210
0.0
220
0.0
230
1.0
 70
     8
 71
     3
 72
    10
 73
     6
 74
     0
 42
0.000000001
 43
0.00000001
 40
0.0
 40
0.0
 40
0.0
 40
0.0
 40
0.3584380707581822
 40
0.716052400094814
 40
1.0
 40
1.0
 40
1.0
 40
1.0
 10
29.99999999999997
 20
3.970810203617356
 30
0.0
 10
29.74961683783485
 20
3.986748216805651
 30
0.0
 10
29.24942592945163
 20
4.018587615371993
 30
0.0
 10
28.5526050706087
 20
3.909696350525996
 30
0.0
 10
28.10437200796194
 20
3.743083233326953
 30
0.0
 10
27.90598944108004
 20
3.669342269929547
 30
0.0
1001
PE_URL
1000

  0
SPLINE
  5
B9
330
1F
100
AcDbEntity
  8
0
  6
Continuous
 62
     1
370
    15
100
AcDbSpline
210
0.0
220
0.0
230
1.0
 70
     8
 71
     3
 72
    16
 73
    12
 74
     0
 42
0.000000001
 43
0.00000001
 40
0.0
 40
0.0
 40
0.0
 40
0.0
 40
0.0649416259294073
 40
0.1727468977255836
 40
0.2805933856408928
 40
0.3887206382451871
 40
0.5109069413669548
 40
0.633065786317002
 40
0.7554227793299774
 40
0.8778259093562643
 40
1.0
 40
1.0
 40
1.0
 40
1.0
 10
16.95033725873441
 20
-3.983113546042094
 30
0.0
 10
16.7997125953985
 20
-3.984839727721508
 30
0.0
 10
16.39904595147243
 20
-3.98943142874165
 30
0.0
 10
15.74979835453144
 20
-3.839851861716395
 30
0.0
 10
15.00029427100015
 20
-3.555297961124103
 30
0.0
 10
14.21564203005268
 20
-3.122689452002033
 30
0.0
 10
13.39963757253881
 20
-2.544301953801221
 30
0.0
 10
12.5505500121716
 20
-1.827472996599258
 30
0.0
 10
11.7000433825417
 20
-1.029523695701621
 30
0.0
 10
10.84917137393019
 20
-0.1833945497787175
 30
0.0
 10
10.28288035300817
 20
0.3815780868955652
 30
0.0
 10
10.00000000000013
 20
0.6637998650937931
 30
0.0
1001
PE_URL
1000

  0
SPLINE
  5
BA
330
1F
100
AcDbEntity
  8
0
  6
Continuous
 62
   131
370
    15
100
AcDbSpline
210
0.0
220
0.0
230
1.0
 70
    24
 71
     3
 72
    16
 73
    12
 74
     0
 42
0.000000001
 43
0.00000001
 40
0.0
 40
0.0
 40
0.0
 40
0.0
 40
0.047390698778968
 40
0.1776742820486759
 40
0.3079578653182527
 40
0.4382414485878269
 40
0.5685250318574019
 40
0.6988086151269415
 40
0.8290921983965532
 40
0.9593757816661302
 40
1.0
 40
1.0
 40
1.0
 40
1.0
 10
9.999999999999964
 20
0.6395191051288917
 30
0.0
 10
9.999999999999957
 20
0.6351383541236794
 30
0.0
 10
9.999999999999943
 20
0.618714312914341
 30
0.0
 10
9.999999999999984
 20
0.4273709970449123
 30
0.0
 10
9.999999999999943
 20
0.0636396323874157
 30
0.0
 10
9.99999999999995
 20
-0.4215106350260244
 30
0.0
 10
10.00000000000001
 20
-0.9621089064763515
 30
0.0
 10
9.9999999999999
 20
-1.500759769755843
 30
0.0
 10
10.00000000000007
 20
-1.973796544208093
 30
0.0
 10
9.99999999999995
 20
-2.252978855593918
 30
0.0
 10
9.999999999999964
 20
-2.359356677736425
 30
0.0
 10
9.999999999999977
 20
-2.384642333698614
 30
0.0
  0
LINE
  5
BB
330
1F
100
AcDbEntity
  8
0
  6
Continuous
 62
     1
370
    15
100
AcDbLine
 10
29.99999999999997
 20
3.970810203617356
 30
0.0
 11
29.99999999999997
 21
4.000000000000005
 31
0.0
1001
PE_URL
1000

  0
LINE
  5
BC
330
1F
100
AcDbEntity
  8
0
  6
Continuous
 62
   131
370
    15
100
AcDbLine
 10
9.999999999999991
 20
0.6637998650938929
 30
0.0
 11
9.999999999999957
 21
1.588885532633745
 31
0.0
  0
LINE
  5
BD
330
1F
100
AcDbEntity
  8
0
  6
Continuous
 62
     1
370
    15
100
AcDbLine
 10
29.99999999999997
 20
-3.999999999999999
 30
0.0
 11
29.99999999999997
 21
-3.970810203617346
 31
0.0
1001
PE_URL
1000

  0
LINE
  5
BE
330
1F
100
AcDbEntity
  8
0
  6
Continuous
 62
     1
370
    15
100
AcDbLine
 10
29.99999999999997
 20
-2.40313676823609
 30
0.0
 11
29.99999999999997
 21
-1.567673435381193
 31
0.0
1001
PE_URL
1000

  0
LINE
  5
BF
330
1F
100
AcDbEntity
  8
0
  6
Continuous
 62
   131
370
    15
100
AcDbLine
 10
9.999999999999991
 20
3.747968916676867
 30
0.0
 11
9.999999999999957
 21
3.973527866332352
 31
0.0
  0
LINE
  5
C0
330
1F
100
AcDbEntity
  8
0
  6
Continuous
 62
     1
370
    15
100
AcDbLine
 10
29.99999999999997
 20
1.567673435381275
 30
0.0
 11
29.99999999999997
 21
2.403136768236118
 31
0.0
1001
PE_URL
1000

  0
LINE
  5
C1
330
1F
100
AcDbEntity
  8
0
  6
Continuous
 62
   131
370
    15
100
AcDbLine
 10
9.999999999999991
 20
-3.084169051582937
 30
0.0
 11
9.999999999999977
 21
-2.384642333698614
 31
0.0
  0
LINE
  5
C2
330
1F
100
AcDbEntity
  8
0
  6
Continuous
 62
   131
370
    15
100
AcDbLine
 10
9.00018609501065
 20
-3.963629375723249
 30
0.0
 11
9.00018609501065
 21
-2.357889594730013
 31
0.0
  0
SPLINE
  5
C3
330
1F
100
AcDbEntity
  8
0
  6
Continuous
 62
   131
370
    15
100
AcDbSpline
210
0.0
220
0.0
230
1.0
 70
     8
 71
     3
 72
     8
 73
     4
 74
     0
 42
0.000000001
 43
0.00000001
 40
0.0
 40
0.0
 40
0.0
 40
0.0
 40
1.0
 40
1.0
 40
1.0
 40
1.0
 10
9.999999999999977
 20
-3.97352786633234
 30
0.0
 10
9.6647944092426
 20
-4.011898136611828
 30
0.0
 10
9.335110194046685
 20
-4.008564082843654
 30
0.0
 10
9.000186095010642
 20
-3.963628703509216
 30
0.0
  0
LINE
  5
C4
330
1F
100
AcDbEntity
  8
0
  6
Continuous
 62
   131
370
    15
100
AcDbLine
 10
9.539207458228702
 20
3.997703918492258
 30
0.0
 11
9.999999999999977
 21
3.973527866332343
 31
0.0
  0
SPLINE
  5
C5
330
1F
100
AcDbEntity
  8
0
  6
Continuous
 62
   131
370
    15
100
AcDbSpline
210
0.0
220
0.0
230
1.0
 70
     8
 71
     3
 72
     8
 73
     4
 74
     0
 42
0.000000001
 43
0.00000001
 40
0.0
 40
0.0
 40
0.0
 40
0.0
 40
1.0
 40
1.0
 40
1.0
 40
1.0
 10
9.999999999999977
 20
3.747968916675658
 30
0.0
 10
9.664794409242607
 20
3.864675704148163
 30
0.0
 10
9.335110194046699
 20
3.94160141648126
 30
0.0
 10
9.00018609501065
 20
3.977205229620673
 30
0.0
  0
LINE
  5
C6
330
1F
100
AcDbEntity
  8
0
  6
Continuous
 62
   131
370
    15
100
AcDbLine
 10
9.00018609501065
 20
2.447895827715784
 30
0.0
 11
9.00018609501065
 21
3.977206310215073
 31
0.0
  0
SPLINE
  5
C7
330
1F
100
AcDbEntity
  8
0
  6
Continuous
 62
   131
370
    15
100
AcDbSpline
210
0.0
220
0.0
230
1.0
 70
     8
 71
     3
 72
     8
 73
     4
 74
     0
 42
0.000000001
 43
0.00000001
 40
0.0
 40
0.0
 40
0.0
 40
0.0
 40
1.0
 40
1.0
 40
1.0
 40
1.0
 10
9.999999999999977
 20
1.58888553263371
 30
0.0
 10
9.6647944092426
 20
1.895467529459504
 30
0.0
 10
9.335110194046685
 20
2.183766855018691
 30
0.0
 10
9.000186095010642
 20
2.447899779051305
 30
0.0
  0
SPLINE
  5
C8
330
1F
100
AcDbEntity
  8
0
  6
Continuous
 62
   131
370
    15
100
AcDbSpline
210
0.0
220
0.0
230
1.0
 70
     8
 71
     3
 72
     8
 73
     4
 74
     0
 42
0.000000001
 43
0.00000001
 40
0.0
 40
0.0
 40
0.0
 40
0.0
 40
1.0
 40
1.0
 40
1.0
 40
1.0
 10
9.999999999999977
 20
0.6637998650939475
 30
0.0
 10
9.664794409242607
 20
0.9932359190214509
 30
0.0
 10
9.335110194046699
 20
1.313923240058934
 30
0.0
 10
9.00018609501065
 20
1.619307446809853
 30
0.0
  0
SPLINE
  5
C9
330
1F
100
AcDbEntity
  8
0
  6
Continuous
 62
   131
370
    15
100
AcDbSpline
210
0.0
220
0.0
230
1.0
 70
     8
 71
     3
 72
     8
 73
     4
 74
     0
 42
0.000000001
 43
0.00000001
 40
0.0
 40
0.0
 40
0.0
 40
0.0
 40
1.0
 40
1.0
 40
1.0
 40
1.0
 10
9.999999999999977
 20
-2.384642333698637
 30
0.0
 10
9.6647944092426
 20
-2.116430607152333
 30
0.0
 10
9.335110194046685
 20
-1.824797227824976
 30
0.0
 10
9.000186095010642
 20
-1.515728924457927
 30
0.0
  0
SPLINE
  5
CA
330
1F
100
AcDbEntity
  8
0
  6
Continuous
 62
   131
370
    15
100
AcDbSpline
210
0.0
220
0.0
230
1.0
 70
     8
 71
     3
 72
     8
 73
     4
 74
     0
 42
0.000000001
 43
0.00000001
 40
0.0
 40
0.0
 40
0.0
 40
0.0
 40
1.0
 40
1.0
 40
1.0
 40
1.0
 10
9.999999999999977
 20
-3.084169051581675
 30
0.0
 10
9.664794409242607
 20
-2.871439785126674
 30
0.0
 10
9.335110194046699
 20
-2.627678176422287
 30
0.0
 10
9.00018609501065
 20
-2.357897782810778
 30
0.0
  0
LINE
  5
CB
330
1F
100
AcDbEntity
  8
0
  6
Continuous
 62
   131
370
    15
100
AcDbLine
 10
-39.20000000000003
 20
0.0000000000000033
 30
0.0
 11
-39.20000000000003
 21
4.000000000000004
 31
0.0
  0
LINE
  5
CC
330
1F
100
AcDbEntity
  8
0
  6
Continuous
 62
   131
370
    15
100
AcDbLine
 10
-39.20000000000003
 20
-3.999999999999997
 30
0.0
 11
-39.20000000000003
 21
0.0000000000000033
 31
0.0
  0
LINE
  5
CD
330
1F
100
AcDbEntity
  8
0
  6
Continuous
 62
   131
370
    15
100
AcDbLine
 10
9.00018609501065
 20
-1.515733548007482
 30
0.0
 11
9.00018609501065
 21
1.619316715485018
 31
0.0
  0
LINE
  5
CE
330
1F
100
AcDbEntity
  8
0
  6
Continuous
 62
   131
370
    15
100
AcDbLine
 10
-40.00000000000003
 20
0.0000000000000033
 30
0.0
 11
-40.00000000000003
 21
3.200000000000007
 31
0.0
  0
LINE
  5
CF
330
1F
100
AcDbEntity
  8
0
  6
Continuous
 62
   131
370
    15
100
AcDbLine
 10
-40.00000000000003
 20
-3.200000000000001
 30
0.0
 11
-40.00000000000003
 21
0.0000000000000033
 31
0.0
  0
SPLINE
  5
D0
330
1F
100
AcDbEntity
  8
0
  6
Continuous
 62
   131
370
    15
100
AcDbSpline
210
0.0
220
0.0
230
1.0
 70
    24
 71
     3
 72
    16
 73
    12
 74
     0
 42
0.000000001
 43
0.00000001
 40
0.0
 40
0.0
 40
0.0
 40
0.0
 40
0.0533569928784773
 40
0.183352646392216
 40
0.313348299905957
 40
0.4433439534196962
 40
0.5733396069334382
 40
0.7033352604471785
 40
0.8333309139609077
 40
0.963326567474664
 40
1.0
 40
1.0
 40
1.0
 40
1.0
 10
9.999999999999984
 20
-2.38464233369863
 30
0.0
 10
9.999999999999991
 20
-2.350704712747941
 30
0.0
 10
10.00000000000001
 20
-2.234083586296216
 30
0.0
 10
9.999999999999915
 20
-1.931355830597937
 30
0.0
 10
10.00000000000003
 20
-1.44975655750512
 30
0.0
 10
9.999999999999977
 20
-0.9079917900020441
 30
0.0
 10
9.999999999999964
 20
-0.3704559166127434
 30
0.0
 10
9.99999999999997
 20
0.10587432134757
 30
0.0
 10
9.99999999999995
 20
0.4561054203943825
 30
0.0
 10
9.999999999999929
 20
0.6278596910591663
 30
0.0
 10
9.99999999999995
 20
0.6412688017878206
 30
0.0
 10
9.999999999999964
 20
0.6442193076627778
 30
0.0
  0
SPLINE
  5
D1
330
1F
100
AcDbEntity
  8
0
  6
Continuous
 62
   131
370
    15
100
AcDbSpline
210
0.0
220
0.0
230
1.0
 70
    24
 71
     3
 72
    12
 73
     8
 74
     0
 42
0.000000001
 43
0.00000001
 40
0.0
 40
0.0
 40
0.0
 40
0.0
 40
0.1564522699127731
 40
0.3837511068506687
 40
0.6110499437885444
 40
0.8383487807264679
 40
1.0
 40
1.0
 40
1.0
 40
1.0
 10
9.999999999999984
 20
1.637292884219514
 30
0.0
 10
9.99999999999997
 20
1.712472856372926
 30
0.0
 10
9.999999999999964
 20
1.896876684728749
 30
0.0
 10
9.999999999999977
 20
2.335946593478843
 30
0.0
 10
9.99999999999995
 20
2.86834337557481
 30
0.0
 10
9.999999999999936
 20
3.363166268942603
 30
0.0
 10
9.99999999999997
 20
3.634994573967511
 30
0.0
 10
9.999999999999991
 20
3.747968916659071
 30
0.0
  0
SPLINE
  5
D2
330
1F
100
AcDbEntity
  8
0
  6
Continuous
 62
   131
370
    15
100
AcDbSpline
210
0.0
220
0.0
230
1.0
 70
    24
 71
     3
 72
    12
 73
     8
 74
     0
 42
0.000000001
 43
0.00000001
 40
0.0
 40
0.0
 40
0.0
 40
0.0
 40
0.2546900260348272
 40
0.407747238687739
 40
0.7190618656911577
 40
0.8776916462844342
 40
1.0
 40
1.0
 40
1.0
 40
1.0
 10
9.999999999999984
 20
-3.973527866332342
 30
0.0
 10
9.999999999999998
 20
-3.899982226605522
 30
0.0
 10
10.00000000000003
 20
-3.782238976180659
 30
0.0
 10
9.999999999999943
 20
-3.575326263015834
 30
0.0
 10
10.00000000000004
 20
-3.399074462662036
 30
0.0
 10
9.999999999999943
 20
-3.237628271384343
 30
0.0
 10
9.999999999999964
 20
-3.164439597115287
 30
0.0
 10
9.999999999999964
 20
-3.132576403168707
 30
0.0
  0
LINE
  5
D3
330
1F
100
AcDbEntity
  8
0
  6
Continuous
 62
     1
370
    15
100
AcDbLine
 10
-40.20259277488958
 20
-0.0000000000000001
 30
0.0
 11
32.99999999999996
 21
-0.0000000000000007
 31
0.0
1001
PE_URL
1000

  0
CIRCLE
  5
D4
330
1F
100
AcDbEntity
  8
외형선
100
AcDbCircle
 10
0.0
 20
0.0
 30
0.0
 40
3.000000000000001
  0
INSERT
  5
D5
330
1F
100
AcDbEntity
  8
0
  6
Continuous
 62
     7
100
AcDbBlockReference
 66
     1
  2
블럭10
 10
-18.94078629968147
 20
-52.04717430164393
 30
0.0
  0
ATTRIB
  5
D6
330
D5
100
AcDbEntity
  8
FORMAT
 62
     2
100
AcDbText
 10
-31.90072549453923
 20
-49.97180738881174
 30
0.0
 40
4.233333333333333
  1
SEME75080E [ 6 FLUTE ]
 41
0.75
  7
SLDTEXTSTYLE0
 11
-31.90072549453923
 21
-52.08847405547841
 31
0.0
100
AcDbAttribute
  2
AUTOATTR0
 70
     0
 74
     1
  0
SEQEND
  5
D7
330
D5
100
AcDbEntity
  8
0
  6
Continuous
 62
     7
  0
HATCH
  5
D8
330
1F
100
AcDbEntity
  8
중심선
100
AcDbHatch
 10
0.0
 20
0.0
 30
0.0
210
0.0
220
0.0
230
1.0
  2
SOLID
 70
     1
 71
     0
 91
        1
 92
        0
 93
        4
 72
     1
 10
-13.22587699530061
 20
-35.79999999999999
 11
-16.67215223913789
 21
-35.79999999999999
 72
     1
 10
-16.6721522391379
 20
-35.79999999999999
 11
-18.80038209834192
 21
-38.33632558057259
 72
     1
 10
-18.80038209834192
 20
-38.33632558057259
 11
-15.35407376939149
 21
-38.3362861512701
 72
     1
 10
-15.35407376939149
 20
-38.3362861512701
 11
-13.22587699530061
 21
-35.79999999999999
 97
        0
 75
     0
 76
     1
 98
        1
 10
3.998657388384428
 20
-0.0010749287238898
  0
HATCH
  5
D9
330
1F
100
AcDbEntity
  8
중심선
100
AcDbHatch
 10
0.0
 20
0.0
 30
0.0
210
0.0
220
0.0
230
1.0
  2
SOLID
 70
     1
 71
     0
 91
        1
 92
        0
 93
        4
 72
     1
 10
-8.213113004264661
 20
-35.79999999999999
 11
-11.65938824810194
 21
-35.79999999999999
 72
     1
 10
-11.65938824810194
 20
-35.79999999999999
 11
-16.19052625645934
 21
-41.20000000000001
 72
     1
 10
-16.19052625645934
 20
-41.20000000000001
 11
-12.74425101262205
 21
-41.20000000000001
 72
     1
 10
-12.74425101262205
 20
-41.20000000000001
 11
-8.213113004264661
 21
-35.79999999999999
 97
        0
 75
     0
 76
     1
 98
        1
 10
3.998657388384428
 20
-0.0010749287238898
  0
HATCH
  5
DA
330
1F
100
AcDbEntity
  8
중심선
100
AcDbHatch
 10
0.0
 20
0.0
 30
0.0
210
0.0
220
0.0
230
1.0
  2
SOLID
 70
     1
 71
     0
 91
        1
 92
        0
 93
        4
 72
     1
 10
-3.200349013228767
 20
-35.80000000000002
 11
-6.646624257065882
 21
-35.79999999999999
 72
     1
 10
-6.646624257065882
 20
-35.79999999999999
 11
-13.69506115895513
 21
-44.20000000000001
 72
     1
 10
-13.69506115895513
 20
-44.20000000000001
 11
-10.24878591511785
 21
-44.20000000000001
 72
     1
 10
-10.24878591511785
 20
-44.20000000000001
 11
-3.200349013228767
 21
-35.80000000000002
 97
        0
 75
     0
 76
     1
 98
        1
 10
3.998657388384428
 20
-0.0010749287238898
  0
HATCH
  5
DB
330
1F
100
AcDbEntity
  8
중심선
100
AcDbHatch
 10
0.0
 20
0.0
 30
0.0
210
0.0
220
0.0
230
1.0
  2
SOLID
 70
     1
 71
     0
 91
        1
 92
        0
 93
        6
 72
     3
 10
1.599541417783432
 20
-40.00000000005127
 11
3.960054785062284
 21
1.540882976769353E-10
 40
0.3939339440162627
 50
17.09539180608437
 51
320.0019657685079
 73
     0
 72
     1
 10
3.282541073484028
 20
-38.58789400463829
 11
5.587842947185066
 21
-36.65356729459037
 72
     3
 10
1.599541417730586
 20
-40.00000000000014
 11
6.60005478528683
 21
-1.278976924368180E-13
 40
0.636358354079598
 50
39.9987384933741
 51
368.4976242363725
 73
     1
 72
     1
 10
8.024873909631195
 20
-39.03999999993002
 11
0.2796087245665078
 21
-39.03999999992999
 72
     1
 10
0.2796087245665082
 20
-39.03999999992999
 11
0.2795836801205742
 21
-40.95999999992991
 72
     1
 10
0.2795836801205742
 20
-40.95999999992991
 11
4.720963449592611
 21
-40.95999999992988
 97
        0
 75
     0
 76
     1
 98
        1
 10
3.998657388384428
 20
-0.0010749287238898
  0
DIMENSION
  5
DC
330
1F
100
AcDbEntity
  8
치수문자_일반주서
100
AcDbDimension
  2
_D
 10
-57.82890613132346
 20
-4.000000000000069
 30
0.0
 11
-57.82890613132347
 21
0.0000000000000039
 31
0.0
 70
   160
  1
%%c<>
 71
     2
 42
8.000000000000007
 52
-270.0
  3
SLDDIMSTYLE0
100
AcDbAlignedDimension
 13
-39.20000000000003
 23
4.000000000000007
 33
0.0
 14
-39.20000000000003
 24
-4.0
 34
0.0
 50
90.0000000000002
100
AcDbRotatedDimension
  0
DIMENSION
  5
EA
330
1F
100
AcDbEntity
  8
치수문자_일반주서
100
AcDbDimension
  2
_D_1
 10
39.99999999999997
 20
-3.999999999999961
 30
0.0
 11
39.99999999999996
 21
0.5275446000767974
 31
0.0
 70
   160
  1
%%c<>
 71
     2
 42
8.000000000000004
 52
-270.0
  3
SLDDIMSTYLE0
100
AcDbAlignedDimension
 13
29.99999999999997
 23
4.000000000000005
 33
0.0
 14
29.99999999999997
 24
-3.999999999999999
 34
0.0
 50
90.0000000000002
100
AcDbRotatedDimension
1001
PE_URL
1000

  0
DIMENSION
  5
F7
330
1F
100
AcDbEntity
  8
치수문자_일반주서
100
AcDbDimension
  2
_D_2
 10
29.99999999999997
 20
47.46836848497415
 30
0.0
 11
18.18499755282616
 21
47.46836848497415
 31
0.0
 70
   160
  1
<>
 71
     2
 42
19.99999999999999
  3
SLDDIMSTYLE0
100
AcDbAlignedDimension
 13
9.999999999999984
 23
3.973527866332345
 33
0.0
 14
29.99999999999997
 24
3.970810203617356
 34
0.0
100
AcDbRotatedDimension
1001
PE_URL
1000

  0
DIMENSION
  5
101
330
1F
100
AcDbEntity
  8
치수문자_일반주서
100
AcDbDimension
  2
_D_3
 10
-40.00000000000003
 20
74.91549286448698
 30
0.0
 11
-2.831285761101008
 21
74.91549286448698
 31
0.0
 70
   160
  1
<>
 71
     2
 42
70.0
  3
SLDDIMSTYLE0
100
AcDbAlignedDimension
 13
29.99999999999997
 23
3.970810203617356
 33
0.0
 14
-40.00000000000003
 24
3.200000000000007
 34
0.0
100
AcDbRotatedDimension
1001
PE_URL
1000

  0
INSERT
  5
112
330
1F
100
AcDbEntity
  8
외형선
100
AcDbBlockReference
  2
SW_DOWELSYMBOL_0
 10
0.0
 20
0.0
 30
0.0
  0
ENDSEC
  0
SECTION
  2
OBJECTS
  0
DICTIONARY
  5
C
330
0
100
AcDbDictionary
281
     1
  3
ACAD_GROUP
350
D
  3
ACAD_LAYOUT
350
1A
  3
ACAD_MLINESTYLE
350
17
  3
ACAD_PLOTSETTINGS
350
19
  3
ACAD_PLOTSTYLENAME
350
E
  3
ACAD_SCALELIST
350
47
  3
APPDATA
350
134
  3
DWGPROPS
350
141
  0
DICTIONARY
  5
D
102
{ACAD_REACTORS
330
C
102
}
330
C
100
AcDbDictionary
281
     1
  0
DICTIONARY
  5
1A
102
{ACAD_REACTORS
330
C
102
}
330
C
100
AcDbDictionary
281
     1
  3
Layout1
350
1E
  3
Layout2
350
26
  3
Model
350
22
  0
DICTIONARY
  5
17
102
{ACAD_REACTORS
330
C
102
}
330
C
100
AcDbDictionary
281
     1
  3
Standard
350
18
  0
DICTIONARY
  5
19
102
{ACAD_REACTORS
330
C
102
}
330
C
100
AcDbDictionary
281
     1
  0
ACDBDICTIONARYWDFLT
  5
E
102
{ACAD_REACTORS
330
C
102
}
330
C
100
AcDbDictionary
281
     1
  3
Normal
350
F
100
AcDbDictionaryWithDefault
340
F
  0
DICTIONARY
  5
47
102
{ACAD_REACTORS
330
C
102
}
330
C
100
AcDbDictionary
281
     1
  3
A0
350
48
  3
A1
350
49
  3
A2
350
4A
  3
A3
350
4B
  3
A4
350
4C
  3
A5
350
4D
  3
A6
350
4E
  3
A7
350
4F
  3
A8
350
50
  3
A9
350
51
  3
B0
350
52
  3
B1
350
53
  3
B2
350
54
  3
B3
350
55
  3
B4
350
56
  3
B5
350
57
  3
B6
350
58
  3
B7
350
59
  3
B8
350
5A
  3
B9
350
5B
  3
C0
350
5C
  3
C1
350
5D
  3
C2
350
5E
  3
C3
350
5F
  3
C4
350
60
  3
C5
350
61
  3
C6
350
62
  3
C7
350
63
  3
C8
350
64
  3
C9
350
65
  3
D0
350
66
  3
D1
350
67
  3
D2
350
68
  0
DICTIONARY
  5
134
102
{ACAD_REACTORS
330
C
102
}
330
C
100
AcDbDictionary
281
     1
  0
XRECORD
  5
141
102
{ACAD_REACTORS
330
C
102
}
330
C
100
AcDbXrecord
280
     1
  1
DWGPROPS COOKIE
  2

  3

  4

  6

  7

  8
12011908
  9

300
=
301
=
302
=
303
=
304
=
305
=
306
=
307
=
308
=
309
=
 40
0.0
 41
2458268.395586493
 42
2458268.415130382
  1

 90
        0
  0
LAYOUT
  5
1E
102
{ACAD_REACTORS
330
1A
102
}
330
1A
100
AcDbPlotSettings
  1

  2
none_device
  4

  6

 40
0.0
 41
0.0
 42
0.0
 43
0.0
 44
0.0
 45
0.0
 46
0.0
 47
0.0
 48
0.0
 49
0.0
140
0.0
141
0.0
142
1.0
143
1.0
 70
   688
 72
     1
 73
     0
 74
     5
  7

 75
    16
147
1.0
148
0.0
149
0.0
100
AcDbLayout
  1
Layout1
 70
     1
 71
     1
 10
0.0
 20
0.0
 11
420.0
 21
297.0
 12
0.0
 22
0.0
 32
0.0
 14
1.000000000000000E+20
 24
1.000000000000000E+20
 34
1.000000000000000E+20
 15
-1.000000000000000E+20
 25
-1.000000000000000E+20
 35
-1.000000000000000E+20
146
0.0
 13
0.0
 23
0.0
 33
0.0
 16
1.0
 26
0.0
 36
0.0
 17
0.0
 27
1.0
 37
0.0
 76
     0
330
1B
  0
LAYOUT
  5
26
102
{ACAD_REACTORS
330
1A
102
}
330
1A
100
AcDbPlotSettings
  1

  2
none_device
  4

  6

 40
0.0
 41
0.0
 42
0.0
 43
0.0
 44
0.0
 45
0.0
 46
0.0
 47
0.0
 48
0.0
 49
0.0
140
0.0
141
0.0
142
1.0
143
1.0
 70
   688
 72
     1
 73
     0
 74
     5
  7

 75
    16
147
1.0
148
0.0
149
0.0
100
AcDbLayout
  1
Layout2
 70
     1
 71
     2
 10
0.0
 20
0.0
 11
0.0
 21
0.0
 12
0.0
 22
0.0
 32
0.0
 14
0.0
 24
0.0
 34
0.0
 15
0.0
 25
0.0
 35
0.0
146
0.0
 13
0.0
 23
0.0
 33
0.0
 16
1.0
 26
0.0
 36
0.0
 17
0.0
 27
1.0
 37
0.0
 76
     0
330
23
  0
LAYOUT
  5
22
102
{ACAD_REACTORS
330
1A
102
}
330
1A
100
AcDbPlotSettings
  1

  2
none_device
  4
ANSI_A_(11.00_x_8.50_Inches)
  6

 40
6.35
 41
19.05
 42
6.35000508
 43
19.05000254
 44
279.4
 45
215.9
 46
157.485577308886
 47
65.32103239301733
 48
0.0
 49
0.0
140
0.0
141
0.0
142
0.064659642179104
143
1.0
 70
  1696
 72
     0
 73
     0
 74
     0
  7

 75
     0
147
0.0235690232323232
148
0.0
149
0.0
100
AcDbLayout
  1
Model
 70
     1
 71
     0
 10
0.0
 20
0.0
 11
420.0
 21
297.0
 12
0.0
 22
0.0
 32
0.0
 14
-62.20390613132348
 24
-49.97180738881174
 34
0.0
 15
40.55033333333328
 25
79.29049286448698
 35
0.0
146
0.0
 13
0.0
 23
0.0
 33
0.0
 16
1.0
 26
0.0
 36
0.0
 17
0.0
 27
1.0
 37
0.0
 76
     0
330
1F
331
29
  0
MLINESTYLE
  5
18
102
{ACAD_REACTORS
330
17
102
}
330
17
100
AcDbMlineStyle
  2
Standard
 70
     0
  3

 62
   256
 51
90.0
 52
90.0
 71
     2
 49
0.5
 62
   256
  6
BYLAYER
 49
-0.5
 62
   256
  6
BYLAYER
  0
ACDBPLACEHOLDER
  5
F
102
{ACAD_REACTORS
330
E
102
}
330
E
  0
SCALE
  5
48
102
{ACAD_REACTORS
330
47
102
}
330
47
100
AcDbScale
 70
     0
300
1:1
140
1.0
141
1.0
290
     1
  0
SCALE
  5
49
102
{ACAD_REACTORS
330
47
102
}
330
47
100
AcDbScale
 70
     0
300
1:2
140
1.0
141
2.0
290
     0
  0
SCALE
  5
4A
102
{ACAD_REACTORS
330
47
102
}
330
47
100
AcDbScale
 70
     0
300
1:4
140
1.0
141
4.0
290
     0
  0
SCALE
  5
4B
102
{ACAD_REACTORS
330
47
102
}
330
47
100
AcDbScale
 70
     0
300
1:5
140
1.0
141
5.0
290
     0
  0
SCALE
  5
4C
102
{ACAD_REACTORS
330
47
102
}
330
47
100
AcDbScale
 70
     0
300
1:8
140
1.0
141
8.0
290
     0
  0
SCALE
  5
4D
102
{ACAD_REACTORS
330
47
102
}
330
47
100
AcDbScale
 70
     0
300
1:10
140
1.0
141
10.0
290
     0
  0
SCALE
  5
4E
102
{ACAD_REACTORS
330
47
102
}
330
47
100
AcDbScale
 70
     0
300
1:16
140
1.0
141
16.0
290
     0
  0
SCALE
  5
4F
102
{ACAD_REACTORS
330
47
102
}
330
47
100
AcDbScale
 70
     0
300
1:20
140
1.0
141
20.0
290
     0
  0
SCALE
  5
50
102
{ACAD_REACTORS
330
47
102
}
330
47
100
AcDbScale
 70
     0
300
1:30
140
1.0
141
30.0
290
     0
  0
SCALE
  5
51
102
{ACAD_REACTORS
330
47
102
}
330
47
100
AcDbScale
 70
     0
300
1:40
140
1.0
141
40.0
290
     0
  0
SCALE
  5
52
102
{ACAD_REACTORS
330
47
102
}
330
47
100
AcDbScale
 70
     0
300
1:50
140
1.0
141
50.0
290
     0
  0
SCALE
  5
53
102
{ACAD_REACTORS
330
47
102
}
330
47
100
AcDbScale
 70
     0
300
1:100
140
1.0
141
100.0
290
     0
  0
SCALE
  5
54
102
{ACAD_REACTORS
330
47
102
}
330
47
100
AcDbScale
 70
     0
300
2:1
140
2.0
141
1.0
290
     0
  0
SCALE
  5
55
102
{ACAD_REACTORS
330
47
102
}
330
47
100
AcDbScale
 70
     0
300
4:1
140
4.0
141
1.0
290
     0
  0
SCALE
  5
56
102
{ACAD_REACTORS
330
47
102
}
330
47
100
AcDbScale
 70
     0
300
8:1
140
8.0
141
1.0
290
     0
  0
SCALE
  5
57
102
{ACAD_REACTORS
330
47
102
}
330
47
100
AcDbScale
 70
     0
300
10:1
140
10.0
141
1.0
290
     0
  0
SCALE
  5
58
102
{ACAD_REACTORS
330
47
102
}
330
47
100
AcDbScale
 70
     0
300
100:1
140
100.0
141
1.0
290
     0
  0
SCALE
  5
59
102
{ACAD_REACTORS
330
47
102
}
330
47
100
AcDbScale
 70
     0
300
1/128" = 1'-0"
140
0.0078125
141
12.0
290
     0
  0
SCALE
  5
5A
102
{ACAD_REACTORS
330
47
102
}
330
47
100
AcDbScale
 70
     0
300
1/64" = 1'-0"
140
0.015625
141
12.0
290
     0
  0
SCALE
  5
5B
102
{ACAD_REACTORS
330
47
102
}
330
47
100
AcDbScale
 70
     0
300
1/32" = 1'-0"
140
0.03125
141
12.0
290
     0
  0
SCALE
  5
5C
102
{ACAD_REACTORS
330
47
102
}
330
47
100
AcDbScale
 70
     0
300
1/16" = 1'-0"
140
0.0625
141
12.0
290
     0
  0
SCALE
  5
5D
102
{ACAD_REACTORS
330
47
102
}
330
47
100
AcDbScale
 70
     0
300
3/32" = 1'-0"
140
0.09375
141
12.0
290
     0
  0
SCALE
  5
5E
102
{ACAD_REACTORS
330
47
102
}
330
47
100
AcDbScale
 70
     0
300
1/8" = 1'-0"
140
0.125
141
12.0
290
     0
  0
SCALE
  5
5F
102
{ACAD_REACTORS
330
47
102
}
330
47
100
AcDbScale
 70
     0
300
3/16" = 1'-0"
140
0.1875
141
12.0
290
     0
  0
SCALE
  5
60
102
{ACAD_REACTORS
330
47
102
}
330
47
100
AcDbScale
 70
     0
300
1/4" = 1'-0"
140
0.25
141
12.0
290
     0
  0
SCALE
  5
61
102
{ACAD_REACTORS
330
47
102
}
330
47
100
AcDbScale
 70
     0
300
3/8" = 1'-0"
140
0.375
141
12.0
290
     0
  0
SCALE
  5
62
102
{ACAD_REACTORS
330
47
102
}
330
47
100
AcDbScale
 70
     0
300
1/2" = 1'-0"
140
0.5
141
12.0
290
     0
  0
SCALE
  5
63
102
{ACAD_REACTORS
330
47
102
}
330
47
100
AcDbScale
 70
     0
300
3/4" = 1'-0"
140
0.75
141
12.0
290
     0
  0
SCALE
  5
64
102
{ACAD_REACTORS
330
47
102
}
330
47
100
AcDbScale
 70
     0
300
1" = 1'-0"
140
1.0
141
12.0
290
     0
  0
SCALE
  5
65
102
{ACAD_REACTORS
330
47
102
}
330
47
100
AcDbScale
 70
     0
300
1-1/2" = 1'-0"
140
1.5
141
12.0
290
     0
  0
SCALE
  5
66
102
{ACAD_REACTORS
330
47
102
}
330
47
100
AcDbScale
 70
     0
300
3" = 1'-0"
140
3.0
141
12.0
290
     0
  0
SCALE
  5
67
102
{ACAD_REACTORS
330
47
102
}
330
47
100
AcDbScale
 70
     0
300
6" = 1'-0"
140
6.0
141
12.0
290
     0
  0
SCALE
  5
68
102
{ACAD_REACTORS
330
47
102
}
330
47
100
AcDbScale
 70
     0
300
1'-0" = 1'-0"
140
12.0
141
12.0
290
     0
  0
ENDSEC
  0
EOF
