  0
SECTION
  2
HEADER
  9
$ACADVER
  1
AC1015
  9
$ACADMAINTVER
 70
     6
  9
$DWGCODEPAGE
  3
ANSI_949
  9
$INSBASE
 10
0.0
 20
0.0
 30
0.0
  9
$EXTMIN
 10
-62.20390613132344
 20
-49.97180738881176
 30
0.0
  9
$EXTMAX
 10
60.55033333333333
 20
79.29049286448696
 30
0.0
  9
$LIMMIN
 10
0.0
 20
0.0
  9
$LIMMAX
 10
420.0
 20
297.0
  9
$ORTHOMODE
 70
     1
  9
$REGENMODE
 70
     1
  9
$FILLMODE
 70
     1
  9
$QTEXTMODE
 70
     0
  9
$MIRRTEXT
 70
     1
  9
$LTSCALE
 40
1.0
  9
$ATTMODE
 70
     1
  9
$TEXTSIZE
 40
3.5
  9
$TRACEWID
 40
1.0
  9
$TEXTSTYLE
  7
Standard
  9
$CLAYER
  8
0
  9
$CELTYPE
  6
ByLayer
  9
$CECOLOR
 62
   256
  9
$CELTSCALE
 40
1.0
  9
$DISPSILH
 70
     0
  9
$DIMSCALE
 40
1.0
  9
$DIMASZ
 40
3.302
  9
$DIMEXO
 40
1.0
  9
$DIMDLI
 40
3.75
  9
$DIMRND
 40
0.0
  9
$DIMDLE
 40
0.0
  9
$DIMEXE
 40
1.0
  9
$DIMTP
 40
0.0
  9
$DIMTM
 40
0.0
  9
$DIMTXT
 40
3.5
  9
$DIMCEN
 40
2.5
  9
$DIMTSZ
 40
0.0
  9
$DIMTOL
 70
     0
  9
$DIMLIM
 70
     0
  9
$DIMTIH
 70
     1
  9
$DIMTOH
 70
     1
  9
$DIMSE1
 70
     0
  9
$DIMSE2
 70
     0
  9
$DIMTAD
 70
     1
  9
$DIMZIN
 70
     0
  9
$DIMBLK
  1

  9
$DIMASO
 70
     1
  9
$DIMSHO
 70
     1
  9
$DIMPOST
  1

  9
$DIMAPOST
  1

  9
$DIMALT
 70
     0
  9
$DIMALTD
 70
     3
  9
$DIMALTF
 40
0.0393700787401575
  9
$DIMLFAC
 40
1.0
  9
$DIMTOFL
 70
     1
  9
$DIMTVP
 40
0.0
  9
$DIMTIX
 70
     0
  9
$DIMSOXD
 70
     0
  9
$DIMSAH
 70
     0
  9
$DIMBLK1
  1

  9
$DIMBLK2
  1

  9
$DIMSTYLE
  2
ISO-25
  9
$DIMCLRD
 70
     0
  9
$DIMCLRE
 70
     0
  9
$DIMCLRT
 70
     0
  9
$DIMTFAC
 40
1.0
  9
$DIMGAP
 40
1.524
  9
$DIMJUST
 70
     0
  9
$DIMSD1
 70
     0
  9
$DIMSD2
 70
     0
  9
$DIMTOLJ
 70
     0
  9
$DIMTZIN
 70
     0
  9
$DIMALTZ
 70
     0
  9
$DIMALTTZ
 70
     0
  9
$DIMUPT
 70
     0
  9
$DIMDEC
 70
     2
  9
$DIMTDEC
 70
     2
  9
$DIMALTU
 70
     2
  9
$DIMALTTD
 70
     3
  9
$DIMTXSTY
  7
Standard
  9
$DIMAUNIT
 70
     0
  9
$DIMADEC
 70
     2
  9
$DIMALTRND
 40
0.0
  9
$DIMAZIN
 70
     0
  9
$DIMDSEP
 70
    44
  9
$DIMATFIT
 70
     3
  9
$DIMFRAC
 70
     0
  9
$DIMLDRBLK
  1

  9
$DIMLUNIT
 70
     2
  9
$DIMLWD
 70
    -2
  9
$DIMLWE
 70
    -2
  9
$DIMTMOVE
 70
     0
  9
$LUNITS
 70
     2
  9
$LUPREC
 70
     2
  9
$SKETCHINC
 40
1.0
  9
$FILLETRAD
 40
10.0
  9
$AUNITS
 70
     0
  9
$AUPREC
 70
     2
  9
$MENU
  1
.
  9
$ELEVATION
 40
0.0
  9
$PELEVATION
 40
0.0
  9
$THICKNESS
 40
0.0
  9
$LIMCHECK
 70
     0
  9
$CHAMFERA
 40
0.0
  9
$CHAMFERB
 40
0.0
  9
$CHAMFERC
 40
0.0
  9
$CHAMFERD
 40
0.0
  9
$SKPOLY
 70
     0
  9
$TDCREATE
 40
2458268.770398831
  9
$TDUCREATE
 40
2458268.395398831
  9
$TDUPDATE
 40
2458270.382567975
  9
$TDUUPDATE
 40
2458270.007567975
  9
$TDINDWG
 40
0.0005980208
  9
$TDUSRTIMER
 40
2458270.006970127
  9
$USRTIMER
 70
     1
  9
$ANGBASE
 50
0.0
  9
$ANGDIR
 70
     0
  9
$PDMODE
 70
     0
  9
$PDSIZE
 40
-1.0
  9
$PLINEWID
 40
0.0
  9
$SPLFRAME
 70
     0
  9
$SPLINETYPE
 70
     6
  9
$SPLINESEGS
 70
     8
  9
$HANDSEED
  5
159
  9
$SURFTAB1
 70
     6
  9
$SURFTAB2
 70
     6
  9
$SURFTYPE
 70
     6
  9
$SURFU
 70
     6
  9
$SURFV
 70
     6
  9
$UCSBASE
  2

  9
$UCSNAME
  2

  9
$UCSORG
 10
0.0
 20
0.0
 30
0.0
  9
$UCSXDIR
 10
1.0
 20
0.0
 30
0.0
  9
$UCSYDIR
 10
0.0
 20
1.0
 30
0.0
  9
$UCSORTHOREF
  2

  9
$UCSORTHOVIEW
 70
     0
  9
$UCSORGTOP
 10
0.0
 20
0.0
 30
0.0
  9
$UCSORGBOTTOM
 10
0.0
 20
0.0
 30
0.0
  9
$UCSORGLEFT
 10
0.0
 20
0.0
 30
0.0
  9
$UCSORGRIGHT
 10
0.0
 20
0.0
 30
0.0
  9
$UCSORGFRONT
 10
0.0
 20
0.0
 30
0.0
  9
$UCSORGBACK
 10
0.0
 20
0.0
 30
0.0
  9
$PUCSBASE
  2

  9
$PUCSNAME
  2

  9
$PUCSORG
 10
0.0
 20
0.0
 30
0.0
  9
$PUCSXDIR
 10
1.0
 20
0.0
 30
0.0
  9
$PUCSYDIR
 10
0.0
 20
1.0
 30
0.0
  9
$PUCSORTHOREF
  2

  9
$PUCSORTHOVIEW
 70
     0
  9
$PUCSORGTOP
 10
0.0
 20
0.0
 30
0.0
  9
$PUCSORGBOTTOM
 10
0.0
 20
0.0
 30
0.0
  9
$PUCSORGLEFT
 10
0.0
 20
0.0
 30
0.0
  9
$PUCSORGRIGHT
 10
0.0
 20
0.0
 30
0.0
  9
$PUCSORGFRONT
 10
0.0
 20
0.0
 30
0.0
  9
$PUCSORGBACK
 10
0.0
 20
0.0
 30
0.0
  9
$USERI1
 70
     0
  9
$USERI2
 70
     0
  9
$USERI3
 70
     0
  9
$USERI4
 70
     0
  9
$USERI5
 70
     0
  9
$USERR1
 40
0.0
  9
$USERR2
 40
0.0
  9
$USERR3
 40
0.0
  9
$USERR4
 40
0.0
  9
$USERR5
 40
0.0
  9
$WORLDVIEW
 70
     1
  9
$SHADEDGE
 70
     3
  9
$SHADEDIF
 70
    70
  9
$TILEMODE
 70
     1
  9
$MAXACTVP
 70
    64
  9
$PINSBASE
 10
0.0
 20
0.0
 30
0.0
  9
$PLIMCHECK
 70
     0
  9
$PEXTMIN
 10
1.000000000000000E+20
 20
1.000000000000000E+20
 30
1.000000000000000E+20
  9
$PEXTMAX
 10
-1.000000000000000E+20
 20
-1.000000000000000E+20
 30
-1.000000000000000E+20
  9
$PLIMMIN
 10
0.0
 20
0.0
  9
$PLIMMAX
 10
0.0
 20
0.0
  9
$UNITMODE
 70
     0
  9
$VISRETAIN
 70
     1
  9
$PLINEGEN
 70
     0
  9
$PSLTSCALE
 70
     1
  9
$TREEDEPTH
 70
  3020
  9
$CMLSTYLE
  2
Standard
  9
$CMLJUST
 70
     0
  9
$CMLSCALE
 40
20.0
  9
$PROXYGRAPHICS
 70
     1
  9
$MEASUREMENT
 70
     1
  9
$CELWEIGHT
370
    -1
  9
$ENDCAPS
280
     0
  9
$JOINSTYLE
280
     0
  9
$LWDISPLAY
290
     1
  9
$INSUNITS
 70
     4
  9
$HYPERLINKBASE
  1

  9
$STYLESHEET
  1

  9
$XEDIT
290
     1
  9
$CEPSNTYPE
380
     0
  9
$PSTYLEMODE
290
     1
  9
$FINGERPRINTGUID
  2
{1C619D0B-4C16-4F23-91FD-2AA463D43BC0}
  9
$VERSIONGUID
  2
{FAEB1C32-E019-11D5-929B-00C0DF256EC4}
  9
$EXTNAMES
290
     1
  9
$PSVPSCALE
 40
0.0
  9
$OLESTARTUP
290
     0
  0
ENDSEC
  0
SECTION
  2
CLASSES
  0
CLASS
  1
ACDBDICTIONARYWDFLT
  2
AcDbDictionaryWithDefault
  3
ObjectDBX Classes
 90
        0
280
     0
281
     0
  0
CLASS
  1
VISUALSTYLE
  2
AcDbVisualStyle
  3
ObjectDBX Classes
 90
     4095
280
     0
281
     0
  0
CLASS
  1
MATERIAL
  2
AcDbMaterial
  3
ObjectDBX Classes
 90
     1153
280
     0
281
     0
  0
CLASS
  1
SCALE
  2
AcDbScale
  3
ObjectDBX Classes
 90
     1153
280
     0
281
     0
  0
CLASS
  1
SUN
  2
AcDbSun
  3
SCENEOE
 90
     1153
280
     0
281
     0
  0
CLASS
  1
ACDBPLACEHOLDER
  2
AcDbPlaceHolder
  3
ObjectDBX Classes
 90
        0
280
     0
281
     0
  0
CLASS
  1
LAYOUT
  2
AcDbLayout
  3
ObjectDBX Classes
 90
        0
280
     0
281
     0
  0
CLASS
  1
TABLESTYLE
  2
AcDbTableStyle
  3
ObjectDBX Classes
 90
     4095
280
     0
281
     0
  0
CLASS
  1
MLEADERSTYLE
  2
AcDbMLeaderStyle
  3
ACDB_MLEADERSTYLE_CLASS
 90
     4095
280
     0
281
     0
  0
CLASS
  1
RASTERVARIABLES
  2
AcDbRasterVariables
  3
ISM
 90
        0
280
     0
281
     0
  0
ENDSEC
  0
SECTION
  2
TABLES
  0
TABLE
  2
VPORT
  5
8
330
0
100
AcDbSymbolTable
 70
     1
  0
VPORT
  5
29
330
8
100
AcDbSymbolTableRecord
100
AcDbViewportTableRecord
  2
*Active
 70
     0
 10
0.0
 20
0.0
 11
1.0
 21
1.0
 12
5.308417232643466
 22
2.74397056994493
 13
0.0
 23
0.0
 14
10.0
 24
10.0
 15
10.0
 25
10.0
 16
0.0
 26
0.0
 36
1.0
 17
0.0
 27
0.0
 37
0.0
 40
18.00464913372898
 41
1.627413127413127
 42
50.0
 43
0.0
 44
0.0
 50
0.0
 51
0.0
 71
    16
 72
  2000
 73
     1
 74
     3
 75
     0
 76
     0
 77
     0
 78
     0
281
     0
 65
     1
110
0.0
120
0.0
130
0.0
111
1.0
121
0.0
131
0.0
112
0.0
122
1.0
132
0.0
 79
     0
146
0.0
  0
ENDTAB
  0
TABLE
  2
LTYPE
  5
5
330
0
100
AcDbSymbolTable
 70
     6
  0
LTYPE
  5
14
330
5
100
AcDbSymbolTableRecord
100
AcDbLinetypeTableRecord
  2
ByBlock
 70
     0
  3

 72
    65
 73
     0
 40
0.0
  0
LTYPE
  5
15
330
5
100
AcDbSymbolTableRecord
100
AcDbLinetypeTableRecord
  2
ByLayer
 70
     0
  3

 72
    65
 73
     0
 40
0.0
  0
LTYPE
  5
16
330
5
100
AcDbSymbolTableRecord
100
AcDbLinetypeTableRecord
  2
Continuous
 70
     0
  3
Solid line
 72
    65
 73
     0
 40
0.0
  0
LTYPE
  5
6A
330
5
100
AcDbSymbolTableRecord
100
AcDbLinetypeTableRecord
  2
HIDDEN
 70
     0
  3
Hidden __ __ __ __ __ __ __ __ __ __ __ __ __ __
 72
    65
 73
     2
 40
1.905
 49
1.27
 74
     0
 49
-0.635
 74
     0
  0
LTYPE
  5
6B
330
5
100
AcDbSymbolTableRecord
100
AcDbLinetypeTableRecord
  2
PHANTOM
 70
     0
  3
Phantom ______  __  __  ______  __  __  ______
 72
    65
 73
     6
 40
12.7
 49
6.35
 74
     0
 49
-1.27
 74
     0
 49
1.27
 74
     0
 49
-1.27
 74
     0
 49
1.27
 74
     0
 49
-1.27
 74
     0
  0
LTYPE
  5
6C
330
5
100
AcDbSymbolTableRecord
100
AcDbLinetypeTableRecord
  2
CENTER
 70
     0
  3
Center ____ _ ____ _ ____ _ ____ _ ____ _ ____
 72
    65
 73
     4
 40
10.16
 49
6.35
 74
     0
 49
-1.27
 74
     0
 49
1.27
 74
     0
 49
-1.27
 74
     0
  0
LTYPE
  5
6D
330
5
100
AcDbSymbolTableRecord
100
AcDbLinetypeTableRecord
  2
CENTERX2
 70
     0
  3
Center (2x) ________  __  ________  __  _____
 72
    65
 73
     4
 40
20.32
 49
12.7
 74
     0
 49
-2.54
 74
     0
 49
2.54
 74
     0
 49
-2.54
 74
     0
  0
LTYPE
  5
6E
330
5
100
AcDbSymbolTableRecord
100
AcDbLinetypeTableRecord
  2
DOT2
 70
     0
  3
Dot (.5x) ........................................
 72
    65
 73
     2
 40
0.635
 49
0.0
 74
     0
 49
-0.635
 74
     0
  0
ENDTAB
  0
TABLE
  2
LAYER
  5
2
330
0
100
AcDbSymbolTable
 70
    17
  0
LAYER
  5
10
330
2
100
AcDbSymbolTableRecord
100
AcDbLayerTableRecord
  2
0
 70
     0
 62
     7
  6
Continuous
370
    -3
390
F
  0
LAYER
  5
6F
330
2
100
AcDbSymbolTableRecord
100
AcDbLayerTableRecord
  2
FORMAT
 70
     0
 62
     2
  6
Continuous
370
    -3
390
F
  0
LAYER
  5
70
330
2
100
AcDbSymbolTableRecord
100
AcDbLayerTableRecord
  2
외형선
 70
     0
 62
   100
  6
Continuous
370
    30
390
F
  0
LAYER
  5
71
330
2
100
AcDbSymbolTableRecord
100
AcDbLayerTableRecord
  2
숨은선
 70
     0
 62
     2
  6
HIDDEN
370
    15
390
F
  0
LAYER
  5
72
330
2
100
AcDbSymbolTableRecord
100
AcDbLayerTableRecord
  2
중심선
 70
     0
 62
     1
  6
CENTERX2
370
    -3
390
F
  0
LAYER
  5
73
330
2
100
AcDbSymbolTableRecord
100
AcDbLayerTableRecord
  2
파단선
 70
     0
 62
     4
  6
Continuous
370
    -3
390
F
  0
LAYER
  5
74
330
2
100
AcDbSymbolTableRecord
100
AcDbLayerTableRecord
  2
해칭선
 70
     0
 62
     4
  6
Continuous
370
    -3
390
F
  0
LAYER
  5
75
330
2
100
AcDbSymbolTableRecord
100
AcDbLayerTableRecord
  2
가는실선
 70
     0
 62
     4
  6
Continuous
370
    -3
390
F
  0
LAYER
  5
76
330
2
100
AcDbSymbolTableRecord
100
AcDbLayerTableRecord
  2
치수_보조선
 70
     0
 62
     4
  6
Continuous
370
    -3
390
F
  0
LAYER
  5
77
330
2
100
AcDbSymbolTableRecord
100
AcDbLayerTableRecord
  2
치수문자_일반주서
 70
     0
 62
     7
  6
Continuous
370
    15
390
F
  0
LAYER
  5
78
330
2
100
AcDbSymbolTableRecord
100
AcDbLayerTableRecord
  2
개별주서
 70
     0
 62
   100
  6
Continuous
370
    30
390
F
  0
LAYER
  5
79
330
2
100
AcDbSymbolTableRecord
100
AcDbLayerTableRecord
  2
중간선
 70
     0
 62
     2
  6
Continuous
370
    15
390
F
  0
LAYER
  5
7A
330
2
100
AcDbSymbolTableRecord
100
AcDbLayerTableRecord
  2
윤곽선
 70
     0
 62
     3
  6
Continuous
370
    40
390
F
  0
LAYER
  5
7B
330
2
100
AcDbSymbolTableRecord
100
AcDbLayerTableRecord
  2
중심마크
 70
     0
 62
   100
  6
Continuous
370
    30
390
F
  0
LAYER
  5
7C
330
2
100
AcDbSymbolTableRecord
100
AcDbLayerTableRecord
  2
가상선
 70
     0
 62
     4
  6
PHANTOM
370
    -3
390
F
  0
LAYER
  5
7D
330
2
100
AcDbSymbolTableRecord
100
AcDbLayerTableRecord
  2
특수지정선
 70
     0
 62
     5
  6
CENTERX2
370
    60
390
F
  0
LAYER
  5
150
330
2
100
AcDbSymbolTableRecord
100
AcDbLayerTableRecord
  2
Defpoints
 70
     0
 62
     7
  6
Continuous
290
     0
370
    -3
390
F
  0
ENDTAB
  0
TABLE
  2
STYLE
  5
3
330
0
100
AcDbSymbolTable
 70
     2
  0
STYLE
  5
11
330
3
100
AcDbSymbolTableRecord
100
AcDbTextStyleTableRecord
  2
Standard
 70
     0
 40
0.0
 41
1.0
 50
0.0
 71
     0
 42
3.5
  3
txt
  4

  0
STYLE
  5
93
330
3
100
AcDbSymbolTableRecord
100
AcDbTextStyleTableRecord
  2
SLDTEXTSTYLE0
 70
     0
 40
0.0
 41
0.75
 50
0.0
 71
     0
 42
3.5
  3
TXT
  4

  0
ENDTAB
  0
TABLE
  2
VIEW
  5
6
330
0
100
AcDbSymbolTable
 70
     0
  0
ENDTAB
  0
TABLE
  2
UCS
  5
7
330
0
100
AcDbSymbolTable
 70
     0
  0
ENDTAB
  0
TABLE
  2
APPID
  5
9
330
0
100
AcDbSymbolTable
 70
     1
  0
APPID
  5
12
330
9
100
AcDbSymbolTableRecord
100
AcDbRegAppTableRecord
  2
ACAD
 70
     0
  0
ENDTAB
  0
TABLE
  2
DIMSTYLE
  5
A
330
0
100
AcDbSymbolTable
 70
     3
100
AcDbDimStyleTable
  0
DIMSTYLE
105
27
330
A
100
AcDbSymbolTableRecord
100
AcDbDimStyleTableRecord
  2
ISO-25
 70
     0
 41
2.5
 42
0.625
 43
3.75
 44
1.25
 73
     0
 74
     0
 77
     1
 78
     8
140
2.5
141
2.5
143
0.03937007874016
147
0.625
171
     3
172
     1
178
     0
271
     2
272
     2
274
     3
278
    44
283
     0
284
     8
340
11
  0
DIMSTYLE
105
F6
102
{ACAD_REACTORS
330
F5
330
103
102
}
330
A
100
AcDbSymbolTableRecord
100
AcDbDimStyleTableRecord
  2
SLDDIMSTYLE0
 70
     0
 41
3.302
 44
0.0
 45
0.000000001
 73
     0
 74
     0
 77
     1
 78
    12
 79
     3
140
3.5
147
0.875
172
     1
173
     1
178
     0
271
     2
272
     2
276
     2
284
    12
289
     0
340
93
  0
DIMSTYLE
105
111
102
{ACAD_REACTORS
330
110
330
11B
102
}
330
A
100
AcDbSymbolTableRecord
100
AcDbDimStyleTableRecord
  2
SLDDIMSTYLE1
 70
     0
 41
3.302
 44
0.0
 45
0.000000001
 73
     0
 74
     0
 77
     1
 78
    12
 79
     3
140
3.5
147
0.875
173
     1
178
     0
271
     2
272
     2
276
     2
284
    12
340
93
  0
ENDTAB
  0
TABLE
  2
BLOCK_RECORD
  5
1
330
0
100
AcDbSymbolTable
 70
     7
  0
BLOCK_RECORD
  5
1F
330
1
100
AcDbSymbolTableRecord
100
AcDbBlockTableRecord
  2
*Model_Space
340
22
  0
BLOCK_RECORD
  5
1B
330
1
100
AcDbSymbolTableRecord
100
AcDbBlockTableRecord
  2
*Paper_Space
340
1E
  0
BLOCK_RECORD
  5
23
330
1
100
AcDbSymbolTableRecord
100
AcDbBlockTableRecord
  2
*Paper_Space0
340
26
  0
BLOCK_RECORD
  5
7E
330
1
100
AcDbSymbolTableRecord
100
AcDbBlockTableRecord
  2
블럭10
340
0
102
{BLKREFS
331
EE
102
}
  0
BLOCK_RECORD
  5
F7
330
1
100
AcDbSymbolTableRecord
100
AcDbBlockTableRecord
  2
_D
340
0
  0
BLOCK_RECORD
  5
104
330
1
100
AcDbSymbolTableRecord
100
AcDbBlockTableRecord
  2
_D_1
340
0
  0
BLOCK_RECORD
  5
112
330
1
100
AcDbSymbolTableRecord
100
AcDbBlockTableRecord
  2
_D_2
340
0
  0
BLOCK_RECORD
  5
11C
330
1
100
AcDbSymbolTableRecord
100
AcDbBlockTableRecord
  2
_D_3
340
0
  0
BLOCK_RECORD
  5
125
330
1
100
AcDbSymbolTableRecord
100
AcDbBlockTableRecord
  2
SW_DOWELSYMBOL_0
340
0
102
{BLKREFS
331
12B
102
}
  0
ENDTAB
  0
ENDSEC
  0
SECTION
  2
BLOCKS
  0
BLOCK
  5
20
330
1F
100
AcDbEntity
  8
0
100
AcDbBlockBegin
  2
*Model_Space
 70
     0
 10
0.0
 20
0.0
 30
0.0
  3
*Model_Space
  1
*Model_Space
  0
ENDBLK
  5
21
330
1F
100
AcDbEntity
  8
0
100
AcDbBlockEnd
  0
BLOCK
  5
1C
330
1B
100
AcDbEntity
 67
     1
  8
0
100
AcDbBlockBegin
  2
*Paper_Space
 70
     0
 10
0.0
 20
0.0
 30
0.0
  3
*Paper_Space
  1
*Paper_Space
  0
ENDBLK
  5
1D
330
1B
100
AcDbEntity
 67
     1
  8
0
100
AcDbBlockEnd
  0
BLOCK
  5
24
330
23
100
AcDbEntity
  8
0
100
AcDbBlockBegin
  2
*Paper_Space0
 70
     0
 10
0.0
 20
0.0
 30
0.0
  3
*Paper_Space0
  1
*Paper_Space0
  0
ENDBLK
  5
25
330
23
100
AcDbEntity
  8
0
100
AcDbBlockEnd
  0
BLOCK
  5
7F
330
7E
100
AcDbEntity
  8
0
100
AcDbBlockBegin
  2
블럭10
 70
     2
 10
0.0
 20
0.0
 30
0.0
  3
블럭10
  1
블럭10
  0
ELLIPSE
  5
81
330
7E
100
AcDbEntity
  8
중심선
100
AcDbEllipse
 10
20.54032771741204
 20
12.0471743016438
 30
0.0
 11
6.600054785286829
 21
-1.261213355974178E-13
 31
0.0
210
0.0
220
0.0
230
1.0
 40
0.636358354079598
 41
0.9219305317359503
 42
6.513795318482858
  0
ELLIPSE
  5
82
330
7E
100
AcDbEntity
  8
중심선
100
AcDbEllipse
 10
20.54032771746488
 20
12.04717430159265
 30
0.0
 11
3.960054785062283
 21
1.540847449632565E-10
 31
0.0
210
0.0
220
0.0
230
1.0
 40
0.3939339440162632
 41
1.131841032648279
 42
5.62031148352944
  0
LINE
  5
83
330
7E
100
AcDbEntity
  8
중심선
100
AcDbLine
 10
2.268634060543552
 20
16.24717430164393
 30
0.0
 11
5.714909304380834
 21
16.24717430164393
 31
0.0
  0
LINE
  5
84
330
7E
100
AcDbEntity
  8
중심선
100
AcDbLine
 10
5.245725140726316
 20
7.84717430164391
 30
0.0
 11
8.692000384563599
 21
7.84717430164391
 31
0.0
  0
LINE
  5
85
330
7E
100
AcDbEntity
  8
중심선
100
AcDbLine
 10
15.74043728645272
 20
16.24717430164393
 30
0.0
 11
8.692000384563599
 21
7.84717430164391
 31
0.0
  0
LINE
  5
86
330
7E
100
AcDbEntity
  8
중심선
100
AcDbLine
 10
0.1404042013395286
 20
13.71084872107135
 30
0.0
 11
3.58671253028996
 21
13.71088815037384
 31
0.0
  0
LINE
  5
87
330
7E
100
AcDbEntity
  8
중심선
100
AcDbLine
 10
2.750260043222114
 20
10.84717430164391
 30
0.0
 11
6.196535287059397
 21
10.84717430164391
 31
0.0
  0
LINE
  5
88
330
7E
100
AcDbEntity
  8
중심선
100
AcDbLine
 10
12.29416204261559
 20
16.24717430164393
 30
0.0
 11
5.245725140726316
 21
7.84717430164391
 31
0.0
  0
LINE
  5
89
330
7E
100
AcDbEntity
  8
중심선
100
AcDbLine
 10
10.72767329541681
 20
16.24717430164393
 30
0.0
 11
6.196535287059397
 21
10.84717430164391
 31
0.0
  0
LINE
  5
8A
330
7E
100
AcDbEntity
  8
중심선
100
AcDbLine
 10
7.28139805157953
 20
16.24717430164393
 30
0.0
 11
2.750260043222114
 21
10.84717430164391
 31
0.0
  0
LINE
  5
8B
330
7E
100
AcDbEntity
  8
중심선
100
AcDbLine
 10
5.714909304380834
 20
16.24717430164393
 30
0.0
 11
3.58671253028996
 21
13.71088815037384
 31
0.0
  0
LINE
  5
8C
330
7E
100
AcDbEntity
  8
중심선
100
AcDbLine
 10
2.268634060543552
 20
16.24717430164393
 30
0.0
 11
0.1404042013395286
 21
13.71084872107135
 31
0.0
  0
LINE
  5
8D
330
7E
100
AcDbEntity
  8
중심선
100
AcDbLine
 10
7.28139805157953
 20
16.24717430164393
 30
0.0
 11
10.72767329541681
 21
16.24717430164393
 31
0.0
  0
LINE
  5
8E
330
7E
100
AcDbEntity
  8
중심선
100
AcDbLine
 10
12.29416204261559
 20
16.24717430164393
 30
0.0
 11
15.74043728645272
 21
16.24717430164393
 31
0.0
  0
LINE
  5
8F
330
7E
100
AcDbEntity
  8
중심선
100
AcDbLine
 10
19.22036997980202
 20
11.08717430171403
 30
0.0
 11
23.66174974927406
 21
11.08717430171406
 31
0.0
  0
LINE
  5
90
330
7E
100
AcDbEntity
  8
중심선
100
AcDbLine
 10
19.22039502424796
 20
13.00717430171391
 30
0.0
 11
19.22036997980202
 21
11.08717430171403
 31
0.0
  0
LINE
  5
91
330
7E
100
AcDbEntity
  8
중심선
100
AcDbLine
 10
19.22039502424796
 20
13.00717430171391
 30
0.0
 11
26.96566020931264
 21
13.00717430171391
 31
0.0
  0
LINE
  5
92
330
7E
100
AcDbEntity
  8
중심선
100
AcDbLine
 10
22.22332737316547
 20
13.45928029700563
 30
0.0
 11
24.52862924686651
 21
15.39360700705356
 31
0.0
  0
ATTDEF
  5
94
330
7E
100
AcDbEntity
  8
FORMAT
 62
     2
100
AcDbText
 10
-16.11926103943555
 20
2.075366912832191
 30
0.0
 40
4.233333333333333
  1
SEME7508040E [ 6 FLUTE ]
 41
0.75
  7
SLDTEXTSTYLE0
 11
-16.11926103943555
 21
-0.0412997538344756
 31
0.0
100
AcDbAttributeDefinition
  3

  2
AUTOATTR0
 70
     0
 74
     1
  0
ENDBLK
  5
80
330
7E
100
AcDbEntity
  8
0
100
AcDbBlockEnd
  0
BLOCK
  5
F8
330
F7
100
AcDbEntity
  8
0
100
AcDbBlockBegin
  2
_D
 70
     0
 10
0.0
 20
0.0
 30
0.0
  3
_D
  1
_D
  0
LINE
  5
FA
330
F7
100
AcDbEntity
  8
치수문자_일반주서
 62
     0
370
    -2
100
AcDbLine
 10
-39.26249999999999
 20
3.999999999999988
 30
0.0
 11
-57.82890613132344
 21
3.999999999999921
 31
0.0
  0
LINE
  5
FB
330
F7
100
AcDbEntity
  8
치수문자_일반주서
 62
     0
370
    -2
100
AcDbLine
 10
-39.26249999999999
 20
-4.000000000000018
 30
0.0
 11
-57.82890613132341
 21
-4.000000000000086
 31
0.0
  0
LINE
  5
FC
330
F7
100
AcDbEntity
  8
치수문자_일반주서
 62
     0
370
    -2
100
AcDbLine
 10
-57.82890613132343
 20
0.6979999999999209
 30
0.0
 11
-57.82890613132343
 21
-0.6980000000000866
 31
0.0
  0
SOLID
  5
FD
330
F7
100
AcDbEntity
  8
치수문자_일반주서
 62
     0
100
AcDbTrace
 10
-57.27857279799009
 20
0.6979999999999229
 30
0.0
 11
-58.37923946465676
 21
0.6979999999999189
 31
0.0
 12
-57.82890613132344
 22
3.999999999999921
 32
0.0
 13
-57.82890613132344
 23
3.999999999999921
 33
0.0
  0
SOLID
  5
FE
330
F7
100
AcDbEntity
  8
치수문자_일반주서
 62
     0
100
AcDbTrace
 10
-58.37923946465676
 20
-0.6980000000000885
 30
0.0
 11
-57.27857279799009
 21
-0.6980000000000846
 31
0.0
 12
-57.82890613132341
 22
-4.000000000000086
 32
0.0
 13
-57.82890613132341
 23
-4.000000000000086
 33
0.0
  0
MTEXT
  5
FF
330
F7
100
AcDbEntity
  8
치수문자_일반주서
 62
     0
100
AcDbMText
 10
-62.20390613132343
 20
-0.0000000000000297
 30
0.0
 40
3.5
 41
0.0
 71
     2
 72
     1
  1
\A1;%%c8
  7
SLDTEXTSTYLE0
 11
-3.552713678800498E-15
 21
1.0
 31
0.0
 73
     1
 44
1.0
  0
POINT
  5
100
330
F7
100
AcDbEntity
  8
Defpoints
 62
     0
100
AcDbPoint
 10
-39.19999999999999
 20
3.999999999999989
 30
0.0
  0
POINT
  5
101
330
F7
100
AcDbEntity
  8
Defpoints
 62
     0
100
AcDbPoint
 10
-39.19999999999999
 20
-4.000000000000018
 30
0.0
  0
POINT
  5
102
330
F7
100
AcDbEntity
  8
Defpoints
 62
     0
100
AcDbPoint
 10
-57.82890613132343
 20
-4.000000000000087
 30
0.0
  0
ENDBLK
  5
F9
330
F7
100
AcDbEntity
  8
0
100
AcDbBlockEnd
  0
BLOCK
  5
105
330
104
100
AcDbEntity
  8
0
100
AcDbBlockBegin
  2
_D_1
 70
     0
 10
0.0
 20
0.0
 30
0.0
  3
_D_1
  1
_D_1
  0
LINE
  5
107
330
104
100
AcDbEntity
  8
치수문자_일반주서
 62
     0
370
    -2
100
AcDbLine
 10
50.06250000000001
 20
3.999999999999988
 30
0.0
 11
59.99999999999998
 21
4.000000000000025
 31
0.0
  0
LINE
  5
108
330
104
100
AcDbEntity
  8
치수문자_일반주서
 62
     0
370
    -2
100
AcDbLine
 10
50.06250000000001
 20
-4.000000000000018
 30
0.0
 11
60.00000000000001
 21
-3.99999999999998
 31
0.0
  0
LINE
  5
109
330
104
100
AcDbEntity
  8
치수문자_일반주서
 62
     0
370
    -2
100
AcDbLine
 10
59.99999999999999
 20
0.6980000000000253
 30
0.0
 11
59.99999999999999
 21
-0.6979999999999809
 31
0.0
  0
SOLID
  5
10A
330
104
100
AcDbEntity
  8
치수문자_일반주서
 62
     0
100
AcDbTrace
 10
60.55033333333333
 20
0.6980000000000273
 30
0.0
 11
59.44966666666666
 21
0.6980000000000233
 31
0.0
 12
59.99999999999998
 22
4.000000000000025
 32
0.0
 13
59.99999999999998
 23
4.000000000000025
 33
0.0
  0
SOLID
  5
10B
330
104
100
AcDbEntity
  8
치수문자_일반주서
 62
     0
100
AcDbTrace
 10
59.44966666666666
 20
-0.6979999999999829
 30
0.0
 11
60.55033333333333
 21
-0.6979999999999789
 31
0.0
 12
60.00000000000001
 22
-3.99999999999998
 32
0.0
 13
60.00000000000001
 23
-3.99999999999998
 33
0.0
  0
MTEXT
  5
10C
330
104
100
AcDbEntity
  8
치수문자_일반주서
 62
     0
100
AcDbMText
 10
55.62499999999999
 20
0.5275446000767637
 30
0.0
 40
3.5
 41
0.0
 71
     2
 72
     1
  1
\A1;%%c8
  7
SLDTEXTSTYLE0
 11
-3.552713678800499E-15
 21
1.0
 31
0.0
 73
     1
 44
1.0
  0
POINT
  5
10D
330
104
100
AcDbEntity
  8
Defpoints
 62
     0
100
AcDbPoint
 10
50.00000000000001
 20
3.999999999999988
 30
0.0
  0
POINT
  5
10E
330
104
100
AcDbEntity
  8
Defpoints
 62
     0
100
AcDbPoint
 10
50.00000000000001
 20
-4.000000000000018
 30
0.0
  0
POINT
  5
10F
330
104
100
AcDbEntity
  8
Defpoints
 62
     0
100
AcDbPoint
 10
60.00000000000001
 20
-3.99999999999998
 30
0.0
  0
ENDBLK
  5
106
330
104
100
AcDbEntity
  8
0
100
AcDbBlockEnd
  0
BLOCK
  5
113
330
112
100
AcDbEntity
  8
0
100
AcDbBlockBegin
  2
_D_2
 70
     0
 10
0.0
 20
0.0
 30
0.0
  3
_D_2
  1
_D_2
  0
LINE
  5
115
330
112
100
AcDbEntity
  8
치수문자_일반주서
 62
     0
370
    -2
100
AcDbLine
 10
10.00000000000001
 20
3.818526362366147
 30
0.0
 11
10.00000000000001
 21
47.25086698100795
 31
0.0
  0
LINE
  5
116
330
112
100
AcDbEntity
  8
치수문자_일반주서
 62
     0
370
    -2
100
AcDbLine
 10
50.00000000000001
 20
4.033310203617338
 30
0.0
 11
50.00000000000001
 21
47.25086698100795
 31
0.0
  0
LINE
  5
117
330
112
100
AcDbEntity
  8
치수문자_일반주서
 62
     0
370
    -2
100
AcDbLine
 10
13.30200000000001
 20
47.25086698100795
 30
0.0
 11
46.69800000000001
 21
47.25086698100795
 31
0.0
  0
SOLID
  5
118
330
112
100
AcDbEntity
  8
치수문자_일반주서
 62
     0
100
AcDbTrace
 10
13.30200000000001
 20
47.80120031434128
 30
0.0
 11
13.30200000000001
 21
46.70053364767461
 31
0.0
 12
10.00000000000001
 22
47.25086698100795
 32
0.0
 13
10.00000000000001
 23
47.25086698100795
 33
0.0
  0
SOLID
  5
119
330
112
100
AcDbEntity
  8
치수문자_일반주서
 62
     0
100
AcDbTrace
 10
46.69800000000001
 20
46.70053364767461
 30
0.0
 11
46.69800000000001
 21
47.80120031434128
 31
0.0
 12
50.00000000000001
 22
47.25086698100795
 32
0.0
 13
50.00000000000001
 23
47.25086698100795
 33
0.0
  0
MTEXT
  5
11A
330
112
100
AcDbEntity
  8
치수문자_일반주서
 62
     0
100
AcDbMText
 10
26.36999510565239
 20
51.62586698100795
 30
0.0
 40
3.5
 41
0.0
 71
     2
 72
     1
  1
\A1;40
  7
SLDTEXTSTYLE0
 73
     1
 44
1.0
  0
POINT
  5
152
330
112
100
AcDbEntity
  8
Defpoints
 62
     0
100
AcDbPoint
 10
10.00000000000001
 20
3.756026362366147
 30
0.0
  0
POINT
  5
153
330
112
100
AcDbEntity
  8
Defpoints
 62
     0
100
AcDbPoint
 10
50.00000000000001
 20
3.970810203617338
 30
0.0
  0
POINT
  5
154
330
112
100
AcDbEntity
  8
Defpoints
 62
     0
100
AcDbPoint
 10
50.00000000000001
 20
47.25086698100795
 30
0.0
  0
ENDBLK
  5
114
330
112
100
AcDbEntity
  8
0
100
AcDbBlockEnd
  0
BLOCK
  5
11D
330
11C
100
AcDbEntity
  8
0
100
AcDbBlockBegin
  2
_D_3
 70
     0
 10
0.0
 20
0.0
 30
0.0
  3
_D_3
  1
_D_3
  0
LINE
  5
11F
330
11C
100
AcDbEntity
  8
치수문자_일반주서
 62
     0
370
    -2
100
AcDbLine
 10
50.00000000000001
 20
4.033310203617338
 30
0.0
 11
50.00000000000001
 21
74.91549286448696
 31
0.0
  0
LINE
  5
120
330
11C
100
AcDbEntity
  8
치수문자_일반주서
 62
     0
370
    -2
100
AcDbLine
 10
-39.99999999999999
 20
3.262499999999989
 30
0.0
 11
-39.99999999999998
 21
74.91549286448696
 31
0.0
  0
LINE
  5
121
330
11C
100
AcDbEntity
  8
치수문자_일반주서
 62
     0
370
    -2
100
AcDbLine
 10
46.69800000000001
 20
74.91549286448696
 30
0.0
 11
-36.69799999999998
 21
74.91549286448696
 31
0.0
  0
SOLID
  5
122
330
11C
100
AcDbEntity
  8
치수문자_일반주서
 62
     0
100
AcDbTrace
 10
46.69800000000001
 20
74.36515953115364
 30
0.0
 11
46.69800000000001
 21
75.46582619782029
 31
0.0
 12
50.00000000000001
 22
74.91549286448696
 32
0.0
 13
50.00000000000001
 23
74.91549286448696
 33
0.0
  0
SOLID
  5
123
330
11C
100
AcDbEntity
  8
치수문자_일반주서
 62
     0
100
AcDbTrace
 10
-36.69799999999998
 20
75.46582619782029
 30
0.0
 11
-36.69799999999998
 21
74.36515953115364
 31
0.0
 12
-39.99999999999998
 22
74.91549286448696
 32
0.0
 13
-39.99999999999998
 23
74.91549286448696
 33
0.0
  0
MTEXT
  5
124
330
11C
100
AcDbEntity
  8
치수문자_일반주서
 62
     0
100
AcDbMText
 10
7.788346878584468
 20
79.29049286448696
 30
0.0
 40
3.5
 41
0.0
 71
     2
 72
     1
  1
\A1;90
  7
SLDTEXTSTYLE0
 73
     1
 44
1.0
  0
POINT
  5
155
330
11C
100
AcDbEntity
  8
Defpoints
 62
     0
100
AcDbPoint
 10
50.00000000000001
 20
3.970810203617338
 30
0.0
  0
POINT
  5
156
330
11C
100
AcDbEntity
  8
Defpoints
 62
     0
100
AcDbPoint
 10
-39.99999999999999
 20
3.199999999999989
 30
0.0
  0
POINT
  5
157
330
11C
100
AcDbEntity
  8
Defpoints
 62
     0
100
AcDbPoint
 10
-39.99999999999999
 20
74.91549286448696
 30
0.0
  0
ENDBLK
  5
11E
330
11C
100
AcDbEntity
  8
0
100
AcDbBlockEnd
  0
BLOCK
  5
126
330
125
100
AcDbEntity
  8
0
100
AcDbBlockBegin
  2
SW_DOWELSYMBOL_0
 70
     0
 10
0.0
 20
0.0
 30
0.0
  3
SW_DOWELSYMBOL_0
  1
SW_DOWELSYMBOL_0
  0
CIRCLE
  5
128
330
125
100
AcDbEntity
  8
외형선
 62
     0
100
AcDbCircle
 10
0.0
 20
0.0
 30
0.0
 40
3.000000000000001
  0
HATCH
  5
129
330
125
100
AcDbEntity
  8
0
  6
Continuous
 62
     0
370
    30
100
AcDbHatch
 10
0.0
 20
0.0
 30
0.0
210
0.0
220
0.0
230
1.0
  2
SOLID
 70
     1
 71
     0
 91
        1
 92
        0
 93
        3
 72
     2
 10
0.0000000000000139
 20
0.0
 40
3.000000000000001
 50
0.0
 51
90.0
 73
     1
 72
     1
 10
0.0000000000000139
 20
3.000000000000001
 11
0.0000000000000139
 21
0.0
 72
     1
 10
0.0000000000000139
 20
0.0
 11
3.000000000000015
 21
0.0
 97
        0
 75
     0
 76
     1
 98
        1
 10
0.0
 20
0.0
  0
HATCH
  5
12A
330
125
100
AcDbEntity
  8
0
  6
Continuous
 62
     0
370
    30
100
AcDbHatch
 10
0.0
 20
0.0
 30
0.0
210
0.0
220
0.0
230
1.0
  2
SOLID
 70
     1
 71
     0
 91
        1
 92
        0
 93
        3
 72
     2
 10
0.0000000000000139
 20
0.0
 40
3.000000000000001
 50
180.0
 51
270.0000000000008
 73
     1
 72
     1
 10
0.0000000000000139
 20
-3.000000000000001
 11
0.0000000000000139
 21
0.0
 72
     1
 10
0.0000000000000139
 20
0.0
 11
-2.999999999999988
 21
0.0
 97
        0
 75
     0
 76
     1
 98
        1
 10
0.0
 20
0.0
  0
ENDBLK
  5
127
330
125
100
AcDbEntity
  8
0
100
AcDbBlockEnd
  0
ENDSEC
  0
SECTION
  2
ENTITIES
  0
LINE
  5
95
330
1F
100
AcDbEntity
  8
0
  6
Continuous
 62
   131
370
    15
100
AcDbLine
 10
49.16481125523242
 20
-0.7720549601167186
 30
0.0
 11
49.19375186262819
 21
-0.7998505520953241
 31
0.0
  0
LINE
  5
96
330
1F
100
AcDbEntity
  8
0
  6
Continuous
 62
   131
370
    15
100
AcDbLine
 10
24.01721368223973
 20
-0.7576178571819165
 30
0.0
 11
24.06116278764398
 21
-0.79999938139803
 31
0.0
  0
LINE
  5
97
330
1F
100
AcDbEntity
  8
0
  6
Continuous
 62
   131
370
    15
100
AcDbLine
 10
29.90568993680017
 20
0.7570881470362515
 30
0.0
 11
29.86078276801909
 21
0.8002261904053046
 31
0.0
  0
LINE
  5
98
330
1F
100
AcDbEntity
  8
0
  6
Continuous
 62
   131
370
    15
100
AcDbLine
 10
28.19943642471254
 20
-0.7504864035864097
 30
0.0
 11
28.25096005100144
 21
-0.8000766639646493
 31
0.0
  0
LINE
  5
99
330
1F
100
AcDbEntity
  8
0
  6
Continuous
 62
   131
370
    15
100
AcDbLine
 10
17.43635997020495
 20
0.6644577363776526
 30
0.0
 11
17.29471308806257
 21
0.7999321408104345
 31
0.0
  0
LINE
  5
9A
330
1F
100
AcDbEntity
  8
0
  6
Continuous
 62
     1
370
    15
100
AcDbLine
 10
40.69477135491373
 20
-0.6824622239874308
 30
0.0
 11
40.81755586798104
 21
-0.8002984917933943
 31
0.0
  0
LINE
  5
9B
330
1F
100
AcDbEntity
  8
0
  6
Continuous
 62
     1
370
    15
100
AcDbLine
 10
49.51595119872534
 20
-4.000000000000018
 30
0.0
 11
50.00000000000001
 21
-4.000000000000018
 31
0.0
  0
LINE
  5
9C
330
1F
100
AcDbEntity
  8
0
  6
Continuous
 62
     1
370
    15
100
AcDbLine
 10
24.38395383517685
 20
-4.000000000000018
 30
0.0
 11
25.34991915946579
 21
-4.000000000000018
 31
0.0
  0
LINE
  5
9D
330
1F
100
AcDbEntity
  8
0
  6
Continuous
 62
     1
370
    15
100
AcDbLine
 10
12.78404948118354
 20
3.999999999999988
 30
0.0
 11
11.81672137664093
 21
3.999999999999988
 31
0.0
  0
LINE
  5
9E
330
1F
100
AcDbEntity
  8
0
  6
Continuous
 62
     1
370
    15
100
AcDbLine
 10
37.91766430652385
 20
3.999999999999988
 30
0.0
 11
36.9508566089504
 21
3.999999999999988
 31
0.0
  0
LINE
  5
9F
330
1F
100
AcDbEntity
  8
0
  6
Continuous
 62
     1
370
    15
100
AcDbLine
 10
36.95085660895042
 20
-4.000000000000018
 30
0.0
 11
37.91766430652383
 21
-4.000000000000018
 31
0.0
  0
LINE
  5
A0
330
1F
100
AcDbEntity
  8
0
  6
Continuous
 62
     1
370
    15
100
AcDbLine
 10
11.81672137664093
 20
-4.000000000000018
 30
0.0
 11
12.78404948118351
 21
-4.000000000000018
 31
0.0
  0
LINE
  5
A1
330
1F
100
AcDbEntity
  8
0
  6
Continuous
 62
     1
370
    15
100
AcDbLine
 10
25.34991915946576
 20
3.999999999999988
 30
0.0
 11
24.38395383517685
 21
3.999999999999988
 31
0.0
  0
LINE
  5
A2
330
1F
100
AcDbEntity
  8
0
  6
Continuous
 62
     1
370
    15
100
AcDbLine
 10
50.00000000000001
 20
3.999999999999988
 30
0.0
 11
49.51595119872534
 21
3.999999999999988
 31
0.0
  0
LINE
  5
A3
330
1F
100
AcDbEntity
  8
0
  6
Continuous
 62
     1
370
    15
100
AcDbLine
 10
41.13941458422431
 20
-4.000000000000018
 30
0.0
 11
42.10574557202754
 21
-4.000000000000018
 31
0.0
  0
LINE
  5
A4
330
1F
100
AcDbEntity
  8
0
  6
Continuous
 62
     1
370
    15
100
AcDbLine
 10
16.00555236441377
 20
-4.000000000000018
 30
0.0
 11
16.97355396240066
 21
-4.000000000000018
 31
0.0
  0
LINE
  5
A5
330
1F
100
AcDbEntity
  8
0
  6
Continuous
 62
     1
370
    15
100
AcDbLine
 10
29.53913970249955
 20
3.999999999999988
 30
0.0
 11
28.57216477971527
 21
3.999999999999988
 31
0.0
  0
LINE
  5
A6
330
1F
100
AcDbEntity
  8
0
  6
Continuous
 62
     1
370
    15
100
AcDbLine
 10
32.76124156824871
 20
-4.000000000000018
 30
0.0
 11
33.72920607949819
 21
-4.000000000000018
 31
0.0
  0
LINE
  5
A7
330
1F
100
AcDbEntity
  8
0
  6
Continuous
 62
     1
370
    15
100
AcDbLine
 10
21.16177882154446
 20
3.999999999999988
 30
0.0
 11
20.1953737510609
 21
3.999999999999988
 31
0.0
  0
LINE
  5
A8
330
1F
100
AcDbEntity
  8
0
  6
Continuous
 62
     1
370
    15
100
AcDbLine
 10
46.2946894032678
 20
3.999999999999988
 30
0.0
 11
45.32737194388555
 21
3.999999999999988
 31
0.0
  0
LINE
  5
A9
330
1F
100
AcDbEntity
  8
0
  6
Continuous
 62
     1
370
    15
100
AcDbLine
 10
28.57216477971529
 20
-4.000000000000018
 30
0.0
 11
29.5391397024996
 21
-4.000000000000018
 31
0.0
  0
LINE
  5
AA
330
1F
100
AcDbEntity
  8
0
  6
Continuous
 62
     1
370
    15
100
AcDbLine
 10
16.97355396240068
 20
3.999999999999988
 30
0.0
 11
16.0055523644138
 21
3.999999999999988
 31
0.0
  0
LINE
  5
AB
330
1F
100
AcDbEntity
  8
0
  6
Continuous
 62
     1
370
    15
100
AcDbLine
 10
42.10574557202759
 20
3.999999999999988
 30
0.0
 11
41.13941458422431
 21
3.999999999999988
 31
0.0
  0
LINE
  5
AC
330
1F
100
AcDbEntity
  8
0
  6
Continuous
 62
     1
370
    15
100
AcDbLine
 10
45.32737194388555
 20
-4.000000000000018
 30
0.0
 11
46.2946894032678
 21
-4.000000000000018
 31
0.0
  0
LINE
  5
AD
330
1F
100
AcDbEntity
  8
0
  6
Continuous
 62
     1
370
    15
100
AcDbLine
 10
20.19537375106088
 20
-4.000000000000018
 30
0.0
 11
21.16177882154444
 21
-4.000000000000018
 31
0.0
  0
LINE
  5
AE
330
1F
100
AcDbEntity
  8
0
  6
Continuous
 62
     1
370
    15
100
AcDbLine
 10
33.72920607949819
 20
3.999999999999988
 30
0.0
 11
32.76124156824869
 21
3.999999999999988
 31
0.0
  0
LINE
  5
AF
330
1F
100
AcDbEntity
  8
0
  6
Continuous
 62
   131
370
    15
100
AcDbLine
 10
-39.19999999999999
 20
-4.000000000000015
 30
0.0
 11
8.999741906309454
 21
-4.000000000000015
 31
0.0
  0
LINE
  5
B0
330
1F
100
AcDbEntity
  8
0
  6
Continuous
 62
   131
370
    15
100
AcDbLine
 10
8.999741906309454
 20
3.999999999999985
 30
0.0
 11
-39.19999999999999
 21
3.999999999999985
 31
0.0
  0
LINE
  5
B1
330
1F
100
AcDbEntity
  8
0
  6
Continuous
 62
   131
370
    15
100
AcDbLine
 10
-39.19999999999999
 20
3.999999999999987
 30
0.0
 11
-39.99999999999999
 21
3.199999999999989
 31
0.0
  0
LINE
  5
B2
330
1F
100
AcDbEntity
  8
0
  6
Continuous
 62
   131
370
    15
100
AcDbLine
 10
-39.99999999999999
 20
-3.200000000000019
 30
0.0
 11
-39.19999999999999
 21
-4.000000000000017
 31
0.0
  0
SPLINE
  5
B3
330
1F
100
AcDbEntity
  8
0
  6
Continuous
 62
     1
370
    15
100
AcDbSpline
210
0.0
220
0.0
230
1.0
 70
     8
 71
     3
 72
    18
 73
    14
 74
     0
 42
0.000000001
 43
0.00000001
 40
0.0
 40
0.0
 40
0.0
 40
0.0
 40
0.0961892416631076
 40
0.1922038470604311
 40
0.28827703647821
 40
0.3845562378492133
 40
0.480647972928093
 40
0.5800387432384982
 40
0.6795371221917063
 40
0.7791785180442794
 40
0.8786312402151867
 40
0.9780228670093575
 40
1.0
 40
1.0
 40
1.0
 40
1.0
 10
10.0
 20
0.6867115930418862
 30
0.0
 10
10.27539600596912
 20
0.4129011425221605
 30
0.0
 10
10.82568802300919
 20
-0.1342226422724312
 30
0.0
 10
11.64985272348425
 20
-0.9581131503382031
 30
0.0
 10
12.47453641968772
 20
-1.73921459641188
 30
0.0
 10
13.30110064219725
 20
-2.4459503978094
 30
0.0
 10
14.13555249731945
 20
-3.05698481871614
 30
0.0
 10
14.97912908197565
 20
-3.540474694454748
 30
0.0
 10
15.83328186364442
 20
-3.867581775794455
 30
0.0
 10
16.68877728899191
 20
-4.022561029804173
 30
0.0
 10
17.54255818477776
 20
-3.981182094234908
 30
0.0
 10
18.17390640322889
 20
-3.854708167674064
 30
0.0
 10
18.52124873162066
 20
-3.694582438769408
 30
0.0
 10
18.58414455883254
 20
-3.665587296645514
 30
0.0
  0
SPLINE
  5
B4
330
1F
100
AcDbEntity
  8
0
  6
Continuous
 62
     1
370
    15
100
AcDbSpline
210
0.0
220
0.0
230
1.0
 70
     8
 71
     3
 72
    24
 73
    20
 74
     0
 42
0.000000001
 43
0.00000001
 40
0.0
 40
0.0
 40
0.0
 40
0.0
 40
0.0575512843046455
 40
0.1177604925600989
 40
0.1779482763558249
 40
0.2382205920066444
 40
0.2985432203188901
 40
0.3587497678418957
 40
0.4189387853923975
 40
0.4792162021203694
 40
0.5395349898154306
 40
0.5997390190176203
 40
0.6599294132559532
 40
0.7202120713711924
 40
0.7805265980201435
 40
0.8407282513880152
 40
0.9009201652062658
 40
0.96120820486387
 40
1.0
 40
1.0
 40
1.0
 40
1.0
 10
29.53913970249957
 20
3.996006242949661
 30
0.0
 10
29.81135283326412
 20
3.9816141179428
 30
0.0
 10
30.36835086984089
 20
3.952165188170478
 30
0.0
 10
31.20883632007639
 20
3.68227603570685
 30
0.0
 10
32.06206740535822
 20
3.255407754282707
 30
0.0
 10
32.91658778159763
 20
2.676847129838635
 30
0.0
 10
33.77189183134304
 20
1.978269094567031
 30
0.0
 10
34.62540450930032
 20
1.188718182786777
 30
0.0
 10
35.47866384465986
 20
0.3453548858849408
 30
0.0
 10
36.33326084459642
 20
-0.5134396162686304
 30
0.0
 10
37.18850540387405
 20
-1.34843614302658
 30
0.0
 10
38.04198094808237
 20
-2.123073701532265
 30
0.0
 10
38.89526003749021
 20
-2.801040097473524
 30
0.0
 10
39.7499391385366
 20
-3.351621926512553
 30
0.0
 10
40.60511548180835
 20
-3.749372082993075
 30
0.0
 10
41.45856157153461
 20
-3.97897654292949
 30
0.0
 10
42.31184327947403
 20
-4.020850908316621
 30
0.0
 10
43.06493373767459
 20
-3.919272925500918
 30
0.0
 10
43.53340036401306
 20
-3.733487300190844
 30
0.0
 10
43.71681469282043
 20
-3.660748403004855
 30
0.0
  0
SPLINE
  5
B5
330
1F
100
AcDbEntity
  8
0
  6
Continuous
 62
   131
370
    15
100
AcDbSpline
210
0.0
220
0.0
230
1.0
 70
    24
 71
     3
 72
    22
 73
    18
 74
     0
 42
0.000000001
 43
0.00000001
 40
0.0
 40
0.0
 40
0.0
 40
0.0
 40
0.0215670822819348
 40
0.0917762636171707
 40
0.1640215159674369
 40
0.2342306973026688
 40
0.3064759496529311
 40
0.3766851309881598
 40
0.4489303833384174
 40
0.5191395646736485
 40
0.5913848170239104
 40
0.6615939983591375
 40
0.7338392507093928
 40
0.8040484320446243
 40
0.8762936843948849
 40
0.9465028657300472
 40
1.0
 40
1.0
 40
1.0
 40
1.0
 10
10.00000000000001
 20
3.317446846558225
 30
0.0
 10
10.0
 20
3.298069907774134
 30
0.0
 10
9.999999999999986
 20
3.215613550502665
 30
0.0
 10
10.00000000000004
 20
3.050645547449418
 30
0.0
 10
10.00000000000004
 20
2.813191159024263
 30
0.0
 10
10.00000000000001
 20
2.555068495635074
 30
0.0
 10
9.999999999999957
 20
2.288657287825156
 30
0.0
 10
10.00000000000006
 20
2.016588317977639
 30
0.0
 10
10.00000000000008
 20
1.751490662548076
 30
0.0
 10
9.999999999999936
 20
1.496085646998803
 30
0.0
 10
10.00000000000006
 20
1.262211632616814
 30
0.0
 10
9.99999999999995
 20
1.052240696533364
 30
0.0
 10
10.00000000000008
 20
0.8760361157500394
 30
0.0
 10
9.999999999999972
 20
0.7348873396693119
 30
0.0
 10
10.00000000000002
 20
0.6372915768339188
 30
0.0
 10
10.00000000000004
 20
0.582190770403045
 30
0.0
 10
10.00000000000002
 20
0.5811344348679562
 30
0.0
 10
10.00000000000001
 20
0.5806776196788664
 30
0.0
  0
SPLINE
  5
B6
330
1F
100
AcDbEntity
  8
0
  6
Continuous
 62
     1
370
    15
100
AcDbSpline
210
0.0
220
0.0
230
1.0
 70
     8
 71
     3
 72
    25
 73
    21
 74
     0
 42
0.000000001
 43
0.00000001
 40
0.0
 40
0.0
 40
0.0
 40
0.0
 40
0.0319111674480823
 40
0.0921104146538899
 40
0.1524200867811468
 40
0.2127079532993547
 40
0.2728996942542705
 40
0.3331011747308382
 40
0.3934155281643266
 40
0.4536980131556244
 40
0.5138882345349871
 40
0.5740920908390486
 40
0.6344107053064101
 40
0.6946879489254949
 40
0.75487679362098
 40
0.8150831682386254
 40
0.8754056233121407
 40
0.9356777658687221
 40
0.995865376812975
 40
1.0
 40
1.0
 40
1.0
 40
1.0
 10
45.32737194388552
 20
-3.977325798004365
 30
0.0
 10
45.17662928405787
 20
-3.981171813359676
 30
0.0
 10
44.74151612421045
 20
-3.992273195649097
 30
0.0
 10
44.02174192604944
 20
-3.811572530191394
 30
0.0
 10
43.16661692897186
 20
-3.45809209077928
 30
0.0
 10
42.31185969852339
 20
-2.938493849665471
 30
0.0
 10
41.4585571745231
 20
-2.287515434209076
 30
0.0
 10
40.60511666248821
 20
-1.531807756271438
 30
0.0
 10
39.74993882232213
 20
-0.7074964910835078
 30
0.0
 10
38.89526012120599
 20
0.1493476880229589
 30
0.0
 10
38.04198092882542
 20
0.9997527907088248
 30
0.0
 10
37.18850539722285
 20
1.804833514881604
 30
0.0
 10
36.33326089059206
 20
2.527145336052808
 30
0.0
 10
35.47866366760755
 20
3.13503817774534
 30
0.0
 10
34.62540517059173
 20
3.601008490801827
 30
0.0
 10
33.77188936002854
 20
3.902066293900198
 30
0.0
 10
32.91659702126091
 20
4.030438941136408
 30
0.0
 10
32.062032977096
 20
3.95811392571793
 30
0.0
 10
31.47373258671551
 20
3.829872409641422
 30
0.0
 10
31.16985393329313
 20
3.684028751502093
 30
0.0
 10
31.15032066080263
 20
3.674653943882807
 30
0.0
  0
SPLINE
  5
B7
330
1F
100
AcDbEntity
  8
0
  6
Continuous
 62
     1
370
    15
100
AcDbSpline
210
0.0
220
0.0
230
1.0
 70
     8
 71
     3
 72
    20
 73
    16
 74
     0
 42
0.000000001
 43
0.00000001
 40
0.0
 40
0.0
 40
0.0
 40
0.0
 40
0.008796242459065
 40
0.0926943471079117
 40
0.1764805577544329
 40
0.2601707656446661
 40
0.3439124173531067
 40
0.4278129369677437
 40
0.5115930328160553
 40
0.5952825195257747
 40
0.6761941369796131
 40
0.7572636056877922
 40
0.8381596072363166
 40
0.9190062795907334
 40
0.9999999999999999
 40
0.9999999999999999
 40
0.9999999999999999
 40
0.9999999999999999
 10
20.19537375106088
 20
-3.991453989800409
 30
0.0
 10
20.16548935009074
 20
-3.994237270234935
 30
0.0
 10
19.8505690816318
 20
-4.023567335191331
 30
0.0
 10
19.24987041922001
 20
-3.907089144276517
 30
0.0
 10
18.39572796652133
 20
-3.633051681544369
 30
0.0
 10
17.54251512545084
 20
-3.175317741555116
 30
0.0
 10
16.68878885472515
 20
-2.578086464810163
 30
0.0
 10
15.83327876672731
 20
-1.863327471723826
 30
0.0
 10
14.97912991121823
 20
-1.063507331169188
 30
0.0
 10
14.13555228343159
 20
-0.2248069664539603
 30
0.0
 10
13.30110069881415
 20
0.6136393034706723
 30
0.0
 10
12.47453640454589
 20
1.415777607221366
 30
0.0
 10
11.64985272751544
 20
2.156539611196514
 30
0.0
 10
10.82568802199948
 20
2.815817992463184
 30
0.0
 10
10.27539600563237
 20
3.150135974840389
 30
0.0
 10
10.00000000000001
 20
3.317446846558228
 30
0.0
  0
LINE
  5
B8
330
1F
100
AcDbEntity
  8
0
  6
Continuous
 62
     1
370
    15
100
AcDbLine
 10
50.00000000000001
 20
-1.567673435381212
 30
0.0
 11
50.00000000000001
 21
1.567673435381257
 31
0.0
  0
SPLINE
  5
B9
330
1F
100
AcDbEntity
  8
0
  6
Continuous
 62
     1
370
    15
100
AcDbSpline
210
0.0
220
0.0
230
1.0
 70
     8
 71
     3
 72
    24
 73
    20
 74
     0
 42
0.000000001
 43
0.00000001
 40
0.0
 40
0.0
 40
0.0
 40
0.0
 40
0.040152592799489
 40
0.1003384137678905
 40
0.1605932751276118
 40
0.2209286050697535
 40
0.2811481922361846
 40
0.3413346749194076
 40
0.4015940747640321
 40
0.4619272469966463
 40
0.5221437466079993
 40
0.5823310340641276
 40
0.6425951132863903
 40
0.7029257069015337
 40
0.7631392611231805
 40
0.8233274963863444
 40
0.8835963957403954
 40
0.9439239899241847
 40
1.0
 40
1.0
 40
1.0
 40
1.0
 10
16.97355396240069
 20
3.979770553564906
 30
0.0
 10
17.16327539614525
 20
3.979962936920069
 30
0.0
 10
17.63737548265179
 20
3.98044368895491
 30
0.0
 10
18.39568812057005
 20
3.773648457341482
 30
0.0
 10
19.24993999080314
 20
3.395791147144136
 30
0.0
 10
20.10541198047935
 20
2.857224735933871
 30
0.0
 10
20.95909783231165
 20
2.190028361721122
 30
0.0
 10
21.81229801687505
 20
1.422950171133392
 30
0.0
 10
22.66659123822878
 20
0.5913747611187152
 30
0.0
 10
23.52203712964597
 20
-0.2662499262991778
 30
0.0
 10
24.37567457059858
 20
-1.112865971108734
 30
0.0
 10
25.22888689286624
 20
-1.908697215129665
 30
0.0
 10
26.08325245762759
 20
-2.617696036003278
 30
0.0
 10
26.93865802531669
 20
-3.207363913090461
 30
0.0
 10
27.79225117422382
 20
-3.651759178007622
 30
0.0
 10
28.64547819425436
 20
-3.931078401844034
 30
0.0
 10
29.49991461981558
 20
-4.027925039703188
 30
0.0
 10
30.33572707411833
 20
-3.957813614676623
 30
0.0
 10
30.88548264878247
 20
-3.766713893191505
 30
0.0
 10
31.15032066080266
 20
-3.67465394388284
 30
0.0
  0
SPLINE
  5
BA
330
1F
100
AcDbEntity
  8
0
  6
Continuous
 62
     1
370
    15
100
AcDbSpline
210
0.0
220
0.0
230
1.0
 70
     8
 71
     3
 72
    17
 73
    13
 74
     0
 42
0.000000001
 43
0.00000001
 40
0.0
 40
0.0
 40
0.0
 40
0.0
 40
0.0260847593801497
 40
0.1343596715891499
 40
0.2426737459138714
 40
0.3507895009188687
 40
0.4588947606103705
 40
0.5671795892818274
 40
0.6754845016552758
 40
0.783596501929852
 40
0.8917050037319035
 40
1.0
 40
1.0
 40
1.0
 40
1.0
 10
42.1057455720276
 20
3.983348237873972
 30
0.0
 10
42.17434613526186
 20
3.988383552688823
 30
0.0
 10
42.52769994668326
 20
4.014319894865171
 30
0.0
 10
43.16665010970114
 20
3.880323848575607
 30
0.0
 10
44.02171790153969
 20
3.580018486507669
 30
0.0
 10
44.8751363235011
 20
3.102005419643961
 30
0.0
 10
45.72845865057964
 20
2.48692511358303
 30
0.0
 10
46.58330847416518
 20
1.758322239297157
 30
0.0
 10
47.43833256171551
 20
0.9499477253856309
 30
0.0
 10
48.29171136803848
 20
0.0990308267243714
 30
0.0
 10
49.14506225544592
 20
-0.7614464246889887
 30
0.0
 10
49.71485707057365
 20
-1.298776743106439
 30
0.0
 10
50.00000000000002
 20
-1.567673435381212
 30
0.0
  0
SPLINE
  5
BB
330
1F
100
AcDbEntity
  8
0
  6
Continuous
 62
     1
370
    15
100
AcDbSpline
210
0.0
220
0.0
230
1.0
 70
     8
 71
     3
 72
    15
 73
    11
 74
     0
 42
0.000000001
 43
0.00000001
 40
0.0
 40
0.0
 40
0.0
 40
0.0
 40
0.1360538080409229
 40
0.271873318255006
 40
0.4076972236907101
 40
0.5437634895915612
 40
0.6798045238175466
 40
0.8156199608841859
 40
0.9514485834849445
 40
1.0
 40
1.0
 40
1.0
 40
1.0
 10
50.00000000000001
 20
1.567673435381257
 30
0.0
 10
49.71485708163167
 20
1.822768077038003
 30
0.0
 10
49.1450622886009
 20
2.332518062686552
 30
0.0
 10
48.29171123568326
 20
2.97279369781238
 30
0.0
 10
47.43833305846782
 20
3.483241854988276
 30
0.0
 10
46.58330661607789
 20
3.83295652743894
 30
0.0
 10
45.72846557852574
 20
4.012068674564773
 30
0.0
 10
44.87511051462712
 20
3.997820238754357
 30
0.0
 10
44.20499290056284
 20
3.876308330978104
 30
0.0
 10
43.81856884806533
 20
3.705678959157667
 30
0.0
 10
43.71681469282046
 20
3.660748403004824
 30
0.0
  0
SPLINE
  5
BC
330
1F
100
AcDbEntity
  8
0
  6
Continuous
 62
     1
370
    15
100
AcDbSpline
210
0.0
220
0.0
230
1.0
 70
     8
 71
     3
 72
    24
 73
    20
 74
     0
 42
0.000000001
 43
0.00000001
 40
0.0
 40
0.0
 40
0.0
 40
0.0
 40
0.0493267921702876
 40
0.1095158419036668
 40
0.1697263165473969
 40
0.2300536337536343
 40
0.2903222563996166
 40
0.3505102153250585
 40
0.4107234930927374
 40
0.4710538097165591
 40
0.5313176122528821
 40
0.5915046233756416
 40
0.6517208465195037
 40
0.7120537417489571
 40
0.7723128649291267
 40
0.8324990712826732
 40
0.8927183819674375
 40
0.9530534348965124
 40
1.0
 40
1.0
 40
1.0
 40
1.0
 10
32.76124156824871
 20
-3.986468063428552
 30
0.0
 10
32.52805397179282
 20
-3.98014907225107
 30
0.0
 10
32.0103285162392
 20
-3.966119584252039
 30
0.0
 10
31.20884079685009
 20
-3.727371068488826
 30
0.0
 10
30.35527277460156
 20
-3.323278009359087
 30
0.0
 10
29.49991868380366
 20
-2.763603519952491
 30
0.0
 10
28.64547710742849
 20
-2.079397120089201
 30
0.0
 10
27.79225146529232
 20
-1.300200300658801
 30
0.0
 10
26.93865794750941
 20
-0.4618078235223341
 30
0.0
 10
26.08325247708454
 20
0.3965249560586824
 30
0.0
 10
25.2288868928167
 20
1.237611274597219
 30
0.0
 10
24.3756745514012
 20
2.02255106456757
 30
0.0
 10
23.52203720659839
 20
2.715699383667492
 30
0.0
 10
22.66659094917236
 20
3.284828251662873
 30
0.0
 10
21.81229909393193
 20
3.704957662116549
 30
0.0
 10
20.95909381691725
 20
3.958146771589349
 30
0.0
 10
20.10542698816447
 20
4.026163285172258
 30
0.0
 10
19.31285414177502
 20
3.93812216223645
 30
0.0
 10
18.80596142253098
 20
3.74854603706681
 30
0.0
 10
18.58414455883257
 20
3.665587296645482
 30
0.0
  0
SPLINE
  5
BD
330
1F
100
AcDbEntity
  8
0
  6
Continuous
 62
     1
370
    15
100
AcDbSpline
210
0.0
220
0.0
230
1.0
 70
     8
 71
     3
 72
    13
 73
     9
 74
     0
 42
0.000000001
 43
0.00000001
 40
0.0
 40
0.0
 40
0.0
 40
0.0
 40
0.1878368024705454
 40
0.3753325780529157
 40
0.5629427555672271
 40
0.7509552299069975
 40
0.9386016230897208
 40
1.0
 40
1.0
 40
1.0
 40
1.0
 10
10.00000000000001
 20
-3.069314769324301
 30
0.0
 10
10.27539597268538
 20
-3.2331451923506
 30
0.0
 10
10.82568792321833
 20
-3.560508596269288
 30
0.0
 10
11.64985312190356
 20
-3.865552563857298
 30
0.0
 10
12.47453492315307
 20
-4.018793990733332
 30
0.0
 10
13.30110623790263
 20
-3.987822794749807
 30
0.0
 10
13.94119944215819
 20
-3.865886348825121
 30
0.0
 10
14.30595203959687
 20
-3.702242225620499
 30
0.0
 10
14.39587650357248
 20
-3.661898139888774
 30
0.0
  0
SPLINE
  5
BE
330
1F
100
AcDbEntity
  8
0
  6
Continuous
 62
     1
370
    15
100
AcDbSpline
210
0.0
220
0.0
230
1.0
 70
     8
 71
     3
 72
    24
 73
    20
 74
     0
 42
0.000000001
 43
0.00000001
 40
0.0
 40
0.0
 40
0.0
 40
0.0
 40
0.0517091020164067
 40
0.1120392468668449
 40
0.1722523531943756
 40
0.2324401407517565
 40
0.2927085918000106
 40
0.3530357372414057
 40
0.4132460404529678
 40
0.4734349188151802
 40
0.5337083305697705
 40
0.5940320559007659
 40
0.6542396983314924
 40
0.7144298104709176
 40
0.7747083233954276
 40
0.8350282080393936
 40
0.8952333321035063
 40
0.9554248209557991
 40
1.0
 40
1.0
 40
1.0
 40
1.0
 10
25.34991915946576
 20
3.988916074608717
 30
0.0
 10
25.59426185571606
 20
3.980428593371021
 30
0.0
 10
26.12368454142833
 20
3.962038581388869
 30
0.0
 10
26.93866928860703
 20
3.714532709563457
 30
0.0
 10
27.79224836926007
 20
3.303727129937608
 30
0.0
 10
28.64547816670434
 20
2.738008415267025
 30
0.0
 10
29.49991754449915
 20
2.049278952142773
 30
0.0
 10
30.35527627133438
 20
1.267769357951381
 30
0.0
 10
31.20882797911272
 20
0.4278083234798261
 30
0.0
 10
32.06206964226602
 20
-0.4314451947006764
 30
0.0
 10
32.9165871855799
 20
-1.270875438487059
 30
0.0
 10
33.77189197466692
 20
-2.052069665036605
 30
0.0
 10
34.62540453085315
 20
-2.740885522221516
 30
0.0
 10
35.47866361520656
 20
-3.305085353620661
 30
0.0
 10
36.33326174263829
 20
-3.718548078018814
 30
0.0
 10
37.18850204190708
 20
-3.964560966678889
 30
0.0
 10
38.04199346987733
 20
-4.025004458007972
 30
0.0
 10
38.82103329393575
 20
-3.932480264436548
 30
0.0
 10
39.31635291006766
 20
-3.744030647721273
 30
0.0
 10
39.52709704287712
 20
-3.663850800690217
 30
0.0
  0
SPLINE
  5
BF
330
1F
100
AcDbEntity
  8
0
  6
Continuous
 62
   131
370
    15
100
AcDbSpline
210
0.0
220
0.0
230
1.0
 70
    24
 71
     3
 72
    22
 73
    18
 74
     0
 42
0.000000001
 43
0.00000001
 40
0.0
 40
0.0
 40
0.0
 40
0.0
 40
0.0105748008658313
 40
0.0805660524005716
 40
0.1525870549713642
 40
0.222578306506101
 40
0.2945993090768891
 40
0.3645905606116283
 40
0.4366115631824208
 40
0.5066028147171561
 40
0.578623817287942
 40
0.6486150688226817
 40
0.7206360713934725
 40
0.7906273229281432
 40
0.862648325498998
 40
0.9304063690223772
 40
1.0
 40
1.0
 40
1.0
 40
1.0
 10
10.00000000000004
 20
-0.2282867738884676
 30
0.0
 10
10.00000000000004
 20
-0.2285859594240581
 30
0.0
 10
10.00000000000006
 20
-0.2308653590878162
 30
0.0
 10
10.00000000000006
 20
-0.2788161635314494
 30
0.0
 10
9.999999999999943
 20
-0.3727064612265679
 30
0.0
 10
10.00000000000006
 20
-0.5131328804650994
 30
0.0
 10
10.00000000000008
 20
-0.6880116318634064
 30
0.0
 10
9.99999999999993
 20
-0.8970387910122946
 30
0.0
 10
10.00000000000008
 20
-1.130134765988067
 30
0.0
 10
9.999999999999957
 20
-1.385005840130046
 30
0.0
 10
10.00000000000008
 20
-1.649817559649344
 30
0.0
 10
9.999999999999972
 20
-1.921864638834528
 30
0.0
 10
10.00000000000001
 20
-2.188487559368695
 30
0.0
 10
10.00000000000002
 20
-2.447166345180661
 30
0.0
 10
10.0
 20
-2.682569779926408
 30
0.0
 10
10.00000000000006
 20
-2.896026549927285
 30
0.0
 10
10.00000000000002
 20
-3.011039678881477
 30
0.0
 10
10.0
 20
-3.069314769324305
 30
0.0
  0
SPLINE
  5
C0
330
1F
100
AcDbEntity
  8
0
  6
Continuous
 62
     1
370
    15
100
AcDbSpline
210
0.0
220
0.0
230
1.0
 70
     8
 71
     3
 72
    24
 73
    20
 74
     0
 42
0.000000001
 43
0.00000001
 40
0.0
 40
0.0
 40
0.0
 40
0.0
 40
0.0376797284291116
 40
0.0979952751941567
 40
0.1582789528864876
 40
0.2184703651414295
 40
0.2786754125908398
 40
0.3389952204740634
 40
0.3992736566904797
 40
0.4594636922343061
 40
0.5196712580471257
 40
0.5799949066124901
 40
0.6402682416654777
 40
0.7004570434336618
 40
0.7606672700239311
 40
0.8209943386953429
 40
0.8812627130483078
 40
0.9414504240130485
 40
1.0
 40
1.0
 40
1.0
 40
1.0
 10
41.13941458422431
 20
-3.978686272574483
 30
0.0
 10
40.96145604422735
 20
-3.980172171572231
 30
0.0
 10
40.4986316867493
 20
-3.984036612407284
 30
0.0
 10
39.74992397017548
 20
-3.78530209901744
 30
0.0
 10
38.89526409401363
 20
-3.41473447327839
 30
0.0
 10
38.04197986143991
 20
-2.881232361541116
 30
0.0
 10
37.18850569642838
 20
-2.218681617507192
 30
0.0
 10
36.33326076344798
 20
-1.455593782786157
 30
0.0
 10
35.47866387661532
 20
-0.6261265148997788
 30
0.0
 10
34.62540446253476
 20
0.2321069427742326
 30
0.0
 10
33.77189198665994
 20
1.079937737412943
 30
0.0
 10
32.91658720613128
 20
1.877789601963368
 30
0.0
 10
32.06206954822979
 20
2.590910154123184
 30
0.0
 10
31.20882833424313
 20
3.186534700056752
 30
0.0
 10
30.35527494303836
 20
3.63715962269677
 30
0.0
 10
29.49992251073004
 20
3.923095880809861
 30
0.0
 10
28.64545966413954
 20
4.027678937934327
 30
0.0
 10
27.80017237117936
 20
3.962655970727368
 30
0.0
 10
27.23917405504757
 20
3.771844733987979
 30
0.0
 10
26.96254474691565
 20
3.677755359946762
 30
0.0
  0
SPLINE
  5
C1
330
1F
100
AcDbEntity
  8
0
  6
Continuous
 62
     1
370
    15
100
AcDbSpline
210
0.0
220
0.0
230
1.0
 70
     8
 71
     3
 72
    15
 73
    11
 74
     0
 42
0.000000001
 43
0.00000001
 40
0.0
 40
0.0
 40
0.0
 40
0.0
 40
0.0286980321587444
 40
0.1709168574711347
 40
0.3129818714859527
 40
0.4503313823917974
 40
0.5879488497822835
 40
0.7252718522950848
 40
0.8625111172569974
 40
1.0
 40
1.0
 40
1.0
 40
1.0
 10
16.00555236441379
 20
-3.985334170456333
 30
0.0
 10
15.94805402861601
 20
-3.989896645740159
 30
0.0
 10
15.60561121546364
 20
-4.017069377775856
 30
0.0
 10
14.97913853078968
 20
-3.888685368680578
 30
0.0
 10
14.135550060172
 20
-3.599184942698776
 30
0.0
 10
13.30110128731931
 20
-3.140453691848805
 30
0.0
 10
12.47453624715403
 20
-2.558899668996208
 30
0.0
 10
11.64985276941754
 20
-1.866554893400784
 30
0.0
 10
10.82568801150439
 20
-1.096065125937923
 30
0.0
 10
10.27539600213188
 20
-0.5499950152857258
 30
0.0
 10
10.00000000000001
 20
-0.276711880520954
 30
0.0
  0
LINE
  5
C2
330
1F
100
AcDbEntity
  8
0
  6
Continuous
 62
     1
370
    15
100
AcDbLine
 10
50.00000000000001
 20
2.388354086882573
 30
0.0
 11
50.00000000000001
 21
3.970810203617338
 31
0.0
  0
LINE
  5
C3
330
1F
100
AcDbEntity
  8
0
  6
Continuous
 62
     1
370
    15
100
AcDbLine
 10
10.0
 20
-3.75602636236619
 30
0.0
 11
10.20729026211297
 21
-3.665294176221356
 31
0.0
  0
SPLINE
  5
C4
330
1F
100
AcDbEntity
  8
0
  6
Continuous
 62
     1
370
    15
100
AcDbSpline
210
0.0
220
0.0
230
1.0
 70
     8
 71
     3
 72
    24
 73
    20
 74
     0
 42
0.000000001
 43
0.00000001
 40
0.0
 40
0.0
 40
0.0
 40
0.0
 40
0.0458930089575783
 40
0.1061537265482754
 40
0.1664882181402087
 40
0.2267060345594966
 40
0.2868946381847514
 40
0.3471600352554148
 40
0.4074919481734884
 40
0.4677068191386606
 40
0.5278963705916776
 40
0.5881665878995354
 40
0.6484955013206637
 40
0.7087075690877175
 40
0.7688982113775338
 40
0.8291733895371088
 40
0.8894988827476057
 40
0.9497082896558459
 40
1.0
 40
1.0
 40
1.0
 40
1.0
 10
21.16177882154446
 20
3.983530366300705
 30
0.0
 10
21.37851533192132
 20
3.979906930648752
 30
0.0
 10
21.87984197792179
 20
3.971525671583388
 30
0.0
 10
22.666593122689
 20
3.744738694811219
 30
0.0
 10
23.5220366252381
 20
3.350764763774376
 30
0.0
 10
24.3756747066371
 20
2.798145263407455
 30
0.0
 10
25.22888685236911
 20
2.120048350395578
 30
0.0
 10
26.08325248346637
 20
1.345265241391648
 30
0.0
 10
26.93865796251546
 20
0.510252813008202
 30
0.0
 10
27.79225139906553
 20
-0.3490166021298286
 30
0.0
 10
28.64547735740814
 20
-1.192211238632866
 30
0.0
 10
29.49991774832623
 20
-1.981100149899446
 30
0.0
 10
30.35527626682367
 20
-2.679445562783963
 30
0.0
 10
31.20882779416181
 20
-3.256971249678173
 30
0.0
 10
32.06207038682101
 20
-3.685984916970153
 30
0.0
 10
32.91658438694029
 20
-3.948689548740622
 30
0.0
 10
33.77190242395672
 20
-4.02734020013712
 30
0.0
 10
34.57861313022176
 20
-3.945357200622721
 30
0.0
 10
35.10055168919474
 20
-3.755098286306455
 30
0.0
 10
35.33809845322753
 20
-3.668506888435503
 30
0.0
  0
SPLINE
  5
C5
330
1F
100
AcDbEntity
  8
0
  6
Continuous
 62
     1
370
    15
100
AcDbSpline
210
0.0
220
0.0
230
1.0
 70
     8
 71
     3
 72
    12
 73
     8
 74
     0
 42
0.000000001
 43
0.00000001
 40
0.0
 40
0.0
 40
0.0
 40
0.0
 40
0.0778596732001034
 40
0.3086074032444633
 40
0.5389441267339278
 40
0.7692733965947803
 40
1.0
 40
1.0
 40
1.0
 40
1.0
 10
46.2946894032678
 20
3.979619346894379
 30
0.0
 10
46.39088258625879
 20
3.985206926408152
 30
0.0
 10
46.77215734882267
 20
4.007354057693119
 30
0.0
 10
47.43835550084311
 20
3.859751858390572
 30
0.0
 10
48.2917052561149
 20
3.53936263163186
 30
0.0
 10
49.14506378648176
 20
3.053457414837568
 30
0.0
 10
49.71485758121206
 20
2.620034823585281
 30
0.0
 10
50.00000000000004
 20
2.4031367682361
 30
0.0
  0
LINE
  5
C6
330
1F
100
AcDbEntity
  8
0
  6
Continuous
 62
   131
370
    15
100
AcDbLine
 10
10.0
 20
-3.656194086083228
 30
0.0
 11
10.0
 21
-3.756026362366187
 31
0.0
  0
SPLINE
  5
C7
330
1F
100
AcDbEntity
  8
0
  6
Continuous
 62
     1
370
    15
100
AcDbSpline
210
0.0
220
0.0
230
1.0
 70
     8
 71
     3
 72
    10
 73
     6
 74
     0
 42
0.000000001
 43
0.00000001
 40
0.0
 40
0.0
 40
0.0
 40
0.0
 40
0.4081788299202667
 40
0.8156547363855458
 40
1.0
 40
1.0
 40
1.0
 40
1.0
 10
50.00000000000001
 20
3.970810203617338
 30
0.0
 10
49.71485087550963
 20
3.985892398231495
 30
0.0
 10
49.14504368092239
 20
4.016030814460795
 30
0.0
 10
48.44744938109093
 20
3.890211138986591
 30
0.0
 10
48.03444124251455
 20
3.714106864753957
 30
0.0
 10
47.90579411390556
 20
3.659252475458162
 30
0.0
  0
SPLINE
  5
C8
330
1F
100
AcDbEntity
  8
0
  6
Continuous
 62
     1
370
    15
100
AcDbSpline
210
0.0
220
0.0
230
1.0
 70
     8
 71
     3
 72
    24
 73
    20
 74
     0
 42
0.000000001
 43
0.00000001
 40
0.0
 40
0.0
 40
0.0
 40
0.0
 40
0.0435434989354209
 40
0.1038206048510677
 40
0.1640093120450625
 40
0.2242155491211702
 40
0.284537866387962
 40
0.3448098712527589
 40
0.4049973446983398
 40
0.4652062424931758
 40
0.5255319797905357
 40
0.585799024064789
 40
0.6459854067309998
 40
0.7061971075763738
 40
0.7665258442127661
 40
0.826788068503594
 40
0.8869735033919443
 40
0.9471881495363651
 40
1.0
 40
1.0
 40
1.0
 40
1.0
 10
36.95085660895042
 20
-3.981697061632453
 30
0.0
 10
36.74495095848386
 20
-3.979815937923446
 30
0.0
 10
36.2540108710693
 20
-3.975330781561566
 30
0.0
 10
35.47864927825764
 20
-3.757233535687742
 30
0.0
 10
34.62540837112672
 20
-3.369756177675864
 30
0.0
 10
33.77189094301779
 20
-2.822640141780126
 30
0.0
 10
32.91658746304906
 20
-2.149740833084386
 30
0.0
 10
32.06206956411692
 20
-1.378307142572484
 30
0.0
 10
31.20882801474774
 20
-0.5441699372384369
 30
0.0
 10
30.35527620683099
 20
0.3149205707678204
 30
0.0
 10
29.4999177671952
 20
1.158676926021651
 30
0.0
 10
28.64547734194065
 20
1.95050070529721
 30
0.0
 10
27.79225144204799
 20
2.653800204880648
 30
0.0
 10
26.93865780582844
 20
3.236688606765477
 30
0.0
 10
26.08325306815754
 20
3.67165671883433
 30
0.0
 10
25.22888467454874
 20
3.94143502312105
 30
0.0
 10
24.37568282469353
 20
4.027808271359094
 30
0.0
 10
23.55752413564159
 20
3.950549973958496
 30
0.0
 10
23.02289683012689
 20
3.759926243501967
 30
0.0
 10
22.7730911813636
 20
3.670856934536295
 30
0.0
  0
SPLINE
  5
C9
330
1F
100
AcDbEntity
  8
0
  6
Continuous
 62
     1
370
    15
100
AcDbSpline
210
0.0
220
0.0
230
1.0
 70
     8
 71
     3
 72
    10
 73
     6
 74
     0
 42
0.000000001
 43
0.00000001
 40
0.0
 40
0.0
 40
0.0
 40
0.0
 40
0.0919322165863812
 40
0.545553573452715
 40
1.0
 40
1.0
 40
1.0
 40
1.0
 10
11.81672137664093
 20
-3.986285887158206
 30
0.0
 10
11.76105439605786
 20
-3.990505283093122
 30
0.0
 10
11.43070969962726
 20
-4.015544454512886
 30
0.0
 10
10.82572818070671
 20
-3.90362773196076
 30
0.0
 10
10.27540939997413
 20
-3.697377528297868
 30
0.0
 10
10.00000000000001
 20
-3.594158727079195
 30
0.0
  0
LINE
  5
CA
330
1F
100
AcDbEntity
  8
0
  6
Continuous
 62
     1
370
    15
100
AcDbLine
 10
50.00000000000001
 20
-3.970810203617364
 30
0.0
 11
50.00000000000001
 21
-2.386288402828263
 31
0.0
  0
SPLINE
  5
CB
330
1F
100
AcDbEntity
  8
0
  6
Continuous
 62
     1
370
    15
100
AcDbSpline
210
0.0
220
0.0
230
1.0
 70
     8
 71
     3
 72
    25
 73
    21
 74
     0
 42
0.000000001
 43
0.00000001
 40
0.0
 40
0.0
 40
0.0
 40
0.0
 40
0.0364601274190088
 40
0.0946428966671656
 40
0.1548232050945243
 40
0.2150686696857108
 40
0.275400729854004
 40
0.3356185496323766
 40
0.3957993766537357
 40
0.4560492383377552
 40
0.5163795619272764
 40
0.5765941523448987
 40
0.636775641026173
 40
0.6970300408185129
 40
0.7573582068775435
 40
0.8175697099962792
 40
0.8777520033836824
 40
0.9380110821653869
 40
0.9983366698209086
 40
1.0
 40
1.0
 40
1.0
 40
1.0
 10
12.78404948118353
 20
3.980050785322593
 30
0.0
 10
12.95652130600121
 20
3.981470229501335
 30
0.0
 10
13.40422223986317
 20
3.985154810939834
 30
0.0
 10
14.13555945447867
 20
3.797345341768769
 30
0.0
 10
14.97912787873848
 20
3.439788945272561
 30
0.0
 10
15.8332796159295
 20
2.914324826693507
 30
0.0
 10
16.68878749396089
 20
2.259236260187206
 30
0.0
 10
17.54251970876019
 20
1.500097923359433
 30
0.0
 10
18.3957109932476
 20
0.6731117534262856
 30
0.0
 10
19.24993384781575
 20
-0.1845173773512619
 30
0.0
 10
20.10541363059907
 20
-1.032855952379439
 30
0.0
 10
20.95909736596865
 20
-1.835371642817907
 30
0.0
 10
21.81229823467659
 20
-2.554286828049277
 30
0.0
 10
22.66659083307349
 20
-3.157001019673912
 30
0.0
 10
23.52203853273912
 20
-3.616255533579404
 30
0.0
 10
24.37566937601618
 20
-3.910418502437219
 30
0.0
 10
25.22890627263027
 20
-4.031874924214172
 30
0.0
 10
26.08317999545208
 20
-3.951013555145687
 30
0.0
 10
26.66181643234899
 20
-3.823402358462637
 30
0.0
 10
26.95468625806517
 20
-3.681561337829508
 30
0.0
 10
26.96254474691568
 20
-3.677755359946789
 30
0.0
  0
SPLINE
  5
CC
330
1F
100
AcDbEntity
  8
0
  6
Continuous
 62
     1
370
    15
100
AcDbSpline
210
0.0
220
0.0
230
1.0
 70
     8
 71
     3
 72
    22
 73
    18
 74
     0
 42
0.000000001
 43
0.00000001
 40
0.0
 40
0.0
 40
0.0
 40
0.0
 40
0.010297761031585
 40
0.0809240004464232
 40
0.1516585005022185
 40
0.2224303944764326
 40
0.2930698451351656
 40
0.3636978675955616
 40
0.434438682248633
 40
0.5052050832532713
 40
0.57584191342795
 40
0.6464718865476416
 40
0.7172191800665773
 40
0.7879795951610573
 40
0.8586139722033956
 40
0.9292460635380718
 40
1.0
 40
1.0
 40
1.0
 40
1.0
 10
37.91766430652386
 20
3.98867897845227
 30
0.0
 10
37.95912406473679
 20
3.992307568344507
 30
0.0
 10
38.28493173126169
 20
4.020822505636088
 30
0.0
 10
38.89522919533572
 20
3.899500102757743
 30
0.0
 10
39.7499471405788
 20
3.617536961600078
 30
0.0
 10
40.60511435965417
 20
3.154178106106837
 30
0.0
 10
41.45855808173544
 20
2.55168267221057
 30
0.0
 10
42.31185836912953
 20
1.832013250008757
 30
0.0
 10
43.16662134667405
 20
1.029839602638904
 30
0.0
 10
44.02172559403165
 20
0.1810800493476165
 30
0.0
 10
44.87513426423786
 20
-0.6766473897896335
 30
0.0
 10
45.7284592033533
 20
-1.503620505846211
 30
0.0
 10
46.58330832591027
 20
-2.261551202978491
 30
0.0
 10
47.43833260135088
 20
-2.917648279607767
 30
0.0
 10
48.29171135747797
 20
-3.438241802832973
 30
0.0
 10
49.14506225809129
 20
-3.815427384690083
 30
0.0
 10
49.71485707145596
 20
-3.918986181981074
 30
0.0
 10
50.00000000000002
 20
-3.970810203617364
 30
0.0
  0
SPLINE
  5
CD
330
1F
100
AcDbEntity
  8
0
  6
Continuous
 62
     1
370
    15
100
AcDbSpline
210
0.0
220
0.0
230
1.0
 70
     8
 71
     3
 72
    20
 73
    16
 74
     0
 42
0.000000001
 43
0.00000001
 40
0.0
 40
0.0
 40
0.0
 40
0.0
 40
0.0816291137946771
 40
0.1631176543540706
 40
0.2446088319439966
 40
0.3262454201642731
 40
0.4078668699677093
 40
0.48935296673357
 40
0.570846974512585
 40
0.652490468702565
 40
0.7341044438112283
 40
0.8155882900932653
 40
0.8970853211357452
 40
0.9787351525878034
 40
1.0
 40
1.0
 40
1.0
 40
1.0
 10
50.00000000000001
 20
-2.403136768236109
 30
0.0
 10
49.71485707147528
 20
-2.164902668822961
 30
0.0
 10
49.14506225814927
 20
-1.688844732175839
 30
0.0
 10
48.29171135724687
 20
-0.8680561916293916
 30
0.0
 10
47.43833260221821
 20
-0.0155998480730477
 30
0.0
 10
46.58330832266594
 20
0.8389576494695431
 30
0.0
 10
45.72845921544982
 20
1.654999888506724
 30
0.0
 10
44.87513421917409
 20
2.396505094812856
 30
0.0
 10
44.02172576237002
 20
3.029001583092941
 30
0.0
 10
43.16662071723926
 20
3.523662793152249
 30
0.0
 10
42.31186071554104
 20
3.857577611181139
 30
0.0
 10
41.45854933968594
 20
4.019840534036916
 30
0.0
 10
40.60514701891752
 20
3.98639890057074
 30
0.0
 10
39.96069716566854
 20
3.861359108342762
 30
0.0
 10
39.60134793370871
 20
3.697672672546287
 30
0.0
 10
39.52709704287715
 20
3.663850800690189
 30
0.0
  0
SPLINE
  5
CE
330
1F
100
AcDbEntity
  8
0
  6
Continuous
 62
     1
370
    15
100
AcDbSpline
210
0.0
220
0.0
230
1.0
 70
     8
 71
     3
 72
    24
 73
    20
 74
     0
 42
0.000000001
 43
0.00000001
 40
0.0
 40
0.0
 40
0.0
 40
0.0
 40
0.055034589173487
 40
0.1152495594614708
 40
0.175581571895414
 40
0.2358470683722304
 40
0.2960357712769721
 40
0.3562536870239299
 40
0.4165882781359864
 40
0.4768490951251183
 40
0.5370369932380261
 40
0.5972579966126732
 40
0.6575947454850012
 40
0.7178510238824969
 40
0.7780382602650215
 40
0.8382624933443512
 40
0.8986009789804003
 40
0.9588528598167647
 40
0.9999999999999999
 40
0.9999999999999999
 40
0.9999999999999999
 40
0.9999999999999999
 10
28.57216477971529
 20
-3.992886118281014
 30
0.0
 10
28.31222418940269
 20
-3.981087600987725
 30
0.0
 10
27.76787491797914
 20
-3.956379977277413
 30
0.0
 10
26.93866628550372
 20
-3.695753675345697
 30
0.0
 10
26.08325024497725
 20
-3.276047526985989
 30
0.0
 10
25.22888748517809
 20
-2.702904248880261
 30
0.0
 10
24.37567440979925
 20
-2.008017962783947
 30
0.0
 10
23.52203718068147
 20
-1.221358029170142
 30
0.0
 10
22.6665911952252
 20
-0.380365179163671
 30
0.0
 10
21.8122981376273
 20
0.4787530794991186
 30
0.0
 10
20.95909739269726
 20
1.31614016959124
 30
0.0
 10
20.10541362071635
 20
2.093910628266964
 30
0.0
 10
19.24993386056993
 20
2.775619393336862
 30
0.0
 10
18.39571095219711
 20
3.332112872696388
 30
0.0
 10
17.54251986008565
 20
3.736713030689513
 30
0.0
 10
16.68878692880772
 20
3.973226638295187
 30
0.0
 10
15.83328172812072
 20
4.022809547704572
 30
0.0
 10
15.06908096260007
 20
3.924905352420461
 30
0.0
 10
14.5902025942497
 20
3.737817368803267
 30
0.0
 10
14.39587650357251
 20
3.661898139888744
 30
0.0
  0
SPLINE
  5
CF
330
1F
100
AcDbEntity
  8
0
  6
Continuous
 62
     1
370
    15
100
AcDbSpline
210
0.0
220
0.0
230
1.0
 70
     8
 71
     3
 72
    23
 73
    19
 74
     0
 42
0.000000001
 43
0.00000001
 40
0.0
 40
0.0
 40
0.0
 40
0.0
 40
0.0646459837127373
 40
0.1291745994849612
 40
0.1937425878685782
 40
0.2584490308770836
 40
0.323029483258594
 40
0.3898271209942826
 40
0.4566970793601135
 40
0.5236631552125482
 40
0.5905024289866934
 40
0.6573006423401392
 40
0.724175481296014
 40
0.7911396296182857
 40
0.8579753189363993
 40
0.9247742667048137
 40
0.9916541427720544
 40
1.0
 40
1.0
 40
1.0
 40
1.0
 10
10.0
 20
3.75602636236616
 30
0.0
 10
10.27539600566785
 20
3.646003949198211
 30
0.0
 10
10.8256880221059
 20
3.426158873926527
 30
0.0
 10
11.64985272709071
 20
2.907946786227156
 30
0.0
 10
12.47453640614125
 20
2.277673610904516
 30
0.0
 10
13.30110069284908
 20
1.548998327813078
 30
0.0
 10
14.13555230596659
 20
0.7449612978051705
 30
0.0
 10
14.97912982385013
 20
-0.1017825545522831
 30
0.0
 10
15.83327909301518
 20
-0.9535400837370335
 30
0.0
 10
16.68878763617195
 20
-1.76109114016021
 30
0.0
 10
17.54251966213506
 20
-2.489713645982671
 30
0.0
 10
18.39571103776116
 20
-3.104907289016393
 30
0.0
 10
19.249933716176
 20
-3.579316708218701
 30
0.0
 10
20.10541411286569
 20
-3.889667494255656
 30
0.0
 10
20.9590955729588
 20
-4.028036162793956
 30
0.0
 10
21.81230492534739
 20
-3.967104689239408
 30
0.0
 10
22.4169988119942
 20
-3.839149753713857
 30
0.0
 10
22.73753010066483
 20
-3.68766345733375
 30
0.0
 10
22.7730911813636
 20
-3.670856934536324
 30
0.0
  0
SPLINE
  5
D0
330
1F
100
AcDbEntity
  8
0
  6
Continuous
 62
     1
370
    15
100
AcDbSpline
210
0.0
220
0.0
230
1.0
 70
     8
 71
     3
 72
    25
 73
    21
 74
     0
 42
0.000000001
 43
0.00000001
 40
0.0
 40
0.0
 40
0.0
 40
0.0
 40
0.0030313579930101
 40
0.0632402027745589
 40
0.1234315169147252
 40
0.1837112336053462
 40
0.2440323228416193
 40
0.3042386492062624
 40
0.3644313400867892
 40
0.4247162983646694
 40
0.4850331263922465
 40
0.5452370768319187
 40
0.6054312873503448
 40
0.6657216273759298
 40
0.7260337739052078
 40
0.7862354909824931
 40
0.8464313639911348
 40
0.9067272257657674
 40
0.9670342706778168
 40
1.0
 40
1.0
 40
1.0
 40
1.0
 10
33.7292060794982
 20
3.995656354355409
 30
0.0
 10
33.74354024448679
 20
3.99709310470998
 30
0.0
 10
34.04257965275607
 20
4.027066596448346
 30
0.0
 10
34.62535674939357
 20
3.916798186233537
 30
0.0
 10
35.47867666137875
 20
3.653812898044021
 30
0.0
 10
36.33325740398394
 20
3.204441654639817
 30
0.0
 10
37.18850632935749
 20
2.615414175233286
 30
0.0
 10
38.04198068080681
 20
1.905430564886955
 30
0.0
 10
38.895260182283
 20
1.109333523600806
 30
0.0
 10
39.74993882645033
 20
0.2630742577624452
 30
0.0
 10
40.60511658483493
 20
-0.5947198718102361
 30
0.0
 10
41.45855748031308
 20
-1.426357206276692
 30
0.0
 10
42.31185855220646
 20
-2.19306056884577
 30
0.0
 10
43.16662121658739
 20
-2.859724181911205
 30
0.0
 10
44.02172593091442
 20
-3.396555950368679
 30
0.0
 10
44.87513304922251
 20
-3.778960411392783
 30
0.0
 10
45.72846373018328
 20
-3.991696121035133
 30
0.0
 10
46.58329140171094
 20
-4.014953317872434
 30
0.0
 10
47.30959319797106
 20
-3.905519497454321
 30
0.0
 10
47.75010312056649
 20
-3.723562268107758
 30
0.0
 10
47.90579411390554
 20
-3.659252475458191
 30
0.0
  0
SPLINE
  5
D1
330
1F
100
AcDbEntity
  8
0
  6
Continuous
 62
     1
370
    15
100
AcDbSpline
210
0.0
220
0.0
230
1.0
 70
     8
 71
     3
 72
    25
 73
    21
 74
     0
 42
0.000000001
 43
0.00000001
 40
0.0
 40
0.0
 40
0.0
 40
0.0
 40
0.02617033828081
 40
0.0863636607647279
 40
0.1465589311498862
 40
0.2068616123305404
 40
0.2671531111829738
 40
0.3273446285044579
 40
0.3875419894717197
 40
0.4478497719004582
 40
0.5081357494033885
 40
0.5683256043549538
 40
0.6285251985229999
 40
0.6888376621112895
 40
0.7491182582559305
 40
0.8093065936795559
 40
0.8695085636006535
 40
0.9298252880893041
 40
0.9901006430259613
 40
1.0
 40
1.0
 40
1.0
 40
1.0
 10
49.51595119872534
 20
-3.977601022000274
 30
0.0
 10
49.39220274509893
 20
-3.982814726517371
 30
0.0
 10
48.98382554513791
 20
-4.000020259109677
 30
0.0
 10
48.29173283394734
 20
-3.836396157139214
 30
0.0
 10
47.43832683523254
 20
-3.499913537163683
 30
0.0
 10
46.58330987166553
 20
-2.994175027660889
 30
0.0
 10
45.72845879071883
 20
-2.355293516628052
 30
0.0
 10
44.87513437193941
 20
-1.608227417833837
 30
0.0
 10
44.02172557553958
 20
-0.7881897002080528
 30
0.0
 10
43.16662131263531
 20
0.0669313100812611
 30
0.0
 10
42.31185852359359
 20
0.9192625279322794
 30
0.0
 10
41.45855749887798
 20
1.730255833821343
 30
0.0
 10
40.6051165391196
 20
2.462698489871225
 30
0.0
 10
39.74993899102477
 20
3.082533356448081
 30
0.0
 10
38.89525957057725
 20
3.562987995408606
 30
0.0
 10
38.04198295962856
 20
3.880644199471712
 30
0.0
 10
37.18849781535988
 20
4.02597544232221
 30
0.0
 10
36.33328923670329
 20
3.973221413953184
 30
0.0
 10
35.71632001419029
 20
3.845816999825596
 30
0.0
 10
35.38485703936406
 20
3.690427294282265
 30
0.0
 10
35.33809845322753
 20
3.668506888435473
 30
0.0
  0
SPLINE
  5
D2
330
1F
100
AcDbEntity
  8
0
  6
Continuous
 62
     1
370
    15
100
AcDbSpline
210
0.0
220
0.0
230
1.0
 70
     8
 71
     3
 72
    25
 73
    21
 74
     0
 42
0.000000001
 43
0.00000001
 40
0.0
 40
0.0
 40
0.0
 40
0.0
 40
0.000575723644336
 40
0.0607923701260886
 40
0.121125689513672
 40
0.181385236333332
 40
0.2415718658137423
 40
0.3017915998581034
 40
0.3621270769604775
 40
0.4223820852841651
 40
0.48256805304814
 40
0.5427910167291087
 40
0.6031282305585965
 40
0.6633788414138443
 40
0.7235642905395191
 40
0.7817520298529986
 40
0.8400532881879356
 40
0.8982297972942315
 40
0.9563708312193657
 40
1.0
 40
1.0
 40
1.0
 40
1.0
 10
24.38395383517685
 20
-3.999140064854231
 30
0.0
 10
24.38123458129741
 20
-3.99942641125775
 30
0.0
 10
24.09410048504735
 20
-4.029662578763237
 30
0.0
 10
23.522047819847
 20
-3.923250338373271
 30
0.0
 10
22.66658834584555
 20
-3.668831837112297
 30
0.0
 10
21.81229889991712
 20
-3.225452426320065
 30
0.0
 10
20.95909718753614
 20
-2.641384649140797
 30
0.0
 10
20.10541367917867
 20
-1.935497610494034
 30
0.0
 10
19.24993383236561
 20
-1.143131348928647
 30
0.0
 10
18.39571100647146
 20
-0.2978907968724397
 30
0.0
 10
17.54251967132092
 20
0.5608427139314058
 30
0.0
 10
16.68878763071196
 20
1.394300870700255
 30
0.0
 10
15.8332791056653
 20
2.163399406095664
 30
0.0
 10
14.97912977880816
 20
2.835075987941221
 30
0.0
 10
14.1355524709674
 20
3.371851551212741
 30
0.0
 10
13.30110009939483
 20
3.754666517513334
 30
0.0
 10
12.47453862621488
 20
3.974880957939857
 30
0.0
 10
11.64984446340475
 20
4.021711231530556
 30
0.0
 10
10.89472924852098
 20
3.92596443291816
 30
0.0
 10
10.41356619891911
 20
3.743512028948296
 30
0.0
 10
10.20729026211297
 20
3.665294176221326
 30
0.0
  0
LINE
  5
D3
330
1F
100
AcDbEntity
  8
0
  6
Continuous
 62
     1
370
    15
100
AcDbLine
 10
50.00000000000001
 20
-4.000000000000018
 30
0.0
 11
50.00000000000001
 21
-3.970810203617364
 31
0.0
  0
LINE
  5
D4
330
1F
100
AcDbEntity
  8
0
  6
Continuous
 62
   131
370
    15
100
AcDbLine
 10
50.00000000000001
 20
3.970810203617338
 30
0.0
 11
50.00000000000001
 21
3.999999999999988
 31
0.0
  0
LINE
  5
D5
330
1F
100
AcDbEntity
  8
0
  6
Continuous
 62
   131
370
    15
100
AcDbLine
 10
10.0
 20
-3.594158727079203
 30
0.0
 11
10.0
 21
-3.069314769324305
 31
0.0
  0
LINE
  5
D6
330
1F
100
AcDbEntity
  8
0
  6
Continuous
 62
   131
370
    15
100
AcDbLine
 10
10.0
 20
-0.2767118805209657
 30
0.0
 11
10.0
 21
0.6867115930418805
 31
0.0
  0
LINE
  5
D7
330
1F
100
AcDbEntity
  8
0
  6
Continuous
 62
     1
370
    15
100
AcDbLine
 10
50.00000000000001
 20
1.567673435381257
 30
0.0
 11
50.00000000000001
 21
2.4031367682361
 31
0.0
  0
LINE
  5
D8
330
1F
100
AcDbEntity
  8
0
  6
Continuous
 62
     1
370
    15
100
AcDbLine
 10
50.00000000000001
 20
-2.403136768236109
 30
0.0
 11
50.00000000000001
 21
-1.567673435381212
 31
0.0
  0
LINE
  5
D9
330
1F
100
AcDbEntity
  8
0
  6
Continuous
 62
   131
370
    15
100
AcDbLine
 10
10.0
 20
3.317446846558224
 30
0.0
 11
10.0
 21
3.756026362366157
 31
0.0
  0
SPLINE
  5
DA
330
1F
100
AcDbEntity
  8
0
  6
Continuous
 62
   131
370
    15
100
AcDbSpline
210
0.0
220
0.0
230
1.0
 70
    24
 71
     3
 72
    15
 73
    11
 74
     0
 42
0.000000001
 43
0.00000001
 40
0.0
 40
0.0
 40
0.0
 40
0.0
 40
0.0696751553763618
 40
0.2214250288765757
 40
0.3731749023767821
 40
0.5249247758769957
 40
0.6766746493772055
 40
0.8284245228774179
 40
0.9801743963776129
 40
0.9999999999999999
 40
0.9999999999999999
 40
0.9999999999999999
 40
0.9999999999999999
 10
10.00000000000001
 20
-3.069314769324317
 30
0.0
 10
10.00000000000001
 20
-3.01501442141604
 30
0.0
 10
10.00000000000001
 20
-2.842449953656312
 30
0.0
 10
10.00000000000006
 20
-2.461037048361493
 30
0.0
 10
9.999999999999964
 20
-1.930105096318956
 30
0.0
 10
10.00000000000001
 20
-1.385919022395119
 30
0.0
 10
10.00000000000001
 20
-0.8863755541678228
 30
0.0
 10
9.999999999999897
 20
-0.5090991044813823
 30
0.0
 10
10.00000000000001
 20
-0.3001274501379885
 30
0.0
 10
9.999999999999993
 20
-0.279137299437148
 30
0.0
 10
10.0
 20
-0.2767118805209487
 30
0.0
  0
SPLINE
  5
DB
330
1F
100
AcDbEntity
  8
0
  6
Continuous
 62
   131
370
    15
100
AcDbSpline
210
0.0
220
0.0
230
1.0
 70
     8
 71
     3
 72
     8
 73
     4
 74
     0
 42
0.000000001
 43
0.00000001
 40
0.0
 40
0.0
 40
0.0
 40
0.0
 40
1.0
 40
1.0
 40
1.0
 40
1.0
 10
10.00000000000003
 20
-3.069314769324321
 30
0.0
 10
9.670038511703877
 20
-2.856397825210325
 30
0.0
 10
9.331422102971615
 20
-2.609437352711776
 30
0.0
 10
8.999741906309461
 20
-2.339662464088418
 30
0.0
  0
SPLINE
  5
DC
330
1F
100
AcDbEntity
  8
0
  6
Continuous
 62
   131
370
    15
100
AcDbSpline
210
0.0
220
0.0
230
1.0
 70
     8
 71
     3
 72
     8
 73
     4
 74
     0
 42
0.000000001
 43
0.00000001
 40
0.0
 40
0.0
 40
0.0
 40
0.0
 40
1.0
 40
1.0
 40
1.0
 40
1.0
 10
10.00000000000001
 20
-0.2767118805209645
 30
0.0
 10
9.670038511703863
 20
0.054524837113662
 30
0.0
 10
9.331422102971608
 20
0.3915051004278617
 30
0.0
 10
8.999741906309469
 20
0.7186984330697593
 30
0.0
  0
LINE
  5
DD
330
1F
100
AcDbEntity
  8
0
  6
Continuous
 62
   131
370
    15
100
AcDbLine
 10
8.999741906309454
 20
3.979541940965011
 30
0.0
 11
8.999741906309454
 21
3.999999999999985
 31
0.0
  0
SPLINE
  5
DE
330
1F
100
AcDbEntity
  8
0
  6
Continuous
 62
   131
370
    15
100
AcDbSpline
210
0.0
220
0.0
230
1.0
 70
     8
 71
     3
 72
     8
 73
     4
 74
     0
 42
0.000000001
 43
0.00000001
 40
0.0
 40
0.0
 40
0.0
 40
0.0
 40
1.0
 40
1.0
 40
1.0
 40
1.0
 10
10.00000000000003
 20
3.756026362366146
 30
0.0
 10
9.670038511703877
 20
3.870211937212586
 30
0.0
 10
9.331422102971615
 20
3.945949006367273
 30
0.0
 10
8.999741906309461
 20
3.979543791293233
 30
0.0
  0
SPLINE
  5
DF
330
1F
100
AcDbEntity
  8
0
  6
Continuous
 62
   131
370
    15
100
AcDbSpline
210
0.0
220
0.0
230
1.0
 70
     8
 71
     3
 72
     8
 73
     4
 74
     0
 42
0.000000001
 43
0.00000001
 40
0.0
 40
0.0
 40
0.0
 40
0.0
 40
1.0
 40
1.0
 40
1.0
 40
1.0
 10
10.00000000000001
 20
3.317446846558219
 30
0.0
 10
9.670038511703863
 20
3.502957211811172
 30
0.0
 10
9.331422102971608
 20
3.655234151078704
 30
0.0
 10
8.999741906309469
 20
3.767076380162753
 30
0.0
  0
LINE
  5
E0
330
1F
100
AcDbEntity
  8
0
  6
Continuous
 62
   131
370
    15
100
AcDbLine
 10
8.999741906309454
 20
1.639864618617859
 30
0.0
 11
8.999741906309454
 21
3.7670814178273
 31
0.0
  0
SPLINE
  5
E1
330
1F
100
AcDbEntity
  8
0
  6
Continuous
 62
   131
370
    15
100
AcDbSpline
210
0.0
220
0.0
230
1.0
 70
     8
 71
     3
 72
     8
 73
     4
 74
     0
 42
0.000000001
 43
0.00000001
 40
0.0
 40
0.0
 40
0.0
 40
0.0
 40
1.0
 40
1.0
 40
1.0
 40
1.0
 10
10.00000000000003
 20
0.6867115930418525
 30
0.0
 10
9.670038511703877
 20
1.013814112002288
 30
0.0
 10
9.331422102971615
 20
1.336511653655521
 30
0.0
 10
8.999741906309461
 20
1.639881327204839
 30
0.0
  0
SPLINE
  5
E2
330
1F
100
AcDbEntity
  8
0
  6
Continuous
 62
   131
370
    15
100
AcDbSpline
210
0.0
220
0.0
230
1.0
 70
     8
 71
     3
 72
     8
 73
     4
 74
     0
 42
0.000000001
 43
0.00000001
 40
0.0
 40
0.0
 40
0.0
 40
0.0
 40
1.0
 40
1.0
 40
1.0
 40
1.0
 10
10.00000000000001
 20
-3.594158727079197
 30
0.0
 10
9.670038511703863
 20
-3.448432374697525
 30
0.0
 10
9.331422102971608
 20
-3.263729050650858
 30
0.0
 10
8.999741906309469
 20
-3.04837794709301
 30
0.0
  0
LINE
  5
E3
330
1F
100
AcDbEntity
  8
0
  6
Continuous
 62
   131
370
    15
100
AcDbLine
 10
8.999741906309454
 20
-4.000000000000015
 30
0.0
 11
8.999741906309454
 21
-3.048368247047597
 31
0.0
  0
SPLINE
  5
E4
330
1F
100
AcDbEntity
  8
0
  6
Continuous
 62
   131
370
    15
100
AcDbSpline
210
0.0
220
0.0
230
1.0
 70
     8
 71
     3
 72
     8
 73
     4
 74
     0
 42
0.000000001
 43
0.00000001
 40
0.0
 40
0.0
 40
0.0
 40
0.0
 40
1.0
 40
1.0
 40
1.0
 40
1.0
 10
10.00000000000003
 20
-3.756026362366176
 30
0.0
 10
9.670038511703877
 20
-3.870211937212616
 30
0.0
 10
9.331422102971615
 20
-3.945949006367302
 30
0.0
 10
8.999741906309461
 20
-3.979543791293263
 30
0.0
  0
LINE
  5
E5
330
1F
100
AcDbEntity
  8
0
  6
Continuous
 62
   131
370
    15
100
AcDbLine
 10
-39.19999999999999
 20
-0.0000000000000149
 30
0.0
 11
-39.19999999999999
 21
3.999999999999985
 31
0.0
  0
LINE
  5
E6
330
1F
100
AcDbEntity
  8
0
  6
Continuous
 62
   131
370
    15
100
AcDbLine
 10
-39.19999999999999
 20
-4.000000000000015
 30
0.0
 11
-39.19999999999999
 21
-0.0000000000000149
 31
0.0
  0
LINE
  5
E7
330
1F
100
AcDbEntity
  8
0
  6
Continuous
 62
   131
370
    15
100
AcDbLine
 10
8.999741906309454
 20
-2.339677322347177
 30
0.0
 11
8.999741906309454
 21
0.7187131707797203
 31
0.0
  0
LINE
  5
E8
330
1F
100
AcDbEntity
  8
0
  6
Continuous
 62
   131
370
    15
100
AcDbLine
 10
-39.99999999999999
 20
-0.0000000000000149
 30
0.0
 11
-39.99999999999999
 21
3.199999999999989
 31
0.0
  0
LINE
  5
E9
330
1F
100
AcDbEntity
  8
0
  6
Continuous
 62
   131
370
    15
100
AcDbLine
 10
-39.99999999999999
 20
-3.200000000000019
 30
0.0
 11
-39.99999999999999
 21
-0.0000000000000149
 31
0.0
  0
SPLINE
  5
EA
330
1F
100
AcDbEntity
  8
0
  6
Continuous
 62
   131
370
    15
100
AcDbSpline
210
0.0
220
0.0
230
1.0
 70
    24
 71
     3
 72
    15
 73
    11
 74
     0
 42
0.000000001
 43
0.00000001
 40
0.0
 40
0.0
 40
0.0
 40
0.0
 40
0.0468821670463773
 40
0.1899352466295996
 40
0.3329883262128288
 40
0.4760414057960541
 40
0.6190944853792821
 40
0.7621475649624938
 40
0.9052006445457333
 40
1.0
 40
1.0
 40
1.0
 40
1.0
 10
10.00000000000002
 20
0.5962168358100582
 30
0.0
 10
10.00000000000004
 20
0.591080556232644
 30
0.0
 10
10.00000000000006
 20
0.5702717798949438
 30
0.0
 10
9.999999999999957
 20
0.7194936087123647
 30
0.0
 10
10.00000000000003
 20
1.029293457736425
 30
0.0
 10
9.999999999999993
 20
1.480780759781636
 30
0.0
 10
9.999999999999902
 20
2.007874903275035
 30
0.0
 10
10.00000000000004
 20
2.552731374124166
 30
0.0
 10
10.0
 20
3.005426966065783
 30
0.0
 10
10.00000000000002
 20
3.228527188209632
 30
0.0
 10
10.00000000000003
 20
3.317446846558329
 30
0.0
  0
LINE
  5
EB
330
1F
100
AcDbEntity
  8
0
  6
Continuous
 62
   131
370
    15
100
AcDbLine
 10
10.00000000000001
 20
-3.756026362366177
 30
0.0
 11
10.00000000000001
 21
-3.656194086083228
 31
0.0
  0
LINE
  5
EC
330
1F
100
AcDbEntity
  8
중심선
 62
     1
100
AcDbLine
 10
-43.20259277488954
 20
-0.0000000000000197
 30
0.0
 11
53.00000000000001
 21
0.0000000000000242
 31
0.0
  0
CIRCLE
  5
ED
330
1F
100
AcDbEntity
  8
외형선
100
AcDbCircle
 10
0.0
 20
0.0
 30
0.0
 40
3.000000000000001
  0
INSERT
  5
EE
330
1F
100
AcDbEntity
  8
0
  6
Continuous
 62
     7
100
AcDbBlockReference
 66
     1
  2
블럭10
 10
-18.94078629968142
 20
-52.04717430164395
 30
0.0
  0
ATTRIB
  5
EF
330
EE
100
AcDbEntity
  8
FORMAT
 62
     2
100
AcDbText
 10
-35.06004733911698
 20
-49.97180738881176
 30
0.0
 40
4.233333333333333
  1
SEME7508040E [ 6 FLUTE ]
 41
0.75
  7
SLDTEXTSTYLE0
 11
-35.06004733911698
 21
-52.08847405547843
 31
0.0
100
AcDbAttribute
  2
AUTOATTR0
 70
     0
 74
     1
  0
SEQEND
  5
F0
330
EE
100
AcDbEntity
  8
0
  6
Continuous
 62
     7
  0
HATCH
  5
F1
330
1F
100
AcDbEntity
  8
중심선
100
AcDbHatch
 10
0.0
 20
0.0
 30
0.0
210
0.0
220
0.0
230
1.0
  2
SOLID
 70
     1
 71
     0
 91
        1
 92
        0
 93
        4
 72
     1
 10
-13.22587699530057
 20
-35.80000000000001
 11
-16.67215223913785
 21
-35.80000000000001
 72
     1
 10
-16.67215223913785
 20
-35.80000000000001
 11
-18.80038209834187
 21
-38.33632558057261
 72
     1
 10
-18.80038209834188
 20
-38.33632558057261
 11
-15.35407376939144
 21
-38.33628615127012
 72
     1
 10
-15.35407376939144
 20
-38.33628615127012
 11
-13.22587699530057
 21
-35.80000000000001
 97
        0
 75
     0
 76
     1
 98
        1
 10
3.998657388384471
 20
-0.001074928723908
  0
HATCH
  5
F2
330
1F
100
AcDbEntity
  8
중심선
100
AcDbHatch
 10
0.0
 20
0.0
 30
0.0
210
0.0
220
0.0
230
1.0
  2
SOLID
 70
     1
 71
     0
 91
        1
 92
        0
 93
        4
 72
     1
 10
-8.213113004264619
 20
-35.80000000000001
 11
-11.6593882481019
 21
-35.80000000000001
 72
     1
 10
-11.6593882481019
 20
-35.80000000000001
 11
-16.19052625645929
 21
-41.20000000000003
 72
     1
 10
-16.19052625645929
 20
-41.20000000000003
 11
-12.74425101262201
 21
-41.20000000000003
 72
     1
 10
-12.74425101262201
 20
-41.20000000000003
 11
-8.213113004264619
 21
-35.80000000000001
 97
        0
 75
     0
 76
     1
 98
        1
 10
3.998657388384471
 20
-0.001074928723908
  0
HATCH
  5
F3
330
1F
100
AcDbEntity
  8
중심선
100
AcDbHatch
 10
0.0
 20
0.0
 30
0.0
210
0.0
220
0.0
230
1.0
  2
SOLID
 70
     1
 71
     0
 91
        1
 92
        0
 93
        4
 72
     1
 10
-3.200349013228724
 20
-35.80000000000004
 11
-6.64662425706584
 21
-35.80000000000001
 72
     1
 10
-6.64662425706584
 20
-35.80000000000001
 11
-13.69506115895509
 21
-44.20000000000003
 72
     1
 10
-13.69506115895509
 20
-44.20000000000003
 11
-10.24878591511781
 21
-44.20000000000003
 72
     1
 10
-10.24878591511781
 20
-44.20000000000003
 11
-3.200349013228724
 21
-35.80000000000004
 97
        0
 75
     0
 76
     1
 98
        1
 10
3.998657388384471
 20
-0.001074928723908
  0
HATCH
  5
F4
330
1F
100
AcDbEntity
  8
중심선
100
AcDbHatch
 10
0.0
 20
0.0
 30
0.0
210
0.0
220
0.0
230
1.0
  2
SOLID
 70
     1
 71
     0
 91
        1
 92
        0
 93
        6
 72
     3
 10
1.599541417783475
 20
-40.00000000005129
 11
3.960054785062284
 21
1.540882976769353E-10
 40
0.3939339440162627
 50
17.09539180608438
 51
320.0019657685081
 73
     0
 72
     1
 10
3.282541073484071
 20
-38.58789400463831
 11
5.587842947185108
 21
-36.6535672945904
 72
     3
 10
1.599541417730629
 20
-40.00000000000016
 11
6.600054785286829
 21
-1.278976924368180E-13
 40
0.636358354079598
 50
39.99873849337411
 51
368.4976242363725
 73
     1
 72
     1
 10
8.02487390963124
 20
-39.03999999993004
 11
0.2796087245665522
 21
-39.03999999993001
 72
     1
 10
0.2796087245665513
 20
-39.03999999993001
 11
0.2795836801206173
 21
-40.95999999992993
 72
     1
 10
0.2795836801206173
 20
-40.95999999992993
 11
4.720963449592654
 21
-40.9599999999299
 97
        0
 75
     0
 76
     1
 98
        1
 10
3.998657388384471
 20
-0.001074928723908
  0
DIMENSION
  5
F5
330
1F
100
AcDbEntity
  8
치수문자_일반주서
100
AcDbDimension
  2
_D
 10
-57.82890613132341
 20
-4.000000000000086
 30
0.0
 11
-57.82890613132343
 21
-0.0000000000000143
 31
0.0
 70
   160
  1
%%c<>
 71
     2
 42
8.000000000000007
 52
-270.0
  3
SLDDIMSTYLE0
100
AcDbAlignedDimension
 13
-39.19999999999999
 23
3.999999999999989
 33
0.0
 14
-39.19999999999999
 24
-4.000000000000018
 34
0.0
 50
90.0000000000002
100
AcDbRotatedDimension
  0
DIMENSION
  5
103
330
1F
100
AcDbEntity
  8
치수문자_일반주서
100
AcDbDimension
  2
_D_1
 10
60.00000000000001
 20
-3.99999999999998
 30
0.0
 11
59.99999999999999
 21
0.5275446000767792
 31
0.0
 70
   160
  1
%%c<>
 71
     2
 42
8.000000000000005
 52
-270.0
  3
SLDDIMSTYLE0
100
AcDbAlignedDimension
 13
50.00000000000001
 23
3.999999999999988
 33
0.0
 14
50.00000000000001
 24
-4.000000000000018
 34
0.0
 50
90.0000000000002
100
AcDbRotatedDimension
  0
DIMENSION
  5
110
330
1F
100
AcDbEntity
  8
치수문자_일반주서
100
AcDbDimension
  2
_D_2
 10
50.00000000000001
 20
47.25086698100795
 30
0.0
 11
26.36999510565239
 21
47.25086698100795
 31
0.0
 70
   160
  1
<>
 71
     2
 42
39.99999999999999
  3
SLDDIMSTYLE1
100
AcDbAlignedDimension
 13
10.00000000000001
 23
3.756026362366147
 33
0.0
 14
50.00000000000001
 24
3.970810203617338
 34
0.0
100
AcDbRotatedDimension
  0
DIMENSION
  5
11B
330
1F
100
AcDbEntity
  8
치수문자_일반주서
100
AcDbDimension
  2
_D_3
 10
-39.99999999999998
 20
74.91549286448696
 30
0.0
 11
7.788346878584468
 21
74.91549286448696
 31
0.0
 70
   160
  1
<>
 71
     2
 42
90.0
  3
SLDDIMSTYLE1
100
AcDbAlignedDimension
 13
50.00000000000001
 23
3.970810203617338
 33
0.0
 14
-39.99999999999999
 24
3.199999999999989
 34
0.0
100
AcDbRotatedDimension
  0
INSERT
  5
12B
330
1F
100
AcDbEntity
  8
외형선
100
AcDbBlockReference
  2
SW_DOWELSYMBOL_0
 10
0.0
 20
0.0
 30
0.0
  0
ENDSEC
  0
SECTION
  2
OBJECTS
  0
DICTIONARY
  5
C
330
0
100
AcDbDictionary
281
     1
  3
ACAD_GROUP
350
D
  3
ACAD_IMAGE_VARS
350
14F
  3
ACAD_LAYOUT
350
1A
  3
ACAD_MLINESTYLE
350
17
  3
ACAD_PLOTSETTINGS
350
19
  3
ACAD_PLOTSTYLENAME
350
E
  3
ACAD_SCALELIST
350
47
  3
APPDATA
350
14D
  3
DWGPROPS
350
158
  0
DICTIONARY
  5
D
102
{ACAD_REACTORS
330
C
102
}
330
C
100
AcDbDictionary
281
     1
  0
RASTERVARIABLES
  5
14F
102
{ACAD_REACTORS
330
C
102
}
330
C
100
AcDbRasterVariables
 90
        0
 70
     1
 71
     1
 72
     1
  0
DICTIONARY
  5
1A
102
{ACAD_REACTORS
330
C
102
}
330
C
100
AcDbDictionary
281
     1
  3
Layout1
350
1E
  3
Layout2
350
26
  3
Model
350
22
  0
DICTIONARY
  5
17
102
{ACAD_REACTORS
330
C
102
}
330
C
100
AcDbDictionary
281
     1
  3
Standard
350
18
  0
DICTIONARY
  5
19
102
{ACAD_REACTORS
330
C
102
}
330
C
100
AcDbDictionary
281
     1
  0
ACDBDICTIONARYWDFLT
  5
E
102
{ACAD_REACTORS
330
C
102
}
330
C
100
AcDbDictionary
281
     1
  3
Normal
350
F
100
AcDbDictionaryWithDefault
340
F
  0
DICTIONARY
  5
47
102
{ACAD_REACTORS
330
C
102
}
330
C
100
AcDbDictionary
281
     1
  3
A0
350
48
  3
A1
350
49
  3
A2
350
4A
  3
A3
350
4B
  3
A4
350
4C
  3
A5
350
4D
  3
A6
350
4E
  3
A7
350
4F
  3
A8
350
50
  3
A9
350
51
  3
B0
350
52
  3
B1
350
53
  3
B2
350
54
  3
B3
350
55
  3
B4
350
56
  3
B5
350
57
  3
B6
350
58
  3
B7
350
59
  3
B8
350
5A
  3
B9
350
5B
  3
C0
350
5C
  3
C1
350
5D
  3
C2
350
5E
  3
C3
350
5F
  3
C4
350
60
  3
C5
350
61
  3
C6
350
62
  3
C7
350
63
  3
C8
350
64
  3
C9
350
65
  3
D0
350
66
  3
D1
350
67
  3
D2
350
68
  0
DICTIONARY
  5
14D
102
{ACAD_REACTORS
330
C
102
}
330
C
100
AcDbDictionary
281
     1
  0
XRECORD
  5
158
102
{ACAD_REACTORS
330
C
102
}
330
C
100
AcDbXrecord
280
     1
  1
DWGPROPS COOKIE
  2

  3

  4

  6

  7

  8
12016016
  9

300
=
301
=
302
=
303
=
304
=
305
=
306
=
307
=
308
=
309
=
 40
0.0
 41
2458268.395398831
 42
2458270.007567975
  1

 90
        0
  0
LAYOUT
  5
1E
102
{ACAD_REACTORS
330
1A
102
}
330
1A
100
AcDbPlotSettings
  1

  2
none_device
  4

  6

 40
0.0
 41
0.0
 42
0.0
 43
0.0
 44
0.0
 45
0.0
 46
0.0
 47
0.0
 48
0.0
 49
0.0
140
0.0
141
0.0
142
1.0
143
1.0
 70
   688
 72
     1
 73
     0
 74
     5
  7

 75
    16
147
1.0
148
0.0
149
0.0
100
AcDbLayout
  1
Layout1
 70
     1
 71
     1
 10
0.0
 20
0.0
 11
420.0
 21
297.0
 12
0.0
 22
0.0
 32
0.0
 14
1.000000000000000E+20
 24
1.000000000000000E+20
 34
1.000000000000000E+20
 15
-1.000000000000000E+20
 25
-1.000000000000000E+20
 35
-1.000000000000000E+20
146
0.0
 13
0.0
 23
0.0
 33
0.0
 16
1.0
 26
0.0
 36
0.0
 17
0.0
 27
1.0
 37
0.0
 76
     0
330
1B
  0
LAYOUT
  5
26
102
{ACAD_REACTORS
330
1A
102
}
330
1A
100
AcDbPlotSettings
  1

  2
none_device
  4

  6

 40
0.0
 41
0.0
 42
0.0
 43
0.0
 44
0.0
 45
0.0
 46
0.0
 47
0.0
 48
0.0
 49
0.0
140
0.0
141
0.0
142
1.0
143
1.0
 70
   688
 72
     1
 73
     0
 74
     5
  7

 75
    16
147
1.0
148
0.0
149
0.0
100
AcDbLayout
  1
Layout2
 70
     1
 71
     2
 10
0.0
 20
0.0
 11
0.0
 21
0.0
 12
0.0
 22
0.0
 32
0.0
 14
0.0
 24
0.0
 34
0.0
 15
0.0
 25
0.0
 35
0.0
146
0.0
 13
0.0
 23
0.0
 33
0.0
 16
1.0
 26
0.0
 36
0.0
 17
0.0
 27
1.0
 37
0.0
 76
     0
330
23
  0
LAYOUT
  5
22
102
{ACAD_REACTORS
330
1A
102
}
330
1A
100
AcDbPlotSettings
  1

  2
none_device
  4
ANSI_A_(11.00_x_8.50_Inches)
  6

 40
6.35
 41
19.05
 42
6.35000508
 43
19.05000254
 44
279.4
 45
215.9
 46
141.0620281953935
 47
65.32103239301733
 48
0.0
 49
0.0
140
0.0
141
0.0
142
0.064659642179104
143
1.0
 70
  1696
 72
     0
 73
     0
 74
     0
  7

 75
     0
147
0.0235690232323232
148
0.0
149
0.0
100
AcDbLayout
  1
Model
 70
     1
 71
     0
 10
0.0
 20
0.0
 11
420.0
 21
297.0
 12
0.0
 22
0.0
 32
0.0
 14
-62.20390613132344
 24
-49.97180738881176
 34
0.0
 15
60.55033333333333
 25
79.29049286448696
 35
0.0
146
0.0
 13
0.0
 23
0.0
 33
0.0
 16
1.0
 26
0.0
 36
0.0
 17
0.0
 27
1.0
 37
0.0
 76
     0
330
1F
331
29
  0
MLINESTYLE
  5
18
102
{ACAD_REACTORS
330
17
102
}
330
17
100
AcDbMlineStyle
  2
Standard
 70
     0
  3

 62
   256
 51
90.0
 52
90.0
 71
     2
 49
0.5
 62
   256
  6
BYLAYER
 49
-0.5
 62
   256
  6
BYLAYER
  0
ACDBPLACEHOLDER
  5
F
102
{ACAD_REACTORS
330
E
102
}
330
E
  0
SCALE
  5
48
102
{ACAD_REACTORS
330
47
102
}
330
47
100
AcDbScale
 70
     0
300
1:1
140
1.0
141
1.0
290
     1
  0
SCALE
  5
49
102
{ACAD_REACTORS
330
47
102
}
330
47
100
AcDbScale
 70
     0
300
1:2
140
1.0
141
2.0
290
     0
  0
SCALE
  5
4A
102
{ACAD_REACTORS
330
47
102
}
330
47
100
AcDbScale
 70
     0
300
1:4
140
1.0
141
4.0
290
     0
  0
SCALE
  5
4B
102
{ACAD_REACTORS
330
47
102
}
330
47
100
AcDbScale
 70
     0
300
1:5
140
1.0
141
5.0
290
     0
  0
SCALE
  5
4C
102
{ACAD_REACTORS
330
47
102
}
330
47
100
AcDbScale
 70
     0
300
1:8
140
1.0
141
8.0
290
     0
  0
SCALE
  5
4D
102
{ACAD_REACTORS
330
47
102
}
330
47
100
AcDbScale
 70
     0
300
1:10
140
1.0
141
10.0
290
     0
  0
SCALE
  5
4E
102
{ACAD_REACTORS
330
47
102
}
330
47
100
AcDbScale
 70
     0
300
1:16
140
1.0
141
16.0
290
     0
  0
SCALE
  5
4F
102
{ACAD_REACTORS
330
47
102
}
330
47
100
AcDbScale
 70
     0
300
1:20
140
1.0
141
20.0
290
     0
  0
SCALE
  5
50
102
{ACAD_REACTORS
330
47
102
}
330
47
100
AcDbScale
 70
     0
300
1:30
140
1.0
141
30.0
290
     0
  0
SCALE
  5
51
102
{ACAD_REACTORS
330
47
102
}
330
47
100
AcDbScale
 70
     0
300
1:40
140
1.0
141
40.0
290
     0
  0
SCALE
  5
52
102
{ACAD_REACTORS
330
47
102
}
330
47
100
AcDbScale
 70
     0
300
1:50
140
1.0
141
50.0
290
     0
  0
SCALE
  5
53
102
{ACAD_REACTORS
330
47
102
}
330
47
100
AcDbScale
 70
     0
300
1:100
140
1.0
141
100.0
290
     0
  0
SCALE
  5
54
102
{ACAD_REACTORS
330
47
102
}
330
47
100
AcDbScale
 70
     0
300
2:1
140
2.0
141
1.0
290
     0
  0
SCALE
  5
55
102
{ACAD_REACTORS
330
47
102
}
330
47
100
AcDbScale
 70
     0
300
4:1
140
4.0
141
1.0
290
     0
  0
SCALE
  5
56
102
{ACAD_REACTORS
330
47
102
}
330
47
100
AcDbScale
 70
     0
300
8:1
140
8.0
141
1.0
290
     0
  0
SCALE
  5
57
102
{ACAD_REACTORS
330
47
102
}
330
47
100
AcDbScale
 70
     0
300
10:1
140
10.0
141
1.0
290
     0
  0
SCALE
  5
58
102
{ACAD_REACTORS
330
47
102
}
330
47
100
AcDbScale
 70
     0
300
100:1
140
100.0
141
1.0
290
     0
  0
SCALE
  5
59
102
{ACAD_REACTORS
330
47
102
}
330
47
100
AcDbScale
 70
     0
300
1/128" = 1'-0"
140
0.0078125
141
12.0
290
     0
  0
SCALE
  5
5A
102
{ACAD_REACTORS
330
47
102
}
330
47
100
AcDbScale
 70
     0
300
1/64" = 1'-0"
140
0.015625
141
12.0
290
     0
  0
SCALE
  5
5B
102
{ACAD_REACTORS
330
47
102
}
330
47
100
AcDbScale
 70
     0
300
1/32" = 1'-0"
140
0.03125
141
12.0
290
     0
  0
SCALE
  5
5C
102
{ACAD_REACTORS
330
47
102
}
330
47
100
AcDbScale
 70
     0
300
1/16" = 1'-0"
140
0.0625
141
12.0
290
     0
  0
SCALE
  5
5D
102
{ACAD_REACTORS
330
47
102
}
330
47
100
AcDbScale
 70
     0
300
3/32" = 1'-0"
140
0.09375
141
12.0
290
     0
  0
SCALE
  5
5E
102
{ACAD_REACTORS
330
47
102
}
330
47
100
AcDbScale
 70
     0
300
1/8" = 1'-0"
140
0.125
141
12.0
290
     0
  0
SCALE
  5
5F
102
{ACAD_REACTORS
330
47
102
}
330
47
100
AcDbScale
 70
     0
300
3/16" = 1'-0"
140
0.1875
141
12.0
290
     0
  0
SCALE
  5
60
102
{ACAD_REACTORS
330
47
102
}
330
47
100
AcDbScale
 70
     0
300
1/4" = 1'-0"
140
0.25
141
12.0
290
     0
  0
SCALE
  5
61
102
{ACAD_REACTORS
330
47
102
}
330
47
100
AcDbScale
 70
     0
300
3/8" = 1'-0"
140
0.375
141
12.0
290
     0
  0
SCALE
  5
62
102
{ACAD_REACTORS
330
47
102
}
330
47
100
AcDbScale
 70
     0
300
1/2" = 1'-0"
140
0.5
141
12.0
290
     0
  0
SCALE
  5
63
102
{ACAD_REACTORS
330
47
102
}
330
47
100
AcDbScale
 70
     0
300
3/4" = 1'-0"
140
0.75
141
12.0
290
     0
  0
SCALE
  5
64
102
{ACAD_REACTORS
330
47
102
}
330
47
100
AcDbScale
 70
     0
300
1" = 1'-0"
140
1.0
141
12.0
290
     0
  0
SCALE
  5
65
102
{ACAD_REACTORS
330
47
102
}
330
47
100
AcDbScale
 70
     0
300
1-1/2" = 1'-0"
140
1.5
141
12.0
290
     0
  0
SCALE
  5
66
102
{ACAD_REACTORS
330
47
102
}
330
47
100
AcDbScale
 70
     0
300
3" = 1'-0"
140
3.0
141
12.0
290
     0
  0
SCALE
  5
67
102
{ACAD_REACTORS
330
47
102
}
330
47
100
AcDbScale
 70
     0
300
6" = 1'-0"
140
6.0
141
12.0
290
     0
  0
SCALE
  5
68
102
{ACAD_REACTORS
330
47
102
}
330
47
100
AcDbScale
 70
     0
300
1'-0" = 1'-0"
140
12.0
141
12.0
290
     0
  0
ENDSEC
  0
EOF
