  0
SECTION
  2
HEADER
  9
$ACADVER
  1
AC1015
  9
$ACADMAINTVER
 70
     6
  9
$DWGCODEPAGE
  3
ANSI_949
  9
$INSBASE
 10
0.0
 20
0.0
 30
0.0
  9
$EXTMIN
 10
-102.2039061313234
 20
-49.97073246008785
 30
0.0
  9
$EXTMAX
 10
60.55033333333333
 20
79.08549300822577
 30
0.0
  9
$LIMMIN
 10
0.0
 20
0.0
  9
$LIMMAX
 10
420.0
 20
297.0
  9
$ORTHOMODE
 70
     1
  9
$REGENMODE
 70
     1
  9
$FILLMODE
 70
     1
  9
$QTEXTMODE
 70
     0
  9
$MIRRTEXT
 70
     1
  9
$LTSCALE
 40
1.0
  9
$ATTMODE
 70
     1
  9
$TEXTSIZE
 40
3.5
  9
$TRACEWID
 40
1.0
  9
$TEXTSTYLE
  7
Standard
  9
$CLAYER
  8
0
  9
$CELTYPE
  6
ByLayer
  9
$CECOLOR
 62
   256
  9
$CELTSCALE
 40
1.0
  9
$DISPSILH
 70
     0
  9
$DIMSCALE
 40
1.0
  9
$DIMASZ
 40
3.302
  9
$DIMEXO
 40
1.0
  9
$DIMDLI
 40
3.75
  9
$DIMRND
 40
0.0
  9
$DIMDLE
 40
0.0
  9
$DIMEXE
 40
1.0
  9
$DIMTP
 40
0.0
  9
$DIMTM
 40
0.0
  9
$DIMTXT
 40
3.5
  9
$DIMCEN
 40
2.5
  9
$DIMTSZ
 40
0.0
  9
$DIMTOL
 70
     0
  9
$DIMLIM
 70
     0
  9
$DIMTIH
 70
     1
  9
$DIMTOH
 70
     1
  9
$DIMSE1
 70
     0
  9
$DIMSE2
 70
     0
  9
$DIMTAD
 70
     1
  9
$DIMZIN
 70
     0
  9
$DIMBLK
  1

  9
$DIMASO
 70
     1
  9
$DIMSHO
 70
     1
  9
$DIMPOST
  1

  9
$DIMAPOST
  1

  9
$DIMALT
 70
     0
  9
$DIMALTD
 70
     3
  9
$DIMALTF
 40
0.0393700787401575
  9
$DIMLFAC
 40
1.0
  9
$DIMTOFL
 70
     1
  9
$DIMTVP
 40
0.0
  9
$DIMTIX
 70
     0
  9
$DIMSOXD
 70
     0
  9
$DIMSAH
 70
     0
  9
$DIMBLK1
  1

  9
$DIMBLK2
  1

  9
$DIMSTYLE
  2
ISO-25
  9
$DIMCLRD
 70
     0
  9
$DIMCLRE
 70
     0
  9
$DIMCLRT
 70
     0
  9
$DIMTFAC
 40
1.0
  9
$DIMGAP
 40
1.524
  9
$DIMJUST
 70
     0
  9
$DIMSD1
 70
     0
  9
$DIMSD2
 70
     0
  9
$DIMTOLJ
 70
     0
  9
$DIMTZIN
 70
     0
  9
$DIMALTZ
 70
     0
  9
$DIMALTTZ
 70
     0
  9
$DIMUPT
 70
     0
  9
$DIMDEC
 70
     2
  9
$DIMTDEC
 70
     2
  9
$DIMALTU
 70
     2
  9
$DIMALTTD
 70
     3
  9
$DIMTXSTY
  7
Standard
  9
$DIMAUNIT
 70
     0
  9
$DIMADEC
 70
     2
  9
$DIMALTRND
 40
0.0
  9
$DIMAZIN
 70
     0
  9
$DIMDSEP
 70
    44
  9
$DIMATFIT
 70
     3
  9
$DIMFRAC
 70
     0
  9
$DIMLDRBLK
  1

  9
$DIMLUNIT
 70
     2
  9
$DIMLWD
 70
    -2
  9
$DIMLWE
 70
    -2
  9
$DIMTMOVE
 70
     0
  9
$LUNITS
 70
     2
  9
$LUPREC
 70
     2
  9
$SKETCHINC
 40
1.0
  9
$FILLETRAD
 40
10.0
  9
$AUNITS
 70
     0
  9
$AUPREC
 70
     2
  9
$MENU
  1
.
  9
$ELEVATION
 40
0.0
  9
$PELEVATION
 40
0.0
  9
$THICKNESS
 40
0.0
  9
$LIMCHECK
 70
     0
  9
$CHAMFERA
 40
0.0
  9
$CHAMFERB
 40
0.0
  9
$CHAMFERC
 40
0.0
  9
$CHAMFERD
 40
0.0
  9
$SKPOLY
 70
     0
  9
$TDCREATE
 40
2458268.770211169
  9
$TDUCREATE
 40
2458268.395211169
  9
$TDUPDATE
 40
2458270.371777407
  9
$TDUUPDATE
 40
2458269.996777407
  9
$TDINDWG
 40
0.0005761111
  9
$TDUSRTIMER
 40
2458269.996201423
  9
$USRTIMER
 70
     1
  9
$ANGBASE
 50
0.0
  9
$ANGDIR
 70
     0
  9
$PDMODE
 70
     0
  9
$PDSIZE
 40
-1.0
  9
$PLINEWID
 40
0.0
  9
$SPLFRAME
 70
     0
  9
$SPLINETYPE
 70
     6
  9
$SPLINESEGS
 70
     8
  9
$HANDSEED
  5
157
  9
$SURFTAB1
 70
     6
  9
$SURFTAB2
 70
     6
  9
$SURFTYPE
 70
     6
  9
$SURFU
 70
     6
  9
$SURFV
 70
     6
  9
$UCSBASE
  2

  9
$UCSNAME
  2

  9
$UCSORG
 10
0.0
 20
0.0
 30
0.0
  9
$UCSXDIR
 10
1.0
 20
0.0
 30
0.0
  9
$UCSYDIR
 10
0.0
 20
1.0
 30
0.0
  9
$UCSORTHOREF
  2

  9
$UCSORTHOVIEW
 70
     0
  9
$UCSORGTOP
 10
0.0
 20
0.0
 30
0.0
  9
$UCSORGBOTTOM
 10
0.0
 20
0.0
 30
0.0
  9
$UCSORGLEFT
 10
0.0
 20
0.0
 30
0.0
  9
$UCSORGRIGHT
 10
0.0
 20
0.0
 30
0.0
  9
$UCSORGFRONT
 10
0.0
 20
0.0
 30
0.0
  9
$UCSORGBACK
 10
0.0
 20
0.0
 30
0.0
  9
$PUCSBASE
  2

  9
$PUCSNAME
  2

  9
$PUCSORG
 10
0.0
 20
0.0
 30
0.0
  9
$PUCSXDIR
 10
1.0
 20
0.0
 30
0.0
  9
$PUCSYDIR
 10
0.0
 20
1.0
 30
0.0
  9
$PUCSORTHOREF
  2

  9
$PUCSORTHOVIEW
 70
     0
  9
$PUCSORGTOP
 10
0.0
 20
0.0
 30
0.0
  9
$PUCSORGBOTTOM
 10
0.0
 20
0.0
 30
0.0
  9
$PUCSORGLEFT
 10
0.0
 20
0.0
 30
0.0
  9
$PUCSORGRIGHT
 10
0.0
 20
0.0
 30
0.0
  9
$PUCSORGFRONT
 10
0.0
 20
0.0
 30
0.0
  9
$PUCSORGBACK
 10
0.0
 20
0.0
 30
0.0
  9
$USERI1
 70
     0
  9
$USERI2
 70
     0
  9
$USERI3
 70
     0
  9
$USERI4
 70
     0
  9
$USERI5
 70
     0
  9
$USERR1
 40
0.0
  9
$USERR2
 40
0.0
  9
$USERR3
 40
0.0
  9
$USERR4
 40
0.0
  9
$USERR5
 40
0.0
  9
$WORLDVIEW
 70
     1
  9
$SHADEDGE
 70
     3
  9
$SHADEDIF
 70
    70
  9
$TILEMODE
 70
     1
  9
$MAXACTVP
 70
    64
  9
$PINSBASE
 10
0.0
 20
0.0
 30
0.0
  9
$PLIMCHECK
 70
     0
  9
$PEXTMIN
 10
1.000000000000000E+20
 20
1.000000000000000E+20
 30
1.000000000000000E+20
  9
$PEXTMAX
 10
-1.000000000000000E+20
 20
-1.000000000000000E+20
 30
-1.000000000000000E+20
  9
$PLIMMIN
 10
0.0
 20
0.0
  9
$PLIMMAX
 10
0.0
 20
0.0
  9
$UNITMODE
 70
     0
  9
$VISRETAIN
 70
     1
  9
$PLINEGEN
 70
     0
  9
$PSLTSCALE
 70
     1
  9
$TREEDEPTH
 70
  3020
  9
$CMLSTYLE
  2
Standard
  9
$CMLJUST
 70
     0
  9
$CMLSCALE
 40
20.0
  9
$PROXYGRAPHICS
 70
     1
  9
$MEASUREMENT
 70
     1
  9
$CELWEIGHT
370
    -1
  9
$ENDCAPS
280
     0
  9
$JOINSTYLE
280
     0
  9
$LWDISPLAY
290
     1
  9
$INSUNITS
 70
     4
  9
$HYPERLINKBASE
  1

  9
$STYLESHEET
  1

  9
$XEDIT
290
     1
  9
$CEPSNTYPE
380
     0
  9
$PSTYLEMODE
290
     1
  9
$FINGERPRINTGUID
  2
{32B20899-723D-4121-BC1F-1B5431736972}
  9
$VERSIONGUID
  2
{FAEB1C32-E019-11D5-929B-00C0DF256EC4}
  9
$EXTNAMES
290
     1
  9
$PSVPSCALE
 40
0.0
  9
$OLESTARTUP
290
     0
  0
ENDSEC
  0
SECTION
  2
CLASSES
  0
CLASS
  1
ACDBDICTIONARYWDFLT
  2
AcDbDictionaryWithDefault
  3
ObjectDBX Classes
 90
        0
280
     0
281
     0
  0
CLASS
  1
VISUALSTYLE
  2
AcDbVisualStyle
  3
ObjectDBX Classes
 90
     4095
280
     0
281
     0
  0
CLASS
  1
MATERIAL
  2
AcDbMaterial
  3
ObjectDBX Classes
 90
     1153
280
     0
281
     0
  0
CLASS
  1
SCALE
  2
AcDbScale
  3
ObjectDBX Classes
 90
     1153
280
     0
281
     0
  0
CLASS
  1
SUN
  2
AcDbSun
  3
SCENEOE
 90
     1153
280
     0
281
     0
  0
CLASS
  1
ACDBPLACEHOLDER
  2
AcDbPlaceHolder
  3
ObjectDBX Classes
 90
        0
280
     0
281
     0
  0
CLASS
  1
LAYOUT
  2
AcDbLayout
  3
ObjectDBX Classes
 90
        0
280
     0
281
     0
  0
CLASS
  1
TABLESTYLE
  2
AcDbTableStyle
  3
ObjectDBX Classes
 90
     4095
280
     0
281
     0
  0
CLASS
  1
MLEADERSTYLE
  2
AcDbMLeaderStyle
  3
ACDB_MLEADERSTYLE_CLASS
 90
     4095
280
     0
281
     0
  0
CLASS
  1
RASTERVARIABLES
  2
AcDbRasterVariables
  3
ISM
 90
        0
280
     0
281
     0
  0
ENDSEC
  0
SECTION
  2
TABLES
  0
TABLE
  2
VPORT
  5
8
330
0
100
AcDbSymbolTable
 70
     1
  0
VPORT
  5
29
330
8
100
AcDbSymbolTableRecord
100
AcDbViewportTableRecord
  2
*Active
 70
     0
 10
0.0
 20
0.0
 11
1.0
 21
1.0
 12
10.6617396416753
 22
-14.30429935755319
 13
0.0
 23
0.0
 14
10.0
 24
10.0
 15
10.0
 25
10.0
 16
0.0
 26
0.0
 36
1.0
 17
0.0
 27
0.0
 37
0.0
 40
85.85285727371675
 41
1.627413127413127
 42
50.0
 43
0.0
 44
0.0
 50
0.0
 51
0.0
 71
    16
 72
  2000
 73
     1
 74
     3
 75
     0
 76
     0
 77
     0
 78
     0
281
     0
 65
     1
110
0.0
120
0.0
130
0.0
111
1.0
121
0.0
131
0.0
112
0.0
122
1.0
132
0.0
 79
     0
146
0.0
  0
ENDTAB
  0
TABLE
  2
LTYPE
  5
5
330
0
100
AcDbSymbolTable
 70
     6
  0
LTYPE
  5
14
330
5
100
AcDbSymbolTableRecord
100
AcDbLinetypeTableRecord
  2
ByBlock
 70
     0
  3

 72
    65
 73
     0
 40
0.0
  0
LTYPE
  5
15
330
5
100
AcDbSymbolTableRecord
100
AcDbLinetypeTableRecord
  2
ByLayer
 70
     0
  3

 72
    65
 73
     0
 40
0.0
  0
LTYPE
  5
16
330
5
100
AcDbSymbolTableRecord
100
AcDbLinetypeTableRecord
  2
Continuous
 70
     0
  3
Solid line
 72
    65
 73
     0
 40
0.0
  0
LTYPE
  5
6A
330
5
100
AcDbSymbolTableRecord
100
AcDbLinetypeTableRecord
  2
HIDDEN
 70
     0
  3
Hidden __ __ __ __ __ __ __ __ __ __ __ __ __ __
 72
    65
 73
     2
 40
1.905
 49
1.27
 74
     0
 49
-0.635
 74
     0
  0
LTYPE
  5
6B
330
5
100
AcDbSymbolTableRecord
100
AcDbLinetypeTableRecord
  2
PHANTOM
 70
     0
  3
Phantom ______  __  __  ______  __  __  ______
 72
    65
 73
     6
 40
12.7
 49
6.35
 74
     0
 49
-1.27
 74
     0
 49
1.27
 74
     0
 49
-1.27
 74
     0
 49
1.27
 74
     0
 49
-1.27
 74
     0
  0
LTYPE
  5
6C
330
5
100
AcDbSymbolTableRecord
100
AcDbLinetypeTableRecord
  2
CENTER
 70
     0
  3
Center ____ _ ____ _ ____ _ ____ _ ____ _ ____
 72
    65
 73
     4
 40
10.16
 49
6.35
 74
     0
 49
-1.27
 74
     0
 49
1.27
 74
     0
 49
-1.27
 74
     0
  0
LTYPE
  5
6D
330
5
100
AcDbSymbolTableRecord
100
AcDbLinetypeTableRecord
  2
CENTERX2
 70
     0
  3
Center (2x) ________  __  ________  __  _____
 72
    65
 73
     4
 40
20.32
 49
12.7
 74
     0
 49
-2.54
 74
     0
 49
2.54
 74
     0
 49
-2.54
 74
     0
  0
LTYPE
  5
6E
330
5
100
AcDbSymbolTableRecord
100
AcDbLinetypeTableRecord
  2
DOT2
 70
     0
  3
Dot (.5x) ........................................
 72
    65
 73
     2
 40
0.635
 49
0.0
 74
     0
 49
-0.635
 74
     0
  0
ENDTAB
  0
TABLE
  2
LAYER
  5
2
330
0
100
AcDbSymbolTable
 70
    17
  0
LAYER
  5
10
330
2
100
AcDbSymbolTableRecord
100
AcDbLayerTableRecord
  2
0
 70
     0
 62
     7
  6
Continuous
370
    -3
390
F
  0
LAYER
  5
6F
330
2
100
AcDbSymbolTableRecord
100
AcDbLayerTableRecord
  2
FORMAT
 70
     0
 62
     2
  6
Continuous
370
    -3
390
F
  0
LAYER
  5
70
330
2
100
AcDbSymbolTableRecord
100
AcDbLayerTableRecord
  2
외형선
 70
     0
 62
   100
  6
Continuous
370
    30
390
F
  0
LAYER
  5
71
330
2
100
AcDbSymbolTableRecord
100
AcDbLayerTableRecord
  2
숨은선
 70
     0
 62
     2
  6
HIDDEN
370
    15
390
F
  0
LAYER
  5
72
330
2
100
AcDbSymbolTableRecord
100
AcDbLayerTableRecord
  2
중심선
 70
     0
 62
     1
  6
CENTERX2
370
    -3
390
F
  0
LAYER
  5
73
330
2
100
AcDbSymbolTableRecord
100
AcDbLayerTableRecord
  2
파단선
 70
     0
 62
     4
  6
Continuous
370
    -3
390
F
  0
LAYER
  5
74
330
2
100
AcDbSymbolTableRecord
100
AcDbLayerTableRecord
  2
해칭선
 70
     0
 62
     4
  6
Continuous
370
    -3
390
F
  0
LAYER
  5
75
330
2
100
AcDbSymbolTableRecord
100
AcDbLayerTableRecord
  2
가는실선
 70
     0
 62
     4
  6
Continuous
370
    -3
390
F
  0
LAYER
  5
76
330
2
100
AcDbSymbolTableRecord
100
AcDbLayerTableRecord
  2
치수_보조선
 70
     0
 62
     4
  6
Continuous
370
    -3
390
F
  0
LAYER
  5
77
330
2
100
AcDbSymbolTableRecord
100
AcDbLayerTableRecord
  2
치수문자_일반주서
 70
     0
 62
     7
  6
Continuous
370
    15
390
F
  0
LAYER
  5
78
330
2
100
AcDbSymbolTableRecord
100
AcDbLayerTableRecord
  2
개별주서
 70
     0
 62
   100
  6
Continuous
370
    30
390
F
  0
LAYER
  5
79
330
2
100
AcDbSymbolTableRecord
100
AcDbLayerTableRecord
  2
중간선
 70
     0
 62
     2
  6
Continuous
370
    15
390
F
  0
LAYER
  5
7A
330
2
100
AcDbSymbolTableRecord
100
AcDbLayerTableRecord
  2
윤곽선
 70
     0
 62
     3
  6
Continuous
370
    40
390
F
  0
LAYER
  5
7B
330
2
100
AcDbSymbolTableRecord
100
AcDbLayerTableRecord
  2
중심마크
 70
     0
 62
   100
  6
Continuous
370
    30
390
F
  0
LAYER
  5
7C
330
2
100
AcDbSymbolTableRecord
100
AcDbLayerTableRecord
  2
가상선
 70
     0
 62
     4
  6
PHANTOM
370
    -3
390
F
  0
LAYER
  5
7D
330
2
100
AcDbSymbolTableRecord
100
AcDbLayerTableRecord
  2
특수지정선
 70
     0
 62
     5
  6
CENTERX2
370
    60
390
F
  0
LAYER
  5
14E
330
2
100
AcDbSymbolTableRecord
100
AcDbLayerTableRecord
  2
Defpoints
 70
     0
 62
     7
  6
Continuous
290
     0
370
    -3
390
F
  0
ENDTAB
  0
TABLE
  2
STYLE
  5
3
330
0
100
AcDbSymbolTable
 70
     2
  0
STYLE
  5
11
330
3
100
AcDbSymbolTableRecord
100
AcDbTextStyleTableRecord
  2
Standard
 70
     0
 40
0.0
 41
1.0
 50
0.0
 71
     0
 42
3.5
  3
txt
  4

  0
STYLE
  5
93
330
3
100
AcDbSymbolTableRecord
100
AcDbTextStyleTableRecord
  2
SLDTEXTSTYLE0
 70
     0
 40
0.0
 41
0.75
 50
0.0
 71
     0
 42
3.5
  3
TXT
  4

  0
ENDTAB
  0
TABLE
  2
VIEW
  5
6
330
0
100
AcDbSymbolTable
 70
     0
  0
ENDTAB
  0
TABLE
  2
UCS
  5
7
330
0
100
AcDbSymbolTable
 70
     0
  0
ENDTAB
  0
TABLE
  2
APPID
  5
9
330
0
100
AcDbSymbolTable
 70
     1
  0
APPID
  5
12
330
9
100
AcDbSymbolTableRecord
100
AcDbRegAppTableRecord
  2
ACAD
 70
     0
  0
ENDTAB
  0
TABLE
  2
DIMSTYLE
  5
A
330
0
100
AcDbSymbolTable
 70
     3
100
AcDbDimStyleTable
  0
DIMSTYLE
105
27
330
A
100
AcDbSymbolTableRecord
100
AcDbDimStyleTableRecord
  2
ISO-25
 70
     0
 41
2.5
 42
0.625
 43
3.75
 44
1.25
 73
     0
 74
     0
 77
     1
 78
     8
140
2.5
141
2.5
143
0.03937007874016
147
0.625
171
     3
172
     1
178
     0
271
     2
272
     2
274
     3
278
    44
283
     0
284
     8
340
11
  0
DIMSTYLE
105
F4
102
{ACAD_REACTORS
330
F3
330
101
102
}
330
A
100
AcDbSymbolTableRecord
100
AcDbDimStyleTableRecord
  2
SLDDIMSTYLE0
 70
     0
 41
3.302
 44
0.0
 45
0.000000001
 73
     0
 74
     0
 77
     1
 78
    12
 79
     3
140
3.5
147
0.875
172
     1
173
     1
178
     0
271
     2
272
     2
276
     2
284
    12
289
     0
340
93
  0
DIMSTYLE
105
10F
102
{ACAD_REACTORS
330
10E
330
119
102
}
330
A
100
AcDbSymbolTableRecord
100
AcDbDimStyleTableRecord
  2
SLDDIMSTYLE1
 70
     0
 41
3.302
 44
0.0
 45
0.000000001
 73
     0
 74
     0
 77
     1
 78
    12
 79
     3
140
3.5
147
0.875
173
     1
178
     0
271
     2
272
     2
276
     2
284
    12
340
93
  0
ENDTAB
  0
TABLE
  2
BLOCK_RECORD
  5
1
330
0
100
AcDbSymbolTable
 70
     7
  0
BLOCK_RECORD
  5
1F
330
1
100
AcDbSymbolTableRecord
100
AcDbBlockTableRecord
  2
*Model_Space
340
22
  0
BLOCK_RECORD
  5
1B
330
1
100
AcDbSymbolTableRecord
100
AcDbBlockTableRecord
  2
*Paper_Space
340
1E
  0
BLOCK_RECORD
  5
23
330
1
100
AcDbSymbolTableRecord
100
AcDbBlockTableRecord
  2
*Paper_Space0
340
26
  0
BLOCK_RECORD
  5
7E
330
1
100
AcDbSymbolTableRecord
100
AcDbBlockTableRecord
  2
블럭10
340
0
102
{BLKREFS
331
EC
102
}
  0
BLOCK_RECORD
  5
F5
330
1
100
AcDbSymbolTableRecord
100
AcDbBlockTableRecord
  2
_D
340
0
  0
BLOCK_RECORD
  5
102
330
1
100
AcDbSymbolTableRecord
100
AcDbBlockTableRecord
  2
_D_1
340
0
  0
BLOCK_RECORD
  5
110
330
1
100
AcDbSymbolTableRecord
100
AcDbBlockTableRecord
  2
_D_2
340
0
  0
BLOCK_RECORD
  5
11A
330
1
100
AcDbSymbolTableRecord
100
AcDbBlockTableRecord
  2
_D_3
340
0
  0
BLOCK_RECORD
  5
123
330
1
100
AcDbSymbolTableRecord
100
AcDbBlockTableRecord
  2
SW_DOWELSYMBOL_0
340
0
102
{BLKREFS
331
129
102
}
  0
ENDTAB
  0
ENDSEC
  0
SECTION
  2
BLOCKS
  0
BLOCK
  5
20
330
1F
100
AcDbEntity
  8
0
100
AcDbBlockBegin
  2
*Model_Space
 70
     0
 10
0.0
 20
0.0
 30
0.0
  3
*Model_Space
  1
*Model_Space
  0
ENDBLK
  5
21
330
1F
100
AcDbEntity
  8
0
100
AcDbBlockEnd
  0
BLOCK
  5
1C
330
1B
100
AcDbEntity
 67
     1
  8
0
100
AcDbBlockBegin
  2
*Paper_Space
 70
     0
 10
0.0
 20
0.0
 30
0.0
  3
*Paper_Space
  1
*Paper_Space
  0
ENDBLK
  5
1D
330
1B
100
AcDbEntity
 67
     1
  8
0
100
AcDbBlockEnd
  0
BLOCK
  5
24
330
23
100
AcDbEntity
  8
0
100
AcDbBlockBegin
  2
*Paper_Space0
 70
     0
 10
0.0
 20
0.0
 30
0.0
  3
*Paper_Space0
  1
*Paper_Space0
  0
ENDBLK
  5
25
330
23
100
AcDbEntity
  8
0
100
AcDbBlockEnd
  0
BLOCK
  5
7F
330
7E
100
AcDbEntity
  8
0
100
AcDbBlockBegin
  2
블럭10
 70
     2
 10
0.0
 20
0.0
 30
0.0
  3
블럭10
  1
블럭10
  0
ELLIPSE
  5
81
330
7E
100
AcDbEntity
  8
중심선
100
AcDbEllipse
 10
20.54032771741204
 20
12.0471743016438
 30
0.0
 11
6.600054785286829
 21
-1.261213355974178E-13
 31
0.0
210
0.0
220
0.0
230
1.0
 40
0.636358354079598
 41
0.9219305317359503
 42
6.513795318482858
  0
ELLIPSE
  5
82
330
7E
100
AcDbEntity
  8
중심선
100
AcDbEllipse
 10
20.54032771746488
 20
12.04717430159265
 30
0.0
 11
3.960054785062283
 21
1.540847449632565E-10
 31
0.0
210
0.0
220
0.0
230
1.0
 40
0.3939339440162632
 41
1.131841032648279
 42
5.62031148352944
  0
LINE
  5
83
330
7E
100
AcDbEntity
  8
중심선
100
AcDbLine
 10
2.268634060543552
 20
16.24717430164393
 30
0.0
 11
5.714909304380834
 21
16.24717430164393
 31
0.0
  0
LINE
  5
84
330
7E
100
AcDbEntity
  8
중심선
100
AcDbLine
 10
5.245725140726316
 20
7.84717430164391
 30
0.0
 11
8.692000384563599
 21
7.84717430164391
 31
0.0
  0
LINE
  5
85
330
7E
100
AcDbEntity
  8
중심선
100
AcDbLine
 10
15.74043728645272
 20
16.24717430164393
 30
0.0
 11
8.692000384563599
 21
7.84717430164391
 31
0.0
  0
LINE
  5
86
330
7E
100
AcDbEntity
  8
중심선
100
AcDbLine
 10
0.1404042013395286
 20
13.71084872107135
 30
0.0
 11
3.58671253028996
 21
13.71088815037384
 31
0.0
  0
LINE
  5
87
330
7E
100
AcDbEntity
  8
중심선
100
AcDbLine
 10
2.750260043222114
 20
10.84717430164391
 30
0.0
 11
6.196535287059397
 21
10.84717430164391
 31
0.0
  0
LINE
  5
88
330
7E
100
AcDbEntity
  8
중심선
100
AcDbLine
 10
12.29416204261559
 20
16.24717430164393
 30
0.0
 11
5.245725140726316
 21
7.84717430164391
 31
0.0
  0
LINE
  5
89
330
7E
100
AcDbEntity
  8
중심선
100
AcDbLine
 10
10.72767329541681
 20
16.24717430164393
 30
0.0
 11
6.196535287059397
 21
10.84717430164391
 31
0.0
  0
LINE
  5
8A
330
7E
100
AcDbEntity
  8
중심선
100
AcDbLine
 10
7.28139805157953
 20
16.24717430164393
 30
0.0
 11
2.750260043222114
 21
10.84717430164391
 31
0.0
  0
LINE
  5
8B
330
7E
100
AcDbEntity
  8
중심선
100
AcDbLine
 10
5.714909304380834
 20
16.24717430164393
 30
0.0
 11
3.58671253028996
 21
13.71088815037384
 31
0.0
  0
LINE
  5
8C
330
7E
100
AcDbEntity
  8
중심선
100
AcDbLine
 10
2.268634060543552
 20
16.24717430164393
 30
0.0
 11
0.1404042013395286
 21
13.71084872107135
 31
0.0
  0
LINE
  5
8D
330
7E
100
AcDbEntity
  8
중심선
100
AcDbLine
 10
7.28139805157953
 20
16.24717430164393
 30
0.0
 11
10.72767329541681
 21
16.24717430164393
 31
0.0
  0
LINE
  5
8E
330
7E
100
AcDbEntity
  8
중심선
100
AcDbLine
 10
12.29416204261559
 20
16.24717430164393
 30
0.0
 11
15.74043728645272
 21
16.24717430164393
 31
0.0
  0
LINE
  5
8F
330
7E
100
AcDbEntity
  8
중심선
100
AcDbLine
 10
19.22036997980202
 20
11.08717430171403
 30
0.0
 11
23.66174974927406
 21
11.08717430171406
 31
0.0
  0
LINE
  5
90
330
7E
100
AcDbEntity
  8
중심선
100
AcDbLine
 10
19.22039502424796
 20
13.00717430171391
 30
0.0
 11
19.22036997980202
 21
11.08717430171403
 31
0.0
  0
LINE
  5
91
330
7E
100
AcDbEntity
  8
중심선
100
AcDbLine
 10
19.22039502424796
 20
13.00717430171391
 30
0.0
 11
26.96566020931264
 21
13.00717430171391
 31
0.0
  0
LINE
  5
92
330
7E
100
AcDbEntity
  8
중심선
100
AcDbLine
 10
22.22332737316547
 20
13.45928029700563
 30
0.0
 11
24.52862924686651
 21
15.39360700705356
 31
0.0
  0
ATTDEF
  5
94
330
7E
100
AcDbEntity
  8
FORMAT
 62
     2
100
AcDbText
 10
-20.85824753159254
 20
2.075366912832191
 30
0.0
 40
4.233333333333333
  1
SEME7508040130E [ 6 FLUTE ]
 41
0.75
  7
SLDTEXTSTYLE0
 11
-20.85824753159254
 21
-0.0412997538344756
 31
0.0
100
AcDbAttributeDefinition
  3

  2
AUTOATTR0
 70
     0
 74
     1
  0
ENDBLK
  5
80
330
7E
100
AcDbEntity
  8
0
100
AcDbBlockEnd
  0
BLOCK
  5
F6
330
F5
100
AcDbEntity
  8
0
100
AcDbBlockBegin
  2
_D
 70
     0
 10
0.0
 20
0.0
 30
0.0
  3
_D
  1
_D
  0
LINE
  5
F8
330
F5
100
AcDbEntity
  8
치수문자_일반주서
 62
     0
370
    -2
100
AcDbLine
 10
-79.26249999999999
 20
3.795000143738797
 30
0.0
 11
-97.82890613132345
 21
3.795000143738728
 31
0.0
  0
LINE
  5
F9
330
F5
100
AcDbEntity
  8
치수문자_일반주서
 62
     0
370
    -2
100
AcDbLine
 10
-79.26249999999999
 20
-4.204999856261209
 30
0.0
 11
-97.82890613132342
 21
-4.204999856261279
 31
0.0
  0
LINE
  5
FA
330
F5
100
AcDbEntity
  8
치수문자_일반주서
 62
     0
370
    -2
100
AcDbLine
 10
-97.82890613132344
 20
0.4930001437387288
 30
0.0
 11
-97.82890613132344
 21
-0.9029998562612791
 31
0.0
  0
SOLID
  5
FB
330
F5
100
AcDbEntity
  8
치수문자_일반주서
 62
     0
100
AcDbTrace
 10
-97.27857279799011
 20
0.4930001437387307
 30
0.0
 11
-98.37923946465676
 21
0.4930001437387269
 31
0.0
 12
-97.82890613132345
 22
3.795000143738728
 32
0.0
 13
-97.82890613132345
 23
3.795000143738728
 33
0.0
  0
SOLID
  5
FC
330
F5
100
AcDbEntity
  8
치수문자_일반주서
 62
     0
100
AcDbTrace
 10
-98.37923946465676
 20
-0.9029998562612811
 30
0.0
 11
-97.27857279799011
 21
-0.9029998562612771
 31
0.0
 12
-97.82890613132342
 22
-4.204999856261279
 32
0.0
 13
-97.82890613132342
 23
-4.204999856261279
 33
0.0
  0
MTEXT
  5
FD
330
F5
100
AcDbEntity
  8
치수문자_일반주서
 62
     0
100
AcDbMText
 10
-102.2039061313234
 20
-0.2049998562612212
 30
0.0
 40
3.5
 41
0.0
 71
     2
 72
     1
  1
\A1;%%c8
  7
SLDTEXTSTYLE0
 11
-3.552713678800498E-15
 21
1.0
 31
0.0
 73
     1
 44
1.0
  0
POINT
  5
FE
330
F5
100
AcDbEntity
  8
Defpoints
 62
     0
100
AcDbPoint
 10
-79.19999999999999
 20
3.795000143738798
 30
0.0
  0
POINT
  5
FF
330
F5
100
AcDbEntity
  8
Defpoints
 62
     0
100
AcDbPoint
 10
-79.19999999999999
 20
-4.204999856261209
 30
0.0
  0
POINT
  5
100
330
F5
100
AcDbEntity
  8
Defpoints
 62
     0
100
AcDbPoint
 10
-97.82890613132344
 20
-4.204999856261279
 30
0.0
  0
ENDBLK
  5
F7
330
F5
100
AcDbEntity
  8
0
100
AcDbBlockEnd
  0
BLOCK
  5
103
330
102
100
AcDbEntity
  8
0
100
AcDbBlockBegin
  2
_D_1
 70
     0
 10
0.0
 20
0.0
 30
0.0
  3
_D_1
  1
_D_1
  0
LINE
  5
105
330
102
100
AcDbEntity
  8
치수문자_일반주서
 62
     0
370
    -2
100
AcDbLine
 10
50.06250000000001
 20
3.795000143738796
 30
0.0
 11
59.99999999999999
 21
3.795000143738834
 31
0.0
  0
LINE
  5
106
330
102
100
AcDbEntity
  8
치수문자_일반주서
 62
     0
370
    -2
100
AcDbLine
 10
50.06250000000001
 20
-4.204999856261209
 30
0.0
 11
60.00000000000001
 21
-4.20499985626117
 31
0.0
  0
LINE
  5
107
330
102
100
AcDbEntity
  8
치수문자_일반주서
 62
     0
370
    -2
100
AcDbLine
 10
60.0
 20
0.4930001437388345
 30
0.0
 11
60.0
 21
-0.9029998562611707
 31
0.0
  0
SOLID
  5
108
330
102
100
AcDbEntity
  8
치수문자_일반주서
 62
     0
100
AcDbTrace
 10
60.55033333333333
 20
0.4930001437388364
 30
0.0
 11
59.44966666666667
 21
0.4930001437388326
 31
0.0
 12
59.99999999999999
 22
3.795000143738834
 32
0.0
 13
59.99999999999999
 23
3.795000143738834
 33
0.0
  0
SOLID
  5
109
330
102
100
AcDbEntity
  8
치수문자_일반주서
 62
     0
100
AcDbTrace
 10
59.44966666666667
 20
-0.9029998562611727
 30
0.0
 11
60.55033333333333
 21
-0.9029998562611687
 31
0.0
 12
60.00000000000001
 22
-4.20499985626117
 32
0.0
 13
60.00000000000001
 23
-4.20499985626117
 33
0.0
  0
MTEXT
  5
10A
330
102
100
AcDbEntity
  8
치수문자_일반주서
 62
     0
100
AcDbMText
 10
55.625
 20
0.3225447438155723
 30
0.0
 40
3.5
 41
0.0
 71
     2
 72
     1
  1
\A1;%%c8
  7
SLDTEXTSTYLE0
 11
-3.552713678800499E-15
 21
1.0
 31
0.0
 73
     1
 44
1.0
  0
POINT
  5
10B
330
102
100
AcDbEntity
  8
Defpoints
 62
     0
100
AcDbPoint
 10
50.00000000000001
 20
3.795000143738796
 30
0.0
  0
POINT
  5
10C
330
102
100
AcDbEntity
  8
Defpoints
 62
     0
100
AcDbPoint
 10
50.00000000000001
 20
-4.204999856261209
 30
0.0
  0
POINT
  5
10D
330
102
100
AcDbEntity
  8
Defpoints
 62
     0
100
AcDbPoint
 10
60.00000000000001
 20
-4.204999856261171
 30
0.0
  0
ENDBLK
  5
104
330
102
100
AcDbEntity
  8
0
100
AcDbBlockEnd
  0
BLOCK
  5
111
330
110
100
AcDbEntity
  8
0
100
AcDbBlockBegin
  2
_D_2
 70
     0
 10
0.0
 20
0.0
 30
0.0
  3
_D_2
  1
_D_2
  0
LINE
  5
113
330
110
100
AcDbEntity
  8
치수문자_일반주서
 62
     0
370
    -2
100
AcDbLine
 10
10.00000000000005
 20
3.613526506104956
 30
0.0
 11
10.00000000000005
 21
47.04586712474676
 31
0.0
  0
LINE
  5
114
330
110
100
AcDbEntity
  8
치수문자_일반주서
 62
     0
370
    -2
100
AcDbLine
 10
50.00000000000001
 20
3.828310347356146
 30
0.0
 11
50.00000000000001
 21
47.04586712474676
 31
0.0
  0
LINE
  5
115
330
110
100
AcDbEntity
  8
치수문자_일반주서
 62
     0
370
    -2
100
AcDbLine
 10
13.30200000000005
 20
47.04586712474676
 30
0.0
 11
46.69800000000001
 21
47.04586712474676
 31
0.0
  0
SOLID
  5
116
330
110
100
AcDbEntity
  8
치수문자_일반주서
 62
     0
100
AcDbTrace
 10
13.30200000000005
 20
47.59620045808009
 30
0.0
 11
13.30200000000005
 21
46.49553379141342
 31
0.0
 12
10.00000000000005
 22
47.04586712474676
 32
0.0
 13
10.00000000000005
 23
47.04586712474676
 33
0.0
  0
SOLID
  5
117
330
110
100
AcDbEntity
  8
치수문자_일반주서
 62
     0
100
AcDbTrace
 10
46.69800000000001
 20
46.49553379141342
 30
0.0
 11
46.69800000000001
 21
47.59620045808009
 31
0.0
 12
50.00000000000001
 22
47.04586712474676
 32
0.0
 13
50.00000000000001
 23
47.04586712474676
 33
0.0
  0
MTEXT
  5
118
330
110
100
AcDbEntity
  8
치수문자_일반주서
 62
     0
100
AcDbMText
 10
26.36999510565241
 20
51.42086712474676
 30
0.0
 40
3.5
 41
0.0
 71
     2
 72
     1
  1
\A1;40
  7
SLDTEXTSTYLE0
 73
     1
 44
1.0
  0
POINT
  5
150
330
110
100
AcDbEntity
  8
Defpoints
 62
     0
100
AcDbPoint
 10
10.00000000000005
 20
3.551026506104956
 30
0.0
  0
POINT
  5
151
330
110
100
AcDbEntity
  8
Defpoints
 62
     0
100
AcDbPoint
 10
50.00000000000001
 20
3.765810347356146
 30
0.0
  0
POINT
  5
152
330
110
100
AcDbEntity
  8
Defpoints
 62
     0
100
AcDbPoint
 10
50.00000000000001
 20
47.04586712474676
 30
0.0
  0
ENDBLK
  5
112
330
110
100
AcDbEntity
  8
0
100
AcDbBlockEnd
  0
BLOCK
  5
11B
330
11A
100
AcDbEntity
  8
0
100
AcDbBlockBegin
  2
_D_3
 70
     0
 10
0.0
 20
0.0
 30
0.0
  3
_D_3
  1
_D_3
  0
LINE
  5
11D
330
11A
100
AcDbEntity
  8
치수문자_일반주서
 62
     0
370
    -2
100
AcDbLine
 10
50.00000000000001
 20
3.828310347356146
 30
0.0
 11
50.00000000000001
 21
74.71049300822577
 31
0.0
  0
LINE
  5
11E
330
11A
100
AcDbEntity
  8
치수문자_일반주서
 62
     0
370
    -2
100
AcDbLine
 10
-79.99999999999999
 20
3.057500143738798
 30
0.0
 11
-79.99999999999999
 21
74.71049300822577
 31
0.0
  0
LINE
  5
11F
330
11A
100
AcDbEntity
  8
치수문자_일반주서
 62
     0
370
    -2
100
AcDbLine
 10
46.69800000000001
 20
74.71049300822577
 30
0.0
 11
-76.69799999999998
 21
74.71049300822577
 31
0.0
  0
SOLID
  5
120
330
11A
100
AcDbEntity
  8
치수문자_일반주서
 62
     0
100
AcDbTrace
 10
46.69800000000001
 20
74.16015967489244
 30
0.0
 11
46.69800000000001
 21
75.2608263415591
 31
0.0
 12
50.00000000000001
 22
74.71049300822577
 32
0.0
 13
50.00000000000001
 23
74.71049300822577
 33
0.0
  0
SOLID
  5
121
330
11A
100
AcDbEntity
  8
치수문자_일반주서
 62
     0
100
AcDbTrace
 10
-76.69799999999998
 20
75.2608263415591
 30
0.0
 11
-76.69799999999998
 21
74.16015967489244
 31
0.0
 12
-79.99999999999999
 22
74.71049300822577
 32
0.0
 13
-79.99999999999999
 23
74.71049300822577
 33
0.0
  0
MTEXT
  5
122
330
11A
100
AcDbEntity
  8
치수문자_일반주서
 62
     0
100
AcDbMText
 10
-10.97238784204466
 20
79.08549300822577
 30
0.0
 40
3.5
 41
0.0
 71
     2
 72
     1
  1
\A1;130
  7
SLDTEXTSTYLE0
 73
     1
 44
1.0
  0
POINT
  5
153
330
11A
100
AcDbEntity
  8
Defpoints
 62
     0
100
AcDbPoint
 10
50.00000000000001
 20
3.765810347356146
 30
0.0
  0
POINT
  5
154
330
11A
100
AcDbEntity
  8
Defpoints
 62
     0
100
AcDbPoint
 10
-79.99999999999999
 20
2.995000143738798
 30
0.0
  0
POINT
  5
155
330
11A
100
AcDbEntity
  8
Defpoints
 62
     0
100
AcDbPoint
 10
-79.99999999999999
 20
74.71049300822577
 30
0.0
  0
ENDBLK
  5
11C
330
11A
100
AcDbEntity
  8
0
100
AcDbBlockEnd
  0
BLOCK
  5
124
330
123
100
AcDbEntity
  8
0
100
AcDbBlockBegin
  2
SW_DOWELSYMBOL_0
 70
     0
 10
0.0
 20
0.0
 30
0.0
  3
SW_DOWELSYMBOL_0
  1
SW_DOWELSYMBOL_0
  0
CIRCLE
  5
126
330
123
100
AcDbEntity
  8
외형선
 62
     0
100
AcDbCircle
 10
0.0
 20
0.0
 30
0.0
 40
3.000000000000001
  0
HATCH
  5
127
330
123
100
AcDbEntity
  8
0
  6
Continuous
 62
     0
370
    30
100
AcDbHatch
 10
0.0
 20
0.0
 30
0.0
210
0.0
220
0.0
230
1.0
  2
SOLID
 70
     1
 71
     0
 91
        1
 92
        0
 93
        3
 72
     2
 10
0.0
 20
0.0
 40
3.000000000000001
 50
0.0
 51
90.0
 73
     1
 72
     1
 10
0.0
 20
3.000000000000001
 11
0.0
 21
0.0
 72
     1
 10
0.0
 20
0.0
 11
3.000000000000003
 21
0.0
 97
        0
 75
     0
 76
     1
 98
        1
 10
0.0
 20
0.0
  0
HATCH
  5
128
330
123
100
AcDbEntity
  8
0
  6
Continuous
 62
     0
370
    30
100
AcDbHatch
 10
0.0
 20
0.0
 30
0.0
210
0.0
220
0.0
230
1.0
  2
SOLID
 70
     1
 71
     0
 91
        1
 92
        0
 93
        3
 72
     2
 10
0.0
 20
0.0
 40
3.000000000000001
 50
180.0
 51
270.0000000000008
 73
     1
 72
     1
 10
0.0
 20
-3.000000000000001
 11
0.0
 21
0.0
 72
     1
 10
0.0
 20
0.0
 11
-3.000000000000003
 21
0.0
 97
        0
 75
     0
 76
     1
 98
        1
 10
0.0
 20
0.0
  0
ENDBLK
  5
125
330
123
100
AcDbEntity
  8
0
100
AcDbBlockEnd
  0
ENDSEC
  0
SECTION
  2
ENTITIES
  0
LINE
  5
95
330
1F
100
AcDbEntity
  8
0
  6
Continuous
 62
   131
370
    15
100
AcDbLine
 10
11.41008847934786
 20
-0.9235621974479801
 30
0.0
 11
11.47442652612289
 21
-0.9850653560412107
 31
0.0
  0
LINE
  5
96
330
1F
100
AcDbEntity
  8
0
  6
Continuous
 62
     1
370
    15
100
AcDbLine
 10
49.08144887846844
 20
-0.8979165540074991
 30
0.0
 11
49.23107372836166
 21
-1.041312354370237
 31
0.0
  0
LINE
  5
97
330
1F
100
AcDbEntity
  8
0
  6
Continuous
 62
     1
370
    15
100
AcDbLine
 10
19.80386652913316
 20
-0.9384738794359182
 30
0.0
 11
19.87255871887916
 21
-1.004076875928164
 31
0.0
  0
LINE
  5
98
330
1F
100
AcDbEntity
  8
0
  6
Continuous
 62
     1
370
    15
100
AcDbLine
 10
44.92656828605332
 20
-0.929106619108501
 30
0.0
 11
45.00629002435564
 21
-1.005044323039951
 31
0.0
  0
LINE
  5
99
330
1F
100
AcDbEntity
  8
0
  6
Continuous
 62
     1
370
    15
100
AcDbLine
 10
49.51627952438875
 20
-4.204999856261208
 30
0.0
 11
50.00000000000001
 21
-4.204999856261208
 31
0.0
  0
LINE
  5
9A
330
1F
100
AcDbEntity
  8
0
  6
Continuous
 62
     1
370
    15
100
AcDbLine
 10
24.38394557100748
 20
-4.204999856261208
 30
0.0
 11
25.35091332665221
 21
-4.204999856261208
 31
0.0
  0
LINE
  5
9B
330
1F
100
AcDbEntity
  8
0
  6
Continuous
 62
     1
370
    15
100
AcDbLine
 10
12.78557428590187
 20
3.795000143738795
 30
0.0
 11
11.81861314675692
 21
3.795000143738795
 31
0.0
  0
LINE
  5
9C
330
1F
100
AcDbEntity
  8
0
  6
Continuous
 62
     1
370
    15
100
AcDbLine
 10
37.91589710777711
 20
3.795000143738795
 30
0.0
 11
36.94897068695731
 21
3.795000143738795
 31
0.0
  0
LINE
  5
9D
330
1F
100
AcDbEntity
  8
0
  6
Continuous
 62
     1
370
    15
100
AcDbLine
 10
36.9489706869573
 20
-4.204999856261208
 30
0.0
 11
37.9158971077771
 21
-4.204999856261208
 31
0.0
  0
LINE
  5
9E
330
1F
100
AcDbEntity
  8
0
  6
Continuous
 62
     1
370
    15
100
AcDbLine
 10
11.81861314675695
 20
-4.204999856261208
 30
0.0
 11
12.78557428590185
 21
-4.204999856261208
 31
0.0
  0
LINE
  5
9F
330
1F
100
AcDbEntity
  8
0
  6
Continuous
 62
     1
370
    15
100
AcDbLine
 10
25.35091332665218
 20
3.795000143738795
 30
0.0
 11
24.38394557100749
 21
3.795000143738795
 31
0.0
  0
LINE
  5
A0
330
1F
100
AcDbEntity
  8
0
  6
Continuous
 62
   131
370
    15
100
AcDbLine
 10
50.00000000000001
 20
3.795000143738795
 30
0.0
 11
49.51627952438875
 21
3.795000143738795
 31
0.0
  0
LINE
  5
A1
330
1F
100
AcDbEntity
  8
0
  6
Continuous
 62
     1
370
    15
100
AcDbLine
 10
41.13906887557248
 20
-4.204999856261208
 30
0.0
 11
42.10619642526436
 21
-4.204999856261208
 31
0.0
  0
LINE
  5
A2
330
1F
100
AcDbEntity
  8
0
  6
Continuous
 62
     1
370
    15
100
AcDbLine
 10
16.00632523149755
 20
-4.204999856261208
 30
0.0
 11
16.97313428551536
 21
-4.204999856261208
 31
0.0
  0
LINE
  5
A3
330
1F
100
AcDbEntity
  8
0
  6
Continuous
 62
     1
370
    15
100
AcDbLine
 10
29.53905284289002
 20
3.795000143738795
 30
0.0
 11
28.57145033966027
 21
3.795000143738795
 31
0.0
  0
LINE
  5
A4
330
1F
100
AcDbEntity
  8
0
  6
Continuous
 62
     1
370
    15
100
AcDbLine
 10
32.76146515002337
 20
-4.204999856261208
 30
0.0
 11
33.72838265112368
 21
-4.204999856261208
 31
0.0
  0
LINE
  5
A5
330
1F
100
AcDbEntity
  8
0
  6
Continuous
 62
     1
370
    15
100
AcDbLine
 10
21.16304404095101
 20
3.795000143738795
 30
0.0
 11
20.19537219429554
 21
3.795000143738795
 31
0.0
  0
LINE
  5
A6
330
1F
100
AcDbEntity
  8
0
  6
Continuous
 62
     1
370
    15
100
AcDbLine
 10
46.29398480456162
 20
3.795000143738795
 30
0.0
 11
45.32739847580311
 21
3.795000143738795
 31
0.0
  0
LINE
  5
A7
330
1F
100
AcDbEntity
  8
0
  6
Continuous
 62
     1
370
    15
100
AcDbLine
 10
28.57145033966032
 20
-4.204999856261208
 30
0.0
 11
29.53905284289004
 21
-4.204999856261208
 31
0.0
  0
LINE
  5
A8
330
1F
100
AcDbEntity
  8
0
  6
Continuous
 62
     1
370
    15
100
AcDbLine
 10
16.97313428551541
 20
3.795000143738795
 30
0.0
 11
16.00632523149758
 21
3.795000143738795
 31
0.0
  0
LINE
  5
A9
330
1F
100
AcDbEntity
  8
0
  6
Continuous
 62
     1
370
    15
100
AcDbLine
 10
42.10619642526439
 20
3.795000143738795
 30
0.0
 11
41.13906887557251
 21
3.795000143738795
 31
0.0
  0
LINE
  5
AA
330
1F
100
AcDbEntity
  8
0
  6
Continuous
 62
     1
370
    15
100
AcDbLine
 10
45.32739847580311
 20
-4.204999856261208
 30
0.0
 11
46.29398480456162
 21
-4.204999856261208
 31
0.0
  0
LINE
  5
AB
330
1F
100
AcDbEntity
  8
0
  6
Continuous
 62
     1
370
    15
100
AcDbLine
 10
20.1953721942955
 20
-4.204999856261208
 30
0.0
 11
21.16304404095103
 21
-4.204999856261208
 31
0.0
  0
LINE
  5
AC
330
1F
100
AcDbEntity
  8
0
  6
Continuous
 62
     1
370
    15
100
AcDbLine
 10
33.72838265112368
 20
3.795000143738795
 30
0.0
 11
32.76146515002333
 21
3.795000143738795
 31
0.0
  0
LINE
  5
AD
330
1F
100
AcDbEntity
  8
0
  6
Continuous
 62
   131
370
    15
100
AcDbLine
 10
-79.19999999999999
 20
-4.204999856261205
 30
0.0
 11
8.99974190580889
 21
-4.204999856261205
 31
0.0
  0
LINE
  5
AE
330
1F
100
AcDbEntity
  8
0
  6
Continuous
 62
   131
370
    15
100
AcDbLine
 10
8.99974190580889
 20
3.795000143738792
 30
0.0
 11
-79.19999999999999
 21
3.795000143738792
 31
0.0
  0
LINE
  5
AF
330
1F
100
AcDbEntity
  8
0
  6
Continuous
 62
   131
370
    15
100
AcDbLine
 10
-79.19999999999999
 20
3.795000143738796
 30
0.0
 11
-79.99999999999999
 21
2.995000143738798
 31
0.0
  0
LINE
  5
B0
330
1F
100
AcDbEntity
  8
0
  6
Continuous
 62
   131
370
    15
100
AcDbLine
 10
-79.99999999999999
 20
-3.40499985626121
 30
0.0
 11
-79.19999999999999
 21
-4.204999856261209
 31
0.0
  0
SPLINE
  5
B1
330
1F
100
AcDbEntity
  8
0
  6
Continuous
 62
     1
370
    15
100
AcDbSpline
210
0.0
220
0.0
230
1.0
 70
     8
 71
     3
 72
    16
 73
    12
 74
     0
 42
0.000000001
 43
0.00000001
 40
0.0
 40
0.0
 40
0.0
 40
0.0
 40
0.120205441297865
 40
0.2403711514271356
 40
0.3605069420837236
 40
0.4806227264707964
 40
0.5999772381566564
 40
0.7193323908148691
 40
0.8387000459736569
 40
0.9580920174904674
 40
1.0
 40
1.0
 40
1.0
 40
1.0
 10
10.00000000000005
 20
0.4817117367806556
 30
0.0
 10
10.3440681405364
 20
0.1385279937211866
 30
0.0
 10
11.03209069772811
 20
-0.5477260608341957
 30
0.0
 10
12.06375585683131
 20
-1.566709150655293
 30
0.0
 10
13.0950473037112
 20
-2.492165007620685
 30
0.0
 10
14.12394144301232
 20
-3.265905493819454
 30
0.0
 10
15.15050888553228
 20
-3.83564367949462
 30
0.0
 10
16.17494766508089
 20
-4.171522268378154
 30
0.0
 10
17.19955618163921
 20
-4.232434825917399
 30
0.0
 10
18.00262701022117
 20
-4.120890814460335
 30
0.0
 10
18.46425024935537
 20
-3.911837214037965
 30
0.0
 10
18.5841864188875
 20
-3.857522166752679
 30
0.0
  0
SPLINE
  5
B2
330
1F
100
AcDbEntity
  8
0
  6
Continuous
 62
     1
370
    15
100
AcDbSpline
210
0.0
220
0.0
230
1.0
 70
     8
 71
     3
 72
    21
 73
    17
 74
     0
 42
0.000000001
 43
0.00000001
 40
0.0
 40
0.0
 40
0.0
 40
0.0
 40
0.0695779163279101
 40
0.14190422426338
 40
0.214206234327627
 40
0.2864910180742393
 40
0.3587657125113263
 40
0.4310374930918281
 40
0.5033135463867336
 40
0.575601042666443
 40
0.647907108616776
 40
0.7202388004142928
 40
0.7925847327830233
 40
0.8649037807240074
 40
0.9372004341663113
 40
1.0
 40
1.0
 40
1.0
 40
1.0
 10
29.53905284289003
 20
3.790185558891295
 30
0.0
 10
29.86797020068803
 20
3.7686590414432
 30
0.0
 10
30.53879745405266
 20
3.724755689334065
 30
0.0
 10
31.55124272945434
 20
3.335200689739372
 30
0.0
 10
32.57629939478343
 20
2.729991846767435
 30
0.0
 10
33.60099253320251
 20
1.927699722805121
 30
0.0
 10
34.62547031053101
 20
0.9877002506578176
 30
0.0
 10
35.64988637264646
 20
-0.0305363417496913
 30
0.0
 10
36.67439299718868
 20
-1.060096550592381
 30
0.0
 10
37.69914405915686
 20
-2.033901469429106
 30
0.0
 10
38.7242860601778
 20
-2.888506616585861
 30
0.0
 10
39.74990041671465
 20
-3.567427844764874
 30
0.0
 10
40.7757524089121
 20
-4.028348171816782
 30
0.0
 10
41.80114166726005
 20
-4.23326732862514
 30
0.0
 10
42.78129029648737
 20
-4.200070392067214
 30
0.0
 10
43.41961108599905
 20
-3.975619371400426
 30
0.0
 10
43.7163349222306
 20
-3.871283167735048
 30
0.0
  0
SPLINE
  5
B3
330
1F
100
AcDbEntity
  8
0
  6
Continuous
 62
   131
370
    15
100
AcDbSpline
210
0.0
220
0.0
230
1.0
 70
    24
 71
     3
 72
    20
 73
    16
 74
     0
 42
0.000000001
 43
0.00000001
 40
0.0
 40
0.0
 40
0.0
 40
0.0
 40
0.0255325187591437
 40
0.1086507271506104
 40
0.1941793692162589
 40
0.2772975776077197
 40
0.3628262196733599
 40
0.4459444280648222
 40
0.5314730701304657
 40
0.6145912785219232
 40
0.700119920587561
 40
0.783238128979024
 40
0.8687667710446658
 40
0.9518849794361294
 40
1.0
 40
1.0
 40
1.0
 40
1.0
 10
9.999999999999979
 20
3.112446990297053
 30
0.0
 10
10.00000000000001
 20
3.093070051615564
 30
0.0
 10
10.00000000000015
 20
3.010613694780717
 30
0.0
 10
9.999999999999929
 20
2.845645682545056
 30
0.0
 10
9.999999999999979
 20
2.608191334633427
 30
0.0
 10
10.00000000000005
 20
2.350068523116305
 30
0.0
 10
10.00000000000006
 20
2.083657874450552
 30
0.0
 10
9.999999999999993
 20
1.811586842468343
 30
0.0
 10
9.999999999999929
 20
1.5464969759144
 30
0.0
 10
10.00000000000009
 20
1.291063233551311
 30
0.0
 10
9.999999999999979
 20
1.057297723381465
 30
0.0
 10
9.999999999999943
 20
0.8469266036036509
 30
0.0
 10
10.00000000000011
 20
0.6722335589568323
 30
0.0
 10
9.999999999999957
 20
0.5471070873984045
 30
0.0
 10
9.999999999999979
 20
0.4992558089876319
 30
0.0
 10
10.00000000000001
 20
0.4817117367806955
 30
0.0
  0
SPLINE
  5
B4
330
1F
100
AcDbEntity
  8
0
  6
Continuous
 62
     1
370
    15
100
AcDbSpline
210
0.0
220
0.0
230
1.0
 70
     8
 71
     3
 72
    22
 73
    18
 74
     0
 42
0.000000001
 43
0.00000001
 40
0.0
 40
0.0
 40
0.0
 40
0.0
 40
0.031904727860209
 40
0.1041756594640174
 40
0.1764547433487691
 40
0.2487491293702941
 40
0.321065909188146
 40
0.3934095725905759
 40
0.4657389958684133
 40
0.5380427941027667
 40
0.6103280232488892
 40
0.6826018097690929
 40
0.7548713237088949
 40
0.8271437514138981
 40
0.8994262681119987
 40
0.971726010587467
 40
1.0
 40
1.0
 40
1.0
 40
1.0
 10
45.32739847580308
 20
-4.172677113748266
 30
0.0
 10
45.17665248938459
 20
-4.1800613550196
 30
0.0
 10
44.68443507836302
 20
-4.204172458786197
 30
0.0
 10
43.85071150477046
 20
-3.966810788356249
 30
0.0
 10
42.82609250589866
 20
-3.485710646990912
 30
0.0
 10
41.80114282571397
 20
-2.775270915541156
 30
0.0
 10
40.77575209815626
 20
-1.900851626955434
 30
0.0
 10
39.74990050064029
 20
-0.9146859143708105
 30
0.0
 10
38.72428603522698
 20
0.117646584071794
 30
0.0
 10
37.69914407506631
 20
1.128920854381952
 30
0.0
 10
36.67439295850384
 20
2.052854110223205
 30
0.0
 10
35.64988651145455
 20
2.829594924616194
 30
0.0
 10
34.62546979399818
 20
3.407125107365149
 30
0.0
 10
33.6009944607365
 20
3.752866233417431
 30
0.0
 10
32.57629219940105
 20
3.825225383597193
 30
0.0
 10
31.7594345823582
 20
3.717743007999637
 30
0.0
 10
31.28404776577533
 20
3.505839098075126
 30
0.0
 10
31.15040370617245
 20
3.446267192039543
 30
0.0
  0
SPLINE
  5
B5
330
1F
100
AcDbEntity
  8
0
  6
Continuous
 62
     1
370
    15
100
AcDbSpline
210
0.0
220
0.0
230
1.0
 70
     8
 71
     3
 72
    17
 73
    13
 74
     0
 42
0.000000001
 43
0.00000001
 40
0.0
 40
0.0
 40
0.0
 40
0.0
 40
0.092723306639668
 40
0.1932822258448944
 40
0.2938108011338424
 40
0.3943189019403154
 40
0.4948164755852543
 40
0.5953135095286003
 40
0.696451538499391
 40
0.797606412838808
 40
0.8987864795083648
 40
1.0
 40
1.0
 40
1.0
 40
1.0
 10
20.1953721942955
 20
-4.19556000890394
 30
0.0
 10
19.88014753154349
 20
-4.177842660734313
 30
0.0
 10
19.22306004549549
 20
-4.140910754243939
 30
0.0
 10
18.2244647481098
 20
-3.764756123155551
 30
0.0
 10
17.19954797859735
 20
-3.16863489562878
 30
0.0
 10
16.17494986260047
 20
-2.37305193723457
 30
0.0
 10
15.15050829686429
 20
-1.43750534411069
 30
0.0
 10
14.12394160186059
 20
-0.4192411432337073
 30
0.0
 10
13.0950472610407
 20
0.6164469482268912
 30
0.0
 10
12.06375586821391
 20
1.595883575724065
 30
0.0
 10
11.03209069488096
 20
2.472095641465665
 30
0.0
 10
10.34406813958719
 20
2.898973021035093
 30
0.0
 10
9.999999999999993
 20
3.112446990297051
 30
0.0
  0
LINE
  5
B6
330
1F
100
AcDbEntity
  8
0
  6
Continuous
 62
     1
370
    15
100
AcDbLine
 10
50.00000000000001
 20
-1.772673291642403
 30
0.0
 11
50.00000000000001
 21
1.362673579120066
 31
0.0
  0
SPLINE
  5
B7
330
1F
100
AcDbEntity
  8
0
  6
Continuous
 62
     1
370
    15
100
AcDbSpline
210
0.0
220
0.0
230
1.0
 70
     8
 71
     3
 72
    22
 73
    18
 74
     0
 42
0.000000001
 43
0.00000001
 40
0.0
 40
0.0
 40
0.0
 40
0.0
 40
0.0159693607386373
 40
0.0882654929502678
 40
0.160583447293335
 40
0.2329290061363765
 40
0.3052640704868339
 40
0.3775729399562188
 40
0.4498626639307723
 40
0.5221403644693163
 40
0.5944132094170731
 40
0.6666883851421385
 40
0.7389730691189506
 40
0.8112744025852536
 40
0.8835994634979856
 40
0.9559479675490491
 40
1.0
 40
1.0
 40
1.0
 40
1.0
 10
16.97313428551539
 20
3.77246197062085
 30
0.0
 10
17.04858786470729
 20
3.779378626058393
 30
0.0
 10
17.4656331974064
 20
3.817608209055087
 30
0.0
 10
18.22447040209264
 20
3.628767281678515
 30
0.0
 10
19.24981674069316
 20
3.204889542518307
 30
0.0
 10
20.27564751248919
 20
2.536443585990415
 30
0.0
 10
21.30130212605381
 20
1.694736452993833
 30
0.0
 10
22.32648010674211
 20
0.7274068377694969
 30
0.0
 10
23.3512582814491
 20
-0.3002491653784067
 30
0.0
 10
24.37577882695512
 20
-1.321728402173147
 30
0.0
 10
25.40019647870368
 20
-2.270184106006779
 30
0.0
 10
26.42466403221768
 20
-3.084039159470847
 30
0.0
 10
27.44933215778109
 20
-3.709223460304308
 30
0.0
 10
28.4743606863762
 20
-4.108426204492356
 30
0.0
 10
29.49983532152082
 20
-4.242295926378957
 30
0.0
 10
30.39206346978261
 20
-4.163123876799234
 30
0.0
 10
30.94220243572663
 20
-3.940514064872362
 30
0.0
 10
31.15040370617247
 20
-3.856266904561956
 30
0.0
  0
SPLINE
  5
B8
330
1F
100
AcDbEntity
  8
0
  6
Continuous
 62
     1
370
    15
100
AcDbSpline
210
0.0
220
0.0
230
1.0
 70
     8
 71
     3
 72
    15
 73
    11
 74
     0
 42
0.000000001
 43
0.00000001
 40
0.0
 40
0.0
 40
0.0
 40
0.0
 40
0.0912021109197289
 40
0.2210099352855751
 40
0.350803118765071
 40
0.4805945577809564
 40
0.6103971554128426
 40
0.7402237721821904
 40
0.870087177188753
 40
0.9999999999999999
 40
0.9999999999999999
 40
0.9999999999999999
 40
0.9999999999999999
 10
42.10619642526439
 20
3.767608262711992
 30
0.0
 10
42.34618448934339
 20
3.766002670145193
 30
0.0
 10
42.92774719635234
 20
3.762111840144606
 30
0.0
 10
43.85070800025305
 20
3.454605557052664
 30
0.0
 10
44.8751580853133
 20
2.909592055535644
 30
0.0
 10
45.89958272574543
 20
2.151936089896638
 30
0.0
 10
46.92413966023656
 20
1.242374342444365
 30
0.0
 10
47.94898535017897
 20
0.2395104906983283
 30
0.0
 10
48.97424917215129
 20
-0.7997148132748377
 30
0.0
 10
49.65803969772392
 20
-1.448312670786301
 30
0.0
 10
50.00000000000004
 20
-1.772673291642403
 30
0.0
  0
SPLINE
  5
B9
330
1F
100
AcDbEntity
  8
0
  6
Continuous
 62
     1
370
    15
100
AcDbSpline
210
0.0
220
0.0
230
1.0
 70
     8
 71
     3
 72
    14
 73
    10
 74
     0
 42
0.000000001
 43
0.00000001
 40
0.0
 40
0.0
 40
0.0
 40
0.0
 40
0.1632033514164281
 40
0.3263446215758374
 40
0.4894396764080917
 40
0.6525045571309223
 40
0.8155554198108174
 40
0.9786084739780546
 40
1.0
 40
1.0
 40
1.0
 40
1.0
 10
50.00000000000004
 20
1.362673579120066
 30
0.0
 10
49.65803968886509
 20
1.66708342487017
 30
0.0
 10
48.97424914557813
 20
2.275787321285848
 30
0.0
 10
47.94898545641193
 20
2.999845905547884
 30
0.0
 10
46.92413926201483
 20
3.520205636060829
 30
0.0
 10
45.89958421209519
 20
3.801448522159968
 30
0.0
 10
44.87515253850451
 20
3.798799095313036
 30
0.0
 10
44.14743270432622
 20
3.671710719604155
 30
0.0
 10
43.76113677742237
 20
3.483152117542175
 30
0.0
 10
43.71633492223063
 20
3.461283455212637
 30
0.0
  0
SPLINE
  5
BA
330
1F
100
AcDbEntity
  8
0
  6
Continuous
 62
     1
370
    15
100
AcDbSpline
210
0.0
220
0.0
230
1.0
 70
     8
 71
     3
 72
    22
 73
    18
 74
     0
 42
0.000000001
 43
0.00000001
 40
0.0
 40
0.0
 40
0.0
 40
0.0
 40
0.0130583687447354
 40
0.0853617791773112
 40
0.1576894879517201
 40
0.2300384066886913
 40
0.3023638821529638
 40
0.3746656300348046
 40
0.4469507283317247
 40
0.5192263183223983
 40
0.5914995775224006
 40
0.6637776923410242
 40
0.7360678306645728
 40
0.8083771145926906
 40
0.8807125935520254
 40
0.9530585670640955
 40
1.0
 40
1.0
 40
1.0
 40
1.0
 10
32.76146515002337
 20
-4.185624854361198
 30
0.0
 10
32.69976418346232
 20
-4.1917229581166
 30
0.0
 10
32.29642863783896
 20
-4.23158589937248
 30
0.0
 10
31.55123374783207
 20
-4.050421774581222
 30
0.0
 10
30.5257201045173
 20
-3.637429217623646
 30
0.0
 10
29.49984036938413
 20
-2.976866841502506
 30
0.0
 10
28.47435933458786
 20
-2.14142723789787
 30
0.0
 10
27.44933251942427
 20
-1.177943981223507
 30
0.0
 10
26.42466393692838
 20
-0.1514965249504474
 30
0.0
 10
25.40019649830387
 20
0.8715231242990145
 30
0.0
 10
24.3757788438341
 20
1.824164803520231
 30
0.0
 10
23.35125819431897
 20
2.644557508857398
 30
0.0
 10
22.32648043847962
 20
3.278259327679836
 30
0.0
 10
21.30130088571131
 20
3.687147525240868
 30
0.0
 10
20.27565214408324
 20
3.832120171877804
 30
0.0
 10
19.36976728666712
 20
3.759196936482317
 30
0.0
 10
18.80602693559499
 20
3.535536344363256
 30
0.0
 10
18.58418641888754
 20
3.447522454230265
 30
0.0
  0
SPLINE
  5
BB
330
1F
100
AcDbEntity
  8
0
  6
Continuous
 62
     1
370
    15
100
AcDbSpline
210
0.0
220
0.0
230
1.0
 70
     8
 71
     3
 72
    12
 73
     8
 74
     0
 42
0.000000001
 43
0.00000001
 40
0.0
 40
0.0
 40
0.0
 40
0.0
 40
0.2347139049774545
 40
0.4693502306238233
 40
0.7039281353185867
 40
0.9384669756449593
 40
1.0
 40
1.0
 40
1.0
 40
1.0
 10
10.00000000000002
 20
-3.274314625585496
 30
0.0
 10
10.344068085297
 20
-3.474812206721422
 30
0.0
 10
11.03209053202821
 20
-3.875741099088087
 30
0.0
 10
12.06375651930622
 20
-4.184619620519685
 30
0.0
 10
13.09504482026823
 20
-4.22644219648759
 30
0.0
 10
13.87261912014799
 20
-4.106637082978143
 30
0.0
 10
14.30642088623033
 20
-3.903751141180428
 30
0.0
 10
14.39657850612551
 20
-3.861585075818671
 30
0.0
  0
SPLINE
  5
BC
330
1F
100
AcDbEntity
  8
0
  6
Continuous
 62
     1
370
    15
100
AcDbSpline
210
0.0
220
0.0
230
1.0
 70
     8
 71
     3
 72
    22
 73
    18
 74
     0
 42
0.000000001
 43
0.00000001
 40
0.0
 40
0.0
 40
0.0
 40
0.0
 40
0.003476655171718
 40
0.0757562367226818
 40
0.1480453271050063
 40
0.2203510679917588
 40
0.2926805377713428
 40
0.3650334521183296
 40
0.4373651553313901
 40
0.5096725588606956
 40
0.5819627347873463
 40
0.6542428206518461
 40
0.7265199924423977
 40
0.7988014372660818
 40
0.8710943259281745
 40
0.9434057856461203
 40
1.0
 40
1.0
 40
1.0
 40
1.0
 10
25.35091332665218
 20
3.789017676300293
 30
0.0
 10
25.36733831057662
 20
3.790996901512076
 30
0.0
 10
25.72523833484976
 20
3.834124173635885
 30
0.0
 10
26.42466387226769
 20
3.675467210088792
 30
0.0
 10
27.44933256486848
 20
3.299702489076356
 30
0.0
 10
28.47435921744473
 20
2.665542142253543
 30
0.0
 10
29.499840792703
 20
1.851673500549415
 30
0.0
 10
30.52571852808784
 20
0.901467938794978
 30
0.0
 10
31.55123962731332
 20
-0.1205750136494694
 30
0.0
 10
32.57630022112396
 20
-1.148163386808845
 30
0.0
 10
33.60099232878402
 20
-2.113961950051567
 30
0.0
 10
34.62547030207983
 20
-2.955215787739801
 30
0.0
 10
35.64988661084459
 20
-3.616366210968273
 30
0.0
 10
36.67439205271724
 20
-4.056838704628625
 30
0.0
 10
37.69914759981508
 20
-4.238321939914504
 30
0.0
 10
38.64988217685746
 20
-4.188401149161523
 30
0.0
 10
39.25915309215208
 20
-3.963301320846162
 30
0.0
 10
39.52664487657539
 20
-3.86447442260115
 30
0.0
  0
SPLINE
  5
BD
330
1F
100
AcDbEntity
  8
0
  6
Continuous
 62
   131
370
    15
100
AcDbSpline
210
0.0
220
0.0
230
1.0
 70
    24
 71
     3
 72
    22
 73
    18
 74
     0
 42
0.000000001
 43
0.00000001
 40
0.0
 40
0.0
 40
0.0
 40
0.0
 40
0.0105580436825769
 40
0.0805504806088223
 40
0.1525727029475522
 40
0.2225651398737993
 40
0.2945873622125312
 40
0.3645797991387744
 40
0.4366020214775019
 40
0.506594458403749
 40
0.5786166807424808
 40
0.6486091176687282
 40
0.7206313400074608
 40
0.790623776933638
 40
0.8626459992724351
 40
0.9304051903650841
 40
1.0
 40
1.0
 40
1.0
 40
1.0
 10
9.999999999999993
 20
-0.4332887033007674
 30
0.0
 10
9.999999999999993
 20
-0.4335875898994417
 30
0.0
 10
9.999999999999929
 20
-0.4358678853684295
 30
0.0
 10
10.00000000000001
 20
-0.4838171634189586
 30
0.0
 10
10.00000000000005
 20
-0.5777060173378377
 30
0.0
 10
10.00000000000009
 20
-0.7181328188204357
 30
0.0
 10
9.999999999999886
 20
-0.8930114665785909
 30
0.0
 10
10.00000000000008
 20
-1.102038653166524
 30
0.0
 10
9.999999999999964
 20
-1.335134620702568
 30
0.0
 10
9.999999999999979
 20
-1.590005696814238
 30
0.0
 10
10.00000000000011
 20
-1.854817415799493
 30
0.0
 10
9.999999999999957
 20
-2.126864495126076
 30
0.0
 10
10.00000000000001
 20
-2.393487415621907
 30
0.0
 10
10.00000000000005
 20
-2.652166201444026
 30
0.0
 10
10.00000000000004
 20
-2.887569636187037
 30
0.0
 10
9.999999999999957
 20
-3.101026406188594
 30
0.0
 10
9.999999999999993
 20
-3.216039535142712
 30
0.0
 10
10.00000000000001
 20
-3.274314625585503
 30
0.0
  0
SPLINE
  5
BE
330
1F
100
AcDbEntity
  8
0
  6
Continuous
 62
     1
370
    15
100
AcDbSpline
210
0.0
220
0.0
230
1.0
 70
     8
 71
     3
 72
    22
 73
    18
 74
     0
 42
0.000000001
 43
0.00000001
 40
0.0
 40
0.0
 40
0.0
 40
0.0
 40
0.0256172336694216
 40
0.0979596354481863
 40
0.1702877973506965
 40
0.2425903346566057
 40
0.3148743031981163
 40
0.3871468293132595
 40
0.4594150829225119
 40
0.5316862502461513
 40
0.6039675063869433
 40
0.6762659880046973
 40
0.7485887663079029
 40
0.8209327531278195
 40
0.8932532982731302
 40
0.965550117453483
 40
1.0
 40
1.0
 40
1.0
 40
1.0
 10
41.13906887557248
 20
-4.175002287190179
 30
0.0
 10
41.01799277272164
 20
-4.183046802476186
 30
0.0
 10
40.55500090366145
 20
-4.213808819755008
 30
0.0
 10
39.74989103505438
 20
-3.996755720787364
 30
0.0
 10
38.72428857309957
 20
-3.537676692757747
 30
0.0
 10
37.69914338502386
 20
-2.843475630847647
 30
0.0
 10
36.67439318182754
 20
-1.981752022060837
 30
0.0
 10
35.64988630804281
 20
-1.002839968405972
 30
0.0
 10
34.62547038432945
 20
0.0277878968716008
 30
0.0
 10
33.60099230258774
 20
1.043347460543068
 30
0.0
 10
32.576300243652
 20
1.977380061059008
 30
0.0
 10
31.55123956337947
 20
2.769261641183554
 30
0.0
 10
30.52571876139996
 20
3.366010903639903
 30
0.0
 10
29.49983992326521
 20
3.73293417086826
 30
0.0
 10
28.47436246018798
 20
3.829630910466348
 30
0.0
 10
27.62810366173489
 20
3.732033884724077
 30
0.0
 10
27.12369730246697
 20
3.514963838221369
 30
0.0
 10
26.96091250863837
 20
3.444909799216782
 30
0.0
  0
SPLINE
  5
BF
330
1F
100
AcDbEntity
  8
0
  6
Continuous
 62
     1
370
    15
100
AcDbSpline
210
0.0
220
0.0
230
1.0
 70
     8
 71
     3
 72
    13
 73
     9
 74
     0
 42
0.000000001
 43
0.00000001
 40
0.0
 40
0.0
 40
0.0
 40
0.0
 40
0.1425087123787197
 40
0.3130909401701604
 40
0.484761183751663
 40
0.6564600204208964
 40
0.8282016181909294
 40
1.0
 40
1.0
 40
1.0
 40
1.0
 10
16.00632523149755
 20
-4.187008180311675
 30
0.0
 10
15.72105194435886
 20
-4.176593944350203
 30
0.0
 10
15.09430793562533
 20
-4.153713919165031
 30
0.0
 10
14.1239423203039
 20
-3.804952788006743
 30
0.0
 10
13.09504706804969
 20
-3.225747229201759
 30
0.0
 10
12.06375591969552
 20
-2.437867535287388
 30
0.0
 10
11.03209068200425
 20
-1.505481150101646
 30
0.0
 10
10.34406813529447
 20
-0.8230058102140607
 30
0.0
 10
9.999999999999964
 20
-0.4817117367821069
 30
0.0
  0
LINE
  5
C0
330
1F
100
AcDbEntity
  8
0
  6
Continuous
 62
     1
370
    15
100
AcDbLine
 10
50.00000000000001
 20
2.185848169106166
 30
0.0
 11
50.00000000000001
 21
3.765810347356146
 31
0.0
  0
LINE
  5
C1
330
1F
100
AcDbEntity
  8
0
  6
Continuous
 62
     1
370
    15
100
AcDbLine
 10
10.00000000000002
 20
-3.961026218627378
 30
0.0
 11
10.20779974174288
 21
-3.865375289790307
 31
0.0
  0
SPLINE
  5
C2
330
1F
100
AcDbEntity
  8
0
  6
Continuous
 62
     1
370
    15
100
AcDbSpline
210
0.0
220
0.0
230
1.0
 70
     8
 71
     3
 72
    22
 73
    18
 74
     0
 42
0.000000001
 43
0.00000001
 40
0.0
 40
0.0
 40
0.0
 40
0.0
 40
0.009757237568386
 40
0.0820722659540086
 40
0.1543681472140803
 40
0.2266520040140449
 40
0.2989310048096467
 40
0.3712123365810814
 40
0.4435031774141293
 40
0.5158106691547903
 40
0.5881418903628682
 40
0.6604965567060496
 40
0.7328300114016857
 40
0.8051391658251599
 40
0.87743109222882
 40
0.9497129283260023
 40
1.0
 40
1.0
 40
1.0
 40
1.0
 10
21.16304404095103
 20
3.779723507185857
 30
0.0
 10
21.2091599863016
 20
3.784641393229985
 30
0.0
 10
21.5970607732821
 20
3.826007819794493
 30
0.0
 10
22.32646892701958
 20
3.65315274493257
 30
0.0
 10
23.35126127804104
 20
3.252872084463845
 30
0.0
 10
24.37577801713209
 20
2.601531043012903
 30
0.0
 10
25.40019672184209
 20
1.773777035488164
 30
0.0
 10
26.42466386947005
 20
0.8150071821502007
 30
0.0
 10
27.44933256569795
 20
-0.2099343806796989
 30
0.0
 10
28.4743592169248
 20
-1.234814711055164
 30
0.0
 10
29.4998407939535
 20
-2.192488260340742
 30
0.0
 10
30.52571852360495
 20
-3.020397171712093
 30
0.0
 10
31.55123964398594
 20
-3.663866683871168
 30
0.0
 10
32.57630015894308
 20
-4.083711170401615
 30
0.0
 10
33.60099256077011
 20
-4.241348975921699
 30
0.0
 10
34.52157336468612
 20
-4.175983916665341
 30
0.0
 10
35.10061821302094
 20
-3.951560613708297
 30
0.0
 10
35.33818637219093
 20
-3.859485136115034
 30
0.0
  0
SPLINE
  5
C3
330
1F
100
AcDbEntity
  8
0
  6
Continuous
 62
     1
370
    15
100
AcDbSpline
210
0.0
220
0.0
230
1.0
 70
     8
 71
     3
 72
    11
 73
     7
 74
     0
 42
0.000000001
 43
0.00000001
 40
0.0
 40
0.0
 40
0.0
 40
0.0
 40
0.1700584699899261
 40
0.4466183115171609
 40
0.723256520249113
 40
1.0
 40
1.0
 40
1.0
 40
1.0
 10
46.29398480456159
 20
3.763964802481987
 30
0.0
 10
46.50401793447479
 20
3.766646880125936
 30
0.0
 10
47.05562022661609
 20
3.773690722098459
 30
0.0
 10
47.94898716379146
 20
3.488893556437847
 30
0.0
 10
48.9742487184934
 20
2.973526575849671
 30
0.0
 10
49.65803954648545
 20
2.456632909873811
 30
0.0
 10
50.00000000000004
 20
2.198136911974907
 30
0.0
  0
LINE
  5
C4
330
1F
100
AcDbEntity
  8
0
  6
Continuous
 62
   131
370
    15
100
AcDbLine
 10
10.00000000000001
 20
-3.888307227563275
 30
0.0
 11
10.00000000000001
 21
-3.961026218627373
 31
0.0
  0
SPLINE
  5
C5
330
1F
100
AcDbEntity
  8
0
  6
Continuous
 62
     1
370
    15
100
AcDbSpline
210
0.0
220
0.0
230
1.0
 70
     8
 71
     3
 72
    10
 73
     6
 74
     0
 42
0.000000001
 43
0.00000001
 40
0.0
 40
0.0
 40
0.0
 40
0.0
 40
0.4894794462842451
 40
0.9787726984796647
 40
1.0
 40
1.0
 40
1.0
 40
1.0
 10
50.00000000000001
 20
3.765810347356146
 30
0.0
 10
49.65804230407892
 20
3.776890953593401
 30
0.0
 10
48.97425699022482
 20
3.799047951093417
 30
0.0
 10
48.27578720520118
 20
3.655496314043733
 30
0.0
 10
47.91926129916854
 20
3.477413818946055
 30
0.0
 10
47.90443705193287
 20
3.470009198717901
 30
0.0
  0
SPLINE
  5
C6
330
1F
100
AcDbEntity
  8
0
  6
Continuous
 62
     1
370
    15
100
AcDbSpline
210
0.0
220
0.0
230
1.0
 70
     8
 71
     3
 72
    22
 73
    18
 74
     0
 42
0.000000001
 43
0.00000001
 40
0.0
 40
0.0
 40
0.0
 40
0.0
 40
0.0193740487756031
 40
0.0916560099629528
 40
0.1639336980866424
 40
0.2362143003051003
 40
0.3085049926577908
 40
0.3808129127362042
 40
0.4531451326719659
 40
0.5254985638931793
 40
0.5978285503795104
 40
0.6701348078034938
 40
0.7424244146041027
 40
0.8147045125054214
 40
0.8869822794706946
 40
0.9592649023574396
 40
1.0
 40
1.0
 40
1.0
 40
1.0
 10
36.9489706869573
 20
-4.179299823665717
 30
0.0
 10
36.85743058106947
 20
-4.186898832089023
 30
0.0
 10
36.42436669471076
 20
-4.222848715348948
 30
0.0
 10
35.64989125155105
 20
-4.02461227150928
 30
0.0
 10
34.62546905858382
 20
-3.588398016038124
 30
0.0
 10
33.60099266204843
 20
-2.911097071111522
 30
0.0
 10
32.57630013173792
 20
-2.06247230367411
 30
0.0
 10
31.55123965149996
 20
-1.090990661944898
 30
0.0
 10
30.52571852076531
 20
-0.0618987780589947
 30
0.0
 10
29.49984079779495
 20
0.9578258229051877
 30
0.0
 10
28.47435920440493
 20
1.901645779595601
 30
0.0
 10
27.44933261191699
 20
2.707955649271166
 30
0.0
 10
26.42466369716008
 20
3.32315857105726
 30
0.0
 10
25.40019736477904
 20
3.710989004673711
 30
0.0
 10
24.37577561767394
 20
3.831923524326069
 30
0.0
 10
23.50036950724157
 20
3.745911637258446
 30
0.0
 10
22.96636613263972
 20
3.524965209513082
 30
0.0
 10
22.77389472635063
 20
3.445329252728336
 30
0.0
  0
SPLINE
  5
C7
330
1F
100
AcDbEntity
  8
0
  6
Continuous
 62
     1
370
    15
100
AcDbSpline
210
0.0
220
0.0
230
1.0
 70
     8
 71
     3
 72
     9
 73
     5
 74
     0
 42
0.000000001
 43
0.00000001
 40
0.0
 40
0.0
 40
0.0
 40
0.0
 40
0.4324834671416376
 40
1.0
 40
1.0
 40
1.0
 40
1.0
 10
11.81861314675696
 20
-4.180962160006874
 30
0.0
 10
11.55647369204966
 20
-4.177583755922995
 30
0.0
 10
10.95034773666958
 20
-4.16977211839103
 30
0.0
 10
10.34407168359558
 20
-3.933338545103705
 30
0.0
 10
9.999999999999964
 20
-3.799158583340368
 30
0.0
  0
LINE
  5
C8
330
1F
100
AcDbEntity
  8
0
  6
Continuous
 62
     1
370
    15
100
AcDbLine
 10
50.00000000000001
 20
-4.175810059878555
 30
0.0
 11
50.00000000000001
 21
-2.589452449764669
 31
0.0
  0
SPLINE
  5
C9
330
1F
100
AcDbEntity
  8
0
  6
Continuous
 62
     1
370
    15
100
AcDbSpline
210
0.0
220
0.0
230
1.0
 70
     8
 71
     3
 72
    22
 73
    18
 74
     0
 42
0.000000001
 43
0.00000001
 40
0.0
 40
0.0
 40
0.0
 40
0.0
 40
0.0218347235243819
 40
0.0945729043190287
 40
0.1668500833256307
 40
0.2391276504840741
 40
0.3114127887469468
 40
0.3837126521989789
 40
0.4560343389086993
 40
0.5283836315430761
 40
0.6007224291432428
 40
0.6730350305104057
 40
0.7453284853946285
 40
0.8176099162223062
 40
0.8898864912085971
 40
0.9621653970924892
 40
1.0
 40
1.0
 40
1.0
 40
1.0
 10
12.78557428590189
 20
3.767127056604205
 30
0.0
 10
12.8887476603565
 20
3.775115426731205
 30
0.0
 10
13.33562328301647
 20
3.809715515110716
 30
0.0
 10
14.12393735427599
 20
3.602641475066122
 30
0.0
 10
15.15050941294645
 20
3.155114358313298
 30
0.0
 10
16.17494963445522
 20
2.469974783280044
 30
0.0
 10
17.19954777493418
 20
1.615292734448927
 30
0.0
 10
18.22446579133624
 20
0.640283121650964
 30
0.0
 10
19.24981797786764
 20
-0.3897315844078146
 30
0.0
 10
20.27564717711626
 20
-1.407693858110227
 30
0.0
 10
21.3013022303096
 20
-2.347089487094967
 30
0.0
 10
22.32648002497981
 20
-3.146752240725001
 30
0.0
 10
23.35125850421138
 20
-3.753331139578234
 30
0.0
 10
24.37577801780593
 20
-4.131416840874682
 30
0.0
 10
25.40019949241768
 20
-4.241120486833315
 30
0.0
 10
26.26187983396852
 20
-4.149551093137569
 30
0.0
 10
26.78214967508948
 20
-3.930257869377816
 30
0.0
 10
26.9609125086384
 20
-3.854909511739194
 30
0.0
  0
SPLINE
  5
CA
330
1F
100
AcDbEntity
  8
0
  6
Continuous
 62
     1
370
    15
100
AcDbSpline
210
0.0
220
0.0
230
1.0
 70
     8
 71
     3
 72
    19
 73
    15
 74
     0
 42
0.000000001
 43
0.00000001
 40
0.0
 40
0.0
 40
0.0
 40
0.0
 40
0.066888615258965
 40
0.1517495742244602
 40
0.2366272405073067
 40
0.3214733654524197
 40
0.4062932167326105
 40
0.4910951146828573
 40
0.5758874479172924
 40
0.6606786415145308
 40
0.7454771249020418
 40
0.8302912997045644
 40
0.9151295078221301
 40
1.0
 40
1.0
 40
1.0
 40
1.0
 10
37.91589710777714
 20
3.773156744914814
 30
0.0
 10
38.1853216390254
 20
3.766177580659341
 30
0.0
 10
38.79656254667842
 20
3.75034401615647
 30
0.0
 10
39.74990334689214
 20
3.416761994761809
 30
0.0
 10
40.77575134650742
 20
2.851270826309581
 30
0.0
 10
41.80114298689128
 20
2.078051786931549
 30
0.0
 10
42.82609261241916
 20
1.157986919174505
 30
0.0
 10
43.85071091772772
 20
0.1484740386495038
 30
0.0
 10
44.87515730363124
 20
-0.8839991748102534
 30
0.0
 10
45.89958293520877
 20
-1.87182153010926
 30
0.0
 10
46.92413960411729
 20
-2.752189099888179
 30
0.0
 10
47.94898536514988
 20
-3.461330667311596
 30
0.0
 10
48.97424916840652
 20
-3.976503332780743
 30
0.0
 10
49.6580396964755
 20
-4.109366059256135
 30
0.0
 10
50.00000000000004
 20
-4.175810059878555
 30
0.0
  0
SPLINE
  5
CB
330
1F
100
AcDbEntity
  8
0
  6
Continuous
 62
     1
370
    15
100
AcDbSpline
210
0.0
220
0.0
230
1.0
 70
     8
 71
     3
 72
    18
 73
    14
 74
     0
 42
0.000000001
 43
0.00000001
 40
0.0
 40
0.0
 40
0.0
 40
0.0
 40
0.0979215898239197
 40
0.195805931053783
 40
0.2936625432065779
 40
0.3915010509715606
 40
0.4893311479469452
 40
0.5871625598090816
 40
0.6850050072167254
 40
0.7828681687567571
 40
0.8807616442371659
 40
0.9786915113756977
 40
1.0
 40
1.0
 40
1.0
 40
1.0
 10
50.00000000000001
 20
-2.608136624497299
 30
0.0
 10
49.65803969656163
 20
-2.319678534818916
 30
0.0
 10
48.97424916866485
 20
-1.742872082625526
 30
0.0
 10
47.94898536411682
 20
-0.7350649750336226
 30
0.0
 10
46.92413960798966
 20
0.2959280805216389
 30
0.0
 10
45.89958292075525
 20
1.297165882748058
 30
0.0
 10
44.87515735756934
 20
2.199380205756257
 30
0.0
 10
43.85071071641416
 20
2.945232319167537
 30
0.0
 10
42.82609336389318
 20
3.483965881501356
 30
0.0
 10
41.80114018133439
 20
3.787200376889203
 30
0.0
 10
40.77576182216785
 20
3.809831754493623
 30
0.0
 10
40.0174053786111
 20
3.687531590499023
 30
0.0
 10
39.60104971021283
 20
3.489808764762827
 30
0.0
 10
39.52664487657542
 20
3.45447471007874
 30
0.0
  0
SPLINE
  5
CC
330
1F
100
AcDbEntity
  8
0
  6
Continuous
 62
     1
370
    15
100
AcDbSpline
210
0.0
220
0.0
230
1.0
 70
     8
 71
     3
 72
    22
 73
    18
 74
     0
 42
0.000000001
 43
0.00000001
 40
0.0
 40
0.0
 40
0.0
 40
0.0
 40
0.0068542483948084
 40
0.0791624576725488
 40
0.1514540158774436
 40
0.2237360649263625
 40
0.2960157829763141
 40
0.3683003570788195
 40
0.4405969557607554
 40
0.5129127017582471
 40
0.5852546451279292
 40
0.6576070839882143
 40
0.7299319157233539
 40
0.8022349232517861
 40
0.8745232049507088
 40
0.9468039152159622
 40
1.0
 40
1.0
 40
1.0
 40
1.0
 10
28.5714503396603
 20
-4.193776533689779
 30
0.0
 10
28.53905755203589
 20
-4.197443991472325
 30
0.0
 10
28.16494028468449
 20
-4.239800929061067
 30
0.0
 10
27.44934534824964
 20
-4.073762716832092
 30
0.0
 10
26.42466049858545
 20
-3.684714690157463
 30
0.0
 10
25.40019742587826
 20
-3.041359785814022
 30
0.0
 10
24.37577857154204
 20
-2.220123148283015
 30
0.0
 10
23.35125835588972
 20
-1.265348291362025
 30
0.0
 10
22.32648006443136
 20
-0.2417843729930979
 30
0.0
 10
21.30130222087256
 20
0.7844788011071337
 30
0.0
 10
20.27564717539165
 20
1.746077268926821
 30
0.0
 10
19.24981799420611
 20
2.5803301072084
 30
0.0
 10
18.22446572774337
 20
3.232122289709365
 30
0.0
 10
17.19954801287875
 20
3.661531507673267
 30
0.0
 10
16.17494874647485
 20
3.830204685622748
 30
0.0
 10
15.24067017165673
 20
3.771799817919998
 30
0.0
 10
14.64788901193361
 20
3.546922469258443
 30
0.0
 10
14.39657850612554
 20
3.451585363296258
 30
0.0
  0
SPLINE
  5
CD
330
1F
100
AcDbEntity
  8
0
  6
Continuous
 62
     1
370
    15
100
AcDbSpline
210
0.0
220
0.0
230
1.0
 70
     8
 71
     3
 72
    20
 73
    16
 74
     0
 42
0.000000001
 43
0.00000001
 40
0.0
 40
0.0
 40
0.0
 40
0.0
 40
0.0807844363419308
 40
0.161542171229876
 40
0.2422797986442293
 40
0.3230039807836561
 40
0.4032165472640395
 40
0.4834295445118631
 40
0.5636509441036315
 40
0.6438886855785587
 40
0.7241506463095804
 40
0.8044432438487507
 40
0.884724194092871
 40
0.9649760719920234
 40
1.0
 40
1.0
 40
1.0
 40
1.0
 10
10.00000000000002
 20
3.551026506104965
 30
0.0
 10
10.34406813955184
 20
3.408598191861403
 30
0.0
 10
11.03209069477482
 20
3.123788639806957
 30
0.0
 10
12.06375586863838
 20
2.409818296167884
 30
0.0
 10
13.09504725944949
 20
1.540869611511998
 30
0.0
 10
14.12394160778425
 20
0.5538533944057971
 30
0.0
 10
15.15050827491211
 20
-0.4794344569712722
 30
0.0
 10
16.17494994454881
 20
-1.49301101832156
 30
0.0
 10
17.19954767269518
 20
-2.422385381874741
 30
0.0
 10
18.22446589015433
 20
-3.207351176732572
 30
0.0
 10
19.24981768473108
 20
-3.795322036754595
 30
0.0
 10
20.27564825117302
 20
-4.1524590323197
 30
0.0
 10
21.30129822863353
 20
-4.23784106335471
 30
0.0
 10
22.13399994940588
 20
-4.135434034349929
 30
0.0
 10
22.62478183029553
 20
-3.920601068662058
 30
0.0
 10
22.77389472635063
 20
-3.855328965250749
 30
0.0
  0
SPLINE
  5
CE
330
1F
100
AcDbEntity
  8
0
  6
Continuous
 62
     1
370
    15
100
AcDbSpline
210
0.0
220
0.0
230
1.0
 70
     8
 71
     3
 72
    21
 73
    17
 74
     0
 42
0.000000001
 43
0.00000001
 40
0.0
 40
0.0
 40
0.0
 40
0.0
 40
0.0632908686914374
 40
0.1355637715760113
 40
0.2078409472413396
 40
0.2801295660691691
 40
0.3524367548559897
 40
0.4247695698879362
 40
0.4971166257122375
 40
0.5694367966913054
 40
0.6417345728239305
 40
0.7140170461022174
 40
0.7862913667172764
 40
0.8585647159413972
 40
0.9308442787536959
 40
1.0
 40
1.0
 40
1.0
 40
1.0
 10
33.72838265112368
 20
3.780761491983689
 30
0.0
 10
34.02741714397573
 20
3.767101824969449
 30
0.0
 10
34.66792413211613
 20
3.737843955434575
 30
0.0
 10
35.64988537815636
 20
3.376982925752028
 30
0.0
 10
36.67439326227279
 20
2.791602254204159
 30
0.0
 10
37.69914399347846
 20
2.003829863141163
 30
0.0
 10
38.72428605771712
 20
1.07348409869448
 30
0.0
 10
39.74990049230482
 20
0.0590693438715273
 30
0.0
 10
40.77575210899944
 20
-0.9723641983339756
 30
0.0
 10
41.80114279069441
 20
-1.95380056779755
 30
0.0
 10
42.82609263508515
 20
-2.820946076224259
 30
0.0
 10
43.85071102316043
 20
-3.516830016267448
 30
0.0
 10
44.87515685929255
 20
-3.997835498771811
 30
0.0
 10
45.89958460718763
 20
-4.226081504960661
 30
0.0
 10
46.90931070461937
 20
-4.21124270916479
 30
0.0
 10
47.5776487345495
 20
-3.988782370787904
 30
0.0
 10
47.90443705193287
 20
-3.880008911240314
 30
0.0
  0
SPLINE
  5
CF
330
1F
100
AcDbEntity
  8
0
  6
Continuous
 62
     1
370
    15
100
AcDbSpline
210
0.0
220
0.0
230
1.0
 70
     8
 71
     3
 72
    22
 73
    18
 74
     0
 42
0.000000001
 43
0.00000001
 40
0.0
 40
0.0
 40
0.0
 40
0.0
 40
0.0382254352670715
 40
0.1105311656784724
 40
0.1828164130264348
 40
0.2550882869280628
 40
0.3273539479024995
 40
0.3996205801645375
 40
0.4718953642225458
 40
0.5441854495070153
 40
0.616497927255622
 40
0.6888372869895231
 40
0.7611624074459656
 40
0.833461904383338
 40
0.9057428333371405
 40
0.9780123203457369
 40
1.0
 40
1.0
 40
1.0
 40
1.0
 10
49.51627952438875
 20
-4.172302290702468
 30
0.0
 10
49.33556843436155
 20
-4.177888808543061
 30
0.0
 10
48.81303135160034
 20
-4.194042563881363
 30
0.0
 10
47.94898929191859
 20
-3.93462475424453
 30
0.0
 10
46.92413855254526
 20
-3.431646813491008
 30
0.0
 10
45.899583215947
 20
-2.705090100815854
 30
0.0
 10
44.87515723206822
 20
-1.818818204868674
 30
0.0
 10
43.85071092325009
 20
-0.8262528256505347
 30
0.0
 10
42.82609266191194
 20
0.2066761710080927
 30
0.0
 10
41.80114278332179
 20
1.212920334403839
 30
0.0
 10
40.77575211165308
 20
2.126599694462754
 30
0.0
 10
39.74990048906592
 20
2.8882164872239
 30
0.0
 10
38.72428606801491
 20
3.446617382210836
 30
0.0
 10
37.69914395554379
 20
3.771077672085969
 30
0.0
 10
36.67439340367049
 20
3.818590236412994
 30
0.0
 10
35.88745888762169
 20
3.702775782909291
 30
0.0
 10
35.44208111242946
 20
3.497395223094398
 30
0.0
 10
35.33818637219092
 20
3.449485423592622
 30
0.0
  0
SPLINE
  5
D0
330
1F
100
AcDbEntity
  8
0
  6
Continuous
 62
     1
370
    15
100
AcDbSpline
210
0.0
220
0.0
230
1.0
 70
     8
 71
     3
 72
    22
 73
    18
 74
     0
 42
0.000000001
 43
0.00000001
 40
0.0
 40
0.0
 40
0.0
 40
0.0
 40
0.0005749885578537
 40
0.0728559488038994
 40
0.1451489330282086
 40
0.2174610636108066
 40
0.2897993902558611
 40
0.3621482118667982
 40
0.4344694277328039
 40
0.5067688204832002
 40
0.5790534881403024
 40
0.6513305847422683
 40
0.7236072931949212
 40
0.796345000434308
 40
0.8690948227356939
 40
0.941862763170813
 40
1.0
 40
1.0
 40
1.0
 40
1.0
 10
24.38394557100748
 20
-4.203969344426529
 30
0.0
 10
24.38122907267859
 20
-4.204312544732615
 30
0.0
 10
24.03702559163572
 20
-4.247798947354561
 30
0.0
 10
23.35125698855012
 20
-4.094962616786806
 30
0.0
 10
22.32648043134584
 20
-3.730792931652234
 30
0.0
 10
21.30130212098569
 20
-3.104619704375688
 30
0.0
 10
20.27564720784836
 20
-2.297488864121497
 30
0.0
 10
19.24981796430183
 20
-1.351475323612284
 30
0.0
 10
18.22446581486459
 20
-0.3310885707231628
 30
0.0
 10
17.19954769441251
 20
0.6975357555850014
 30
0.0
 10
16.1749499329454
 20
1.667047570129383
 30
0.0
 10
15.15050829961047
 20
2.514441129273832
 30
0.0
 10
14.12394152035555
 20
3.185173218217514
 30
0.0
 10
13.09504758672392
 20
3.636434687104314
 30
0.0
 10
12.06375464749853
 20
3.82731610451391
 30
0.0
 10
11.10134879551633
 20
3.782318117024156
 30
0.0
 10
10.48259771873037
 20
3.555921986149159
 30
0.0
 10
10.2077997417429
 20
3.455375577267894
 30
0.0
  0
LINE
  5
D1
330
1F
100
AcDbEntity
  8
0
  6
Continuous
 62
   131
370
    15
100
AcDbLine
 10
50.00000000000001
 20
-4.204999856261209
 30
0.0
 11
50.00000000000001
 21
-4.175810059878555
 31
0.0
  0
LINE
  5
D2
330
1F
100
AcDbEntity
  8
0
  6
Continuous
 62
   131
370
    15
100
AcDbLine
 10
50.00000000000001
 20
3.765810347356146
 30
0.0
 11
50.00000000000001
 21
3.795000143738796
 31
0.0
  0
LINE
  5
D3
330
1F
100
AcDbEntity
  8
0
  6
Continuous
 62
   131
370
    15
100
AcDbLine
 10
9.999999999999964
 20
-3.799158583340381
 30
0.0
 11
10.00000000000001
 21
-3.274314625585503
 31
0.0
  0
LINE
  5
D4
330
1F
100
AcDbEntity
  8
0
  6
Continuous
 62
   131
370
    15
100
AcDbLine
 10
9.999999999999964
 20
-0.4817117367821246
 30
0.0
 11
10.00000000000004
 21
0.4817117367806496
 31
0.0
  0
LINE
  5
D5
330
1F
100
AcDbEntity
  8
0
  6
Continuous
 62
     1
370
    15
100
AcDbLine
 10
50.00000000000001
 20
1.362673579120066
 30
0.0
 11
50.00000000000001
 21
2.198136911974908
 31
0.0
  0
LINE
  5
D6
330
1F
100
AcDbEntity
  8
0
  6
Continuous
 62
     1
370
    15
100
AcDbLine
 10
50.00000000000001
 20
-2.6081366244973
 30
0.0
 11
50.00000000000001
 21
-1.772673291642403
 31
0.0
  0
LINE
  5
D7
330
1F
100
AcDbEntity
  8
0
  6
Continuous
 62
   131
370
    15
100
AcDbLine
 10
9.999999999999964
 20
3.112446990297052
 30
0.0
 11
10.00000000000001
 21
3.551026506104961
 31
0.0
  0
SPLINE
  5
D8
330
1F
100
AcDbEntity
  8
0
  6
Continuous
 62
   131
370
    15
100
AcDbSpline
210
0.0
220
0.0
230
1.0
 70
    24
 71
     3
 72
    15
 73
    11
 74
     0
 42
0.000000001
 43
0.00000001
 40
0.0
 40
0.0
 40
0.0
 40
0.0
 40
0.0696751553763815
 40
0.2214250288766262
 40
0.3731749023768706
 40
0.5249247758771042
 40
0.6766746493773457
 40
0.8284245228775959
 40
0.9801743963778121
 40
0.9999999999999999
 40
0.9999999999999999
 40
0.9999999999999999
 40
0.9999999999999999
 10
10.00000000000005
 20
-3.274314625585509
 30
0.0
 10
10.00000000000001
 20
-3.220014277677216
 30
0.0
 10
9.999999999999943
 20
-3.047449809917445
 30
0.0
 10
9.999999999999886
 20
-2.666036904622643
 30
0.0
 10
10.00000000000008
 20
-2.135104952580111
 30
0.0
 10
10.00000000000008
 20
-1.590918878656284
 30
0.0
 10
9.999999999999993
 20
-1.091375410428987
 30
0.0
 10
10.00000000000002
 20
-0.7140989607425895
 30
0.0
 10
10.00000000000014
 20
-0.5051273063992754
 30
0.0
 10
10.00000000000012
 20
-0.4841371556984124
 30
0.0
 10
10.00000000000012
 20
-0.4817117367822323
 30
0.0
  0
SPLINE
  5
D9
330
1F
100
AcDbEntity
  8
0
  6
Continuous
 62
   131
370
    15
100
AcDbSpline
210
0.0
220
0.0
230
1.0
 70
     8
 71
     3
 72
     8
 73
     4
 74
     0
 42
0.000000001
 43
0.00000001
 40
0.0
 40
0.0
 40
0.0
 40
0.0
 40
1.0
 40
1.0
 40
1.0
 40
1.0
 10
10.00000000000004
 20
-3.274314625585515
 30
0.0
 10
9.67003851153789
 20
-3.061397681364409
 30
0.0
 10
9.331422102630953
 20
-2.814437208724076
 30
0.0
 10
8.999741905808904
 20
-2.544662319942475
 30
0.0
  0
SPLINE
  5
DA
330
1F
100
AcDbEntity
  8
0
  6
Continuous
 62
   131
370
    15
100
AcDbSpline
210
0.0
220
0.0
230
1.0
 70
     8
 71
     3
 72
     8
 73
     4
 74
     0
 42
0.000000001
 43
0.00000001
 40
0.0
 40
0.0
 40
0.0
 40
0.0
 40
1.0
 40
1.0
 40
1.0
 40
1.0
 10
10.00000000000001
 20
-0.4817117367821561
 30
0.0
 10
9.670038511537904
 20
-0.1504750189808991
 30
0.0
 10
9.331422102630953
 20
0.1865052445056463
 30
0.0
 10
8.99974190580889
 20
0.5136985773023566
 30
0.0
  0
LINE
  5
DB
330
1F
100
AcDbEntity
  8
0
  6
Continuous
 62
   131
370
    15
100
AcDbLine
 10
8.99974190580889
 20
3.774542084754524
 30
0.0
 11
8.99974190580889
 21
3.795000143738792
 31
0.0
  0
SPLINE
  5
DC
330
1F
100
AcDbEntity
  8
0
  6
Continuous
 62
   131
370
    15
100
AcDbSpline
210
0.0
220
0.0
230
1.0
 70
     8
 71
     3
 72
     8
 73
     4
 74
     0
 42
0.000000001
 43
0.00000001
 40
0.0
 40
0.0
 40
0.0
 40
0.0
 40
1.0
 40
1.0
 40
1.0
 40
1.0
 10
10.00000000000004
 20
3.551026506104951
 30
0.0
 10
9.67003851153789
 20
3.665212081008833
 30
0.0
 10
9.331422102630953
 20
3.740949150181638
 30
0.0
 10
8.999741905808904
 20
3.774543935082741
 30
0.0
  0
SPLINE
  5
DD
330
1F
100
AcDbEntity
  8
0
  6
Continuous
 62
   131
370
    15
100
AcDbSpline
210
0.0
220
0.0
230
1.0
 70
     8
 71
     3
 72
     8
 73
     4
 74
     0
 42
0.000000001
 43
0.00000001
 40
0.0
 40
0.0
 40
0.0
 40
0.0
 40
1.0
 40
1.0
 40
1.0
 40
1.0
 10
10.00000000000001
 20
3.112446990297026
 30
0.0
 10
9.670038511537904
 20
3.2979573556433
 30
0.0
 10
9.331422102630953
 20
3.450234294970125
 30
0.0
 10
8.99974190580889
 20
3.562076524070347
 30
0.0
  0
LINE
  5
DE
330
1F
100
AcDbEntity
  8
0
  6
Continuous
 62
   131
370
    15
100
AcDbLine
 10
8.99974190580889
 20
1.434864762814531
 30
0.0
 11
8.99974190580889
 21
3.562081561734875
 31
0.0
  0
SPLINE
  5
DF
330
1F
100
AcDbEntity
  8
0
  6
Continuous
 62
   131
370
    15
100
AcDbSpline
210
0.0
220
0.0
230
1.0
 70
     8
 71
     3
 72
     8
 73
     4
 74
     0
 42
0.000000001
 43
0.00000001
 40
0.0
 40
0.0
 40
0.0
 40
0.0
 40
1.0
 40
1.0
 40
1.0
 40
1.0
 10
10.00000000000004
 20
0.4817117367806547
 30
0.0
 10
9.67003851153789
 20
0.8088142559056428
 30
0.0
 10
9.331422102630953
 20
1.131511797718779
 30
0.0
 10
8.999741905808904
 20
1.434881471401483
 30
0.0
  0
SPLINE
  5
E0
330
1F
100
AcDbEntity
  8
0
  6
Continuous
 62
   131
370
    15
100
AcDbSpline
210
0.0
220
0.0
230
1.0
 70
     8
 71
     3
 72
     8
 73
     4
 74
     0
 42
0.000000001
 43
0.00000001
 40
0.0
 40
0.0
 40
0.0
 40
0.0
 40
1.0
 40
1.0
 40
1.0
 40
1.0
 10
10.00000000000001
 20
-3.799158583340387
 30
0.0
 10
9.670038511537904
 20
-3.653432230885405
 30
0.0
 10
9.331422102630953
 20
-3.468728906725685
 30
0.0
 10
8.99974190580889
 20
-3.253377803029199
 30
0.0
  0
LINE
  5
E1
330
1F
100
AcDbEntity
  8
0
  6
Continuous
 62
   131
370
    15
100
AcDbLine
 10
8.99974190580889
 20
-4.204999856261205
 30
0.0
 11
8.99974190580889
 21
-3.253368102983824
 31
0.0
  0
SPLINE
  5
E2
330
1F
100
AcDbEntity
  8
0
  6
Continuous
 62
   131
370
    15
100
AcDbSpline
210
0.0
220
0.0
230
1.0
 70
     8
 71
     3
 72
     8
 73
     4
 74
     0
 42
0.000000001
 43
0.00000001
 40
0.0
 40
0.0
 40
0.0
 40
0.0
 40
1.0
 40
1.0
 40
1.0
 40
1.0
 10
10.00000000000004
 20
-3.961026218627364
 30
0.0
 10
9.67003851153789
 20
-4.075211793531246
 30
0.0
 10
9.331422102630953
 20
-4.150948862704051
 30
0.0
 10
8.999741905808904
 20
-4.184543647605154
 30
0.0
  0
LINE
  5
E3
330
1F
100
AcDbEntity
  8
0
  6
Continuous
 62
   131
370
    15
100
AcDbLine
 10
-79.19999999999999
 20
-0.2049998562612063
 30
0.0
 11
-79.19999999999999
 21
3.795000143738792
 31
0.0
  0
LINE
  5
E4
330
1F
100
AcDbEntity
  8
0
  6
Continuous
 62
   131
370
    15
100
AcDbLine
 10
-79.19999999999999
 20
-4.204999856261205
 30
0.0
 11
-79.19999999999999
 21
-0.2049998562612063
 31
0.0
  0
LINE
  5
E5
330
1F
100
AcDbEntity
  8
0
  6
Continuous
 62
   131
370
    15
100
AcDbLine
 10
8.99974190580889
 20
-2.544677178201209
 30
0.0
 11
8.99974190580889
 21
0.513713315012258
 31
0.0
  0
LINE
  5
E6
330
1F
100
AcDbEntity
  8
0
  6
Continuous
 62
   131
370
    15
100
AcDbLine
 10
-79.99999999999999
 20
-0.2049998562612063
 30
0.0
 11
-79.99999999999999
 21
2.995000143738798
 31
0.0
  0
LINE
  5
E7
330
1F
100
AcDbEntity
  8
0
  6
Continuous
 62
   131
370
    15
100
AcDbLine
 10
-79.99999999999999
 20
-3.40499985626121
 30
0.0
 11
-79.99999999999999
 21
-0.2049998562612063
 31
0.0
  0
SPLINE
  5
E8
330
1F
100
AcDbEntity
  8
0
  6
Continuous
 62
   131
370
    15
100
AcDbSpline
210
0.0
220
0.0
230
1.0
 70
    24
 71
     3
 72
    15
 73
    11
 74
     0
 42
0.000000001
 43
0.00000001
 40
0.0
 40
0.0
 40
0.0
 40
0.0
 40
0.0468821670462074
 40
0.1899352466294624
 40
0.3329883262127071
 40
0.4760414057959595
 40
0.6190944853792202
 40
0.7621475649624486
 40
0.9052006445457086
 40
1.0
 40
1.0
 40
1.0
 40
1.0
 10
9.999999999999943
 20
0.3912169795488671
 30
0.0
 10
9.999999999999943
 20
0.3860806999714785
 30
0.0
 10
9.999999999999929
 20
0.3652719236338219
 30
0.0
 10
10.00000000000009
 20
0.514493752451188
 30
0.0
 10
10.00000000000006
 20
0.8242936014752551
 30
0.0
 10
10.00000000000002
 20
1.275780903520462
 30
0.0
 10
9.999999999999979
 20
1.802875047013867
 30
0.0
 10
10.00000000000022
 20
2.347731517862971
 30
0.0
 10
9.9999999999999
 20
2.800427109804607
 30
0.0
 10
10.00000000000001
 20
3.023527331948453
 30
0.0
 10
10.00000000000004
 20
3.112446990297155
 30
0.0
  0
LINE
  5
E9
330
1F
100
AcDbEntity
  8
0
  6
Continuous
 62
   131
370
    15
100
AcDbLine
 10
10.00000000000005
 20
-3.961026218627369
 30
0.0
 11
10.00000000000002
 21
-3.888307227563275
 31
0.0
  0
LINE
  5
EA
330
1F
100
AcDbEntity
  8
중심선
 62
     1
100
AcDbLine
 10
-83.20259277488954
 20
-0.2049998562612107
 30
0.0
 11
53.00000000000001
 21
-0.2049998562611674
 31
0.0
  0
CIRCLE
  5
EB
330
1F
100
AcDbEntity
  8
외형선
100
AcDbCircle
 10
0.0
 20
0.0
 30
0.0
 40
3.000000000000004
  0
INSERT
  5
EC
330
1F
100
AcDbEntity
  8
0
  6
Continuous
 62
     7
100
AcDbBlockReference
 66
     1
  2
블럭10
 10
-22.93944368806589
 20
-52.04609937292004
 30
0.0
  0
ATTRIB
  5
ED
330
EC
100
AcDbEntity
  8
FORMAT
 62
     2
100
AcDbText
 10
-43.79769121965843
 20
-49.97073246008785
 30
0.0
 40
4.233333333333333
  1
SEME7508040130E [ 6 FLUTE ]
 41
0.75
  7
SLDTEXTSTYLE0
 11
-43.79769121965843
 21
-52.08739912675452
 31
0.0
100
AcDbAttribute
  2
AUTOATTR0
 70
     0
 74
     1
  0
SEQEND
  5
EE
330
EC
100
AcDbEntity
  8
0
  6
Continuous
 62
     7
  0
HATCH
  5
EF
330
1F
100
AcDbEntity
  8
중심선
100
AcDbHatch
 10
0.0
 20
0.0
 30
0.0
210
0.0
220
0.0
230
1.0
  2
SOLID
 70
     1
 71
     0
 91
        1
 92
        0
 93
        4
 72
     1
 10
-17.22453438368504
 20
-35.7989250712761
 11
-20.67080962752232
 21
-35.7989250712761
 72
     1
 10
-20.67080962752232
 20
-35.7989250712761
 11
-22.79903948672635
 21
-38.3352506518487
 72
     1
 10
-22.79903948672635
 20
-38.3352506518487
 11
-19.35273115777591
 21
-38.33521122254621
 72
     1
 10
-19.35273115777591
 20
-38.33521122254621
 11
-17.22453438368504
 21
-35.7989250712761
 97
        0
 75
     0
 76
     1
 98
        1
 10
0.0
 20
0.0
  0
HATCH
  5
F0
330
1F
100
AcDbEntity
  8
중심선
100
AcDbHatch
 10
0.0
 20
0.0
 30
0.0
210
0.0
220
0.0
230
1.0
  2
SOLID
 70
     1
 71
     0
 91
        1
 92
        0
 93
        4
 72
     1
 10
-12.21177039264909
 20
-35.7989250712761
 11
-15.65804563648637
 21
-35.7989250712761
 72
     1
 10
-15.65804563648637
 20
-35.7989250712761
 11
-20.18918364484376
 21
-41.19892507127612
 72
     1
 10
-20.18918364484376
 20
-41.19892507127612
 11
-16.74290840100648
 21
-41.19892507127612
 72
     1
 10
-16.74290840100648
 20
-41.19892507127612
 11
-12.21177039264909
 21
-35.7989250712761
 97
        0
 75
     0
 76
     1
 98
        1
 10
0.0
 20
0.0
  0
HATCH
  5
F1
330
1F
100
AcDbEntity
  8
중심선
100
AcDbHatch
 10
0.0
 20
0.0
 30
0.0
210
0.0
220
0.0
230
1.0
  2
SOLID
 70
     1
 71
     0
 91
        1
 92
        0
 93
        4
 72
     1
 10
-7.199006401613195
 20
-35.79892507127613
 11
-10.64528164545031
 21
-35.7989250712761
 72
     1
 10
-10.64528164545031
 20
-35.7989250712761
 11
-17.69371854733956
 21
-44.19892507127612
 72
     1
 10
-17.69371854733956
 20
-44.19892507127612
 11
-14.24744330350228
 21
-44.19892507127612
 72
     1
 10
-14.24744330350228
 20
-44.19892507127612
 11
-7.199006401613195
 21
-35.79892507127613
 97
        0
 75
     0
 76
     1
 98
        1
 10
0.0
 20
0.0
  0
HATCH
  5
F2
330
1F
100
AcDbEntity
  8
중심선
100
AcDbHatch
 10
0.0
 20
0.0
 30
0.0
210
0.0
220
0.0
230
1.0
  2
SOLID
 70
     1
 71
     0
 91
        1
 92
        0
 93
        6
 72
     3
 10
-2.399115970600996
 20
-39.99892507132738
 11
3.960054785062284
 21
1.540850780301639E-10
 40
0.3939339440162633
 50
17.09539180608433
 51
320.0019657685079
 73
     0
 72
     1
 10
-0.7161163149004002
 20
-38.58681907591441
 11
1.589185558800638
 21
-36.65249236586649
 72
     3
 10
-2.399115970653842
 20
-39.99892507127625
 11
6.600054785286829
 21
-1.249000902703301E-13
 40
0.6363583540795982
 50
39.99873849337408
 51
368.4976242363725
 73
     1
 72
     1
 10
4.026216521246767
 20
-39.03892507120613
 11
-3.71904866381792
 21
-39.0389250712061
 72
     1
 10
-3.71904866381792
 20
-39.0389250712061
 11
-3.719073708263854
 21
-40.95892507120602
 72
     1
 10
-3.719073708263854
 20
-40.95892507120602
 11
0.7223060612081831
 21
-40.95892507120599
 97
        0
 75
     0
 76
     1
 98
        1
 10
0.0
 20
0.0
  0
DIMENSION
  5
F3
330
1F
100
AcDbEntity
  8
치수문자_일반주서
100
AcDbDimension
  2
_D
 10
-97.82890613132342
 20
-4.204999856261279
 30
0.0
 11
-97.82890613132344
 21
-0.2049998562612057
 31
0.0
 70
   160
  1
%%c<>
 71
     2
 42
8.000000000000007
 52
-270.0
  3
SLDDIMSTYLE0
100
AcDbAlignedDimension
 13
-79.19999999999999
 23
3.795000143738798
 33
0.0
 14
-79.19999999999999
 24
-4.204999856261209
 34
0.0
 50
90.0000000000002
100
AcDbRotatedDimension
  0
DIMENSION
  5
101
330
1F
100
AcDbEntity
  8
치수문자_일반주서
100
AcDbDimension
  2
_D_1
 10
60.00000000000001
 20
-4.20499985626117
 30
0.0
 11
60.0
 21
0.3225447438155877
 31
0.0
 70
   160
  1
%%c<>
 71
     2
 42
8.000000000000004
 52
-270.0
  3
SLDDIMSTYLE0
100
AcDbAlignedDimension
 13
50.00000000000001
 23
3.795000143738796
 33
0.0
 14
50.00000000000001
 24
-4.204999856261209
 34
0.0
 50
90.0000000000002
100
AcDbRotatedDimension
  0
DIMENSION
  5
10E
330
1F
100
AcDbEntity
  8
치수문자_일반주서
100
AcDbDimension
  2
_D_2
 10
50.00000000000001
 20
47.04586712474676
 30
0.0
 11
26.36999510565241
 21
47.04586712474676
 31
0.0
 70
   160
  1
<>
 71
     2
 42
39.99999999999996
  3
SLDDIMSTYLE1
100
AcDbAlignedDimension
 13
10.00000000000005
 23
3.551026506104956
 33
0.0
 14
50.00000000000001
 24
3.765810347356146
 34
0.0
100
AcDbRotatedDimension
  0
DIMENSION
  5
119
330
1F
100
AcDbEntity
  8
치수문자_일반주서
100
AcDbDimension
  2
_D_3
 10
-79.99999999999999
 20
74.71049300822577
 30
0.0
 11
-10.97238784204466
 21
74.71049300822577
 31
0.0
 70
   160
  1
<>
 71
     2
 42
130.0
  3
SLDDIMSTYLE1
100
AcDbAlignedDimension
 13
50.00000000000001
 23
3.765810347356146
 33
0.0
 14
-79.99999999999999
 24
2.995000143738798
 34
0.0
100
AcDbRotatedDimension
  0
INSERT
  5
129
330
1F
100
AcDbEntity
  8
외형선
100
AcDbBlockReference
  2
SW_DOWELSYMBOL_0
 10
0.0
 20
0.0
 30
0.0
  0
ENDSEC
  0
SECTION
  2
OBJECTS
  0
DICTIONARY
  5
C
330
0
100
AcDbDictionary
281
     1
  3
ACAD_GROUP
350
D
  3
ACAD_IMAGE_VARS
350
14D
  3
ACAD_LAYOUT
350
1A
  3
ACAD_MLINESTYLE
350
17
  3
ACAD_PLOTSETTINGS
350
19
  3
ACAD_PLOTSTYLENAME
350
E
  3
ACAD_SCALELIST
350
47
  3
APPDATA
350
14B
  3
DWGPROPS
350
156
  0
DICTIONARY
  5
D
102
{ACAD_REACTORS
330
C
102
}
330
C
100
AcDbDictionary
281
     1
  0
RASTERVARIABLES
  5
14D
102
{ACAD_REACTORS
330
C
102
}
330
C
100
AcDbRasterVariables
 90
        0
 70
     1
 71
     1
 72
     1
  0
DICTIONARY
  5
1A
102
{ACAD_REACTORS
330
C
102
}
330
C
100
AcDbDictionary
281
     1
  3
Layout1
350
1E
  3
Layout2
350
26
  3
Model
350
22
  0
DICTIONARY
  5
17
102
{ACAD_REACTORS
330
C
102
}
330
C
100
AcDbDictionary
281
     1
  3
Standard
350
18
  0
DICTIONARY
  5
19
102
{ACAD_REACTORS
330
C
102
}
330
C
100
AcDbDictionary
281
     1
  0
ACDBDICTIONARYWDFLT
  5
E
102
{ACAD_REACTORS
330
C
102
}
330
C
100
AcDbDictionary
281
     1
  3
Normal
350
F
100
AcDbDictionaryWithDefault
340
F
  0
DICTIONARY
  5
47
102
{ACAD_REACTORS
330
C
102
}
330
C
100
AcDbDictionary
281
     1
  3
A0
350
48
  3
A1
350
49
  3
A2
350
4A
  3
A3
350
4B
  3
A4
350
4C
  3
A5
350
4D
  3
A6
350
4E
  3
A7
350
4F
  3
A8
350
50
  3
A9
350
51
  3
B0
350
52
  3
B1
350
53
  3
B2
350
54
  3
B3
350
55
  3
B4
350
56
  3
B5
350
57
  3
B6
350
58
  3
B7
350
59
  3
B8
350
5A
  3
B9
350
5B
  3
C0
350
5C
  3
C1
350
5D
  3
C2
350
5E
  3
C3
350
5F
  3
C4
350
60
  3
C5
350
61
  3
C6
350
62
  3
C7
350
63
  3
C8
350
64
  3
C9
350
65
  3
D0
350
66
  3
D1
350
67
  3
D2
350
68
  0
DICTIONARY
  5
14B
102
{ACAD_REACTORS
330
C
102
}
330
C
100
AcDbDictionary
281
     1
  0
XRECORD
  5
156
102
{ACAD_REACTORS
330
C
102
}
330
C
100
AcDbXrecord
280
     1
  1
DWGPROPS COOKIE
  2

  3

  4

  6

  7

  8
12016016
  9

300
=
301
=
302
=
303
=
304
=
305
=
306
=
307
=
308
=
309
=
 40
0.0
 41
2458268.395211169
 42
2458269.996777407
  1

 90
        0
  0
LAYOUT
  5
1E
102
{ACAD_REACTORS
330
1A
102
}
330
1A
100
AcDbPlotSettings
  1

  2
none_device
  4

  6

 40
0.0
 41
0.0
 42
0.0
 43
0.0
 44
0.0
 45
0.0
 46
0.0
 47
0.0
 48
0.0
 49
0.0
140
0.0
141
0.0
142
1.0
143
1.0
 70
   688
 72
     1
 73
     0
 74
     5
  7

 75
    16
147
1.0
148
0.0
149
0.0
100
AcDbLayout
  1
Layout1
 70
     1
 71
     1
 10
0.0
 20
0.0
 11
420.0
 21
297.0
 12
0.0
 22
0.0
 32
0.0
 14
1.000000000000000E+20
 24
1.000000000000000E+20
 34
1.000000000000000E+20
 15
-1.000000000000000E+20
 25
-1.000000000000000E+20
 35
-1.000000000000000E+20
146
0.0
 13
0.0
 23
0.0
 33
0.0
 16
1.0
 26
0.0
 36
0.0
 17
0.0
 27
1.0
 37
0.0
 76
     0
330
1B
  0
LAYOUT
  5
26
102
{ACAD_REACTORS
330
1A
102
}
330
1A
100
AcDbPlotSettings
  1

  2
none_device
  4

  6

 40
0.0
 41
0.0
 42
0.0
 43
0.0
 44
0.0
 45
0.0
 46
0.0
 47
0.0
 48
0.0
 49
0.0
140
0.0
141
0.0
142
1.0
143
1.0
 70
   688
 72
     1
 73
     0
 74
     5
  7

 75
    16
147
1.0
148
0.0
149
0.0
100
AcDbLayout
  1
Layout2
 70
     1
 71
     2
 10
0.0
 20
0.0
 11
0.0
 21
0.0
 12
0.0
 22
0.0
 32
0.0
 14
0.0
 24
0.0
 34
0.0
 15
0.0
 25
0.0
 35
0.0
146
0.0
 13
0.0
 23
0.0
 33
0.0
 16
1.0
 26
0.0
 36
0.0
 17
0.0
 27
1.0
 37
0.0
 76
     0
330
23
  0
LAYOUT
  5
22
102
{ACAD_REACTORS
330
1A
102
}
330
1A
100
AcDbPlotSettings
  1

  2
none_device
  4
ANSI_A_(11.00_x_8.50_Inches)
  6

 40
6.35
 41
19.05
 42
6.35000508
 43
19.05000254
 44
279.4
 45
215.9
 46
108.2149299684087
 47
65.32103239301733
 48
0.0
 49
0.0
140
0.0
141
0.0
142
0.064659642179104
143
1.0
 70
  1696
 72
     0
 73
     0
 74
     0
  7

 75
     0
147
0.0235690232323232
148
0.0
149
0.0
100
AcDbLayout
  1
Model
 70
     1
 71
     0
 10
0.0
 20
0.0
 11
420.0
 21
297.0
 12
0.0
 22
0.0
 32
0.0
 14
-102.2039061313234
 24
-49.97073246008785
 34
0.0
 15
60.55033333333333
 25
79.08549300822577
 35
0.0
146
0.0
 13
0.0
 23
0.0
 33
0.0
 16
1.0
 26
0.0
 36
0.0
 17
0.0
 27
1.0
 37
0.0
 76
     0
330
1F
331
29
  0
MLINESTYLE
  5
18
102
{ACAD_REACTORS
330
17
102
}
330
17
100
AcDbMlineStyle
  2
Standard
 70
     0
  3

 62
   256
 51
90.0
 52
90.0
 71
     2
 49
0.5
 62
   256
  6
BYLAYER
 49
-0.5
 62
   256
  6
BYLAYER
  0
ACDBPLACEHOLDER
  5
F
102
{ACAD_REACTORS
330
E
102
}
330
E
  0
SCALE
  5
48
102
{ACAD_REACTORS
330
47
102
}
330
47
100
AcDbScale
 70
     0
300
1:1
140
1.0
141
1.0
290
     1
  0
SCALE
  5
49
102
{ACAD_REACTORS
330
47
102
}
330
47
100
AcDbScale
 70
     0
300
1:2
140
1.0
141
2.0
290
     0
  0
SCALE
  5
4A
102
{ACAD_REACTORS
330
47
102
}
330
47
100
AcDbScale
 70
     0
300
1:4
140
1.0
141
4.0
290
     0
  0
SCALE
  5
4B
102
{ACAD_REACTORS
330
47
102
}
330
47
100
AcDbScale
 70
     0
300
1:5
140
1.0
141
5.0
290
     0
  0
SCALE
  5
4C
102
{ACAD_REACTORS
330
47
102
}
330
47
100
AcDbScale
 70
     0
300
1:8
140
1.0
141
8.0
290
     0
  0
SCALE
  5
4D
102
{ACAD_REACTORS
330
47
102
}
330
47
100
AcDbScale
 70
     0
300
1:10
140
1.0
141
10.0
290
     0
  0
SCALE
  5
4E
102
{ACAD_REACTORS
330
47
102
}
330
47
100
AcDbScale
 70
     0
300
1:16
140
1.0
141
16.0
290
     0
  0
SCALE
  5
4F
102
{ACAD_REACTORS
330
47
102
}
330
47
100
AcDbScale
 70
     0
300
1:20
140
1.0
141
20.0
290
     0
  0
SCALE
  5
50
102
{ACAD_REACTORS
330
47
102
}
330
47
100
AcDbScale
 70
     0
300
1:30
140
1.0
141
30.0
290
     0
  0
SCALE
  5
51
102
{ACAD_REACTORS
330
47
102
}
330
47
100
AcDbScale
 70
     0
300
1:40
140
1.0
141
40.0
290
     0
  0
SCALE
  5
52
102
{ACAD_REACTORS
330
47
102
}
330
47
100
AcDbScale
 70
     0
300
1:50
140
1.0
141
50.0
290
     0
  0
SCALE
  5
53
102
{ACAD_REACTORS
330
47
102
}
330
47
100
AcDbScale
 70
     0
300
1:100
140
1.0
141
100.0
290
     0
  0
SCALE
  5
54
102
{ACAD_REACTORS
330
47
102
}
330
47
100
AcDbScale
 70
     0
300
2:1
140
2.0
141
1.0
290
     0
  0
SCALE
  5
55
102
{ACAD_REACTORS
330
47
102
}
330
47
100
AcDbScale
 70
     0
300
4:1
140
4.0
141
1.0
290
     0
  0
SCALE
  5
56
102
{ACAD_REACTORS
330
47
102
}
330
47
100
AcDbScale
 70
     0
300
8:1
140
8.0
141
1.0
290
     0
  0
SCALE
  5
57
102
{ACAD_REACTORS
330
47
102
}
330
47
100
AcDbScale
 70
     0
300
10:1
140
10.0
141
1.0
290
     0
  0
SCALE
  5
58
102
{ACAD_REACTORS
330
47
102
}
330
47
100
AcDbScale
 70
     0
300
100:1
140
100.0
141
1.0
290
     0
  0
SCALE
  5
59
102
{ACAD_REACTORS
330
47
102
}
330
47
100
AcDbScale
 70
     0
300
1/128" = 1'-0"
140
0.0078125
141
12.0
290
     0
  0
SCALE
  5
5A
102
{ACAD_REACTORS
330
47
102
}
330
47
100
AcDbScale
 70
     0
300
1/64" = 1'-0"
140
0.015625
141
12.0
290
     0
  0
SCALE
  5
5B
102
{ACAD_REACTORS
330
47
102
}
330
47
100
AcDbScale
 70
     0
300
1/32" = 1'-0"
140
0.03125
141
12.0
290
     0
  0
SCALE
  5
5C
102
{ACAD_REACTORS
330
47
102
}
330
47
100
AcDbScale
 70
     0
300
1/16" = 1'-0"
140
0.0625
141
12.0
290
     0
  0
SCALE
  5
5D
102
{ACAD_REACTORS
330
47
102
}
330
47
100
AcDbScale
 70
     0
300
3/32" = 1'-0"
140
0.09375
141
12.0
290
     0
  0
SCALE
  5
5E
102
{ACAD_REACTORS
330
47
102
}
330
47
100
AcDbScale
 70
     0
300
1/8" = 1'-0"
140
0.125
141
12.0
290
     0
  0
SCALE
  5
5F
102
{ACAD_REACTORS
330
47
102
}
330
47
100
AcDbScale
 70
     0
300
3/16" = 1'-0"
140
0.1875
141
12.0
290
     0
  0
SCALE
  5
60
102
{ACAD_REACTORS
330
47
102
}
330
47
100
AcDbScale
 70
     0
300
1/4" = 1'-0"
140
0.25
141
12.0
290
     0
  0
SCALE
  5
61
102
{ACAD_REACTORS
330
47
102
}
330
47
100
AcDbScale
 70
     0
300
3/8" = 1'-0"
140
0.375
141
12.0
290
     0
  0
SCALE
  5
62
102
{ACAD_REACTORS
330
47
102
}
330
47
100
AcDbScale
 70
     0
300
1/2" = 1'-0"
140
0.5
141
12.0
290
     0
  0
SCALE
  5
63
102
{ACAD_REACTORS
330
47
102
}
330
47
100
AcDbScale
 70
     0
300
3/4" = 1'-0"
140
0.75
141
12.0
290
     0
  0
SCALE
  5
64
102
{ACAD_REACTORS
330
47
102
}
330
47
100
AcDbScale
 70
     0
300
1" = 1'-0"
140
1.0
141
12.0
290
     0
  0
SCALE
  5
65
102
{ACAD_REACTORS
330
47
102
}
330
47
100
AcDbScale
 70
     0
300
1-1/2" = 1'-0"
140
1.5
141
12.0
290
     0
  0
SCALE
  5
66
102
{ACAD_REACTORS
330
47
102
}
330
47
100
AcDbScale
 70
     0
300
3" = 1'-0"
140
3.0
141
12.0
290
     0
  0
SCALE
  5
67
102
{ACAD_REACTORS
330
47
102
}
330
47
100
AcDbScale
 70
     0
300
6" = 1'-0"
140
6.0
141
12.0
290
     0
  0
SCALE
  5
68
102
{ACAD_REACTORS
330
47
102
}
330
47
100
AcDbScale
 70
     0
300
1'-0" = 1'-0"
140
12.0
141
12.0
290
     0
  0
ENDSEC
  0
EOF
