  0
SECTION
  2
HEADER
  9
$ACADVER
  1
AC1015
  9
$ACADMAINTVER
 70
     6
  9
$DWGCODEPAGE
  3
ANSI_949
  9
$INSBASE
 10
0.0
 20
0.0
 30
0.0
  9
$EXTMIN
 10
-67.20390613132346
 20
-49.97180738881176
 30
0.0
  9
$EXTMAX
 10
55.55033333333331
 20
79.29049286448696
 30
0.0
  9
$LIMMIN
 10
0.0
 20
0.0
  9
$LIMMAX
 10
420.0
 20
297.0
  9
$ORTHOMODE
 70
     1
  9
$REGENMODE
 70
     1
  9
$FILLMODE
 70
     1
  9
$QTEXTMODE
 70
     0
  9
$MIRRTEXT
 70
     1
  9
$LTSCALE
 40
1.0
  9
$ATTMODE
 70
     1
  9
$TEXTSIZE
 40
3.5
  9
$TRACEWID
 40
1.0
  9
$TEXTSTYLE
  7
Standard
  9
$CLAYER
  8
0
  9
$CELTYPE
  6
ByLayer
  9
$CECOLOR
 62
   256
  9
$CELTSCALE
 40
1.0
  9
$DISPSILH
 70
     0
  9
$DIMSCALE
 40
1.0
  9
$DIMASZ
 40
3.302
  9
$DIMEXO
 40
1.0
  9
$DIMDLI
 40
3.75
  9
$DIMRND
 40
0.0
  9
$DIMDLE
 40
0.0
  9
$DIMEXE
 40
1.0
  9
$DIMTP
 40
0.0
  9
$DIMTM
 40
0.0
  9
$DIMTXT
 40
3.5
  9
$DIMCEN
 40
2.5
  9
$DIMTSZ
 40
0.0
  9
$DIMTOL
 70
     0
  9
$DIMLIM
 70
     0
  9
$DIMTIH
 70
     1
  9
$DIMTOH
 70
     1
  9
$DIMSE1
 70
     0
  9
$DIMSE2
 70
     0
  9
$DIMTAD
 70
     1
  9
$DIMZIN
 70
     0
  9
$DIMBLK
  1

  9
$DIMASO
 70
     1
  9
$DIMSHO
 70
     1
  9
$DIMPOST
  1

  9
$DIMAPOST
  1

  9
$DIMALT
 70
     0
  9
$DIMALTD
 70
     3
  9
$DIMALTF
 40
0.0393700787401575
  9
$DIMLFAC
 40
1.0
  9
$DIMTOFL
 70
     1
  9
$DIMTVP
 40
0.0
  9
$DIMTIX
 70
     0
  9
$DIMSOXD
 70
     0
  9
$DIMSAH
 70
     0
  9
$DIMBLK1
  1

  9
$DIMBLK2
  1

  9
$DIMSTYLE
  2
ISO-25
  9
$DIMCLRD
 70
     0
  9
$DIMCLRE
 70
     0
  9
$DIMCLRT
 70
     0
  9
$DIMTFAC
 40
1.0
  9
$DIMGAP
 40
1.524
  9
$DIMJUST
 70
     0
  9
$DIMSD1
 70
     0
  9
$DIMSD2
 70
     0
  9
$DIMTOLJ
 70
     0
  9
$DIMTZIN
 70
     0
  9
$DIMALTZ
 70
     0
  9
$DIMALTTZ
 70
     0
  9
$DIMUPT
 70
     0
  9
$DIMDEC
 70
     2
  9
$DIMTDEC
 70
     2
  9
$DIMALTU
 70
     2
  9
$DIMALTTD
 70
     3
  9
$DIMTXSTY
  7
Standard
  9
$DIMAUNIT
 70
     0
  9
$DIMADEC
 70
     2
  9
$DIMALTRND
 40
0.0
  9
$DIMAZIN
 70
     0
  9
$DIMDSEP
 70
    44
  9
$DIMATFIT
 70
     3
  9
$DIMFRAC
 70
     0
  9
$DIMLDRBLK
  1

  9
$DIMLUNIT
 70
     2
  9
$DIMLWD
 70
    -2
  9
$DIMLWE
 70
    -2
  9
$DIMTMOVE
 70
     0
  9
$LUNITS
 70
     2
  9
$LUPREC
 70
     2
  9
$SKETCHINC
 40
1.0
  9
$FILLETRAD
 40
10.0
  9
$AUNITS
 70
     0
  9
$AUPREC
 70
     2
  9
$MENU
  1
.
  9
$ELEVATION
 40
0.0
  9
$PELEVATION
 40
0.0
  9
$THICKNESS
 40
0.0
  9
$LIMCHECK
 70
     0
  9
$CHAMFERA
 40
0.0
  9
$CHAMFERB
 40
0.0
  9
$CHAMFERC
 40
0.0
  9
$CHAMFERD
 40
0.0
  9
$SKPOLY
 70
     0
  9
$TDCREATE
 40
2458268.770023507
  9
$TDUCREATE
 40
2458268.395023507
  9
$TDUPDATE
 40
2458270.383523831
  9
$TDUUPDATE
 40
2458270.008523831
  9
$TDINDWG
 40
0.0009431597
  9
$TDUSRTIMER
 40
2458270.007580799
  9
$USRTIMER
 70
     1
  9
$ANGBASE
 50
0.0
  9
$ANGDIR
 70
     0
  9
$PDMODE
 70
     0
  9
$PDSIZE
 40
-1.0
  9
$PLINEWID
 40
0.0
  9
$SPLFRAME
 70
     0
  9
$SPLINETYPE
 70
     6
  9
$SPLINESEGS
 70
     8
  9
$HANDSEED
  5
152
  9
$SURFTAB1
 70
     6
  9
$SURFTAB2
 70
     6
  9
$SURFTYPE
 70
     6
  9
$SURFU
 70
     6
  9
$SURFV
 70
     6
  9
$UCSBASE
  2

  9
$UCSNAME
  2

  9
$UCSORG
 10
0.0
 20
0.0
 30
0.0
  9
$UCSXDIR
 10
1.0
 20
0.0
 30
0.0
  9
$UCSYDIR
 10
0.0
 20
1.0
 30
0.0
  9
$UCSORTHOREF
  2

  9
$UCSORTHOVIEW
 70
     0
  9
$UCSORGTOP
 10
0.0
 20
0.0
 30
0.0
  9
$UCSORGBOTTOM
 10
0.0
 20
0.0
 30
0.0
  9
$UCSORGLEFT
 10
0.0
 20
0.0
 30
0.0
  9
$UCSORGRIGHT
 10
0.0
 20
0.0
 30
0.0
  9
$UCSORGFRONT
 10
0.0
 20
0.0
 30
0.0
  9
$UCSORGBACK
 10
0.0
 20
0.0
 30
0.0
  9
$PUCSBASE
  2

  9
$PUCSNAME
  2

  9
$PUCSORG
 10
0.0
 20
0.0
 30
0.0
  9
$PUCSXDIR
 10
1.0
 20
0.0
 30
0.0
  9
$PUCSYDIR
 10
0.0
 20
1.0
 30
0.0
  9
$PUCSORTHOREF
  2

  9
$PUCSORTHOVIEW
 70
     0
  9
$PUCSORGTOP
 10
0.0
 20
0.0
 30
0.0
  9
$PUCSORGBOTTOM
 10
0.0
 20
0.0
 30
0.0
  9
$PUCSORGLEFT
 10
0.0
 20
0.0
 30
0.0
  9
$PUCSORGRIGHT
 10
0.0
 20
0.0
 30
0.0
  9
$PUCSORGFRONT
 10
0.0
 20
0.0
 30
0.0
  9
$PUCSORGBACK
 10
0.0
 20
0.0
 30
0.0
  9
$USERI1
 70
     0
  9
$USERI2
 70
     0
  9
$USERI3
 70
     0
  9
$USERI4
 70
     0
  9
$USERI5
 70
     0
  9
$USERR1
 40
0.0
  9
$USERR2
 40
0.0
  9
$USERR3
 40
0.0
  9
$USERR4
 40
0.0
  9
$USERR5
 40
0.0
  9
$WORLDVIEW
 70
     1
  9
$SHADEDGE
 70
     3
  9
$SHADEDIF
 70
    70
  9
$TILEMODE
 70
     1
  9
$MAXACTVP
 70
    64
  9
$PINSBASE
 10
0.0
 20
0.0
 30
0.0
  9
$PLIMCHECK
 70
     0
  9
$PEXTMIN
 10
1.000000000000000E+20
 20
1.000000000000000E+20
 30
1.000000000000000E+20
  9
$PEXTMAX
 10
-1.000000000000000E+20
 20
-1.000000000000000E+20
 30
-1.000000000000000E+20
  9
$PLIMMIN
 10
0.0
 20
0.0
  9
$PLIMMAX
 10
0.0
 20
0.0
  9
$UNITMODE
 70
     0
  9
$VISRETAIN
 70
     1
  9
$PLINEGEN
 70
     0
  9
$PSLTSCALE
 70
     1
  9
$TREEDEPTH
 70
  3020
  9
$CMLSTYLE
  2
Standard
  9
$CMLJUST
 70
     0
  9
$CMLSCALE
 40
20.0
  9
$PROXYGRAPHICS
 70
     1
  9
$MEASUREMENT
 70
     1
  9
$CELWEIGHT
370
    -1
  9
$ENDCAPS
280
     0
  9
$JOINSTYLE
280
     0
  9
$LWDISPLAY
290
     1
  9
$INSUNITS
 70
     4
  9
$HYPERLINKBASE
  1

  9
$STYLESHEET
  1

  9
$XEDIT
290
     1
  9
$CEPSNTYPE
380
     0
  9
$PSTYLEMODE
290
     1
  9
$FINGERPRINTGUID
  2
{5C0C276D-8723-4CF3-88AC-B94E22AF0907}
  9
$VERSIONGUID
  2
{FAEB1C32-E019-11D5-929B-00C0DF256EC4}
  9
$EXTNAMES
290
     1
  9
$PSVPSCALE
 40
0.0
  9
$OLESTARTUP
290
     0
  0
ENDSEC
  0
SECTION
  2
CLASSES
  0
CLASS
  1
ACDBDICTIONARYWDFLT
  2
AcDbDictionaryWithDefault
  3
ObjectDBX Classes
 90
        0
280
     0
281
     0
  0
CLASS
  1
VISUALSTYLE
  2
AcDbVisualStyle
  3
ObjectDBX Classes
 90
     4095
280
     0
281
     0
  0
CLASS
  1
MATERIAL
  2
AcDbMaterial
  3
ObjectDBX Classes
 90
     1153
280
     0
281
     0
  0
CLASS
  1
SCALE
  2
AcDbScale
  3
ObjectDBX Classes
 90
     1153
280
     0
281
     0
  0
CLASS
  1
SUN
  2
AcDbSun
  3
SCENEOE
 90
     1153
280
     0
281
     0
  0
CLASS
  1
ACDBPLACEHOLDER
  2
AcDbPlaceHolder
  3
ObjectDBX Classes
 90
        0
280
     0
281
     0
  0
CLASS
  1
LAYOUT
  2
AcDbLayout
  3
ObjectDBX Classes
 90
        0
280
     0
281
     0
  0
CLASS
  1
TABLESTYLE
  2
AcDbTableStyle
  3
ObjectDBX Classes
 90
     4095
280
     0
281
     0
  0
CLASS
  1
MLEADERSTYLE
  2
AcDbMLeaderStyle
  3
ACDB_MLEADERSTYLE_CLASS
 90
     4095
280
     0
281
     0
  0
CLASS
  1
RASTERVARIABLES
  2
AcDbRasterVariables
  3
ISM
 90
        0
280
     0
281
     0
  0
ENDSEC
  0
SECTION
  2
TABLES
  0
TABLE
  2
VPORT
  5
8
330
0
100
AcDbSymbolTable
 70
     1
  0
VPORT
  5
29
330
8
100
AcDbSymbolTableRecord
100
AcDbViewportTableRecord
  2
*Active
 70
     0
 10
0.0
 20
0.0
 11
1.0
 21
1.0
 12
5.26658549535841
 22
-2.15683427491803
 13
0.0
 23
0.0
 14
10.0
 24
10.0
 15
10.0
 25
10.0
 16
0.0
 26
0.0
 36
1.0
 17
0.0
 27
0.0
 37
0.0
 40
14.40371930698317
 41
1.627413127413127
 42
50.0
 43
0.0
 44
0.0
 50
0.0
 51
0.0
 71
    16
 72
  2000
 73
     1
 74
     3
 75
     0
 76
     0
 77
     0
 78
     0
281
     0
 65
     1
110
0.0
120
0.0
130
0.0
111
1.0
121
0.0
131
0.0
112
0.0
122
1.0
132
0.0
 79
     0
146
0.0
  0
ENDTAB
  0
TABLE
  2
LTYPE
  5
5
330
0
100
AcDbSymbolTable
 70
     6
  0
LTYPE
  5
14
330
5
100
AcDbSymbolTableRecord
100
AcDbLinetypeTableRecord
  2
ByBlock
 70
     0
  3

 72
    65
 73
     0
 40
0.0
  0
LTYPE
  5
15
330
5
100
AcDbSymbolTableRecord
100
AcDbLinetypeTableRecord
  2
ByLayer
 70
     0
  3

 72
    65
 73
     0
 40
0.0
  0
LTYPE
  5
16
330
5
100
AcDbSymbolTableRecord
100
AcDbLinetypeTableRecord
  2
Continuous
 70
     0
  3
Solid line
 72
    65
 73
     0
 40
0.0
  0
LTYPE
  5
6A
330
5
100
AcDbSymbolTableRecord
100
AcDbLinetypeTableRecord
  2
HIDDEN
 70
     0
  3
Hidden __ __ __ __ __ __ __ __ __ __ __ __ __ __
 72
    65
 73
     2
 40
1.905
 49
1.27
 74
     0
 49
-0.635
 74
     0
  0
LTYPE
  5
6B
330
5
100
AcDbSymbolTableRecord
100
AcDbLinetypeTableRecord
  2
PHANTOM
 70
     0
  3
Phantom ______  __  __  ______  __  __  ______
 72
    65
 73
     6
 40
12.7
 49
6.35
 74
     0
 49
-1.27
 74
     0
 49
1.27
 74
     0
 49
-1.27
 74
     0
 49
1.27
 74
     0
 49
-1.27
 74
     0
  0
LTYPE
  5
6C
330
5
100
AcDbSymbolTableRecord
100
AcDbLinetypeTableRecord
  2
CENTER
 70
     0
  3
Center ____ _ ____ _ ____ _ ____ _ ____ _ ____
 72
    65
 73
     4
 40
10.16
 49
6.35
 74
     0
 49
-1.27
 74
     0
 49
1.27
 74
     0
 49
-1.27
 74
     0
  0
LTYPE
  5
6D
330
5
100
AcDbSymbolTableRecord
100
AcDbLinetypeTableRecord
  2
CENTERX2
 70
     0
  3
Center (2x) ________  __  ________  __  _____
 72
    65
 73
     4
 40
20.32
 49
12.7
 74
     0
 49
-2.54
 74
     0
 49
2.54
 74
     0
 49
-2.54
 74
     0
  0
LTYPE
  5
6E
330
5
100
AcDbSymbolTableRecord
100
AcDbLinetypeTableRecord
  2
DOT2
 70
     0
  3
Dot (.5x) ........................................
 72
    65
 73
     2
 40
0.635
 49
0.0
 74
     0
 49
-0.635
 74
     0
  0
ENDTAB
  0
TABLE
  2
LAYER
  5
2
330
0
100
AcDbSymbolTable
 70
    17
  0
LAYER
  5
10
330
2
100
AcDbSymbolTableRecord
100
AcDbLayerTableRecord
  2
0
 70
     0
 62
     7
  6
Continuous
370
    -3
390
F
  0
LAYER
  5
6F
330
2
100
AcDbSymbolTableRecord
100
AcDbLayerTableRecord
  2
FORMAT
 70
     0
 62
     2
  6
Continuous
370
    -3
390
F
  0
LAYER
  5
70
330
2
100
AcDbSymbolTableRecord
100
AcDbLayerTableRecord
  2
외형선
 70
     0
 62
   100
  6
Continuous
370
    30
390
F
  0
LAYER
  5
71
330
2
100
AcDbSymbolTableRecord
100
AcDbLayerTableRecord
  2
숨은선
 70
     0
 62
     2
  6
HIDDEN
370
    15
390
F
  0
LAYER
  5
72
330
2
100
AcDbSymbolTableRecord
100
AcDbLayerTableRecord
  2
중심선
 70
     0
 62
     1
  6
CENTERX2
370
    -3
390
F
  0
LAYER
  5
73
330
2
100
AcDbSymbolTableRecord
100
AcDbLayerTableRecord
  2
파단선
 70
     0
 62
     4
  6
Continuous
370
    -3
390
F
  0
LAYER
  5
74
330
2
100
AcDbSymbolTableRecord
100
AcDbLayerTableRecord
  2
해칭선
 70
     0
 62
     4
  6
Continuous
370
    -3
390
F
  0
LAYER
  5
75
330
2
100
AcDbSymbolTableRecord
100
AcDbLayerTableRecord
  2
가는실선
 70
     0
 62
     4
  6
Continuous
370
    -3
390
F
  0
LAYER
  5
76
330
2
100
AcDbSymbolTableRecord
100
AcDbLayerTableRecord
  2
치수_보조선
 70
     0
 62
     4
  6
Continuous
370
    -3
390
F
  0
LAYER
  5
77
330
2
100
AcDbSymbolTableRecord
100
AcDbLayerTableRecord
  2
치수문자_일반주서
 70
     0
 62
     7
  6
Continuous
370
    15
390
F
  0
LAYER
  5
78
330
2
100
AcDbSymbolTableRecord
100
AcDbLayerTableRecord
  2
개별주서
 70
     0
 62
   100
  6
Continuous
370
    30
390
F
  0
LAYER
  5
79
330
2
100
AcDbSymbolTableRecord
100
AcDbLayerTableRecord
  2
중간선
 70
     0
 62
     2
  6
Continuous
370
    15
390
F
  0
LAYER
  5
7A
330
2
100
AcDbSymbolTableRecord
100
AcDbLayerTableRecord
  2
윤곽선
 70
     0
 62
     3
  6
Continuous
370
    40
390
F
  0
LAYER
  5
7B
330
2
100
AcDbSymbolTableRecord
100
AcDbLayerTableRecord
  2
중심마크
 70
     0
 62
   100
  6
Continuous
370
    30
390
F
  0
LAYER
  5
7C
330
2
100
AcDbSymbolTableRecord
100
AcDbLayerTableRecord
  2
가상선
 70
     0
 62
     4
  6
PHANTOM
370
    -3
390
F
  0
LAYER
  5
7D
330
2
100
AcDbSymbolTableRecord
100
AcDbLayerTableRecord
  2
특수지정선
 70
     0
 62
     5
  6
CENTERX2
370
    60
390
F
  0
LAYER
  5
148
330
2
100
AcDbSymbolTableRecord
100
AcDbLayerTableRecord
  2
Defpoints
 70
     0
 62
     7
  6
Continuous
290
     0
370
    -3
390
F
  0
ENDTAB
  0
TABLE
  2
STYLE
  5
3
330
0
100
AcDbSymbolTable
 70
     2
  0
STYLE
  5
11
330
3
100
AcDbSymbolTableRecord
100
AcDbTextStyleTableRecord
  2
Standard
 70
     0
 40
0.0
 41
1.0
 50
0.0
 71
     0
 42
3.5
  3
txt
  4

  0
STYLE
  5
93
330
3
100
AcDbSymbolTableRecord
100
AcDbTextStyleTableRecord
  2
SLDTEXTSTYLE0
 70
     0
 40
0.0
 41
0.75
 50
0.0
 71
     0
 42
3.5
  3
TXT
  4

  0
ENDTAB
  0
TABLE
  2
VIEW
  5
6
330
0
100
AcDbSymbolTable
 70
     0
  0
ENDTAB
  0
TABLE
  2
UCS
  5
7
330
0
100
AcDbSymbolTable
 70
     0
  0
ENDTAB
  0
TABLE
  2
APPID
  5
9
330
0
100
AcDbSymbolTable
 70
     1
  0
APPID
  5
12
330
9
100
AcDbSymbolTableRecord
100
AcDbRegAppTableRecord
  2
ACAD
 70
     0
  0
ENDTAB
  0
TABLE
  2
DIMSTYLE
  5
A
330
0
100
AcDbSymbolTable
 70
     3
100
AcDbDimStyleTable
  0
DIMSTYLE
105
27
330
A
100
AcDbSymbolTableRecord
100
AcDbDimStyleTableRecord
  2
ISO-25
 70
     0
 41
2.5
 42
0.625
 43
3.75
 44
1.25
 73
     0
 74
     0
 77
     1
 78
     8
140
2.5
141
2.5
143
0.03937007874016
147
0.625
171
     3
172
     1
178
     0
271
     2
272
     2
274
     3
278
    44
283
     0
284
     8
340
11
  0
DIMSTYLE
105
EE
102
{ACAD_REACTORS
330
ED
330
FB
102
}
330
A
100
AcDbSymbolTableRecord
100
AcDbDimStyleTableRecord
  2
SLDDIMSTYLE0
 70
     0
 41
3.302
 44
0.0
 45
0.000000001
 73
     0
 74
     0
 77
     1
 78
    12
 79
     3
140
3.5
147
0.875
172
     1
173
     1
178
     0
271
     2
272
     2
276
     2
284
    12
289
     0
340
93
  0
DIMSTYLE
105
109
102
{ACAD_REACTORS
330
108
330
113
102
}
330
A
100
AcDbSymbolTableRecord
100
AcDbDimStyleTableRecord
  2
SLDDIMSTYLE1
 70
     0
 41
3.302
 44
0.0
 45
0.000000001
 73
     0
 74
     0
 77
     1
 78
    12
 79
     3
140
3.5
147
0.875
173
     1
178
     0
271
     2
272
     2
276
     2
284
    12
340
93
  0
ENDTAB
  0
TABLE
  2
BLOCK_RECORD
  5
1
330
0
100
AcDbSymbolTable
 70
     7
  0
BLOCK_RECORD
  5
1F
330
1
100
AcDbSymbolTableRecord
100
AcDbBlockTableRecord
  2
*Model_Space
340
22
  0
BLOCK_RECORD
  5
1B
330
1
100
AcDbSymbolTableRecord
100
AcDbBlockTableRecord
  2
*Paper_Space
340
1E
  0
BLOCK_RECORD
  5
23
330
1
100
AcDbSymbolTableRecord
100
AcDbBlockTableRecord
  2
*Paper_Space0
340
26
  0
BLOCK_RECORD
  5
7E
330
1
100
AcDbSymbolTableRecord
100
AcDbBlockTableRecord
  2
블럭10
340
0
102
{BLKREFS
331
E6
102
}
  0
BLOCK_RECORD
  5
EF
330
1
100
AcDbSymbolTableRecord
100
AcDbBlockTableRecord
  2
_D
340
0
  0
BLOCK_RECORD
  5
FC
330
1
100
AcDbSymbolTableRecord
100
AcDbBlockTableRecord
  2
_D_1
340
0
  0
BLOCK_RECORD
  5
10A
330
1
100
AcDbSymbolTableRecord
100
AcDbBlockTableRecord
  2
_D_2
340
0
  0
BLOCK_RECORD
  5
114
330
1
100
AcDbSymbolTableRecord
100
AcDbBlockTableRecord
  2
_D_3
340
0
  0
BLOCK_RECORD
  5
11D
330
1
100
AcDbSymbolTableRecord
100
AcDbBlockTableRecord
  2
SW_DOWELSYMBOL_0
340
0
102
{BLKREFS
331
123
102
}
  0
ENDTAB
  0
ENDSEC
  0
SECTION
  2
BLOCKS
  0
BLOCK
  5
20
330
1F
100
AcDbEntity
  8
0
100
AcDbBlockBegin
  2
*Model_Space
 70
     0
 10
0.0
 20
0.0
 30
0.0
  3
*Model_Space
  1
*Model_Space
  0
ENDBLK
  5
21
330
1F
100
AcDbEntity
  8
0
100
AcDbBlockEnd
  0
BLOCK
  5
1C
330
1B
100
AcDbEntity
 67
     1
  8
0
100
AcDbBlockBegin
  2
*Paper_Space
 70
     0
 10
0.0
 20
0.0
 30
0.0
  3
*Paper_Space
  1
*Paper_Space
  0
ENDBLK
  5
1D
330
1B
100
AcDbEntity
 67
     1
  8
0
100
AcDbBlockEnd
  0
BLOCK
  5
24
330
23
100
AcDbEntity
  8
0
100
AcDbBlockBegin
  2
*Paper_Space0
 70
     0
 10
0.0
 20
0.0
 30
0.0
  3
*Paper_Space0
  1
*Paper_Space0
  0
ENDBLK
  5
25
330
23
100
AcDbEntity
  8
0
100
AcDbBlockEnd
  0
BLOCK
  5
7F
330
7E
100
AcDbEntity
  8
0
100
AcDbBlockBegin
  2
블럭10
 70
     2
 10
0.0
 20
0.0
 30
0.0
  3
블럭10
  1
블럭10
  0
ELLIPSE
  5
81
330
7E
100
AcDbEntity
  8
중심선
100
AcDbEllipse
 10
20.54032771741204
 20
12.0471743016438
 30
0.0
 11
6.600054785286829
 21
-1.261213355974178E-13
 31
0.0
210
0.0
220
0.0
230
1.0
 40
0.636358354079598
 41
0.9219305317359503
 42
6.513795318482858
  0
ELLIPSE
  5
82
330
7E
100
AcDbEntity
  8
중심선
100
AcDbEllipse
 10
20.54032771746488
 20
12.04717430159265
 30
0.0
 11
3.960054785062283
 21
1.540847449632565E-10
 31
0.0
210
0.0
220
0.0
230
1.0
 40
0.3939339440162632
 41
1.131841032648279
 42
5.62031148352944
  0
LINE
  5
83
330
7E
100
AcDbEntity
  8
중심선
100
AcDbLine
 10
2.268634060543552
 20
16.24717430164393
 30
0.0
 11
5.714909304380834
 21
16.24717430164393
 31
0.0
  0
LINE
  5
84
330
7E
100
AcDbEntity
  8
중심선
100
AcDbLine
 10
5.245725140726316
 20
7.84717430164391
 30
0.0
 11
8.692000384563599
 21
7.84717430164391
 31
0.0
  0
LINE
  5
85
330
7E
100
AcDbEntity
  8
중심선
100
AcDbLine
 10
15.74043728645272
 20
16.24717430164393
 30
0.0
 11
8.692000384563599
 21
7.84717430164391
 31
0.0
  0
LINE
  5
86
330
7E
100
AcDbEntity
  8
중심선
100
AcDbLine
 10
0.1404042013395286
 20
13.71084872107135
 30
0.0
 11
3.58671253028996
 21
13.71088815037384
 31
0.0
  0
LINE
  5
87
330
7E
100
AcDbEntity
  8
중심선
100
AcDbLine
 10
2.750260043222114
 20
10.84717430164391
 30
0.0
 11
6.196535287059397
 21
10.84717430164391
 31
0.0
  0
LINE
  5
88
330
7E
100
AcDbEntity
  8
중심선
100
AcDbLine
 10
12.29416204261559
 20
16.24717430164393
 30
0.0
 11
5.245725140726316
 21
7.84717430164391
 31
0.0
  0
LINE
  5
89
330
7E
100
AcDbEntity
  8
중심선
100
AcDbLine
 10
10.72767329541681
 20
16.24717430164393
 30
0.0
 11
6.196535287059397
 21
10.84717430164391
 31
0.0
  0
LINE
  5
8A
330
7E
100
AcDbEntity
  8
중심선
100
AcDbLine
 10
7.28139805157953
 20
16.24717430164393
 30
0.0
 11
2.750260043222114
 21
10.84717430164391
 31
0.0
  0
LINE
  5
8B
330
7E
100
AcDbEntity
  8
중심선
100
AcDbLine
 10
5.714909304380834
 20
16.24717430164393
 30
0.0
 11
3.58671253028996
 21
13.71088815037384
 31
0.0
  0
LINE
  5
8C
330
7E
100
AcDbEntity
  8
중심선
100
AcDbLine
 10
2.268634060543552
 20
16.24717430164393
 30
0.0
 11
0.1404042013395286
 21
13.71084872107135
 31
0.0
  0
LINE
  5
8D
330
7E
100
AcDbEntity
  8
중심선
100
AcDbLine
 10
7.28139805157953
 20
16.24717430164393
 30
0.0
 11
10.72767329541681
 21
16.24717430164393
 31
0.0
  0
LINE
  5
8E
330
7E
100
AcDbEntity
  8
중심선
100
AcDbLine
 10
12.29416204261559
 20
16.24717430164393
 30
0.0
 11
15.74043728645272
 21
16.24717430164393
 31
0.0
  0
LINE
  5
8F
330
7E
100
AcDbEntity
  8
중심선
100
AcDbLine
 10
19.22036997980202
 20
11.08717430171403
 30
0.0
 11
23.66174974927406
 21
11.08717430171406
 31
0.0
  0
LINE
  5
90
330
7E
100
AcDbEntity
  8
중심선
100
AcDbLine
 10
19.22039502424796
 20
13.00717430171391
 30
0.0
 11
19.22036997980202
 21
11.08717430171403
 31
0.0
  0
LINE
  5
91
330
7E
100
AcDbEntity
  8
중심선
100
AcDbLine
 10
19.22039502424796
 20
13.00717430171391
 30
0.0
 11
26.96566020931264
 21
13.00717430171391
 31
0.0
  0
LINE
  5
92
330
7E
100
AcDbEntity
  8
중심선
100
AcDbLine
 10
22.22332737316547
 20
13.45928029700563
 30
0.0
 11
24.52862924686651
 21
15.39360700705356
 31
0.0
  0
ATTDEF
  5
94
330
7E
100
AcDbEntity
  8
FORMAT
 62
     2
100
AcDbText
 10
-16.11926103943555
 20
2.075366912832191
 30
0.0
 40
4.233333333333333
  1
SEME7508035E [ 6 FLUTE ]
 41
0.75
  7
SLDTEXTSTYLE0
 11
-16.11926103943555
 21
-0.0412997538344756
 31
0.0
100
AcDbAttributeDefinition
  3

  2
AUTOATTR0
 70
     0
 74
     1
  0
ENDBLK
  5
80
330
7E
100
AcDbEntity
  8
0
100
AcDbBlockEnd
  0
BLOCK
  5
F0
330
EF
100
AcDbEntity
  8
0
100
AcDbBlockBegin
  2
_D
 70
     0
 10
0.0
 20
0.0
 30
0.0
  3
_D
  1
_D
  0
LINE
  5
F2
330
EF
100
AcDbEntity
  8
치수문자_일반주서
 62
     0
370
    -2
100
AcDbLine
 10
-44.26250000000001
 20
3.999999999999986
 30
0.0
 11
-62.82890613132346
 21
3.999999999999917
 31
0.0
  0
LINE
  5
F3
330
EF
100
AcDbEntity
  8
치수문자_일반주서
 62
     0
370
    -2
100
AcDbLine
 10
-44.26250000000001
 20
-4.00000000000002
 30
0.0
 11
-62.82890613132344
 21
-4.00000000000009
 31
0.0
  0
LINE
  5
F4
330
EF
100
AcDbEntity
  8
치수문자_일반주서
 62
     0
370
    -2
100
AcDbLine
 10
-62.82890613132345
 20
0.6979999999999174
 30
0.0
 11
-62.82890613132345
 21
-0.6980000000000901
 31
0.0
  0
SOLID
  5
F5
330
EF
100
AcDbEntity
  8
치수문자_일반주서
 62
     0
100
AcDbTrace
 10
-62.27857279799012
 20
0.6979999999999194
 30
0.0
 11
-63.37923946465678
 21
0.6979999999999154
 31
0.0
 12
-62.82890613132346
 22
3.999999999999917
 32
0.0
 13
-62.82890613132346
 23
3.999999999999917
 33
0.0
  0
SOLID
  5
F6
330
EF
100
AcDbEntity
  8
치수문자_일반주서
 62
     0
100
AcDbTrace
 10
-63.37923946465678
 20
-0.6980000000000921
 30
0.0
 11
-62.27857279799012
 21
-0.6980000000000881
 31
0.0
 12
-62.82890613132344
 22
-4.00000000000009
 32
0.0
 13
-62.82890613132344
 23
-4.00000000000009
 33
0.0
  0
MTEXT
  5
F7
330
EF
100
AcDbEntity
  8
치수문자_일반주서
 62
     0
100
AcDbMText
 10
-67.20390613132345
 20
-0.0000000000000317
 30
0.0
 40
3.5
 41
0.0
 71
     2
 72
     1
  1
\A1;%%c8
  7
SLDTEXTSTYLE0
 11
-3.552713678800498E-15
 21
1.0
 31
0.0
 73
     1
 44
1.0
  0
POINT
  5
F8
330
EF
100
AcDbEntity
  8
Defpoints
 62
     0
100
AcDbPoint
 10
-44.20000000000001
 20
3.999999999999987
 30
0.0
  0
POINT
  5
F9
330
EF
100
AcDbEntity
  8
Defpoints
 62
     0
100
AcDbPoint
 10
-44.20000000000001
 20
-4.00000000000002
 30
0.0
  0
POINT
  5
FA
330
EF
100
AcDbEntity
  8
Defpoints
 62
     0
100
AcDbPoint
 10
-62.82890613132345
 20
-4.00000000000009
 30
0.0
  0
ENDBLK
  5
F1
330
EF
100
AcDbEntity
  8
0
100
AcDbBlockEnd
  0
BLOCK
  5
FD
330
FC
100
AcDbEntity
  8
0
100
AcDbBlockBegin
  2
_D_1
 70
     0
 10
0.0
 20
0.0
 30
0.0
  3
_D_1
  1
_D_1
  0
LINE
  5
FF
330
FC
100
AcDbEntity
  8
치수문자_일반주서
 62
     0
370
    -2
100
AcDbLine
 10
45.06249999999999
 20
3.999999999999985
 30
0.0
 11
54.99999999999996
 21
4.000000000000022
 31
0.0
  0
LINE
  5
100
330
FC
100
AcDbEntity
  8
치수문자_일반주서
 62
     0
370
    -2
100
AcDbLine
 10
45.06249999999999
 20
-4.000000000000019
 30
0.0
 11
54.99999999999999
 21
-3.999999999999981
 31
0.0
  0
LINE
  5
101
330
FC
100
AcDbEntity
  8
치수문자_일반주서
 62
     0
370
    -2
100
AcDbLine
 10
54.99999999999997
 20
0.6980000000000226
 30
0.0
 11
54.99999999999997
 21
-0.6979999999999817
 31
0.0
  0
SOLID
  5
102
330
FC
100
AcDbEntity
  8
치수문자_일반주서
 62
     0
100
AcDbTrace
 10
55.55033333333331
 20
0.6980000000000246
 30
0.0
 11
54.44966666666664
 21
0.6980000000000206
 31
0.0
 12
54.99999999999996
 22
4.000000000000022
 32
0.0
 13
54.99999999999996
 23
4.000000000000022
 33
0.0
  0
SOLID
  5
103
330
FC
100
AcDbEntity
  8
치수문자_일반주서
 62
     0
100
AcDbTrace
 10
54.44966666666664
 20
-0.6979999999999837
 30
0.0
 11
55.55033333333331
 21
-0.6979999999999797
 31
0.0
 12
54.99999999999999
 22
-3.999999999999981
 32
0.0
 13
54.99999999999999
 23
-3.999999999999981
 33
0.0
  0
MTEXT
  5
104
330
FC
100
AcDbEntity
  8
치수문자_일반주서
 62
     0
100
AcDbMText
 10
50.62499999999997
 20
0.5275446000767617
 30
0.0
 40
3.5
 41
0.0
 71
     2
 72
     1
  1
\A1;%%c8
  7
SLDTEXTSTYLE0
 11
-3.552713678800499E-15
 21
1.0
 31
0.0
 73
     1
 44
1.0
  0
POINT
  5
105
330
FC
100
AcDbEntity
  8
Defpoints
 62
     0
100
AcDbPoint
 10
44.99999999999999
 20
3.999999999999985
 30
0.0
  0
POINT
  5
106
330
FC
100
AcDbEntity
  8
Defpoints
 62
     0
100
AcDbPoint
 10
44.99999999999999
 20
-4.000000000000019
 30
0.0
  0
POINT
  5
107
330
FC
100
AcDbEntity
  8
Defpoints
 62
     0
100
AcDbPoint
 10
54.99999999999999
 20
-3.999999999999981
 30
0.0
  0
ENDBLK
  5
FE
330
FC
100
AcDbEntity
  8
0
100
AcDbBlockEnd
  0
BLOCK
  5
10B
330
10A
100
AcDbEntity
  8
0
100
AcDbBlockBegin
  2
_D_2
 70
     0
 10
0.0
 20
0.0
 30
0.0
  3
_D_2
  1
_D_2
  0
LINE
  5
10D
330
10A
100
AcDbEntity
  8
치수문자_일반주서
 62
     0
370
    -2
100
AcDbLine
 10
9.999999999999982
 20
3.936747036594958
 30
0.0
 11
9.999999999999986
 21
47.36908765523676
 31
0.0
  0
LINE
  5
10E
330
10A
100
AcDbEntity
  8
치수문자_일반주서
 62
     0
370
    -2
100
AcDbLine
 10
44.99999999999999
 20
4.033310203617335
 30
0.0
 11
44.99999999999999
 21
47.36908765523676
 31
0.0
  0
LINE
  5
10F
330
10A
100
AcDbEntity
  8
치수문자_일반주서
 62
     0
370
    -2
100
AcDbLine
 10
13.30199999999999
 20
47.36908765523676
 30
0.0
 11
41.69799999999999
 21
47.36908765523676
 31
0.0
  0
SOLID
  5
110
330
10A
100
AcDbEntity
  8
치수문자_일반주서
 62
     0
100
AcDbTrace
 10
13.30199999999999
 20
47.9194209885701
 30
0.0
 11
13.30199999999999
 21
46.81875432190343
 31
0.0
 12
9.999999999999986
 22
47.36908765523676
 32
0.0
 13
9.999999999999986
 23
47.36908765523676
 33
0.0
  0
SOLID
  5
111
330
10A
100
AcDbEntity
  8
치수문자_일반주서
 62
     0
100
AcDbTrace
 10
41.69799999999999
 20
46.81875432190343
 30
0.0
 11
41.69799999999999
 21
47.9194209885701
 31
0.0
 12
44.99999999999999
 22
47.36908765523676
 32
0.0
 13
44.99999999999999
 23
47.36908765523676
 33
0.0
  0
MTEXT
  5
112
330
10A
100
AcDbEntity
  8
치수문자_일반주서
 62
     0
100
AcDbMText
 10
24.32374571744581
 20
51.74408765523676
 30
0.0
 40
3.5
 41
0.0
 71
     2
 72
     1
  1
\A1;35
  7
SLDTEXTSTYLE0
 73
     1
 44
1.0
  0
POINT
  5
14A
330
10A
100
AcDbEntity
  8
Defpoints
 62
     0
100
AcDbPoint
 10
9.999999999999982
 20
3.874247036594958
 30
0.0
  0
POINT
  5
14B
330
10A
100
AcDbEntity
  8
Defpoints
 62
     0
100
AcDbPoint
 10
44.99999999999999
 20
3.970810203617335
 30
0.0
  0
POINT
  5
14C
330
10A
100
AcDbEntity
  8
Defpoints
 62
     0
100
AcDbPoint
 10
44.99999999999999
 20
47.36908765523676
 30
0.0
  0
ENDBLK
  5
10C
330
10A
100
AcDbEntity
  8
0
100
AcDbBlockEnd
  0
BLOCK
  5
115
330
114
100
AcDbEntity
  8
0
100
AcDbBlockBegin
  2
_D_3
 70
     0
 10
0.0
 20
0.0
 30
0.0
  3
_D_3
  1
_D_3
  0
LINE
  5
117
330
114
100
AcDbEntity
  8
치수문자_일반주서
 62
     0
370
    -2
100
AcDbLine
 10
44.99999999999999
 20
4.033310203617335
 30
0.0
 11
44.99999999999999
 21
74.91549286448696
 31
0.0
  0
LINE
  5
118
330
114
100
AcDbEntity
  8
치수문자_일반주서
 62
     0
370
    -2
100
AcDbLine
 10
-45.00000000000001
 20
3.262499999999987
 30
0.0
 11
-45.0
 21
74.91549286448696
 31
0.0
  0
LINE
  5
119
330
114
100
AcDbEntity
  8
치수문자_일반주서
 62
     0
370
    -2
100
AcDbLine
 10
41.69799999999999
 20
74.91549286448696
 30
0.0
 11
-41.698
 21
74.91549286448696
 31
0.0
  0
SOLID
  5
11A
330
114
100
AcDbEntity
  8
치수문자_일반주서
 62
     0
100
AcDbTrace
 10
41.69799999999999
 20
74.36515953115364
 30
0.0
 11
41.69799999999999
 21
75.46582619782029
 31
0.0
 12
44.99999999999999
 22
74.91549286448696
 32
0.0
 13
44.99999999999999
 23
74.91549286448696
 33
0.0
  0
SOLID
  5
11B
330
114
100
AcDbEntity
  8
치수문자_일반주서
 62
     0
100
AcDbTrace
 10
-41.698
 20
75.46582619782029
 30
0.0
 11
-41.698
 21
74.36515953115364
 31
0.0
 12
-45.0
 22
74.91549286448696
 32
0.0
 13
-45.0
 23
74.91549286448696
 33
0.0
  0
MTEXT
  5
11C
330
114
100
AcDbEntity
  8
치수문자_일반주서
 62
     0
100
AcDbMText
 10
2.788346878584447
 20
79.29049286448696
 30
0.0
 40
3.5
 41
0.0
 71
     2
 72
     1
  1
\A1;90
  7
SLDTEXTSTYLE0
 73
     1
 44
1.0
  0
POINT
  5
14D
330
114
100
AcDbEntity
  8
Defpoints
 62
     0
100
AcDbPoint
 10
44.99999999999999
 20
3.970810203617335
 30
0.0
  0
POINT
  5
14E
330
114
100
AcDbEntity
  8
Defpoints
 62
     0
100
AcDbPoint
 10
-45.00000000000001
 20
3.199999999999987
 30
0.0
  0
POINT
  5
14F
330
114
100
AcDbEntity
  8
Defpoints
 62
     0
100
AcDbPoint
 10
-45.00000000000001
 20
74.91549286448696
 30
0.0
  0
ENDBLK
  5
116
330
114
100
AcDbEntity
  8
0
100
AcDbBlockEnd
  0
BLOCK
  5
11E
330
11D
100
AcDbEntity
  8
0
100
AcDbBlockBegin
  2
SW_DOWELSYMBOL_0
 70
     0
 10
0.0
 20
0.0
 30
0.0
  3
SW_DOWELSYMBOL_0
  1
SW_DOWELSYMBOL_0
  0
CIRCLE
  5
120
330
11D
100
AcDbEntity
  8
외형선
 62
     0
100
AcDbCircle
 10
0.0
 20
0.0
 30
0.0
 40
3.000000000000004
  0
HATCH
  5
121
330
11D
100
AcDbEntity
  8
0
  6
Continuous
 62
     0
370
    30
100
AcDbHatch
 10
0.0
 20
0.0
 30
0.0
210
0.0
220
0.0
230
1.0
  2
SOLID
 70
     1
 71
     0
 91
        1
 92
        0
 93
        3
 72
     2
 10
0.0
 20
0.0
 40
3.000000000000004
 50
0.0
 51
90.0
 73
     1
 72
     1
 10
0.0
 20
3.000000000000004
 11
0.0
 21
0.0
 72
     1
 10
0.0
 20
0.0
 11
3.000000000000004
 21
0.0
 97
        0
 75
     0
 76
     1
 98
        1
 10
0.0
 20
0.0
  0
HATCH
  5
122
330
11D
100
AcDbEntity
  8
0
  6
Continuous
 62
     0
370
    30
100
AcDbHatch
 10
0.0
 20
0.0
 30
0.0
210
0.0
220
0.0
230
1.0
  2
SOLID
 70
     1
 71
     0
 91
        1
 92
        0
 93
        3
 72
     2
 10
0.0
 20
0.0
 40
3.000000000000004
 50
180.0
 51
270.0000000000008
 73
     1
 72
     1
 10
0.0
 20
-3.000000000000004
 11
0.0
 21
0.0
 72
     1
 10
0.0
 20
0.0
 11
-3.000000000000004
 21
0.0
 97
        0
 75
     0
 76
     1
 98
        1
 10
0.0
 20
0.0
  0
ENDBLK
  5
11F
330
11D
100
AcDbEntity
  8
0
100
AcDbBlockEnd
  0
ENDSEC
  0
SECTION
  2
ENTITIES
  0
LINE
  5
95
330
1F
100
AcDbEntity
  8
0
  6
Continuous
 62
   131
370
    15
100
AcDbLine
 10
14.81912399550499
 20
-0.7477993716914842
 30
0.0
 11
14.87328395698871
 21
-0.7997856853212372
 31
0.0
  0
LINE
  5
96
330
1F
100
AcDbEntity
  8
0
  6
Continuous
 62
   131
370
    15
100
AcDbLine
 10
10.62287032416268
 20
-0.7396457324286141
 30
0.0
 11
10.65245660046993
 21
-0.7684161623880548
 31
0.0
  0
LINE
  5
97
330
1F
100
AcDbEntity
  8
0
  6
Continuous
 62
     1
370
    15
100
AcDbLine
 10
27.7613498316448
 20
-4.000000000000019
 30
0.0
 11
28.72926523129742
 21
-4.000000000000019
 31
0.0
  0
LINE
  5
98
330
1F
100
AcDbEntity
  8
0
  6
Continuous
 62
     1
370
    15
100
AcDbLine
 10
16.16285865815306
 20
3.999999999999985
 30
0.0
 11
15.19513632715945
 21
3.999999999999985
 31
0.0
  0
LINE
  5
99
330
1F
100
AcDbEntity
  8
0
  6
Continuous
 62
     1
370
    15
100
AcDbLine
 10
41.29561237013133
 20
3.999999999999985
 30
0.0
 11
40.32759199819668
 21
3.999999999999985
 31
0.0
  0
LINE
  5
9A
330
1F
100
AcDbEntity
  8
0
  6
Continuous
 62
     1
370
    15
100
AcDbLine
 10
23.57184321127404
 20
-4.000000000000019
 30
0.0
 11
24.53984490522708
 21
-4.000000000000019
 31
0.0
  0
LINE
  5
9B
330
1F
100
AcDbEntity
  8
0
  6
Continuous
 62
     1
370
    15
100
AcDbLine
 10
11.97345783033078
 20
3.999999999999985
 30
0.0
 11
11.00536944791991
 21
3.999999999999985
 31
0.0
  0
LINE
  5
9C
330
1F
100
AcDbEntity
  8
0
  6
Continuous
 62
     1
370
    15
100
AcDbLine
 10
37.10613897275952
 20
3.999999999999985
 30
0.0
 11
36.1380928206547
 21
3.999999999999985
 31
0.0
  0
LINE
  5
9D
330
1F
100
AcDbEntity
  8
0
  6
Continuous
 62
     1
370
    15
100
AcDbLine
 10
31.94983399400911
 20
-4.000000000000019
 30
0.0
 11
32.91781154906949
 21
-4.000000000000019
 31
0.0
  0
LINE
  5
9E
330
1F
100
AcDbEntity
  8
0
  6
Continuous
 62
     1
370
    15
100
AcDbLine
 10
20.35157050894802
 20
3.999999999999985
 30
0.0
 11
19.38367830936205
 21
3.999999999999985
 31
0.0
  0
LINE
  5
9F
330
1F
100
AcDbEntity
  8
0
  6
Continuous
 62
     1
370
    15
100
AcDbLine
 10
44.99999999999999
 20
3.999999999999985
 30
0.0
 11
44.51599599978071
 21
3.999999999999985
 31
0.0
  0
LINE
  5
A0
330
1F
100
AcDbEntity
  8
0
  6
Continuous
 62
     1
370
    15
100
AcDbLine
 10
40.32759199819665
 20
-4.000000000000019
 30
0.0
 11
41.29561237013133
 21
-4.000000000000019
 31
0.0
  0
LINE
  5
A1
330
1F
100
AcDbEntity
  8
0
  6
Continuous
 62
     1
370
    15
100
AcDbLine
 10
15.19513632715943
 20
-4.000000000000019
 30
0.0
 11
16.16285865815306
 21
-4.000000000000019
 31
0.0
  0
LINE
  5
A2
330
1F
100
AcDbEntity
  8
0
  6
Continuous
 62
     1
370
    15
100
AcDbLine
 10
28.72926523129743
 20
3.999999999999985
 30
0.0
 11
27.76134983164477
 21
3.999999999999985
 31
0.0
  0
LINE
  5
A3
330
1F
100
AcDbEntity
  8
0
  6
Continuous
 62
     1
370
    15
100
AcDbLine
 10
36.13809282065467
 20
-4.000000000000019
 30
0.0
 11
37.1061389727595
 21
-4.000000000000019
 31
0.0
  0
LINE
  5
A4
330
1F
100
AcDbEntity
  8
0
  6
Continuous
 62
     1
370
    15
100
AcDbLine
 10
11.00536944791986
 20
-4.000000000000019
 30
0.0
 11
11.97345783033075
 21
-4.000000000000019
 31
0.0
  0
LINE
  5
A5
330
1F
100
AcDbEntity
  8
0
  6
Continuous
 62
     1
370
    15
100
AcDbLine
 10
24.53984490522706
 20
3.999999999999985
 30
0.0
 11
23.57184321127401
 21
3.999999999999985
 31
0.0
  0
LINE
  5
A6
330
1F
100
AcDbEntity
  8
0
  6
Continuous
 62
     1
370
    15
100
AcDbLine
 10
44.51599599978069
 20
-4.000000000000019
 30
0.0
 11
44.99999999999999
 21
-4.000000000000019
 31
0.0
  0
LINE
  5
A7
330
1F
100
AcDbEntity
  8
0
  6
Continuous
 62
     1
370
    15
100
AcDbLine
 10
19.38367830936204
 20
-4.000000000000019
 30
0.0
 11
20.35157050894806
 21
-4.000000000000019
 31
0.0
  0
LINE
  5
A8
330
1F
100
AcDbEntity
  8
0
  6
Continuous
 62
     1
370
    15
100
AcDbLine
 10
32.91781154906952
 20
3.999999999999985
 30
0.0
 11
31.94983399400911
 21
3.999999999999985
 31
0.0
  0
LINE
  5
A9
330
1F
100
AcDbEntity
  8
0
  6
Continuous
 62
   131
370
    15
100
AcDbLine
 10
-44.20000000000001
 20
-4.000000000000017
 30
0.0
 11
8.999978788370404
 21
-4.000000000000017
 31
0.0
  0
LINE
  5
AA
330
1F
100
AcDbEntity
  8
0
  6
Continuous
 62
   131
370
    15
100
AcDbLine
 10
8.999978788370404
 20
3.999999999999983
 30
0.0
 11
-44.20000000000001
 21
3.999999999999983
 31
0.0
  0
LINE
  5
AB
330
1F
100
AcDbEntity
  8
0
  6
Continuous
 62
   131
370
    15
100
AcDbLine
 10
-44.20000000000001
 20
3.999999999999985
 30
0.0
 11
-45.00000000000001
 21
3.199999999999987
 31
0.0
  0
LINE
  5
AC
330
1F
100
AcDbEntity
  8
0
  6
Continuous
 62
   131
370
    15
100
AcDbLine
 10
-45.00000000000001
 20
-3.200000000000021
 30
0.0
 11
-44.20000000000001
 21
-4.000000000000019
 31
0.0
  0
SPLINE
  5
AD
330
1F
100
AcDbEntity
  8
0
  6
Continuous
 62
     1
370
    15
100
AcDbSpline
210
0.0
220
0.0
230
1.0
 70
     8
 71
     3
 72
    12
 73
     8
 74
     0
 42
0.000000001
 43
0.00000001
 40
0.0
 40
0.0
 40
0.0
 40
0.0
 40
0.2440362540788554
 40
0.4884577638298188
 40
0.7325329306002519
 40
0.9763779744406113
 40
1.0
 40
1.0
 40
1.0
 40
1.0
 10
9.99999999999999
 20
-3.523328516855562
 30
0.0
 10
10.29145833750577
 20
-3.644844996185538
 30
0.0
 10
10.87483513258488
 20
-3.888069790739273
 30
0.0
 10
11.75102960891044
 20
-4.026765307734159
 30
0.0
 10
12.62588162057113
 20
-3.967698964400466
 30
0.0
 10
13.23656602012825
 20
-3.839513872245157
 30
0.0
 10
13.55605743155568
 20
-3.685673209918618
 30
0.0
 10
13.58427411745904
 20
-3.672086385694961
 30
0.0
  0
SPLINE
  5
AE
330
1F
100
AcDbEntity
  8
0
  6
Continuous
 62
     1
370
    15
100
AcDbSpline
210
0.0
220
0.0
230
1.0
 70
     8
 71
     3
 72
    24
 73
    20
 74
     0
 42
0.000000001
 43
0.00000001
 40
0.0
 40
0.0
 40
0.0
 40
0.0
 40
0.0466285196579456
 40
0.1100568967684928
 40
0.1734984113956488
 40
0.2370159435079555
 40
0.3005647643991824
 40
0.3640223210834808
 40
0.4274480041698114
 40
0.4909049434138762
 40
0.5544529520960164
 40
0.6179715364367578
 40
0.681413491800105
 40
0.7448416912057425
 40
0.8083192246839974
 40
0.8718817847256274
 40
0.9353719855343848
 40
0.9988035287037207
 40
1.0
 40
1.0
 40
1.0
 40
1.0
 10
24.53984490522706
 20
3.980293481443137
 30
0.0
 10
24.76021603870285
 20
3.977630132152149
 30
0.0
 10
25.28035614320576
 20
3.971343851564066
 30
0.0
 10
26.09981100948433
 20
3.726495192675973
 30
0.0
 10
26.99917145549213
 20
3.29561792869304
 30
0.0
 10
27.89976900193103
 20
2.691750441171981
 30
0.0
 10
28.80087012459697
 20
1.954340047826057
 30
0.0
 10
29.70048597375892
 20
1.117396389989151
 30
0.0
 10
30.59956554226037
 20
0.2245513025641387
 30
0.0
 10
31.49917119755047
 20
-0.6799680530901118
 30
0.0
 10
32.40025795691626
 20
-1.549619452941202
 30
0.0
 10
33.30087801916254
 20
-2.341508865847933
 30
0.0
 10
34.20022477125563
 20
-3.015325206823647
 30
0.0
 10
35.09934004474765
 20
-3.537457039274429
 30
0.0
 10
35.99929473903327
 20
-3.879797896011499
 30
0.0
 10
36.90060638882703
 20
-4.032144610884755
 30
0.0
 10
37.80078627598918
 20
-3.95988692269217
 30
0.0
 10
38.40591828819336
 20
-3.830670041170806
 30
0.0
 10
38.71122780017808
 20
-3.681054180563251
 30
0.0
 10
38.71688005594658
 20
-3.678284312354158
 30
0.0
  0
SPLINE
  5
AF
330
1F
100
AcDbEntity
  8
0
  6
Continuous
 62
   131
370
    15
100
AcDbSpline
210
0.0
220
0.0
230
1.0
 70
    24
 71
     3
 72
    21
 73
    17
 74
     0
 42
0.000000001
 43
0.00000001
 40
0.0
 40
0.0
 40
0.0
 40
0.0
 40
0.0418569278567467
 40
0.1154174234268056
 40
0.1911111783517386
 40
0.2646716739217981
 40
0.3403654288467325
 40
0.4139259244167935
 40
0.4896196793417215
 40
0.5631801749117809
 40
0.6388739298367128
 40
0.7124344254067696
 40
0.7881281803317055
 40
0.8616886759017652
 40
0.937382430826699
 40
1.0
 40
1.0
 40
1.0
 40
1.0
 10
9.999999999999982
 20
-0.9050862171433947
 30
0.0
 10
9.99999999999999
 20
-0.9044633698449891
 30
0.0
 10
9.999999999999996
 20
-0.9027459138812751
 30
0.0
 10
10.00000000000001
 20
-0.9502286152767432
 30
0.0
 10
9.999999999999941
 20
-1.041302538897292
 30
0.0
 10
10.00000000000004
 20
-1.17699383086409
 30
0.0
 10
9.99999999999992
 20
-1.34824625837568
 30
0.0
 10
10.00000000000006
 20
-1.554039058797141
 30
0.0
 10
9.99999999999997
 20
-1.78464520968822
 30
0.0
 10
9.999999999999996
 20
-2.037737964431516
 30
0.0
 10
9.999999999999982
 20
-2.30159672300119
 30
0.0
 10
9.999999999999963
 20
-2.573458405636096
 30
0.0
 10
10.00000000000005
 20
-2.840910515516795
 30
0.0
 10
10.00000000000005
 20
-3.100536433309486
 30
0.0
 10
9.999999999999956
 20
-3.330877533820434
 30
0.0
 10
9.99999999999997
 20
-3.463353007378251
 30
0.0
 10
9.99999999999999
 20
-3.523328516855558
 30
0.0
  0
SPLINE
  5
B0
330
1F
100
AcDbEntity
  8
0
  6
Continuous
 62
     1
370
    15
100
AcDbSpline
210
0.0
220
0.0
230
1.0
 70
     8
 71
     3
 72
    23
 73
    19
 74
     0
 42
0.000000001
 43
0.00000001
 40
0.0
 40
0.0
 40
0.0
 40
0.0
 40
0.0513863178399013
 40
0.1148234056813365
 40
0.1782561138261005
 40
0.2417474806875825
 40
0.3053112081108798
 40
0.3687899074092129
 40
0.4322192717288669
 40
0.4956623922588703
 40
0.5591821431736251
 40
0.6227313189701829
 40
0.6861894236560968
 40
0.7496162716102286
 40
0.8130749937477153
 40
0.8766249817682762
 40
0.9401436804352713
 40
1.0
 40
1.0
 40
1.0
 40
1.0
 10
40.32759199819667
 20
-3.984395975613381
 30
0.0
 10
40.08468387900222
 20
-3.977897807891586
 30
0.0
 10
39.5419024794777
 20
-3.963377566320089
 30
0.0
 10
38.69995434579337
 20
-3.70077118309294
 30
0.0
 10
37.80076892050696
 20
-3.255924927086685
 30
0.0
 10
36.90061104715443
 20
-2.640832299091969
 30
0.0
 10
35.999293492048
 20
-1.894772491357244
 30
0.0
 10
35.09934037845951
 20
-1.052128911735729
 30
0.0
 10
34.20022468160845
 20
-0.1568225579059691
 30
0.0
 10
33.30087804411693
 20
0.7465682764562913
 30
0.0
 10
32.40025794686089
 20
1.612179006003119
 30
0.0
 10
31.49917121278591
 20
2.39624634873079
 30
0.0
 10
30.59956549145691
 20
3.060060311414052
 30
0.0
 10
29.70048616170945
 20
3.56908511388434
 30
0.0
 10
28.80086942275128
 20
3.899402459217505
 30
0.0
 10
27.89977162474732
 20
4.028882775482763
 30
0.0
 10
27.01611558324934
 20
3.97179852967372
 30
0.0
 10
26.43333862931785
 20
3.771990867854665
 30
0.0
 10
26.15059999965486
 20
3.67505267543341
 30
0.0
  0
SPLINE
  5
B1
330
1F
100
AcDbEntity
  8
0
  6
Continuous
 62
     1
370
    15
100
AcDbSpline
210
0.0
220
0.0
230
1.0
 70
     8
 71
     3
 72
    13
 73
     9
 74
     0
 42
0.000000001
 43
0.00000001
 40
0.0
 40
0.0
 40
0.0
 40
0.0
 40
0.1531989414804409
 40
0.3263472959179887
 40
0.4945883638857145
 40
0.662988205338889
 40
0.8316270063870999
 40
1.0
 40
1.0
 40
1.0
 40
1.0
 10
15.19513632715942
 20
-3.989608627440988
 30
0.0
 10
14.9296930603209
 20
-3.9785796237347
 30
0.0
 10
14.36424076988555
 20
-3.955085430488751
 30
0.0
 10
13.50807701402921
 20
-3.676592952524549
 30
0.0
 10
12.62585103266154
 20
-3.229155652427938
 30
0.0
 10
11.75103778229463
 20
-2.626083894843885
 30
0.0
 10
10.87483309179084
 20
-1.90364374918977
 30
0.0
 10
10.2914576575989
 20
-1.351301221576066
 30
0.0
 10
10.00000000000002
 20
-1.075347779152626
 30
0.0
  0
LINE
  5
B2
330
1F
100
AcDbEntity
  8
0
  6
Continuous
 62
     1
370
    15
100
AcDbLine
 10
44.99999999999999
 20
-1.567673435381214
 30
0.0
 11
44.99999999999999
 21
1.567673435381255
 31
0.0
  0
SPLINE
  5
B3
330
1F
100
AcDbEntity
  8
0
  6
Continuous
 62
     1
370
    15
100
AcDbSpline
210
0.0
220
0.0
230
1.0
 70
     8
 71
     3
 72
    24
 73
    20
 74
     0
 42
0.000000001
 43
0.00000001
 40
0.0
 40
0.0
 40
0.0
 40
0.0
 40
0.0460335825415427
 40
0.1076826214616135
 40
0.1711298509080777
 40
0.2346617430742321
 40
0.29819589887131
 40
0.3616441866481468
 40
0.425069347317504
 40
0.4885345006365837
 40
0.5520908419175939
 40
0.615593992180197
 40
0.6790291828025647
 40
0.7424593752584656
 40
0.8059476098805799
 40
0.8695092384540047
 40
0.9329864772112008
 40
0.9964137671159634
 40
0.9999999999999999
 40
0.9999999999999999
 40
0.9999999999999999
 40
0.9999999999999999
 10
11.97345783033079
 20
3.981904396852328
 30
0.0
 10
12.19101741084287
 20
3.978874506086434
 30
0.0
 10
12.69993687051097
 20
3.971786928661424
 30
0.0
 10
13.50805465479432
 20
3.735451127023435
 30
0.0
 10
14.39919100673633
 20
3.3149845707074
 30
0.0
 10
15.30002086935164
 20
2.716981793970852
 30
0.0
 10
16.20091082413444
 20
1.983872824560638
 30
0.0
 10
17.10038468717574
 20
1.149928052636795
 30
0.0
 10
17.99947192515975
 20
0.2583809516732898
 30
0.0
 10
18.89923589337766
 20
-0.6465617444091141
 30
0.0
 10
19.80047148924691
 20
-1.518198796458396
 30
0.0
 10
20.70086137416814
 20
-2.313865845739573
 30
0.0
 10
21.60011089912047
 20
-2.99269984997097
 30
0.0
 10
22.49927588969229
 20
-3.521036267569781
 30
0.0
 10
23.39942527702606
 20
-3.870462055891668
 30
0.0
 10
24.30073792638179
 20
-4.030030060936498
 30
0.0
 10
25.20072789160878
 20
-3.966433466899683
 30
0.0
 10
25.81705770398857
 20
-3.837113011626286
 30
0.0
 10
26.13365715987397
 20
-3.68328480175334
 30
0.0
 10
26.15059999965489
 20
-3.675052675433442
 30
0.0
  0
SPLINE
  5
B4
330
1F
100
AcDbEntity
  8
0
  6
Continuous
 62
     1
370
    15
100
AcDbSpline
210
0.0
220
0.0
230
1.0
 70
     8
 71
     3
 72
    16
 73
    12
 74
     0
 42
0.000000001
 43
0.00000001
 40
0.0
 40
0.0
 40
0.0
 40
0.0
 40
0.0880141760828725
 40
0.2019332580453873
 40
0.3158602055245859
 40
0.4299081053875085
 40
0.5440541649383731
 40
0.6580368240005812
 40
0.7719465500366828
 40
0.8858967016898207
 40
1.0
 40
1.0
 40
1.0
 40
1.0
 10
37.10613897275952
 20
3.982205199861431
 30
0.0
 10
37.33777821892885
 20
3.977712154765559
 30
0.0
 10
37.86923428375762
 20
3.967403642260713
 30
0.0
 10
38.69992682916894
 20
3.713769665938012
 30
0.0
 10
39.59918946908817
 20
3.275893798013934
 30
0.0
 10
40.49955860130596
 20
2.666359157374366
 30
0.0
 10
41.40080337579572
 20
1.924704398110299
 30
0.0
 10
42.30057896441569
 20
1.084541527548813
 30
0.0
 10
43.19966706013913
 20
0.1916474741761283
 30
0.0
 10
44.09913301664044
 20
-0.7168505153855526
 30
0.0
 10
44.69957659856556
 20
-1.283938854843868
 30
0.0
 10
45.0
 20
-1.567673435381214
 30
0.0
  0
SPLINE
  5
B5
330
1F
100
AcDbEntity
  8
0
  6
Continuous
 62
     1
370
    15
100
AcDbSpline
210
0.0
220
0.0
230
1.0
 70
     8
 71
     3
 72
    14
 73
    10
 74
     0
 42
0.000000001
 43
0.00000001
 40
0.0
 40
0.0
 40
0.0
 40
0.0
 40
0.1433606286702748
 40
0.2865288422100729
 40
0.4296462645636526
 40
0.5728553207668102
 40
0.7162696751263338
 40
0.8595607005831746
 40
1.0
 40
1.0
 40
1.0
 40
1.0
 10
44.99999999999997
 20
1.567673435381255
 30
0.0
 10
44.69957660092676
 20
1.836068368652144
 30
0.0
 10
44.09913302372093
 20
2.372498002077037
 30
0.0
 10
43.19966703186549
 20
3.036904952466002
 30
0.0
 10
42.30057907043332
 20
3.55344422681471
 30
0.0
 10
41.40080297946829
 20
3.890440116062985
 30
0.0
 10
40.49956008224871
 20
4.027806414661997
 30
0.0
 10
39.60483901830946
 20
3.97643776521122
 30
0.0
 10
39.01087643721441
 20
3.777000626866267
 30
0.0
 10
38.71688005594661
 20
3.678284312354121
 30
0.0
  0
SPLINE
  5
B6
330
1F
100
AcDbEntity
  8
0
  6
Continuous
 62
     1
370
    15
100
AcDbSpline
210
0.0
220
0.0
230
1.0
 70
     8
 71
     3
 72
    23
 73
    19
 74
     0
 42
0.000000001
 43
0.00000001
 40
0.0
 40
0.0
 40
0.0
 40
0.0
 40
0.053763518923718
 40
0.1172064296846573
 40
0.1806362026398738
 40
0.2441159264029205
 40
0.3076800432858882
 40
0.3711707633443192
 40
0.434603438964304
 40
0.4980411129464234
 40
0.5615467492292612
 40
0.6251055786128256
 40
0.6885732164646364
 40
0.7520008601010929
 40
0.8154516317504085
 40
0.8789882747815247
 40
0.9425226540931019
 40
1.0
 40
1.0
 40
1.0
 40
1.0
 10
27.7613498316448
 20
-3.986864334139007
 30
0.0
 10
27.50717266574546
 20
-3.978185509726615
 30
0.0
 10
26.9530571852336
 20
-3.959265356366124
 30
0.0
 10
26.09983611870246
 20
-3.687498076981123
 30
0.0
 10
25.20070724707861
 20
-3.235727671213088
 30
0.0
 10
24.30074346833457
 20
-2.615117974600468
 30
0.0
 10
23.39942379305006
 20
-1.864752721048668
 30
0.0
 10
22.49927628689091
 20
-1.01939634262391
 30
0.0
 10
21.60011079209602
 20
-0.1229363670501141
 30
0.0
 10
20.70086140523658
 20
0.7798015050079319
 30
0.0
 10
19.80047147209996
 20
1.64326421264972
 30
0.0
 10
18.89923593085985
 20
2.423403481959548
 30
0.0
 10
17.99947179262234
 20
3.08204245527004
 30
0.0
 10
17.10038517966557
 20
3.584732307094614
 30
0.0
 10
16.20090898480414
 20
3.908016605319933
 30
0.0
 10
15.30002774385678
 20
4.029684255025145
 30
0.0
 10
14.42740523875733
 20
3.967070092248591
 30
0.0
 10
13.85578059568872
 20
3.767077526785993
 30
0.0
 10
13.58427411745907
 20
3.672086385694924
 30
0.0
  0
LINE
  5
B7
330
1F
100
AcDbEntity
  8
0
  6
Continuous
 62
     1
370
    15
100
AcDbLine
 10
44.99999999999999
 20
2.388520805144803
 30
0.0
 11
44.99999999999999
 21
3.970810203617335
 31
0.0
  0
SPLINE
  5
B8
330
1F
100
AcDbEntity
  8
0
  6
Continuous
 62
     1
370
    15
100
AcDbSpline
210
0.0
220
0.0
230
1.0
 70
     8
 71
     3
 72
    24
 73
    20
 74
     0
 42
0.000000001
 43
0.00000001
 40
0.0
 40
0.0
 40
0.0
 40
0.0
 40
0.0027010311116157
 40
0.0661565854788657
 40
0.1295890100899401
 40
0.1930614319310056
 40
0.256625052177555
 40
0.3201354753138488
 40
0.3835779310266419
 40
0.4470153880005394
 40
0.5105108937880896
 40
0.5740798019325953
 40
0.6375643105958954
 40
0.7009988646862317
 40
0.7644465575725755
 40
0.8279702753470415
 40
0.8915252849474891
 40
0.9549890214532326
 40
1.0
 40
1.0
 40
1.0
 40
1.0
 10
16.16285865815306
 20
3.995890764784453
 30
0.0
 10
16.17562752880012
 20
3.997252031124554
 30
0.0
 10
16.48837656704615
 20
4.03059364374095
 30
0.0
 10
17.10034315059393
 20
3.909020790679776
 30
0.0
 10
17.99948305998765
 20
3.619338473342448
 30
0.0
 10
18.89923290584732
 20
3.123972327295726
 30
0.0
 10
19.80047228317756
 20
2.477766008270825
 30
0.0
 10
20.7008611854026
 20
1.704616574576154
 30
0.0
 10
21.60011086156015
 20
0.8459955947724095
 30
0.0
 10
22.49927622871135
 20
-0.055333841557504
 30
0.0
 10
23.39942395649319
 20
-0.9540451764431724
 30
0.0
 10
24.3007428724211
 20
-1.804013365930779
 30
0.0
 10
25.20070946307465
 20
-2.56369497751424
 30
0.0
 10
26.09982785570831
 20
-3.19399743073942
 30
0.0
 10
26.99916697227845
 20
-3.662904888886919
 30
0.0
 10
27.89977006593131
 20
-3.948852854905837
 30
0.0
 10
28.80087035713236
 20
-4.029051741849835
 30
0.0
 10
29.61347099944606
 20
-3.940582816032462
 30
0.0
 10
30.12581883152334
 20
-3.742885688224507
 30
0.0
 10
30.33841470943783
 20
-3.660852366687651
 30
0.0
  0
SPLINE
  5
B9
330
1F
100
AcDbEntity
  8
0
  6
Continuous
 62
     1
370
    15
100
AcDbSpline
210
0.0
220
0.0
230
1.0
 70
     8
 71
     3
 72
    12
 73
     8
 74
     0
 42
0.000000001
 43
0.00000001
 40
0.0
 40
0.0
 40
0.0
 40
0.0
 40
0.028443364278143
 40
0.2713244265739357
 40
0.5140500788187355
 40
0.7568618723844218
 40
1.0
 40
1.0
 40
1.0
 40
1.0
 10
41.29561237013133
 20
3.989562206728274
 30
0.0
 10
41.33075929330083
 20
3.992947024997827
 30
0.0
 10
41.66602971636151
 20
4.025235184269803
 30
0.0
 10
42.30055119373179
 20
3.894907350628869
 30
0.0
 10
43.19967446625606
 20
3.586799894629421
 30
0.0
 10
44.09913116193363
 20
3.086365801048689
 30
0.0
 10
44.69957598005325
 20
2.630981715145857
 30
0.0
 10
45.00000000000001
 20
2.403136768236098
 30
0.0
  0
SPLINE
  5
BA
330
1F
100
AcDbEntity
  8
0
  6
Continuous
 62
     1
370
    15
100
AcDbSpline
210
0.0
220
0.0
230
1.0
 70
     8
 71
     3
 72
    10
 73
     6
 74
     0
 42
0.000000001
 43
0.00000001
 40
0.0
 40
0.0
 40
0.0
 40
0.0
 40
0.4299530504468081
 40
0.8593290284221301
 40
1.0
 40
1.0
 40
1.0
 40
1.0
 10
44.99999999999999
 20
3.970810203617336
 30
0.0
 10
44.69957607385453
 20
3.98516631725629
 30
0.0
 10
44.09913144321167
 20
4.013859276109495
 30
0.0
 10
43.40109393558063
 20
3.881861106354235
 30
0.0
 10
43.00318649679205
 20
3.703530686250205
 30
0.0
 10
42.90499453899572
 20
3.659523936494617
 30
0.0
  0
SPLINE
  5
BB
330
1F
100
AcDbEntity
  8
0
  6
Continuous
 62
     1
370
    15
100
AcDbSpline
210
0.0
220
0.0
230
1.0
 70
     8
 71
     3
 72
    24
 73
    20
 74
     0
 42
0.000000001
 43
0.00000001
 40
0.0
 40
0.0
 40
0.0
 40
0.0
 40
0.0317875933721214
 40
0.095241931678551
 40
0.1586650151083548
 40
0.2221199708297102
 40
0.2856661870173068
 40
0.3491811157084301
 40
0.4126200300301665
 40
0.4760458073737658
 40
0.53952153237866
 40
0.6030816451873259
 40
0.6665683657949181
 40
0.7299970456204391
 40
0.7934307234932344
 40
0.8569323593856204
 40
0.9204871850279569
 40
0.9839508248829391
 40
0.9999999999999999
 40
0.9999999999999999
 40
0.9999999999999999
 40
0.9999999999999999
 10
31.94983399400911
 20
-3.974687735417282
 30
0.0
 10
31.79950966759113
 20
-3.979555538448562
 30
0.0
 10
31.349108183631
 20
-3.994140441379162
 30
0.0
 10
30.59957606525234
 20
-3.799685938774147
 30
0.0
 10
29.70048323392069
 20
-3.414107375012732
 30
0.0
 10
28.80087055874185
 20
-2.845699637925799
 30
0.0
 10
27.89977001191678
 20
-2.137077028093092
 30
0.0
 10
26.99916698668484
 20
-1.319729349820471
 30
0.0
 10
26.09982785201688
 20
-0.4359237832698686
 30
0.0
 10
25.20070946344537
 20
0.4697685802139366
 30
0.0
 10
24.3007428746353
 20
1.352036285272391
 30
0.0
 10
23.39942394725557
 20
2.165480686965735
 30
0.0
 10
22.49927626338522
 20
2.870312308804521
 30
0.0
 10
21.60011073220922
 20
3.430526533391232
 30
0.0
 10
20.70086166844214
 20
3.816810102049907
 30
0.0
 10
19.80047047765562
 20
4.014529713811108
 30
0.0
 10
18.89923964610062
 20
3.995338968748888
 30
0.0
 10
18.22328808539287
 20
3.870340516444208
 30
0.0
 10
17.84767941114436
 20
3.697356521971027
 30
0.0
 10
17.77186509881469
 20
3.662440761276039
 30
0.0
  0
SPLINE
  5
BC
330
1F
100
AcDbEntity
  8
0
  6
Continuous
 62
     1
370
    15
100
AcDbSpline
210
0.0
220
0.0
230
1.0
 70
     8
 71
     3
 72
    24
 73
    20
 74
     0
 42
0.000000001
 43
0.00000001
 40
0.0
 40
0.0
 40
0.0
 40
0.0
 40
0.0246493541683232
 40
0.088086546123746
 40
0.1515187397550136
 40
0.2150089773836817
 40
0.2785726112791848
 40
0.3420518526960232
 40
0.405481143684579
 40
0.4689235723790295
 40
0.5324420196538928
 40
0.5959917561584862
 40
0.6594502271412134
 40
0.722876824066737
 40
0.7863346776003346
 40
0.8498836018841387
 40
0.9134031014025974
 40
0.976845970839589
 40
1.0
 40
1.0
 40
1.0
 40
1.0
 10
20.35157050894804
 20
3.975974795070772
 30
0.0
 10
20.46808674096928
 20
3.982093035550554
 30
0.0
 10
20.88446732343888
 20
4.003957083936501
 30
0.0
 10
21.60008644005026
 20
3.83075060876447
 30
0.0
 10
22.49928277870477
 20
3.467608738823529
 30
0.0
 10
23.39942219821549
 20
2.916744429098802
 30
0.0
 10
24.3007433438175
 20
2.222794360279019
 30
0.0
 10
25.20070933425846
 20
1.415275833712645
 30
0.0
 10
26.09982790024601
 20
0.5369001959704468
 30
0.0
 10
26.99916692287999
 20
-0.3687486461733107
 30
0.0
 10
27.89977021916586
 20
-1.255662177186626
 30
0.0
 10
28.80086979372142
 20
-2.079008677094413
 30
0.0
 10
29.70048608155721
 20
-2.797993771302147
 30
0.0
 10
30.59956544156358
 20
-3.37590597987974
 30
0.0
 10
31.49917149287136
 20
-3.782906861723629
 30
0.0
 10
32.40025687496677
 20
-4.002252914476014
 30
0.0
 10
33.30088204690783
 20
-4.007844936914409
 30
0.0
 10
34.00996753642617
 20
-3.88853217821603
 30
0.0
 10
34.41903045070494
 20
-3.706994147475815
 30
0.0
 10
34.52840451373792
 20
-3.65845503203908
 30
0.0
  0
SPLINE
  5
BD
330
1F
100
AcDbEntity
  8
0
  6
Continuous
 62
     1
370
    15
100
AcDbSpline
210
0.0
220
0.0
230
1.0
 70
     8
 71
     3
 72
    24
 73
    20
 74
     0
 42
0.000000001
 43
0.00000001
 40
0.0
 40
0.0
 40
0.0
 40
0.0
 40
0.009800357569525
 40
0.0732821851525064
 40
0.1367146753255387
 40
0.2001609223868381
 40
0.2636838036092999
 40
0.3272361111636481
 40
0.3906973431192902
 40
0.4541273168027915
 40
0.5175891662404349
 40
0.5811422860588135
 40
0.6446641149816598
 40
0.7081099212769543
 40
0.7715425891669165
 40
0.835025210144464
 40
0.898592228093634
 40
0.9620858458684366
 40
1.0
 40
1.0
 40
1.0
 40
1.0
 10
36.13809282065467
 20
-3.986813580686316
 30
0.0
 10
36.0917499373049
 20
-3.991023482399312
 30
0.0
 10
35.74522097302514
 20
-4.022503027366629
 30
0.0
 10
35.0993594106524
 20
-3.88671846485739
 30
0.0
 10
34.20021958273216
 20
-3.572394538839806
 30
0.0
 10
33.30087941181758
 20
-3.058971009873164
 30
0.0
 10
32.40025758180722
 20
-2.396465913172765
 30
0.0
 10
31.49917130369483
 20
-1.612094428125262
 30
0.0
 10
30.59956549234821
 20
-0.7462879117099325
 30
0.0
 10
29.70048606736889
 20
0.156935431714841
 30
0.0
 10
28.80086979968384
 20
1.05253464239365
 30
0.0
 10
27.89977020951785
 20
1.894520872943802
 30
0.0
 10
26.99916695546982
 20
2.641293333807714
 30
0.0
 10
26.09982777969322
 20
3.255125424737682
 30
0.0
 10
25.20070978398956
 20
3.704200766785652
 30
0.0
 10
24.30074166303113
 20
3.968784931662755
 30
0.0
 10
23.39942847703591
 20
4.025003522130259
 30
0.0
 10
22.61985806241179
 20
3.924509549366204
 30
0.0
 10
22.14087343969454
 20
3.730267962977374
 30
0.0
 10
21.96179153629645
 20
3.657645270390206
 30
0.0
  0
SPLINE
  5
BE
330
1F
100
AcDbEntity
  8
0
  6
Continuous
 62
     1
370
    15
100
AcDbSpline
210
0.0
220
0.0
230
1.0
 70
     8
 71
     3
 72
     9
 73
     5
 74
     0
 42
0.000000001
 43
0.00000001
 40
0.0
 40
0.0
 40
0.0
 40
0.0
 40
0.1299883897893473
 40
1.0
 40
1.0
 40
1.0
 40
1.0
 10
11.00536944791986
 20
-3.987870983515462
 30
0.0
 10
10.96177524320419
 20
-3.991816537797852
 30
0.0
 10
10.62640525526663
 20
-4.02216966617173
 30
0.0
 10
10.29143126267412
 20
-3.943067146824038
 30
0.0
 10
10.00000000000002
 20
-3.874247036594635
 30
0.0
  0
LINE
  5
BF
330
1F
100
AcDbEntity
  8
0
  6
Continuous
 62
     1
370
    15
100
AcDbLine
 10
44.99999999999999
 20
-3.970810203617367
 30
0.0
 11
44.99999999999999
 21
-2.386147892131116
 31
0.0
  0
SPLINE
  5
C0
330
1F
100
AcDbEntity
  8
0
  6
Continuous
 62
     1
370
    15
100
AcDbSpline
210
0.0
220
0.0
230
1.0
 70
     8
 71
     3
 72
    21
 73
    17
 74
     0
 42
0.000000001
 43
0.00000001
 40
0.0
 40
0.0
 40
0.0
 40
0.0
 40
0.0731259214528979
 40
0.1463672854908502
 40
0.2195048672047965
 40
0.2925734921509354
 40
0.3677733962127973
 40
0.4430736455293514
 40
0.5183765777814688
 40
0.5935777362139815
 40
0.6687514835793935
 40
0.7439726316500619
 40
0.8193018589236931
 40
0.8945680423179291
 40
0.9697536775389769
 40
1.0
 40
1.0
 40
1.0
 40
1.0
 10
9.99999999999999
 20
3.401669478460435
 30
0.0
 10
10.29145767486623
 20
3.232489545953901
 30
0.0
 10
10.87483314362014
 20
2.893862599605517
 30
0.0
 10
11.75103757471809
 20
2.205596683855433
 30
0.0
 10
12.62585180949175
 20
1.423203177237232
 30
0.0
 10
13.50807408107093
 20
0.5618743129763049
 30
0.0
 10
14.39918572994325
 20
-0.3350015370169189
 30
0.0
 10
15.30002228642365
 20
-1.223324793781105
 30
0.0
 10
16.20091043663088
 20
-2.049932885551946
 30
0.0
 10
17.10038482205428
 20
-2.773477075548128
 30
0.0
 10
17.99947177275332
 20
-3.357229129996854
 30
0.0
 10
18.89923636871023
 20
-3.771057340047497
 30
0.0
 10
19.80046973840065
 20
-3.997609708334587
 30
0.0
 10
20.70086789229739
 20
-4.011390635244625
 30
0.0
 10
21.42101170274341
 20
-3.894463628027786
 30
0.0
 10
21.84123722790747
 20
-3.710438424919031
 30
0.0
 10
21.96179153629649
 20
-3.657645270390239
 30
0.0
  0
SPLINE
  5
C1
330
1F
100
AcDbEntity
  8
0
  6
Continuous
 62
     1
370
    15
100
AcDbSpline
210
0.0
220
0.0
230
1.0
 70
     8
 71
     3
 72
    21
 73
    17
 74
     0
 42
0.000000001
 43
0.00000001
 40
0.0
 40
0.0
 40
0.0
 40
0.0
 40
0.0317152908050491
 40
0.1061572164158706
 40
0.1805830009734306
 40
0.2550666734592998
 40
0.3296501149555888
 40
0.4041486511143941
 40
0.4785783591986971
 40
0.5530132062649916
 40
0.6275270782888052
 40
0.7021050835271189
 40
0.7765763300867106
 40
0.8509999254209826
 40
0.9254499330719913
 40
1.0
 40
1.0
 40
1.0
 40
1.0
 10
32.91781154906952
 20
3.975262467837998
 30
0.0
 10
33.0455936308994
 20
3.98112720908777
 30
0.0
 10
33.47330498938156
 20
4.000757633096873
 30
0.0
 10
34.20020382991162
 20
3.820690857394677
 30
0.0
 10
35.09934591077936
 20
3.450016263204036
 30
0.0
 10
35.99929222730128
 20
2.893250117817921
 30
0.0
 10
36.90061056235979
 20
2.194396018471584
 30
0.0
 10
37.80077211771352
 20
1.383514182639454
 30
0.0
 10
38.69994205274902
 20
0.5032725361371846
 30
0.0
 10
39.5991853851047
 20
-0.402425911933605
 30
0.0
 10
40.49955969719771
 20
-1.287950760479634
 30
0.0
 10
41.400803082515
 20
-2.107774682741164
 30
0.0
 10
42.30057904286831
 20
-2.822994793535729
 30
0.0
 10
43.19966703921674
 20
-3.391784421594322
 30
0.0
 10
44.09913302188
 20
-3.804059761171506
 30
0.0
 10
44.69957660031287
 20
-3.915201844075249
 30
0.0
 10
45.0
 20
-3.970810203617367
 30
0.0
  0
SPLINE
  5
C2
330
1F
100
AcDbEntity
  8
0
  6
Continuous
 62
   131
370
    15
100
AcDbSpline
210
0.0
220
0.0
230
1.0
 70
    24
 71
     3
 72
     9
 73
     5
 74
     0
 42
0.000000001
 43
0.00000001
 40
0.0
 40
0.0
 40
0.0
 40
0.0
 40
0.8993730111005134
 40
1.0
 40
1.0
 40
1.0
 40
1.0
 10
10.00000000000002
 20
3.874247036594582
 30
0.0
 10
10.00000000000001
 20
3.747537410953538
 30
0.0
 10
10.0
 20
3.606650788743254
 30
0.0
 10
9.999999999999982
 20
3.476904930713103
 30
0.0
 10
9.999999999999982
 20
3.46384899569735
 30
0.0
  0
SPLINE
  5
C3
330
1F
100
AcDbEntity
  8
0
  6
Continuous
 62
     1
370
    15
100
AcDbSpline
210
0.0
220
0.0
230
1.0
 70
     8
 71
     3
 72
    19
 73
    15
 74
     0
 42
0.000000001
 43
0.00000001
 40
0.0
 40
0.0
 40
0.0
 40
0.0
 40
0.0860185252748915
 40
0.1719215985884062
 40
0.25779419642915
 40
0.3437217759526547
 40
0.4297725374461051
 40
0.5157492997500224
 40
0.6016348802403493
 40
0.6875145311900279
 40
0.7734735984261025
 40
0.8595306324678357
 40
0.9454725494681182
 40
1.0
 40
1.0
 40
1.0
 40
1.0
 10
44.99999999999997
 20
-2.40313676823611
 30
0.0
 10
44.69957660030435
 20
-2.151500487936421
 30
0.0
 10
44.09913302185448
 20
-1.648565667399676
 30
0.0
 10
43.19966703931861
 20
-0.7780995263738264
 30
0.0
 10
42.30057904248622
 20
0.1226708842747688
 30
0.0
 10
41.40080308394348
 20
1.019908105735844
 30
0.0
 10
40.49955969185983
 20
1.864433341225091
 30
0.0
 10
39.59918540499694
 20
2.615628501486426
 30
0.0
 10
38.69994197859813
 20
3.234973796339421
 30
0.0
 10
37.80077239454537
 20
3.69069301574017
 30
0.0
 10
36.90060952764221
 20
3.96242171381814
 30
0.0
 10
35.99929609151573
 20
4.026652231012521
 30
0.0
 10
35.20873295755596
 20
3.929947691291016
 30
0.0
 10
34.71864646708889
 20
3.73437320698213
 30
0.0
 10
34.52840451373796
 20
3.658455032039045
 30
0.0
  0
SPLINE
  5
C4
330
1F
100
AcDbEntity
  8
0
  6
Continuous
 62
     1
370
    15
100
AcDbSpline
210
0.0
220
0.0
230
1.0
 70
     8
 71
     3
 72
    23
 73
    19
 74
     0
 42
0.000000001
 43
0.00000001
 40
0.0
 40
0.0
 40
0.0
 40
0.0
 40
0.0127098624480669
 40
0.079031329637287
 40
0.1452921644645433
 40
0.2115582205069631
 40
0.2778952689635979
 40
0.3442878821465625
 40
0.4105852380041171
 40
0.4768408164957992
 40
0.5431205541676667
 40
0.6094899918149848
 40
0.6758570648143509
 40
0.7421356969266838
 40
0.8065358922750074
 40
0.8709968637679584
 40
0.9355493054636759
 40
1.0
 40
1.0
 40
1.0
 40
1.0
 10
23.57184321127405
 20
-3.984344089095092
 30
0.0
 10
23.5143047933032
 20
-3.989243755282081
 30
0.0
 10
23.15652455012258
 20
-4.019710421236882
 30
0.0
 10
22.49928616050519
 20
-3.878618872632658
 30
0.0
 10
21.60010814786007
 20
-3.556270971265951
 30
0.0
 10
20.70086211273699
 20
-3.036861805697776
 30
0.0
 10
19.80047128925101
 20
-2.369037646306983
 30
0.0
 10
18.8992359536697
 20
-1.580996546743014
 30
0.0
 10
17.99947188381593
 20
-0.7129558973277654
 30
0.0
 10
17.10038479229231
 20
0.1908005189740004
 30
0.0
 10
16.20091044461888
 20
1.085171103566434
 30
0.0
 10
15.30002228428189
 20
1.92444530331763
 30
0.0
 10
14.39918573051679
 20
2.666843248449257
 30
0.0
 10
13.50807408092218
 20
3.269096803179038
 30
0.0
 10
12.62585180953113
 20
3.706825683530121
 30
0.0
 10
11.75103757470759
 20
3.960250057617484
 30
0.0
 10
10.87483314362277
 20
4.038211824743354
 30
0.0
 10
10.29145767486712
 20
3.928873220184321
 30
0.0
 10
10.00000000000002
 20
3.874247036594594
 30
0.0
  0
SPLINE
  5
C5
330
1F
100
AcDbEntity
  8
0
  6
Continuous
 62
     1
370
    15
100
AcDbSpline
210
0.0
220
0.0
230
1.0
 70
     8
 71
     3
 72
    16
 73
    12
 74
     0
 42
0.000000001
 43
0.00000001
 40
0.0
 40
0.0
 40
0.0
 40
0.0
 40
0.1125483452533134
 40
0.2252743685674498
 40
0.3378406601667395
 40
0.4503008201788089
 40
0.5660412388595103
 40
0.6819360992504183
 40
0.7978350889562407
 40
0.9135774382429198
 40
1.0
 40
1.0
 40
1.0
 40
1.0
 10
9.999999999999996
 20
-0.1216590383951374
 30
0.0
 10
10.29145767507297
 20
-0.4126089947007665
 30
0.0
 10
10.87483314424067
 20
-0.994968224807245
 30
0.0
 10
11.75103757223285
 20
-1.818120682558498
 30
0.0
 10
12.62585181879252
 20
-2.555902341813856
 30
0.0
 10
13.5080740459554
 20
-3.177606584801149
 30
0.0
 10
14.39918586534361
 20
-3.648629771784057
 30
0.0
 10
15.30002178082694
 20
-3.941646576132627
 30
0.0
 10
16.20091232232748
 20
-4.029805587694107
 30
0.0
 10
17.02456137487254
 20
-3.945777074726208
 30
0.0
 10
17.54807193964919
 20
-3.74729077160229
 30
0.0
 10
17.77186509881469
 20
-3.662440761276074
 30
0.0
  0
SPLINE
  5
C6
330
1F
100
AcDbEntity
  8
0
  6
Continuous
 62
     1
370
    15
100
AcDbSpline
210
0.0
220
0.0
230
1.0
 70
     8
 71
     3
 72
    24
 73
    20
 74
     0
 42
0.000000001
 43
0.00000001
 40
0.0
 40
0.0
 40
0.0
 40
0.0
 40
0.0050664891496875
 40
0.0685298684914886
 40
0.131961371310705
 40
0.1954241331556184
 40
0.2589779727948402
 40
0.3225023853927823
 40
0.3859501619821062
 40
0.4493841813515188
 40
0.5128675393202816
 40
0.5764359316541784
 40
0.6399319581157564
 40
0.7033693215556802
 40
0.7668110650137003
 40
0.8303201624232538
 40
0.8938839213670459
 40
0.9573566885647089
 40
1.0
 40
1.0
 40
1.0
 40
1.0
 10
28.72926523129743
 20
3.992588486845098
 30
0.0
 10
28.75321957476865
 20
3.995022077442562
 30
0.0
 10
29.07722855996206
 20
4.027939081442581
 30
0.0
 10
29.70045040636718
 20
3.901926782480031
 30
0.0
 10
30.59957507492886
 20
3.603929949971998
 30
0.0
 10
31.49916863991287
 20
3.102514313880503
 30
0.0
 10
32.40025863748639
 20
2.450849544635839
 30
0.0
 10
33.30087785511364
 20
1.673887516350238
 30
0.0
 10
34.20022474799181
 20
0.8128130542327715
 30
0.0
 10
35.09934030176129
 20
-0.0891983119091982
 30
0.0
 10
35.99929373276748
 20
-0.9869709195292986
 30
0.0
 10
36.9006101602207
 20
-1.834291474834589
 30
0.0
 10
37.80077222165851
 20
-2.58975391599194
 30
0.0
 10
38.69994203849528
 20
-3.214599136491878
 30
0.0
 10
39.5991853381874
 20
-3.676926573616674
 30
0.0
 10
40.49955989945914
 20
-3.955777884788251
 30
0.0
 10
41.40080232021723
 20
-4.028001105129447
 30
0.0
 10
42.20237479191362
 20
-3.93530592320697
 30
0.0
 10
42.70358182359224
 20
-3.738579498245889
 30
0.0
 10
42.90499453899572
 20
-3.659523936494651
 30
0.0
  0
SPLINE
  5
C7
330
1F
100
AcDbEntity
  8
0
  6
Continuous
 62
   131
370
    15
100
AcDbSpline
210
0.0
220
0.0
230
1.0
 70
    24
 71
     3
 72
    22
 73
    18
 74
     0
 42
0.000000001
 43
0.00000001
 40
0.0
 40
0.0
 40
0.0
 40
0.0
 40
0.0949135668901892
 40
0.1619159171025424
 40
0.2308613400101183
 40
0.2978636902224285
 40
0.3668091131299577
 40
0.4338114633422686
 40
0.502756886249799
 40
0.5697592364621111
 40
0.6387046593696357
 40
0.7057070095819463
 40
0.7746524324894746
 40
0.8416547827017823
 40
0.9106002056093149
 40
0.9776025558216258
 40
1.0
 40
1.0
 40
1.0
 40
1.0
 10
10.00000000000002
 20
2.798899257441995
 30
0.0
 10
10.0
 20
2.723560871065578
 30
0.0
 10
9.99999999999999
 20
2.595038844943894
 30
0.0
 10
9.999999999999996
 20
2.353541085116222
 30
0.0
 10
9.999999999999948
 20
2.118833192914291
 30
0.0
 10
10.00000000000001
 20
1.862215727046767
 30
0.0
 10
9.999999999999948
 20
1.596628241815565
 30
0.0
 10
10.00000000000004
 20
1.324523833529347
 30
0.0
 10
9.999999999999906
 20
1.058579197459864
 30
0.0
 10
10.00000000000006
 20
0.8015092943697893
 30
0.0
 10
9.999999999999982
 20
0.565243859350028
 30
0.0
 10
9.999999999999982
 20
0.3521374565019006
 30
0.0
 10
9.999999999999996
 20
0.1723525822728916
 30
0.0
 10
9.999999999999982
 20
0.026640328280412
 30
0.0
 10
10.00000000000004
 20
-0.0741481745596341
 30
0.0
 10
10.00000000000001
 20
-0.1283804470651005
 30
0.0
 10
10.00000000000002
 20
-0.1328209341086904
 30
0.0
 10
10.0
 20
-0.1339334149746862
 30
0.0
  0
SPLINE
  5
C8
330
1F
100
AcDbEntity
  8
0
  6
Continuous
 62
     1
370
    15
100
AcDbSpline
210
0.0
220
0.0
230
1.0
 70
     8
 71
     3
 72
    24
 73
    20
 74
     0
 42
0.000000001
 43
0.00000001
 40
0.0
 40
0.0
 40
0.0
 40
0.0
 40
0.0294084423212922
 40
0.0928558280365491
 40
0.1562807047890743
 40
0.2197461906129499
 40
0.2833026577446978
 40
0.3468044696127883
 40
0.4102389352559542
 40
0.4736690213834857
 40
0.5371577638030528
 40
0.6007188637933814
 40
0.6641949391734185
 40
0.7276216816140584
 40
0.7910621796964289
 40
0.8545793049960021
 40
0.9181258539610886
 40
0.9815813355799935
 40
0.9999999999999999
 40
0.9999999999999999
 40
0.9999999999999999
 40
0.9999999999999999
 10
44.51599599978071
 20
-3.974833126142631
 30
0.0
 10
44.37694194169763
 20
-3.980281954519845
 30
0.0
 10
43.93788503538205
 20
-3.997486383957746
 30
0.0
 10
43.19968311909767
 20
-3.810334789781119
 30
0.0
 10
42.30057473191079
 20
-3.432182144897381
 30
0.0
 10
41.40080424034029
 20
-2.869567405883909
 30
0.0
 10
40.49955938513266
 20
-2.165822938688823
 30
0.0
 10
39.59918547576627
 20
-1.351663240904902
 30
0.0
 10
38.69994200173277
 20
-0.4696161063751771
 30
0.0
 10
37.80077223121588
 20
0.43611365302848
 30
0.0
 10
36.90061015878653
 20
1.320027090756029
 30
0.0
 10
35.99929372892674
 20
2.136784416606396
 30
0.0
 10
35.09934031852357
 20
2.846414144368457
 30
0.0
 10
34.20022468482222
 20
3.412556849447985
 30
0.0
 10
33.30087809122627
 20
3.805777445553325
 30
0.0
 10
32.40025775490135
 20
4.010715094368685
 30
0.0
 10
31.49917193334642
 20
3.999822982583154
 30
0.0
 10
30.81217746763051
 20
3.876467589393894
 30
0.0
 10
30.4254207193195
 20
3.700449865378699
 30
0.0
 10
30.33841470943783
 20
3.660852366687617
 30
0.0
  0
SPLINE
  5
C9
330
1F
100
AcDbEntity
  8
0
  6
Continuous
 62
     1
370
    15
100
AcDbSpline
210
0.0
220
0.0
230
1.0
 70
     8
 71
     3
 72
    18
 73
    14
 74
     0
 42
0.000000001
 43
0.00000001
 40
0.0
 40
0.0
 40
0.0
 40
0.0
 40
0.0516214212174707
 40
0.1475095257885086
 40
0.2433372063445061
 40
0.3391998291386367
 40
0.4351921880363384
 40
0.5311811268638555
 40
0.6270421506498973
 40
0.7201863279112546
 40
0.8134184077629346
 40
0.9067827840577317
 40
1.0
 40
1.0
 40
1.0
 40
1.0
 10
19.38367830936204
 20
-3.974827421632371
 30
0.0
 10
19.22209554949818
 20
-3.978946438368619
 30
0.0
 10
18.76036869810626
 20
-3.990716633592793
 30
0.0
 10
17.99947692455681
 20
-3.788747495226905
 30
0.0
 10
17.10038344150152
 20
-3.395793778012278
 30
0.0
 10
16.20091080716674
 20
-2.82164746460737
 30
0.0
 10
15.30002218707484
 20
-2.108170370702116
 30
0.0
 10
14.39918575654914
 20
-1.287681107308513
 30
0.0
 10
13.50807407417078
 20
-0.4105886616060996
 30
0.0
 10
12.62585181131933
 20
0.4784891211270521
 30
0.0
 10
11.75103757422978
 20
1.333947294025907
 30
0.0
 10
10.87483314374208
 20
2.134622724403273
 30
0.0
 10
10.29145767490687
 20
2.577590205310625
 30
0.0
 10
10.00000000000002
 20
2.798899257441977
 30
0.0
  0
LINE
  5
CA
330
1F
100
AcDbEntity
  8
0
  6
Continuous
 62
     1
370
    15
100
AcDbLine
 10
44.99999999999999
 20
1.567673435381255
 30
0.0
 11
44.99999999999999
 21
2.403136768236097
 31
0.0
  0
LINE
  5
CB
330
1F
100
AcDbEntity
  8
0
  6
Continuous
 62
     1
370
    15
100
AcDbLine
 10
44.99999999999999
 20
-2.403136768236111
 30
0.0
 11
44.99999999999999
 21
-1.567673435381214
 31
0.0
  0
LINE
  5
CC
330
1F
100
AcDbEntity
  8
0
  6
Continuous
 62
   131
370
    15
100
AcDbLine
 10
44.99999999999999
 20
3.970810203617335
 30
0.0
 11
44.99999999999999
 21
3.999999999999985
 31
0.0
  0
LINE
  5
CD
330
1F
100
AcDbEntity
  8
0
  6
Continuous
 62
   131
370
    15
100
AcDbLine
 10
10.00000000000002
 20
-1.075347779152596
 30
0.0
 11
9.99999999999999
 21
-0.1216590383951317
 31
0.0
  0
LINE
  5
CE
330
1F
100
AcDbEntity
  8
0
  6
Continuous
 62
   131
370
    15
100
AcDbLine
 10
10.00000000000002
 20
-3.874247036594624
 30
0.0
 11
9.99999999999999
 21
-3.523328516855558
 31
0.0
  0
LINE
  5
CF
330
1F
100
AcDbEntity
  8
0
  6
Continuous
 62
   131
370
    15
100
AcDbLine
 10
44.99999999999999
 20
-4.000000000000019
 30
0.0
 11
44.99999999999999
 21
-3.970810203617367
 31
0.0
  0
LINE
  5
D0
330
1F
100
AcDbEntity
  8
0
  6
Continuous
 62
   131
370
    15
100
AcDbLine
 10
10.00000000000002
 20
2.798899257441995
 30
0.0
 11
9.99999999999999
 21
3.401669478460437
 31
0.0
  0
SPLINE
  5
D1
330
1F
100
AcDbEntity
  8
0
  6
Continuous
 62
   131
370
    15
100
AcDbSpline
210
0.0
220
0.0
230
1.0
 70
    24
 71
     3
 72
    22
 73
    18
 74
     0
 42
0.000000001
 43
0.00000001
 40
0.0
 40
0.0
 40
0.0
 40
0.0
 40
0.125
 40
0.125
 40
0.25
 40
0.25
 40
0.375
 40
0.375
 40
0.5
 40
0.5
 40
0.625
 40
0.625
 40
0.75
 40
0.75
 40
0.875
 40
0.875
 40
1.0
 40
1.0
 40
1.0
 40
1.0
 10
9.99999999999997
 20
-0.1304802733936235
 30
0.0
 10
9.999999999999963
 20
-0.1045906325538138
 30
0.0
 10
9.999999999999975
 20
-0.0415907619212534
 30
0.0
 10
9.999999999999963
 20
0.1599121019027966
 30
0.0
 10
9.999999999999982
 20
0.298206088662533
 30
0.0
 10
9.999999999999975
 20
0.6189005106497208
 30
0.0
 10
9.999999999999982
 20
0.8002654517511537
 30
0.0
 10
9.999999999999982
 20
1.162614392072993
 30
0.0
 10
9.999999999999996
 20
1.343033864953801
 30
0.0
 10
9.99999999999999
 20
1.674526731760774
 30
0.0
 10
9.999999999999996
 20
1.825758601606772
 30
0.0
 10
9.999999999999982
 20
2.091182040238229
 30
0.0
 10
9.999999999999982
 20
2.205697203276499
 30
0.0
 10
9.999999999999982
 20
2.401928820450547
 30
0.0
 10
9.999999999999982
 20
2.479957257870426
 30
0.0
 10
9.999999999999982
 20
2.643144952377241
 30
0.0
 10
10.0
 20
2.72475161782629
 30
0.0
 10
9.99999999999999
 20
2.798899257442209
 30
0.0
  0
SPLINE
  5
D2
330
1F
100
AcDbEntity
  8
0
  6
Continuous
 62
   131
370
    15
100
AcDbSpline
210
0.0
220
0.0
230
1.0
 70
     8
 71
     3
 72
     8
 73
     4
 74
     0
 42
0.000000001
 43
0.00000001
 40
0.0
 40
0.0
 40
0.0
 40
0.0
 40
1.0
 40
1.0
 40
1.0
 40
1.0
 10
9.999999999999975
 20
-0.1216590383951433
 30
0.0
 10
9.665115881678824
 20
0.212188816714998
 30
0.0
 10
9.335243841119155
 20
0.545636986042434
 30
0.0
 10
8.999978788370404
 20
0.8717346792815293
 30
0.0
  0
SPLINE
  5
D3
330
1F
100
AcDbEntity
  8
0
  6
Continuous
 62
   131
370
    15
100
AcDbSpline
210
0.0
220
0.0
230
1.0
 70
     8
 71
     3
 72
     8
 73
     4
 74
     0
 42
0.000000001
 43
0.00000001
 40
0.0
 40
0.0
 40
0.0
 40
0.0
 40
1.0
 40
1.0
 40
1.0
 40
1.0
 10
10.00000000000014
 20
2.798899257441891
 30
0.0
 10
9.665115881678934
 20
3.037514721882384
 30
0.0
 10
9.33524384111919
 20
3.245714112908195
 30
0.0
 10
8.999978788370404
 20
3.419123402788262
 30
0.0
  0
SPLINE
  5
D4
330
1F
100
AcDbEntity
  8
0
  6
Continuous
 62
   131
370
    15
100
AcDbSpline
210
0.0
220
0.0
230
1.0
 70
     8
 71
     3
 72
     9
 73
     5
 74
     0
 42
0.000000001
 43
0.00000001
 40
0.0
 40
0.0
 40
0.0
 40
0.0
 40
0.8255627144205695
 40
1.0
 40
1.0
 40
1.0
 40
1.0
 10
10.00000000000014
 20
3.87424703659462
 30
0.0
 10
9.833793301056085
 20
3.830778930713321
 30
0.0
 10
9.632467955275768
 20
3.778126230776637
 30
0.0
 10
9.430702536000169
 20
3.690496626246234
 30
0.0
 10
9.395507123937922
 20
3.675210755895551
 30
0.0
  0
LINE
  5
D5
330
1F
100
AcDbEntity
  8
0
  6
Continuous
 62
   131
370
    15
100
AcDbLine
 10
8.999978788370404
 20
3.816702715635834
 30
0.0
 11
8.999978788370404
 21
3.999999999999983
 31
0.0
  0
SPLINE
  5
D6
330
1F
100
AcDbEntity
  8
0
  6
Continuous
 62
   131
370
    15
100
AcDbSpline
210
0.0
220
0.0
230
1.0
 70
     8
 71
     3
 72
     8
 73
     4
 74
     0
 42
0.000000001
 43
0.00000001
 40
0.0
 40
0.0
 40
0.0
 40
0.0
 40
1.0
 40
1.0
 40
1.0
 40
1.0
 10
9.999999999999975
 20
3.401669478460428
 30
0.0
 10
9.665115881678824
 20
3.577391013404793
 30
0.0
 10
9.335243841119155
 20
3.716717711797357
 30
0.0
 10
8.999978788370404
 20
3.816704364210781
 30
0.0
  0
LINE
  5
D7
330
1F
100
AcDbEntity
  8
0
  6
Continuous
 62
   131
370
    15
100
AcDbLine
 10
8.999978788370404
 20
0.8717293026099747
 30
0.0
 11
8.999978788370404
 21
3.419125393882979
 31
0.0
  0
SPLINE
  5
D8
330
1F
100
AcDbEntity
  8
0
  6
Continuous
 62
   131
370
    15
100
AcDbSpline
210
0.0
220
0.0
230
1.0
 70
     8
 71
     3
 72
     8
 73
     4
 74
     0
 42
0.000000001
 43
0.00000001
 40
0.0
 40
0.0
 40
0.0
 40
0.0
 40
1.0
 40
1.0
 40
1.0
 40
1.0
 10
10.00000000000014
 20
-1.075347779152737
 30
0.0
 10
9.665115881678934
 20
-0.7536414655036178
 30
0.0
 10
9.33524384111919
 20
-0.4223169074035773
 30
0.0
 10
8.999978788370404
 20
-0.088269316076389
 30
0.0
  0
SPLINE
  5
D9
330
1F
100
AcDbEntity
  8
0
  6
Continuous
 62
   131
370
    15
100
AcDbSpline
210
0.0
220
0.0
230
1.0
 70
     8
 71
     3
 72
     8
 73
     4
 74
     0
 42
0.000000001
 43
0.00000001
 40
0.0
 40
0.0
 40
0.0
 40
0.0
 40
1.0
 40
1.0
 40
1.0
 40
1.0
 10
9.999999999999975
 20
-3.523328516855561
 30
0.0
 10
9.665115881678824
 20
-3.365202196689786
 30
0.0
 10
9.335243841119155
 20
-3.171080725754915
 30
0.0
 10
8.999978788370404
 20
-2.944969684929246
 30
0.0
  0
SPLINE
  5
DA
330
1F
100
AcDbEntity
  8
0
  6
Continuous
 62
   131
370
    15
100
AcDbSpline
210
0.0
220
0.0
230
1.0
 70
     8
 71
     3
 72
     8
 73
     4
 74
     0
 42
0.000000001
 43
0.00000001
 40
0.0
 40
0.0
 40
0.0
 40
0.0
 40
1.0
 40
1.0
 40
1.0
 40
1.0
 10
10.00000000000014
 20
-3.874247036594663
 30
0.0
 10
9.665115881678934
 20
-3.791156187386036
 30
0.0
 10
9.33524384111919
 20
-3.668031020311804
 30
0.0
 10
8.999978788370404
 20
-3.507392718864683
 30
0.0
  0
LINE
  5
DB
330
1F
100
AcDbEntity
  8
0
  6
Continuous
 62
   131
370
    15
100
AcDbLine
 10
8.999978788370404
 20
-4.000000000000017
 30
0.0
 11
8.999978788370404
 21
-3.507390874404067
 31
0.0
  0
LINE
  5
DC
330
1F
100
AcDbEntity
  8
0
  6
Continuous
 62
   131
370
    15
100
AcDbLine
 10
8.999978788370404
 20
-3.816704364210807
 30
0.0
 11
9.395507123937888
 21
-3.675210755895585
 31
0.0
  0
LINE
  5
DD
330
1F
100
AcDbEntity
  8
0
  6
Continuous
 62
   131
370
    15
100
AcDbLine
 10
-44.20000000000001
 20
-0.0000000000000169
 30
0.0
 11
-44.20000000000001
 21
3.999999999999983
 31
0.0
  0
LINE
  5
DE
330
1F
100
AcDbEntity
  8
0
  6
Continuous
 62
   131
370
    15
100
AcDbLine
 10
-44.20000000000001
 20
-4.000000000000017
 30
0.0
 11
-44.20000000000001
 21
-0.0000000000000169
 31
0.0
  0
LINE
  5
DF
330
1F
100
AcDbEntity
  8
0
  6
Continuous
 62
   131
370
    15
100
AcDbLine
 10
8.999978788370404
 20
-2.944973413025853
 30
0.0
 11
8.999978788370404
 21
-0.0882654805210568
 31
0.0
  0
LINE
  5
E0
330
1F
100
AcDbEntity
  8
0
  6
Continuous
 62
   131
370
    15
100
AcDbLine
 10
-45.00000000000001
 20
-0.0000000000000169
 30
0.0
 11
-45.00000000000001
 21
3.199999999999987
 31
0.0
  0
LINE
  5
E1
330
1F
100
AcDbEntity
  8
0
  6
Continuous
 62
   131
370
    15
100
AcDbLine
 10
-45.00000000000001
 20
-3.200000000000021
 30
0.0
 11
-45.00000000000001
 21
-0.0000000000000169
 31
0.0
  0
SPLINE
  5
E2
330
1F
100
AcDbEntity
  8
0
  6
Continuous
 62
   131
370
    15
100
AcDbSpline
210
0.0
220
0.0
230
1.0
 70
    24
 71
     3
 72
    14
 73
    10
 74
     0
 42
0.000000001
 43
0.00000001
 40
0.0
 40
0.0
 40
0.0
 40
0.0
 40
0.1348707896175329
 40
0.2836065993524575
 40
0.4323424090873836
 40
0.5810782188223118
 40
0.7298140285572379
 40
0.8785498382921584
 40
0.9999999999999999
 40
0.9999999999999999
 40
0.9999999999999999
 40
0.9999999999999999
 10
9.999999999999975
 20
-3.523328516855558
 30
0.0
 10
9.999999999999975
 20
-3.388777660893504
 30
0.0
 10
9.999999999999996
 20
-3.105843818750417
 30
0.0
 10
10.0
 20
-2.581807112933634
 30
0.0
 10
9.999999999999956
 20
-2.040070131849232
 30
0.0
 10
9.999999999999975
 20
-1.546558869360265
 30
0.0
 10
9.999999999999996
 20
-1.166237288222912
 30
0.0
 10
9.99999999999997
 20
-0.9319056045801981
 30
0.0
 10
9.99999999999997
 20
-0.9187643476751904
 30
0.0
 10
9.999999999999982
 20
-0.9128572764544498
 30
0.0
  0
SPLINE
  5
E3
330
1F
100
AcDbEntity
  8
0
  6
Continuous
 62
   131
370
    15
100
AcDbSpline
210
0.0
220
0.0
230
1.0
 70
    24
 71
     3
 72
    10
 73
     6
 74
     0
 42
0.000000001
 43
0.00000001
 40
0.0
 40
0.0
 40
0.0
 40
0.0
 40
0.0735492354500002
 40
0.7263996379431144
 40
1.0
 40
1.0
 40
1.0
 40
1.0
 10
9.99999999999999
 20
3.46384899569735
 30
0.0
 10
9.99999999999999
 20
3.473373920064076
 30
0.0
 10
10.00000000000005
 20
3.567445620049712
 30
0.0
 10
10.00000000000002
 20
3.707447518631704
 30
0.0
 10
9.999999999999982
 20
3.836218316406429
 30
0.0
 10
9.999999999999982
 20
3.874247036594958
 30
0.0
  0
LINE
  5
E4
330
1F
100
AcDbEntity
  8
중심선
 62
     1
100
AcDbLine
 10
-48.20259277488956
 20
-0.0000000000000217
 30
0.0
 11
47.99999999999999
 21
0.000000000000022
 31
0.0
  0
CIRCLE
  5
E5
330
1F
100
AcDbEntity
  8
외형선
100
AcDbCircle
 10
0.0
 20
0.0
 30
0.0
 40
3.000000000000004
  0
INSERT
  5
E6
330
1F
100
AcDbEntity
  8
0
  6
Continuous
 62
     7
100
AcDbBlockReference
 66
     1
  2
블럭10
 10
-23.94078629968144
 20
-52.04717430164395
 30
0.0
  0
ATTRIB
  5
E7
330
E6
100
AcDbEntity
  8
FORMAT
 62
     2
100
AcDbText
 10
-40.060047339117
 20
-49.97180738881176
 30
0.0
 40
4.233333333333333
  1
SEME7508035E [ 6 FLUTE ]
 41
0.75
  7
SLDTEXTSTYLE0
 11
-40.060047339117
 21
-52.08847405547843
 31
0.0
100
AcDbAttribute
  2
AUTOATTR0
 70
     0
 74
     1
  0
SEQEND
  5
E8
330
E6
100
AcDbEntity
  8
0
  6
Continuous
 62
     7
  0
HATCH
  5
E9
330
1F
100
AcDbEntity
  8
중심선
100
AcDbHatch
 10
0.0
 20
0.0
 30
0.0
210
0.0
220
0.0
230
1.0
  2
SOLID
 70
     1
 71
     0
 91
        1
 92
        0
 93
        4
 72
     1
 10
-18.2258769953006
 20
-35.80000000000001
 11
-21.67215223913788
 21
-35.80000000000001
 72
     1
 10
-21.67215223913787
 20
-35.80000000000001
 11
-23.8003820983419
 21
-38.33632558057261
 72
     1
 10
-23.8003820983419
 20
-38.33632558057261
 11
-20.35407376939147
 21
-38.33628615127012
 72
     1
 10
-20.35407376939146
 20
-38.33628615127012
 11
-18.22587699530059
 21
-35.80000000000001
 97
        0
 75
     0
 76
     1
 98
        1
 10
-1.00134261161555
 20
-0.00107492872391
  0
HATCH
  5
EA
330
1F
100
AcDbEntity
  8
중심선
100
AcDbHatch
 10
0.0
 20
0.0
 30
0.0
210
0.0
220
0.0
230
1.0
  2
SOLID
 70
     1
 71
     0
 91
        1
 92
        0
 93
        4
 72
     1
 10
-13.21311300426464
 20
-35.80000000000001
 11
-16.65938824810192
 21
-35.80000000000001
 72
     1
 10
-16.65938824810192
 20
-35.80000000000001
 11
-21.19052625645931
 21
-41.20000000000003
 72
     1
 10
-21.19052625645931
 20
-41.20000000000003
 11
-17.74425101262203
 21
-41.20000000000003
 72
     1
 10
-17.74425101262203
 20
-41.20000000000003
 11
-13.21311300426464
 21
-35.80000000000001
 97
        0
 75
     0
 76
     1
 98
        1
 10
-1.00134261161555
 20
-0.00107492872391
  0
HATCH
  5
EB
330
1F
100
AcDbEntity
  8
중심선
100
AcDbHatch
 10
0.0
 20
0.0
 30
0.0
210
0.0
220
0.0
230
1.0
  2
SOLID
 70
     1
 71
     0
 91
        1
 92
        0
 93
        4
 72
     1
 10
-8.200349013228745
 20
-35.80000000000004
 11
-11.64662425706586
 21
-35.80000000000001
 72
     1
 10
-11.64662425706586
 20
-35.80000000000001
 11
-18.69506115895511
 21
-44.20000000000003
 72
     1
 10
-18.69506115895511
 20
-44.20000000000003
 11
-15.24878591511783
 21
-44.20000000000003
 72
     1
 10
-15.24878591511783
 20
-44.20000000000003
 11
-8.200349013228745
 21
-35.80000000000004
 97
        0
 75
     0
 76
     1
 98
        1
 10
-1.00134261161555
 20
-0.00107492872391
  0
HATCH
  5
EC
330
1F
100
AcDbEntity
  8
중심선
100
AcDbHatch
 10
0.0
 20
0.0
 30
0.0
210
0.0
220
0.0
230
1.0
  2
SOLID
 70
     1
 71
     0
 91
        1
 92
        0
 93
        6
 72
     3
 10
-3.400458582216546
 20
-40.00000000005129
 11
3.960054785062284
 21
1.540882976769353E-10
 40
0.3939339440162627
 50
17.09539180608437
 51
320.0019657685081
 73
     0
 72
     1
 10
-1.717458926515951
 20
-38.58789400463831
 11
0.5878429471850872
 21
-36.6535672945904
 72
     3
 10
-3.400458582269393
 20
-40.00000000000016
 11
6.600054785286829
 21
-1.278976924368180E-13
 40
0.636358354079598
 50
39.9987384933741
 51
368.4976242363725
 73
     1
 72
     1
 10
3.024873909631217
 20
-39.03999999993004
 11
-4.72039127543347
 21
-39.03999999993001
 72
     1
 10
-4.72039127543347
 20
-39.03999999993001
 11
-4.720416319879404
 21
-40.95999999992993
 72
     1
 10
-4.720416319879404
 20
-40.95999999992993
 11
-0.2790365504073673
 21
-40.9599999999299
 97
        0
 75
     0
 76
     1
 98
        1
 10
-1.00134261161555
 20
-0.00107492872391
  0
DIMENSION
  5
ED
330
1F
100
AcDbEntity
  8
치수문자_일반주서
100
AcDbDimension
  2
_D
 10
-62.82890613132344
 20
-4.00000000000009
 30
0.0
 11
-62.82890613132345
 21
-0.0000000000000163
 31
0.0
 70
   160
  1
%%c<>
 71
     2
 42
8.000000000000007
 52
-270.0
  3
SLDDIMSTYLE0
100
AcDbAlignedDimension
 13
-44.20000000000001
 23
3.999999999999987
 33
0.0
 14
-44.20000000000001
 24
-4.00000000000002
 34
0.0
 50
90.0000000000002
100
AcDbRotatedDimension
  0
DIMENSION
  5
FB
330
1F
100
AcDbEntity
  8
치수문자_일반주서
100
AcDbDimension
  2
_D_1
 10
54.99999999999999
 20
-3.999999999999981
 30
0.0
 11
54.99999999999997
 21
0.5275446000767772
 31
0.0
 70
   160
  1
%%c<>
 71
     2
 42
8.000000000000004
 52
-270.0
  3
SLDDIMSTYLE0
100
AcDbAlignedDimension
 13
44.99999999999999
 23
3.999999999999985
 33
0.0
 14
44.99999999999999
 24
-4.000000000000019
 34
0.0
 50
90.0000000000002
100
AcDbRotatedDimension
  0
DIMENSION
  5
108
330
1F
100
AcDbEntity
  8
치수문자_일반주서
100
AcDbDimension
  2
_D_2
 10
44.99999999999999
 20
47.36908765523676
 30
0.0
 11
24.32374571744581
 21
47.36908765523676
 31
0.0
 70
   160
  1
<>
 71
     2
 42
35.0
  3
SLDDIMSTYLE1
100
AcDbAlignedDimension
 13
9.999999999999982
 23
3.874247036594958
 33
0.0
 14
44.99999999999999
 24
3.970810203617335
 34
0.0
100
AcDbRotatedDimension
  0
DIMENSION
  5
113
330
1F
100
AcDbEntity
  8
치수문자_일반주서
100
AcDbDimension
  2
_D_3
 10
-45.0
 20
74.91549286448696
 30
0.0
 11
2.788346878584447
 21
74.91549286448696
 31
0.0
 70
   160
  1
<>
 71
     2
 42
90.0
  3
SLDDIMSTYLE1
100
AcDbAlignedDimension
 13
44.99999999999999
 23
3.970810203617335
 33
0.0
 14
-45.00000000000001
 24
3.199999999999987
 34
0.0
100
AcDbRotatedDimension
  0
INSERT
  5
123
330
1F
100
AcDbEntity
  8
외형선
100
AcDbBlockReference
  2
SW_DOWELSYMBOL_0
 10
0.0
 20
0.0
 30
0.0
  0
ENDSEC
  0
SECTION
  2
OBJECTS
  0
DICTIONARY
  5
C
330
0
100
AcDbDictionary
281
     1
  3
ACAD_GROUP
350
D
  3
ACAD_IMAGE_VARS
350
147
  3
ACAD_LAYOUT
350
1A
  3
ACAD_MLINESTYLE
350
17
  3
ACAD_PLOTSETTINGS
350
19
  3
ACAD_PLOTSTYLENAME
350
E
  3
ACAD_SCALELIST
350
47
  3
APPDATA
350
145
  3
DWGPROPS
350
151
  0
DICTIONARY
  5
D
102
{ACAD_REACTORS
330
C
102
}
330
C
100
AcDbDictionary
281
     1
  0
RASTERVARIABLES
  5
147
102
{ACAD_REACTORS
330
C
102
}
330
C
100
AcDbRasterVariables
 90
        0
 70
     1
 71
     1
 72
     1
  0
DICTIONARY
  5
1A
102
{ACAD_REACTORS
330
C
102
}
330
C
100
AcDbDictionary
281
     1
  3
Layout1
350
1E
  3
Layout2
350
26
  3
Model
350
22
  0
DICTIONARY
  5
17
102
{ACAD_REACTORS
330
C
102
}
330
C
100
AcDbDictionary
281
     1
  3
Standard
350
18
  0
DICTIONARY
  5
19
102
{ACAD_REACTORS
330
C
102
}
330
C
100
AcDbDictionary
281
     1
  0
ACDBDICTIONARYWDFLT
  5
E
102
{ACAD_REACTORS
330
C
102
}
330
C
100
AcDbDictionary
281
     1
  3
Normal
350
F
100
AcDbDictionaryWithDefault
340
F
  0
DICTIONARY
  5
47
102
{ACAD_REACTORS
330
C
102
}
330
C
100
AcDbDictionary
281
     1
  3
A0
350
48
  3
A1
350
49
  3
A2
350
4A
  3
A3
350
4B
  3
A4
350
4C
  3
A5
350
4D
  3
A6
350
4E
  3
A7
350
4F
  3
A8
350
50
  3
A9
350
51
  3
B0
350
52
  3
B1
350
53
  3
B2
350
54
  3
B3
350
55
  3
B4
350
56
  3
B5
350
57
  3
B6
350
58
  3
B7
350
59
  3
B8
350
5A
  3
B9
350
5B
  3
C0
350
5C
  3
C1
350
5D
  3
C2
350
5E
  3
C3
350
5F
  3
C4
350
60
  3
C5
350
61
  3
C6
350
62
  3
C7
350
63
  3
C8
350
64
  3
C9
350
65
  3
D0
350
66
  3
D1
350
67
  3
D2
350
68
  0
DICTIONARY
  5
145
102
{ACAD_REACTORS
330
C
102
}
330
C
100
AcDbDictionary
281
     1
  0
XRECORD
  5
151
102
{ACAD_REACTORS
330
C
102
}
330
C
100
AcDbXrecord
280
     1
  1
DWGPROPS COOKIE
  2

  3

  4

  6

  7

  8
12016016
  9

300
=
301
=
302
=
303
=
304
=
305
=
306
=
307
=
308
=
309
=
 40
0.0
 41
2458268.395023507
 42
2458270.008523831
  1

 90
        0
  0
LAYOUT
  5
1E
102
{ACAD_REACTORS
330
1A
102
}
330
1A
100
AcDbPlotSettings
  1

  2
none_device
  4

  6

 40
0.0
 41
0.0
 42
0.0
 43
0.0
 44
0.0
 45
0.0
 46
0.0
 47
0.0
 48
0.0
 49
0.0
140
0.0
141
0.0
142
1.0
143
1.0
 70
   688
 72
     1
 73
     0
 74
     5
  7

 75
    16
147
1.0
148
0.0
149
0.0
100
AcDbLayout
  1
Layout1
 70
     1
 71
     1
 10
0.0
 20
0.0
 11
420.0
 21
297.0
 12
0.0
 22
0.0
 32
0.0
 14
1.000000000000000E+20
 24
1.000000000000000E+20
 34
1.000000000000000E+20
 15
-1.000000000000000E+20
 25
-1.000000000000000E+20
 35
-1.000000000000000E+20
146
0.0
 13
0.0
 23
0.0
 33
0.0
 16
1.0
 26
0.0
 36
0.0
 17
0.0
 27
1.0
 37
0.0
 76
     0
330
1B
  0
LAYOUT
  5
26
102
{ACAD_REACTORS
330
1A
102
}
330
1A
100
AcDbPlotSettings
  1

  2
none_device
  4

  6

 40
0.0
 41
0.0
 42
0.0
 43
0.0
 44
0.0
 45
0.0
 46
0.0
 47
0.0
 48
0.0
 49
0.0
140
0.0
141
0.0
142
1.0
143
1.0
 70
   688
 72
     1
 73
     0
 74
     5
  7

 75
    16
147
1.0
148
0.0
149
0.0
100
AcDbLayout
  1
Layout2
 70
     1
 71
     2
 10
0.0
 20
0.0
 11
0.0
 21
0.0
 12
0.0
 22
0.0
 32
0.0
 14
0.0
 24
0.0
 34
0.0
 15
0.0
 25
0.0
 35
0.0
146
0.0
 13
0.0
 23
0.0
 33
0.0
 16
1.0
 26
0.0
 36
0.0
 17
0.0
 27
1.0
 37
0.0
 76
     0
330
23
  0
LAYOUT
  5
22
102
{ACAD_REACTORS
330
1A
102
}
330
1A
100
AcDbPlotSettings
  1

  2
none_device
  4
ANSI_A_(11.00_x_8.50_Inches)
  6

 40
6.35
 41
19.05
 42
6.35000508
 43
19.05000254
 44
279.4
 45
215.9
 46
141.0620281953935
 47
65.32103239301733
 48
0.0
 49
0.0
140
0.0
141
0.0
142
0.064659642179104
143
1.0
 70
  1696
 72
     0
 73
     0
 74
     0
  7

 75
     0
147
0.0235690232323232
148
0.0
149
0.0
100
AcDbLayout
  1
Model
 70
     1
 71
     0
 10
0.0
 20
0.0
 11
420.0
 21
297.0
 12
0.0
 22
0.0
 32
0.0
 14
-67.20390613132346
 24
-49.97180738881176
 34
0.0
 15
55.55033333333331
 25
79.29049286448696
 35
0.0
146
0.0
 13
0.0
 23
0.0
 33
0.0
 16
1.0
 26
0.0
 36
0.0
 17
0.0
 27
1.0
 37
0.0
 76
     0
330
1F
331
29
  0
MLINESTYLE
  5
18
102
{ACAD_REACTORS
330
17
102
}
330
17
100
AcDbMlineStyle
  2
Standard
 70
     0
  3

 62
   256
 51
90.0
 52
90.0
 71
     2
 49
0.5
 62
   256
  6
BYLAYER
 49
-0.5
 62
   256
  6
BYLAYER
  0
ACDBPLACEHOLDER
  5
F
102
{ACAD_REACTORS
330
E
102
}
330
E
  0
SCALE
  5
48
102
{ACAD_REACTORS
330
47
102
}
330
47
100
AcDbScale
 70
     0
300
1:1
140
1.0
141
1.0
290
     1
  0
SCALE
  5
49
102
{ACAD_REACTORS
330
47
102
}
330
47
100
AcDbScale
 70
     0
300
1:2
140
1.0
141
2.0
290
     0
  0
SCALE
  5
4A
102
{ACAD_REACTORS
330
47
102
}
330
47
100
AcDbScale
 70
     0
300
1:4
140
1.0
141
4.0
290
     0
  0
SCALE
  5
4B
102
{ACAD_REACTORS
330
47
102
}
330
47
100
AcDbScale
 70
     0
300
1:5
140
1.0
141
5.0
290
     0
  0
SCALE
  5
4C
102
{ACAD_REACTORS
330
47
102
}
330
47
100
AcDbScale
 70
     0
300
1:8
140
1.0
141
8.0
290
     0
  0
SCALE
  5
4D
102
{ACAD_REACTORS
330
47
102
}
330
47
100
AcDbScale
 70
     0
300
1:10
140
1.0
141
10.0
290
     0
  0
SCALE
  5
4E
102
{ACAD_REACTORS
330
47
102
}
330
47
100
AcDbScale
 70
     0
300
1:16
140
1.0
141
16.0
290
     0
  0
SCALE
  5
4F
102
{ACAD_REACTORS
330
47
102
}
330
47
100
AcDbScale
 70
     0
300
1:20
140
1.0
141
20.0
290
     0
  0
SCALE
  5
50
102
{ACAD_REACTORS
330
47
102
}
330
47
100
AcDbScale
 70
     0
300
1:30
140
1.0
141
30.0
290
     0
  0
SCALE
  5
51
102
{ACAD_REACTORS
330
47
102
}
330
47
100
AcDbScale
 70
     0
300
1:40
140
1.0
141
40.0
290
     0
  0
SCALE
  5
52
102
{ACAD_REACTORS
330
47
102
}
330
47
100
AcDbScale
 70
     0
300
1:50
140
1.0
141
50.0
290
     0
  0
SCALE
  5
53
102
{ACAD_REACTORS
330
47
102
}
330
47
100
AcDbScale
 70
     0
300
1:100
140
1.0
141
100.0
290
     0
  0
SCALE
  5
54
102
{ACAD_REACTORS
330
47
102
}
330
47
100
AcDbScale
 70
     0
300
2:1
140
2.0
141
1.0
290
     0
  0
SCALE
  5
55
102
{ACAD_REACTORS
330
47
102
}
330
47
100
AcDbScale
 70
     0
300
4:1
140
4.0
141
1.0
290
     0
  0
SCALE
  5
56
102
{ACAD_REACTORS
330
47
102
}
330
47
100
AcDbScale
 70
     0
300
8:1
140
8.0
141
1.0
290
     0
  0
SCALE
  5
57
102
{ACAD_REACTORS
330
47
102
}
330
47
100
AcDbScale
 70
     0
300
10:1
140
10.0
141
1.0
290
     0
  0
SCALE
  5
58
102
{ACAD_REACTORS
330
47
102
}
330
47
100
AcDbScale
 70
     0
300
100:1
140
100.0
141
1.0
290
     0
  0
SCALE
  5
59
102
{ACAD_REACTORS
330
47
102
}
330
47
100
AcDbScale
 70
     0
300
1/128" = 1'-0"
140
0.0078125
141
12.0
290
     0
  0
SCALE
  5
5A
102
{ACAD_REACTORS
330
47
102
}
330
47
100
AcDbScale
 70
     0
300
1/64" = 1'-0"
140
0.015625
141
12.0
290
     0
  0
SCALE
  5
5B
102
{ACAD_REACTORS
330
47
102
}
330
47
100
AcDbScale
 70
     0
300
1/32" = 1'-0"
140
0.03125
141
12.0
290
     0
  0
SCALE
  5
5C
102
{ACAD_REACTORS
330
47
102
}
330
47
100
AcDbScale
 70
     0
300
1/16" = 1'-0"
140
0.0625
141
12.0
290
     0
  0
SCALE
  5
5D
102
{ACAD_REACTORS
330
47
102
}
330
47
100
AcDbScale
 70
     0
300
3/32" = 1'-0"
140
0.09375
141
12.0
290
     0
  0
SCALE
  5
5E
102
{ACAD_REACTORS
330
47
102
}
330
47
100
AcDbScale
 70
     0
300
1/8" = 1'-0"
140
0.125
141
12.0
290
     0
  0
SCALE
  5
5F
102
{ACAD_REACTORS
330
47
102
}
330
47
100
AcDbScale
 70
     0
300
3/16" = 1'-0"
140
0.1875
141
12.0
290
     0
  0
SCALE
  5
60
102
{ACAD_REACTORS
330
47
102
}
330
47
100
AcDbScale
 70
     0
300
1/4" = 1'-0"
140
0.25
141
12.0
290
     0
  0
SCALE
  5
61
102
{ACAD_REACTORS
330
47
102
}
330
47
100
AcDbScale
 70
     0
300
3/8" = 1'-0"
140
0.375
141
12.0
290
     0
  0
SCALE
  5
62
102
{ACAD_REACTORS
330
47
102
}
330
47
100
AcDbScale
 70
     0
300
1/2" = 1'-0"
140
0.5
141
12.0
290
     0
  0
SCALE
  5
63
102
{ACAD_REACTORS
330
47
102
}
330
47
100
AcDbScale
 70
     0
300
3/4" = 1'-0"
140
0.75
141
12.0
290
     0
  0
SCALE
  5
64
102
{ACAD_REACTORS
330
47
102
}
330
47
100
AcDbScale
 70
     0
300
1" = 1'-0"
140
1.0
141
12.0
290
     0
  0
SCALE
  5
65
102
{ACAD_REACTORS
330
47
102
}
330
47
100
AcDbScale
 70
     0
300
1-1/2" = 1'-0"
140
1.5
141
12.0
290
     0
  0
SCALE
  5
66
102
{ACAD_REACTORS
330
47
102
}
330
47
100
AcDbScale
 70
     0
300
3" = 1'-0"
140
3.0
141
12.0
290
     0
  0
SCALE
  5
67
102
{ACAD_REACTORS
330
47
102
}
330
47
100
AcDbScale
 70
     0
300
6" = 1'-0"
140
6.0
141
12.0
290
     0
  0
SCALE
  5
68
102
{ACAD_REACTORS
330
47
102
}
330
47
100
AcDbScale
 70
     0
300
1'-0" = 1'-0"
140
12.0
141
12.0
290
     0
  0
ENDSEC
  0
EOF
