  0
SECTION
  2
HEADER
  9
$ACADVER
  1
AC1015
  9
$ACADMAINTVER
 70
     6
  9
$DWGCODEPAGE
  3
ANSI_949
  9
$INSBASE
 10
0.0
 20
0.0
 30
0.0
  9
$EXTMIN
 10
-51.40129475473945
 20
-49.96965753136396
 30
0.0
  9
$EXTMAX
 10
44.71855254871142
 20
78.29994017103044
 30
0.0
  9
$LIMMIN
 10
0.0
 20
0.0
  9
$LIMMAX
 10
420.0
 20
297.0
  9
$ORTHOMODE
 70
     0
  9
$REGENMODE
 70
     1
  9
$FILLMODE
 70
     1
  9
$QTEXTMODE
 70
     0
  9
$MIRRTEXT
 70
     1
  9
$LTSCALE
 40
1.0
  9
$ATTMODE
 70
     1
  9
$TEXTSIZE
 40
3.5
  9
$TRACEWID
 40
1.0
  9
$TEXTSTYLE
  7
Standard
  9
$CLAYER
  8
0
  9
$CELTYPE
  6
ByLayer
  9
$CECOLOR
 62
   256
  9
$CELTSCALE
 40
1.0
  9
$DISPSILH
 70
     0
  9
$DIMSCALE
 40
1.0
  9
$DIMASZ
 40
3.302
  9
$DIMEXO
 40
1.0
  9
$DIMDLI
 40
3.75
  9
$DIMRND
 40
0.0
  9
$DIMDLE
 40
0.0
  9
$DIMEXE
 40
1.0
  9
$DIMTP
 40
0.0
  9
$DIMTM
 40
0.0
  9
$DIMTXT
 40
3.5
  9
$DIMCEN
 40
2.5
  9
$DIMTSZ
 40
0.0
  9
$DIMTOL
 70
     0
  9
$DIMLIM
 70
     0
  9
$DIMTIH
 70
     1
  9
$DIMTOH
 70
     1
  9
$DIMSE1
 70
     0
  9
$DIMSE2
 70
     0
  9
$DIMTAD
 70
     1
  9
$DIMZIN
 70
     0
  9
$DIMBLK
  1

  9
$DIMASO
 70
     1
  9
$DIMSHO
 70
     1
  9
$DIMPOST
  1

  9
$DIMAPOST
  1

  9
$DIMALT
 70
     0
  9
$DIMALTD
 70
     3
  9
$DIMALTF
 40
0.0393700787401575
  9
$DIMLFAC
 40
1.0
  9
$DIMTOFL
 70
     1
  9
$DIMTVP
 40
0.0
  9
$DIMTIX
 70
     0
  9
$DIMSOXD
 70
     0
  9
$DIMSAH
 70
     0
  9
$DIMBLK1
  1

  9
$DIMBLK2
  1

  9
$DIMSTYLE
  2
ISO-25
  9
$DIMCLRD
 70
     0
  9
$DIMCLRE
 70
     0
  9
$DIMCLRT
 70
     0
  9
$DIMTFAC
 40
1.0
  9
$DIMGAP
 40
1.524
  9
$DIMJUST
 70
     0
  9
$DIMSD1
 70
     0
  9
$DIMSD2
 70
     0
  9
$DIMTOLJ
 70
     0
  9
$DIMTZIN
 70
     0
  9
$DIMALTZ
 70
     0
  9
$DIMALTTZ
 70
     0
  9
$DIMUPT
 70
     0
  9
$DIMDEC
 70
     2
  9
$DIMTDEC
 70
     2
  9
$DIMALTU
 70
     2
  9
$DIMALTTD
 70
     3
  9
$DIMTXSTY
  7
Standard
  9
$DIMAUNIT
 70
     0
  9
$DIMADEC
 70
     2
  9
$DIMALTRND
 40
0.0
  9
$DIMAZIN
 70
     0
  9
$DIMDSEP
 70
    44
  9
$DIMATFIT
 70
     3
  9
$DIMFRAC
 70
     0
  9
$DIMLDRBLK
  1

  9
$DIMLUNIT
 70
     2
  9
$DIMLWD
 70
    -2
  9
$DIMLWE
 70
    -2
  9
$DIMTMOVE
 70
     0
  9
$LUNITS
 70
     2
  9
$LUPREC
 70
     2
  9
$SKETCHINC
 40
1.0
  9
$FILLETRAD
 40
10.0
  9
$AUNITS
 70
     0
  9
$AUPREC
 70
     2
  9
$MENU
  1
.
  9
$ELEVATION
 40
0.0
  9
$PELEVATION
 40
0.0
  9
$THICKNESS
 40
0.0
  9
$LIMCHECK
 70
     0
  9
$CHAMFERA
 40
0.0
  9
$CHAMFERB
 40
0.0
  9
$CHAMFERC
 40
0.0
  9
$CHAMFERD
 40
0.0
  9
$SKPOLY
 70
     0
  9
$TDCREATE
 40
2458268.769647812
  9
$TDUCREATE
 40
2458268.394647812
  9
$TDUPDATE
 40
2458268.788534051
  9
$TDUUPDATE
 40
2458268.413534051
  9
$TDINDWG
 40
0.0007254167
  9
$TDUSRTIMER
 40
0.0014100579
  9
$USRTIMER
 70
     1
  9
$ANGBASE
 50
0.0
  9
$ANGDIR
 70
     0
  9
$PDMODE
 70
     0
  9
$PDSIZE
 40
-1.0
  9
$PLINEWID
 40
0.0
  9
$SPLFRAME
 70
     0
  9
$SPLINETYPE
 70
     6
  9
$SPLINESEGS
 70
     8
  9
$HANDSEED
  5
151
  9
$SURFTAB1
 70
     6
  9
$SURFTAB2
 70
     6
  9
$SURFTYPE
 70
     6
  9
$SURFU
 70
     6
  9
$SURFV
 70
     6
  9
$UCSBASE
  2

  9
$UCSNAME
  2

  9
$UCSORG
 10
0.0
 20
0.0
 30
0.0
  9
$UCSXDIR
 10
1.0
 20
0.0
 30
0.0
  9
$UCSYDIR
 10
0.0
 20
1.0
 30
0.0
  9
$UCSORTHOREF
  2

  9
$UCSORTHOVIEW
 70
     0
  9
$UCSORGTOP
 10
0.0
 20
0.0
 30
0.0
  9
$UCSORGBOTTOM
 10
0.0
 20
0.0
 30
0.0
  9
$UCSORGLEFT
 10
0.0
 20
0.0
 30
0.0
  9
$UCSORGRIGHT
 10
0.0
 20
0.0
 30
0.0
  9
$UCSORGFRONT
 10
0.0
 20
0.0
 30
0.0
  9
$UCSORGBACK
 10
0.0
 20
0.0
 30
0.0
  9
$PUCSBASE
  2

  9
$PUCSNAME
  2

  9
$PUCSORG
 10
0.0
 20
0.0
 30
0.0
  9
$PUCSXDIR
 10
1.0
 20
0.0
 30
0.0
  9
$PUCSYDIR
 10
0.0
 20
1.0
 30
0.0
  9
$PUCSORTHOREF
  2

  9
$PUCSORTHOVIEW
 70
     0
  9
$PUCSORGTOP
 10
0.0
 20
0.0
 30
0.0
  9
$PUCSORGBOTTOM
 10
0.0
 20
0.0
 30
0.0
  9
$PUCSORGLEFT
 10
0.0
 20
0.0
 30
0.0
  9
$PUCSORGRIGHT
 10
0.0
 20
0.0
 30
0.0
  9
$PUCSORGFRONT
 10
0.0
 20
0.0
 30
0.0
  9
$PUCSORGBACK
 10
0.0
 20
0.0
 30
0.0
  9
$USERI1
 70
     0
  9
$USERI2
 70
     0
  9
$USERI3
 70
     0
  9
$USERI4
 70
     0
  9
$USERI5
 70
     0
  9
$USERR1
 40
0.0
  9
$USERR2
 40
0.0
  9
$USERR3
 40
0.0
  9
$USERR4
 40
0.0
  9
$USERR5
 40
0.0
  9
$WORLDVIEW
 70
     1
  9
$SHADEDGE
 70
     3
  9
$SHADEDIF
 70
    70
  9
$TILEMODE
 70
     1
  9
$MAXACTVP
 70
    64
  9
$PINSBASE
 10
0.0
 20
0.0
 30
0.0
  9
$PLIMCHECK
 70
     0
  9
$PEXTMIN
 10
1.000000000000000E+20
 20
1.000000000000000E+20
 30
1.000000000000000E+20
  9
$PEXTMAX
 10
-1.000000000000000E+20
 20
-1.000000000000000E+20
 30
-1.000000000000000E+20
  9
$PLIMMIN
 10
0.0
 20
0.0
  9
$PLIMMAX
 10
0.0
 20
0.0
  9
$UNITMODE
 70
     0
  9
$VISRETAIN
 70
     1
  9
$PLINEGEN
 70
     0
  9
$PSLTSCALE
 70
     1
  9
$TREEDEPTH
 70
  3020
  9
$CMLSTYLE
  2
Standard
  9
$CMLJUST
 70
     0
  9
$CMLSCALE
 40
20.0
  9
$PROXYGRAPHICS
 70
     1
  9
$MEASUREMENT
 70
     1
  9
$CELWEIGHT
370
    -1
  9
$ENDCAPS
280
     0
  9
$JOINSTYLE
280
     0
  9
$LWDISPLAY
290
     1
  9
$INSUNITS
 70
     4
  9
$HYPERLINKBASE
  1

  9
$STYLESHEET
  1

  9
$XEDIT
290
     1
  9
$CEPSNTYPE
380
     0
  9
$PSTYLEMODE
290
     1
  9
$FINGERPRINTGUID
  2
{A5E63B42-91DB-4835-8ACC-4B24E019A0BB}
  9
$VERSIONGUID
  2
{FAEB1C32-E019-11D5-929B-00C0DF256EC4}
  9
$EXTNAMES
290
     1
  9
$PSVPSCALE
 40
0.0
  9
$OLESTARTUP
290
     0
  0
ENDSEC
  0
SECTION
  2
CLASSES
  0
CLASS
  1
ACDBDICTIONARYWDFLT
  2
AcDbDictionaryWithDefault
  3
ObjectDBX Classes
 90
        0
280
     0
281
     0
  0
CLASS
  1
VISUALSTYLE
  2
AcDbVisualStyle
  3
ObjectDBX Classes
 90
     4095
280
     0
281
     0
  0
CLASS
  1
MATERIAL
  2
AcDbMaterial
  3
ObjectDBX Classes
 90
     1153
280
     0
281
     0
  0
CLASS
  1
SCALE
  2
AcDbScale
  3
ObjectDBX Classes
 90
     1153
280
     0
281
     0
  0
CLASS
  1
SUN
  2
AcDbSun
  3
SCENEOE
 90
     1153
280
     0
281
     0
  0
CLASS
  1
ACDBPLACEHOLDER
  2
AcDbPlaceHolder
  3
ObjectDBX Classes
 90
        0
280
     0
281
     0
  0
CLASS
  1
LAYOUT
  2
AcDbLayout
  3
ObjectDBX Classes
 90
        0
280
     0
281
     0
  0
CLASS
  1
TABLESTYLE
  2
AcDbTableStyle
  3
ObjectDBX Classes
 90
     4095
280
     0
281
     0
  0
CLASS
  1
MLEADERSTYLE
  2
AcDbMLeaderStyle
  3
ACDB_MLEADERSTYLE_CLASS
 90
     4095
280
     0
281
     0
  0
CLASS
  1
DICTIONARYVAR
  2
AcDbDictionaryVar
  3
ObjectDBX Classes
 90
        0
280
     0
281
     0
  0
ENDSEC
  0
SECTION
  2
TABLES
  0
TABLE
  2
VPORT
  5
8
330
0
100
AcDbSymbolTable
 70
     1
  0
VPORT
  5
29
330
8
100
AcDbSymbolTableRecord
100
AcDbViewportTableRecord
  2
*Active
 70
     0
 10
0.0
 20
0.0
 11
1.0
 21
1.0
 12
28.50387092273425
 22
7.876328095692555
 13
0.0
 23
0.0
 14
10.0
 24
10.0
 15
10.0
 25
10.0
 16
0.0
 26
0.0
 36
1.0
 17
0.0
 27
0.0
 37
0.0
 40
260.024478297383
 41
2.727272727272727
 42
50.0
 43
0.0
 44
0.0
 50
0.0
 51
0.0
 71
    16
 72
  2000
 73
     1
 74
     3
 75
     0
 76
     0
 77
     0
 78
     0
281
     0
 65
     1
110
0.0
120
0.0
130
0.0
111
1.0
121
0.0
131
0.0
112
0.0
122
1.0
132
0.0
 79
     0
146
0.0
  0
ENDTAB
  0
TABLE
  2
LTYPE
  5
5
330
0
100
AcDbSymbolTable
 70
     6
  0
LTYPE
  5
14
330
5
100
AcDbSymbolTableRecord
100
AcDbLinetypeTableRecord
  2
ByBlock
 70
     0
  3

 72
    65
 73
     0
 40
0.0
  0
LTYPE
  5
15
330
5
100
AcDbSymbolTableRecord
100
AcDbLinetypeTableRecord
  2
ByLayer
 70
     0
  3

 72
    65
 73
     0
 40
0.0
  0
LTYPE
  5
16
330
5
100
AcDbSymbolTableRecord
100
AcDbLinetypeTableRecord
  2
Continuous
 70
     0
  3
Solid line
 72
    65
 73
     0
 40
0.0
  0
LTYPE
  5
6A
330
5
100
AcDbSymbolTableRecord
100
AcDbLinetypeTableRecord
  2
HIDDEN
 70
     0
  3
Hidden __ __ __ __ __ __ __ __ __ __ __ __ __ __
 72
    65
 73
     2
 40
1.905
 49
1.27
 74
     0
 49
-0.635
 74
     0
  0
LTYPE
  5
6B
330
5
100
AcDbSymbolTableRecord
100
AcDbLinetypeTableRecord
  2
PHANTOM
 70
     0
  3
Phantom ______  __  __  ______  __  __  ______
 72
    65
 73
     6
 40
12.7
 49
6.35
 74
     0
 49
-1.27
 74
     0
 49
1.27
 74
     0
 49
-1.27
 74
     0
 49
1.27
 74
     0
 49
-1.27
 74
     0
  0
LTYPE
  5
6C
330
5
100
AcDbSymbolTableRecord
100
AcDbLinetypeTableRecord
  2
CENTER
 70
     0
  3
Center ____ _ ____ _ ____ _ ____ _ ____ _ ____
 72
    65
 73
     4
 40
10.16
 49
6.35
 74
     0
 49
-1.27
 74
     0
 49
1.27
 74
     0
 49
-1.27
 74
     0
  0
LTYPE
  5
6D
330
5
100
AcDbSymbolTableRecord
100
AcDbLinetypeTableRecord
  2
CENTERX2
 70
     0
  3
Center (2x) ________  __  ________  __  _____
 72
    65
 73
     4
 40
20.32
 49
12.7
 74
     0
 49
-2.54
 74
     0
 49
2.54
 74
     0
 49
-2.54
 74
     0
  0
LTYPE
  5
6E
330
5
100
AcDbSymbolTableRecord
100
AcDbLinetypeTableRecord
  2
DOT2
 70
     0
  3
Dot (.5x) ........................................
 72
    65
 73
     2
 40
0.635
 49
0.0
 74
     0
 49
-0.635
 74
     0
  0
ENDTAB
  0
TABLE
  2
LAYER
  5
2
330
0
100
AcDbSymbolTable
 70
    17
  0
LAYER
  5
10
330
2
100
AcDbSymbolTableRecord
100
AcDbLayerTableRecord
  2
0
 70
     0
 62
     7
  6
Continuous
370
    -3
390
F
  0
LAYER
  5
6F
330
2
100
AcDbSymbolTableRecord
100
AcDbLayerTableRecord
  2
FORMAT
 70
     0
 62
     2
  6
Continuous
370
    -3
390
F
  0
LAYER
  5
70
330
2
100
AcDbSymbolTableRecord
100
AcDbLayerTableRecord
  2
외형선
 70
     0
 62
   100
  6
Continuous
370
    30
390
F
  0
LAYER
  5
71
330
2
100
AcDbSymbolTableRecord
100
AcDbLayerTableRecord
  2
숨은선
 70
     0
 62
     2
  6
HIDDEN
370
    15
390
F
  0
LAYER
  5
72
330
2
100
AcDbSymbolTableRecord
100
AcDbLayerTableRecord
  2
중심선
 70
     0
 62
     1
  6
CENTERX2
370
    -3
390
F
  0
LAYER
  5
73
330
2
100
AcDbSymbolTableRecord
100
AcDbLayerTableRecord
  2
파단선
 70
     0
 62
     4
  6
Continuous
370
    -3
390
F
  0
LAYER
  5
74
330
2
100
AcDbSymbolTableRecord
100
AcDbLayerTableRecord
  2
해칭선
 70
     0
 62
     4
  6
Continuous
370
    -3
390
F
  0
LAYER
  5
75
330
2
100
AcDbSymbolTableRecord
100
AcDbLayerTableRecord
  2
가는실선
 70
     0
 62
     4
  6
Continuous
370
    -3
390
F
  0
LAYER
  5
76
330
2
100
AcDbSymbolTableRecord
100
AcDbLayerTableRecord
  2
치수_보조선
 70
     0
 62
     4
  6
Continuous
370
    -3
390
F
  0
LAYER
  5
77
330
2
100
AcDbSymbolTableRecord
100
AcDbLayerTableRecord
  2
치수문자_일반주서
 70
     0
 62
     7
  6
Continuous
370
    15
390
F
  0
LAYER
  5
78
330
2
100
AcDbSymbolTableRecord
100
AcDbLayerTableRecord
  2
개별주서
 70
     0
 62
   100
  6
Continuous
370
    30
390
F
  0
LAYER
  5
79
330
2
100
AcDbSymbolTableRecord
100
AcDbLayerTableRecord
  2
중간선
 70
     0
 62
     2
  6
Continuous
370
    15
390
F
  0
LAYER
  5
7A
330
2
100
AcDbSymbolTableRecord
100
AcDbLayerTableRecord
  2
윤곽선
 70
     0
 62
     3
  6
Continuous
370
    40
390
F
  0
LAYER
  5
7B
330
2
100
AcDbSymbolTableRecord
100
AcDbLayerTableRecord
  2
중심마크
 70
     0
 62
   100
  6
Continuous
370
    30
390
F
  0
LAYER
  5
7C
330
2
100
AcDbSymbolTableRecord
100
AcDbLayerTableRecord
  2
가상선
 70
     0
 62
     4
  6
PHANTOM
370
    -3
390
F
  0
LAYER
  5
7D
330
2
100
AcDbSymbolTableRecord
100
AcDbLayerTableRecord
  2
특수지정선
 70
     0
 62
     5
  6
CENTERX2
370
    60
390
F
  0
LAYER
  5
13B
330
2
100
AcDbSymbolTableRecord
100
AcDbLayerTableRecord
  2
Defpoints
 70
     0
 62
     7
  6
Continuous
290
     0
370
    -3
390
F
  0
ENDTAB
  0
TABLE
  2
STYLE
  5
3
330
0
100
AcDbSymbolTable
 70
     2
  0
STYLE
  5
11
330
3
100
AcDbSymbolTableRecord
100
AcDbTextStyleTableRecord
  2
Standard
 70
     0
 40
0.0
 41
1.0
 50
0.0
 71
     0
 42
3.5
  3
txt
  4

  0
STYLE
  5
93
330
3
100
AcDbSymbolTableRecord
100
AcDbTextStyleTableRecord
  2
SLDTEXTSTYLE0
 70
     0
 40
0.0
 41
0.75
 50
0.0
 71
     0
 42
3.5
  3
TXT
  4

  0
ENDTAB
  0
TABLE
  2
VIEW
  5
6
330
0
100
AcDbSymbolTable
 70
     0
  0
ENDTAB
  0
TABLE
  2
UCS
  5
7
330
0
100
AcDbSymbolTable
 70
     0
  0
ENDTAB
  0
TABLE
  2
APPID
  5
9
330
0
100
AcDbSymbolTable
 70
     4
  0
APPID
  5
12
330
9
100
AcDbSymbolTableRecord
100
AcDbRegAppTableRecord
  2
ACAD
 70
     0
  0
APPID
  5
142
330
9
100
AcDbSymbolTableRecord
100
AcDbRegAppTableRecord
  2
PE_URL
 70
     0
  0
APPID
  5
14F
330
9
100
AcDbSymbolTableRecord
100
AcDbRegAppTableRecord
  2
ACAD_DSTYLE_DIMFLIPARROW_SYMBOL
 70
     0
  0
APPID
  5
150
330
9
100
AcDbSymbolTableRecord
100
AcDbRegAppTableRecord
  2
ACAD_DSTYLE_DIMFLIPARROW_WHICH_SYMBOL
 70
     0
  0
ENDTAB
  0
TABLE
  2
DIMSTYLE
  5
A
330
0
100
AcDbSymbolTable
 70
     3
100
AcDbDimStyleTable
  0
DIMSTYLE
105
27
330
A
100
AcDbSymbolTableRecord
100
AcDbDimStyleTableRecord
  2
ISO-25
 70
     0
 41
2.5
 42
0.625
 43
3.75
 44
1.25
 73
     0
 74
     0
 77
     1
 78
     8
140
2.5
141
2.5
143
0.03937007874016
147
0.625
171
     3
172
     1
178
     0
271
     2
272
     2
274
     3
278
    44
283
     0
284
     8
340
11
  0
DIMSTYLE
105
E0
102
{ACAD_REACTORS
330
DF
330
ED
330
FA
330
106
102
}
330
A
100
AcDbSymbolTableRecord
100
AcDbDimStyleTableRecord
  2
SLDDIMSTYLE0
 70
     0
 41
3.302
 44
0.0
 45
0.000000001
 73
     0
 74
     0
 77
     1
 78
    12
 79
     3
140
3.5
147
0.875
172
     1
173
     1
178
     0
271
     2
272
     2
276
     2
284
    12
289
     0
340
93
  0
DIMSTYLE
105
107
330
A
100
AcDbSymbolTableRecord
100
AcDbDimStyleTableRecord
  2
SLDDIMSTYLE1
 70
     0
 41
3.302
 44
0.0
 45
0.000000001
 73
     0
 74
     0
 77
     1
 78
    12
 79
     3
140
3.5
147
0.875
173
     1
178
     0
271
     2
272
     2
276
     2
284
    12
340
93
  0
ENDTAB
  0
TABLE
  2
BLOCK_RECORD
  5
1
330
0
100
AcDbSymbolTable
 70
     7
  0
BLOCK_RECORD
  5
1F
330
1
100
AcDbSymbolTableRecord
100
AcDbBlockTableRecord
  2
*Model_Space
340
22
  0
BLOCK_RECORD
  5
1B
330
1
100
AcDbSymbolTableRecord
100
AcDbBlockTableRecord
  2
*Paper_Space
340
1E
  0
BLOCK_RECORD
  5
23
330
1
100
AcDbSymbolTableRecord
100
AcDbBlockTableRecord
  2
*Paper_Space0
340
26
  0
BLOCK_RECORD
  5
7E
330
1
100
AcDbSymbolTableRecord
100
AcDbBlockTableRecord
  2
블럭10
340
0
102
{BLKREFS
331
D8
102
}
  0
BLOCK_RECORD
  5
E1
330
1
100
AcDbSymbolTableRecord
100
AcDbBlockTableRecord
  2
_D
340
0
  0
BLOCK_RECORD
  5
EE
330
1
100
AcDbSymbolTableRecord
100
AcDbBlockTableRecord
  2
_D_1
340
0
  0
BLOCK_RECORD
  5
FB
330
1
100
AcDbSymbolTableRecord
100
AcDbBlockTableRecord
  2
_D_2
340
0
  0
BLOCK_RECORD
  5
108
330
1
100
AcDbSymbolTableRecord
100
AcDbBlockTableRecord
  2
_D_3
340
0
  0
BLOCK_RECORD
  5
111
330
1
100
AcDbSymbolTableRecord
100
AcDbBlockTableRecord
  2
SW_DOWELSYMBOL_0
340
0
102
{BLKREFS
331
117
102
}
  0
ENDTAB
  0
ENDSEC
  0
SECTION
  2
BLOCKS
  0
BLOCK
  5
20
330
1F
100
AcDbEntity
  8
0
100
AcDbBlockBegin
  2
*Model_Space
 70
     0
 10
0.0
 20
0.0
 30
0.0
  3
*Model_Space
  1

  0
ENDBLK
  5
21
330
1F
100
AcDbEntity
  8
0
100
AcDbBlockEnd
  0
BLOCK
  5
1C
330
1B
100
AcDbEntity
 67
     1
  8
0
100
AcDbBlockBegin
  2
*Paper_Space
 70
     0
 10
0.0
 20
0.0
 30
0.0
  3
*Paper_Space
  1

  0
ENDBLK
  5
1D
330
1B
100
AcDbEntity
 67
     1
  8
0
100
AcDbBlockEnd
  0
BLOCK
  5
24
330
23
100
AcDbEntity
  8
0
100
AcDbBlockBegin
  2
*Paper_Space0
 70
     0
 10
0.0
 20
0.0
 30
0.0
  3
*Paper_Space0
  1

  0
ENDBLK
  5
25
330
23
100
AcDbEntity
  8
0
100
AcDbBlockEnd
  0
BLOCK
  5
7F
330
7E
100
AcDbEntity
  8
0
100
AcDbBlockBegin
  2
블럭10
 70
     2
 10
0.0
 20
0.0
 30
0.0
  3
블럭10
  1

  0
ELLIPSE
  5
81
330
7E
100
AcDbEntity
  8
중심선
100
AcDbEllipse
 10
20.54032771741204
 20
12.0471743016438
 30
0.0
 11
6.600054785286829
 21
-1.261213355974178E-13
 31
0.0
210
0.0
220
0.0
230
1.0
 40
0.636358354079598
 41
0.9219305317359503
 42
6.513795318482858
  0
ELLIPSE
  5
82
330
7E
100
AcDbEntity
  8
중심선
100
AcDbEllipse
 10
20.54032771746488
 20
12.04717430159265
 30
0.0
 11
3.960054785062283
 21
1.540847449632565E-10
 31
0.0
210
0.0
220
0.0
230
1.0
 40
0.3939339440162632
 41
1.131841032648279
 42
5.62031148352944
  0
LINE
  5
83
330
7E
100
AcDbEntity
  8
중심선
100
AcDbLine
 10
2.268634060543552
 20
16.24717430164393
 30
0.0
 11
5.714909304380834
 21
16.24717430164393
 31
0.0
  0
LINE
  5
84
330
7E
100
AcDbEntity
  8
중심선
100
AcDbLine
 10
5.245725140726316
 20
7.84717430164391
 30
0.0
 11
8.692000384563599
 21
7.84717430164391
 31
0.0
  0
LINE
  5
85
330
7E
100
AcDbEntity
  8
중심선
100
AcDbLine
 10
15.74043728645272
 20
16.24717430164393
 30
0.0
 11
8.692000384563599
 21
7.84717430164391
 31
0.0
  0
LINE
  5
86
330
7E
100
AcDbEntity
  8
중심선
100
AcDbLine
 10
0.1404042013395286
 20
13.71084872107135
 30
0.0
 11
3.58671253028996
 21
13.71088815037384
 31
0.0
  0
LINE
  5
87
330
7E
100
AcDbEntity
  8
중심선
100
AcDbLine
 10
2.750260043222114
 20
10.84717430164391
 30
0.0
 11
6.196535287059397
 21
10.84717430164391
 31
0.0
  0
LINE
  5
88
330
7E
100
AcDbEntity
  8
중심선
100
AcDbLine
 10
12.29416204261559
 20
16.24717430164393
 30
0.0
 11
5.245725140726316
 21
7.84717430164391
 31
0.0
  0
LINE
  5
89
330
7E
100
AcDbEntity
  8
중심선
100
AcDbLine
 10
10.72767329541681
 20
16.24717430164393
 30
0.0
 11
6.196535287059397
 21
10.84717430164391
 31
0.0
  0
LINE
  5
8A
330
7E
100
AcDbEntity
  8
중심선
100
AcDbLine
 10
7.28139805157953
 20
16.24717430164393
 30
0.0
 11
2.750260043222114
 21
10.84717430164391
 31
0.0
  0
LINE
  5
8B
330
7E
100
AcDbEntity
  8
중심선
100
AcDbLine
 10
5.714909304380834
 20
16.24717430164393
 30
0.0
 11
3.58671253028996
 21
13.71088815037384
 31
0.0
  0
LINE
  5
8C
330
7E
100
AcDbEntity
  8
중심선
100
AcDbLine
 10
2.268634060543552
 20
16.24717430164393
 30
0.0
 11
0.1404042013395286
 21
13.71084872107135
 31
0.0
  0
LINE
  5
8D
330
7E
100
AcDbEntity
  8
중심선
100
AcDbLine
 10
7.28139805157953
 20
16.24717430164393
 30
0.0
 11
10.72767329541681
 21
16.24717430164393
 31
0.0
  0
LINE
  5
8E
330
7E
100
AcDbEntity
  8
중심선
100
AcDbLine
 10
12.29416204261559
 20
16.24717430164393
 30
0.0
 11
15.74043728645272
 21
16.24717430164393
 31
0.0
  0
LINE
  5
8F
330
7E
100
AcDbEntity
  8
중심선
100
AcDbLine
 10
19.22036997980202
 20
11.08717430171403
 30
0.0
 11
23.66174974927406
 21
11.08717430171406
 31
0.0
  0
LINE
  5
90
330
7E
100
AcDbEntity
  8
중심선
100
AcDbLine
 10
19.22039502424796
 20
13.00717430171391
 30
0.0
 11
19.22036997980202
 21
11.08717430171403
 31
0.0
  0
LINE
  5
91
330
7E
100
AcDbEntity
  8
중심선
100
AcDbLine
 10
19.22039502424796
 20
13.00717430171391
 30
0.0
 11
26.96566020931264
 21
13.00717430171391
 31
0.0
  0
LINE
  5
92
330
7E
100
AcDbEntity
  8
중심선
100
AcDbLine
 10
22.22332737316547
 20
13.45928029700563
 30
0.0
 11
24.52862924686651
 21
15.39360700705356
 31
0.0
  0
ATTDEF
  5
94
330
7E
100
AcDbEntity
  8
FORMAT
 62
     2
100
AcDbText
 10
-12.95993919485777
 20
2.075366912832191
 30
0.0
 40
4.233333333333333
  1
SEME75060E [ 6 FLUTE ]
 41
0.75
  7
SLDTEXTSTYLE0
 11
-12.95993919485777
 21
-0.0412997538344756
 31
0.0
100
AcDbAttributeDefinition
  3

  2
AUTOATTR0
 70
     0
 74
     1
  0
ENDBLK
  5
80
330
7E
100
AcDbEntity
  8
0
100
AcDbBlockEnd
  0
BLOCK
  5
E2
330
E1
100
AcDbEntity
  8
0
100
AcDbBlockBegin
  2
_D
 70
     0
 10
0.0
 20
0.0
 30
0.0
  3
_D
  1

  0
LINE
  5
E4
330
E1
100
AcDbEntity
  8
치수문자_일반주서
 62
     0
370
    -2
100
AcDbLine
 10
-28.45988862341601
 20
3.002149857447785
 30
0.0
 11
-47.02629475473945
 21
3.002149857447716
 31
0.0
  0
LINE
  5
E5
330
E1
100
AcDbEntity
  8
치수문자_일반주서
 62
     0
370
    -2
100
AcDbLine
 10
-28.45988862341601
 20
-2.99785014255222
 30
0.0
 11
-47.02629475473943
 21
-2.99785014255229
 31
0.0
  0
LINE
  5
E6
330
E1
100
AcDbEntity
  8
치수문자_일반주서
 62
     0
370
    -2
100
AcDbLine
 10
-47.02629475473944
 20
-0.2998501425522839
 30
0.0
 11
-47.02629475473945
 21
0.3041498574477099
 31
0.0
  0
SOLID
  5
E7
330
E1
100
AcDbEntity
  8
치수문자_일반주서
 62
     0
100
AcDbTrace
 10
-46.4759614214061
 20
-0.299850142552282
 30
0.0
 11
-47.57662808807277
 21
-0.2998501425522859
 31
0.0
 12
-47.02629475473945
 22
3.002149857447716
 32
0.0
 13
-47.02629475473945
 23
3.002149857447716
 33
0.0
  0
SOLID
  5
E8
330
E1
100
AcDbEntity
  8
치수문자_일반주서
 62
     0
100
AcDbTrace
 10
-47.57662808807278
 20
0.304149857447708
 30
0.0
 11
-46.47596142140611
 21
0.3041498574477119
 31
0.0
 12
-47.02629475473943
 22
-2.99785014255229
 32
0.0
 13
-47.02629475473943
 23
-2.99785014255229
 33
0.0
  0
MTEXT
  5
E9
330
E1
100
AcDbEntity
  8
치수문자_일반주서
 62
     0
100
AcDbMText
 10
-51.40129475473945
 20
0.0021498574477685
 30
0.0
 40
3.5
 41
0.0
 71
     2
 72
     1
  1
\A1;%%c6
  7
SLDTEXTSTYLE0
 11
-3.552713678800498E-15
 21
1.0
 31
0.0
 73
     1
 44
1.0
  0
POINT
  5
EA
330
E1
100
AcDbEntity
  8
Defpoints
 62
     0
100
AcDbPoint
 10
-28.39738862341601
 20
3.002149857447785
 30
0.0
  0
POINT
  5
EB
330
E1
100
AcDbEntity
  8
Defpoints
 62
     0
100
AcDbPoint
 10
-28.39738862341601
 20
-2.99785014255222
 30
0.0
  0
POINT
  5
EC
330
E1
100
AcDbEntity
  8
Defpoints
 62
     0
100
AcDbPoint
 10
-47.02629475473945
 20
-2.99785014255229
 30
0.0
  0
ENDBLK
  5
E3
330
E1
100
AcDbEntity
  8
0
100
AcDbBlockEnd
  0
BLOCK
  5
EF
330
EE
100
AcDbEntity
  8
0
100
AcDbBlockBegin
  2
_D_1
 70
     0
 10
0.0
 20
0.0
 30
0.0
  3
_D_1
  1

  0
LINE
  5
F1
330
EE
100
AcDbEntity
  8
치수문자_일반주서
 62
     0
370
    -2
100
AcDbLine
 10
31.06511137658397
 20
3.002149857447783
 30
0.0
 11
41.00261137658395
 21
3.00214985744782
 31
0.0
  0
LINE
  5
F2
330
EE
100
AcDbEntity
  8
치수문자_일반주서
 62
     0
370
    -2
100
AcDbLine
 10
31.06511137658397
 20
-2.997850142552217
 30
0.0
 11
41.00261137658397
 21
-2.99785014255218
 31
0.0
  0
LINE
  5
F3
330
EE
100
AcDbEntity
  8
치수문자_일반주서
 62
     0
370
    -2
100
AcDbLine
 10
41.00261137658395
 20
3.00214985744782
 30
0.0
 11
41.00261137658397
 21
-2.99785014255218
 31
0.0
  0
LINE
  5
F4
330
EE
100
AcDbEntity
  8
치수문자_일반주서
 62
     0
370
    -2
100
AcDbLine
 10
41.00261137658394
 20
6.304149857447819
 30
0.0
 11
41.00261137658392
 21
9.606149857447818
 31
0.0
  0
LINE
  5
F5
330
EE
100
AcDbEntity
  8
치수문자_일반주서
 62
     0
370
    -2
100
AcDbLine
 10
41.00261137658399
 20
-6.29985014255218
 30
0.0
 11
41.002611376584
 21
-9.60185014255218
 31
0.0
  0
SOLID
  5
F6
330
EE
100
AcDbEntity
  8
치수문자_일반주서
 62
     0
100
AcDbTrace
 10
40.4522780432506
 20
6.304149857447817
 30
0.0
 11
41.55294470991727
 21
6.304149857447821
 31
0.0
 12
41.00261137658395
 22
3.00214985744782
 32
0.0
 13
41.00261137658395
 23
3.00214985744782
 33
0.0
  0
SOLID
  5
F7
330
EE
100
AcDbEntity
  8
치수문자_일반주서
 62
     0
100
AcDbTrace
 10
41.55294470991732
 20
-6.299850142552178
 30
0.0
 11
40.45227804325065
 21
-6.299850142552182
 31
0.0
 12
41.00261137658397
 22
-2.99785014255218
 32
0.0
 13
41.00261137658397
 23
-2.99785014255218
 33
0.0
  0
MTEXT
  5
F8
330
EE
100
AcDbEntity
  8
치수문자_일반주서
 62
     0
100
AcDbMText
 10
36.62761137658396
 20
0.3978083075053628
 30
0.0
 40
3.5
 41
0.0
 71
     2
 72
     1
  1
\A1;%%c6
  7
SLDTEXTSTYLE0
 11
-3.552713678800501E-15
 21
1.0
 31
0.0
 73
     1
 44
1.0
  0
POINT
  5
F9
330
EE
100
AcDbEntity
  8
Defpoints
 62
     0
100
AcDbPoint
 10
31.00261137658397
 20
3.002149857447783
 30
0.0
  0
POINT
  5
140
330
EE
100
AcDbEntity
  8
Defpoints
 62
     0
100
AcDbPoint
 10
31.00261137658397
 20
-2.997850142552218
 30
0.0
  0
POINT
  5
141
330
EE
100
AcDbEntity
  8
Defpoints
 62
     0
100
AcDbPoint
 10
41.00261137658396
 20
-2.99785014255218
 30
0.0
  0
ENDBLK
  5
F0
330
EE
100
AcDbEntity
  8
0
100
AcDbBlockEnd
  0
BLOCK
  5
FC
330
FB
100
AcDbEntity
  8
0
100
AcDbBlockBegin
  2
_D_2
 70
     0
 10
0.0
 20
0.0
 30
0.0
  3
_D_2
  1

  0
LINE
  5
FE
330
FB
100
AcDbEntity
  8
치수문자_일반주서
 62
     0
370
    -2
100
AcDbLine
 10
16.00261137658396
 20
3.044740463471431
 30
0.0
 11
16.00261137658396
 21
46.47708108211323
 31
0.0
  0
LINE
  5
FF
330
FB
100
AcDbEntity
  8
치수문자_일반주서
 62
     0
370
    -2
100
AcDbLine
 10
31.00261137658397
 20
3.042757510160796
 30
0.0
 11
31.00261137658397
 21
46.47708108211323
 31
0.0
  0
LINE
  5
100
330
FB
100
AcDbEntity
  8
치수문자_일반주서
 62
     0
370
    -2
100
AcDbLine
 10
19.30461137658396
 20
46.47708108211323
 30
0.0
 11
27.70061137658397
 21
46.47708108211323
 31
0.0
  0
SOLID
  5
101
330
FB
100
AcDbEntity
  8
치수문자_일반주서
 62
     0
100
AcDbTrace
 10
19.30461137658396
 20
47.02741441544656
 30
0.0
 11
19.30461137658396
 21
45.9267477487799
 31
0.0
 12
16.00261137658396
 22
46.47708108211323
 32
0.0
 13
16.00261137658396
 23
46.47708108211323
 33
0.0
  0
SOLID
  5
102
330
FB
100
AcDbEntity
  8
치수문자_일반주서
 62
     0
100
AcDbTrace
 10
27.70061137658397
 20
45.9267477487799
 30
0.0
 11
27.70061137658397
 21
47.02741441544656
 31
0.0
 12
31.00261137658397
 22
46.47708108211323
 32
0.0
 13
31.00261137658397
 23
46.47708108211323
 33
0.0
  0
MTEXT
  5
103
330
FB
100
AcDbEntity
  8
치수문자_일반주서
 62
     0
100
AcDbMText
 10
22.1413595412036
 20
50.85208108211323
 30
0.0
 40
3.5
 41
0.0
 71
     2
 72
     1
  1
\A1;15
  7
SLDTEXTSTYLE0
 73
     1
 44
1.0
  0
POINT
  5
104
330
FB
100
AcDbEntity
  8
Defpoints
 62
     0
100
AcDbPoint
 10
16.00261137658396
 20
2.982240463471431
 30
0.0
  0
POINT
  5
105
330
FB
100
AcDbEntity
  8
Defpoints
 62
     0
100
AcDbPoint
 10
31.00261137658397
 20
2.980257510160796
 30
0.0
  0
POINT
  5
143
330
FB
100
AcDbEntity
  8
Defpoints
 62
     0
100
AcDbPoint
 10
31.00261137658397
 20
46.47708108211323
 30
0.0
  0
ENDBLK
  5
FD
330
FB
100
AcDbEntity
  8
0
100
AcDbBlockEnd
  0
BLOCK
  5
109
330
108
100
AcDbEntity
  8
0
100
AcDbBlockBegin
  2
_D_3
 70
     0
 10
0.0
 20
0.0
 30
0.0
  3
_D_3
  1

  0
LINE
  5
10B
330
108
100
AcDbEntity
  8
치수문자_일반주서
 62
     0
370
    -2
100
AcDbLine
 10
31.00261137658397
 20
3.042757510160796
 30
0.0
 11
31.00261137658397
 21
73.92494017103044
 31
0.0
  0
LINE
  5
10C
330
108
100
AcDbEntity
  8
치수문자_일반주서
 62
     0
370
    -2
100
AcDbLine
 10
-28.99738862341602
 20
2.464649857447784
 30
0.0
 11
-28.99738862341602
 21
73.92494017103044
 31
0.0
  0
LINE
  5
10D
330
108
100
AcDbEntity
  8
치수문자_일반주서
 62
     0
370
    -2
100
AcDbLine
 10
27.70061137658397
 20
73.92494017103044
 30
0.0
 11
-25.69538862341602
 21
73.92494017103044
 31
0.0
  0
SOLID
  5
10E
330
108
100
AcDbEntity
  8
치수문자_일반주서
 62
     0
100
AcDbTrace
 10
27.70061137658397
 20
73.37460683769712
 30
0.0
 11
27.70061137658397
 21
74.47527350436377
 31
0.0
 12
31.00261137658397
 22
73.92494017103044
 32
0.0
 13
31.00261137658397
 23
73.92494017103044
 33
0.0
  0
SOLID
  5
10F
330
108
100
AcDbEntity
  8
치수문자_일반주서
 62
     0
100
AcDbTrace
 10
-25.69538862341602
 20
74.47527350436377
 30
0.0
 11
-25.69538862341602
 21
73.37460683769712
 31
0.0
 12
-28.99738862341602
 22
73.92494017103044
 32
0.0
 13
-28.99738862341602
 23
73.92494017103044
 33
0.0
  0
MTEXT
  5
110
330
108
100
AcDbEntity
  8
치수문자_일반주서
 62
     0
100
AcDbMText
 10
2.861509295640282
 20
78.29994017103044
 30
0.0
 40
3.5
 41
0.0
 71
     2
 72
     1
  1
\A1;60
  7
SLDTEXTSTYLE0
 73
     1
 44
1.0
  0
POINT
  5
144
330
108
100
AcDbEntity
  8
Defpoints
 62
     0
100
AcDbPoint
 10
31.00261137658397
 20
2.980257510160796
 30
0.0
  0
POINT
  5
145
330
108
100
AcDbEntity
  8
Defpoints
 62
     0
100
AcDbPoint
 10
-28.99738862341602
 20
2.402149857447784
 30
0.0
  0
POINT
  5
146
330
108
100
AcDbEntity
  8
Defpoints
 62
     0
100
AcDbPoint
 10
-28.99738862341602
 20
73.92494017103044
 30
0.0
  0
ENDBLK
  5
10A
330
108
100
AcDbEntity
  8
0
100
AcDbBlockEnd
  0
BLOCK
  5
112
330
111
100
AcDbEntity
  8
0
100
AcDbBlockBegin
  2
SW_DOWELSYMBOL_0
 70
     0
 10
0.0
 20
0.0
 30
0.0
  3
SW_DOWELSYMBOL_0
  1

  0
CIRCLE
  5
114
330
111
100
AcDbEntity
  8
외형선
 62
     0
100
AcDbCircle
 10
0.0
 20
0.0
 30
0.0
 40
3.000000000000002
  0
HATCH
  5
115
330
111
100
AcDbEntity
  8
0
  6
Continuous
 62
     0
370
    30
100
AcDbHatch
 10
0.0
 20
0.0
 30
0.0
210
0.0
220
0.0
230
1.0
  2
SOLID
 70
     1
 71
     0
 91
        1
 92
        0
 93
        3
 72
     2
 10
0.0
 20
0.0
 40
3.000000000000002
 50
0.0
 51
90.0
 73
     1
 72
     1
 10
0.0
 20
3.000000000000002
 11
0.0
 21
0.0
 72
     1
 10
0.0
 20
0.0
 11
3.000000000000002
 21
0.0
 97
        0
 75
     0
 76
     1
 98
        1
 10
0.0
 20
0.0
  0
HATCH
  5
116
330
111
100
AcDbEntity
  8
0
  6
Continuous
 62
     0
370
    30
100
AcDbHatch
 10
0.0
 20
0.0
 30
0.0
210
0.0
220
0.0
230
1.0
  2
SOLID
 70
     1
 71
     0
 91
        1
 92
        0
 93
        3
 72
     2
 10
0.0
 20
0.0
 40
3.000000000000002
 50
180.0
 51
270.0000000000008
 73
     1
 72
     1
 10
0.0
 20
-3.000000000000002
 11
0.0
 21
0.0
 72
     1
 10
0.0
 20
0.0
 11
-3.000000000000002
 21
0.0
 97
        0
 75
     0
 76
     1
 98
        1
 10
0.0
 20
0.0
  0
ENDBLK
  5
113
330
111
100
AcDbEntity
  8
0
100
AcDbBlockEnd
  0
ENDSEC
  0
SECTION
  2
ENTITIES
  0
LINE
  5
95
330
1F
100
AcDbEntity
  8
0
  6
Continuous
 62
     1
370
    15
100
AcDbLine
 10
24.07986226324228
 20
-0.5631335000832939
 30
0.0
 11
24.11604503876514
 21
-0.5979046407713973
 31
0.0
1001
PE_URL
1000

  0
LINE
  5
96
330
1F
100
AcDbEntity
  8
0
  6
Continuous
 62
     1
370
    15
100
AcDbLine
 10
25.36036493846425
 20
0.5666896815017072
 30
0.0
 11
25.3239257131729
 21
0.6019117876533656
 31
0.0
1001
PE_URL
1000

  0
LINE
  5
97
330
1F
100
AcDbEntity
  8
0
  6
Continuous
 62
     1
370
    15
100
AcDbLine
 10
27.21899590587491
 20
-0.5614074792480223
 30
0.0
 11
27.25674536660967
 21
-0.5978353548239977
 31
0.0
1001
PE_URL
1000

  0
LINE
  5
98
330
1F
100
AcDbEntity
  8
0
  6
Continuous
 62
   131
370
    15
100
AcDbLine
 10
16.14111186389493
 20
0.3618352806611335
 30
0.0
 11
16.00261137658399
 21
0.4924543443217227
 31
0.0
  0
LINE
  5
99
330
1F
100
AcDbEntity
  8
0
  6
Continuous
 62
     1
370
    15
100
AcDbLine
 10
27.49870671991513
 20
-2.997850142552218
 30
0.0
 11
28.22329573780873
 21
-2.997850142552218
 31
0.0
1001
PE_URL
1000

  0
LINE
  5
9A
330
1F
100
AcDbEntity
  8
0
  6
Continuous
 62
     1
370
    15
100
AcDbLine
 10
18.79872662466457
 20
3.002149857447783
 30
0.0
 11
18.07377959414613
 21
3.002149857447783
 31
0.0
1001
PE_URL
1000

  0
LINE
  5
9B
330
1F
100
AcDbEntity
  8
0
  6
Continuous
 62
     1
370
    15
100
AcDbLine
 10
21.21451593337906
 20
-2.997850142552218
 30
0.0
 11
21.9403354432705
 21
-2.997850142552218
 31
0.0
1001
PE_URL
1000

  0
LINE
  5
9C
330
1F
100
AcDbEntity
  8
0
  6
Continuous
 62
     1
370
    15
100
AcDbLine
 10
31.00261137658397
 20
3.002149857447783
 30
0.0
 11
30.63953971647027
 21
3.002149857447783
 31
0.0
1001
PE_URL
1000

  0
LINE
  5
9D
330
1F
100
AcDbEntity
  8
0
  6
Continuous
 62
     1
370
    15
100
AcDbLine
 10
30.63953971647027
 20
-2.997850142552218
 30
0.0
 11
31.00261137658397
 21
-2.997850142552218
 31
0.0
1001
PE_URL
1000

  0
LINE
  5
9E
330
1F
100
AcDbEntity
  8
0
  6
Continuous
 62
     1
370
    15
100
AcDbLine
 10
21.94033544327052
 20
3.002149857447783
 30
0.0
 11
21.21451593337905
 21
3.002149857447783
 31
0.0
1001
PE_URL
1000

  0
LINE
  5
9F
330
1F
100
AcDbEntity
  8
0
  6
Continuous
 62
     1
370
    15
100
AcDbLine
 10
25.08221679002519
 20
3.002149857447783
 30
0.0
 11
24.35715132675034
 21
3.002149857447783
 31
0.0
1001
PE_URL
1000

  0
LINE
  5
A0
330
1F
100
AcDbEntity
  8
0
  6
Continuous
 62
     1
370
    15
100
AcDbLine
 10
24.35715132675032
 20
-2.997850142552218
 30
0.0
 11
25.08221679002517
 21
-2.997850142552218
 31
0.0
1001
PE_URL
1000

  0
LINE
  5
A1
330
1F
100
AcDbEntity
  8
0
  6
Continuous
 62
     1
370
    15
100
AcDbLine
 10
18.07377959414616
 20
-2.997850142552218
 30
0.0
 11
18.79872662466457
 21
-2.997850142552218
 31
0.0
1001
PE_URL
1000

  0
LINE
  5
A2
330
1F
100
AcDbEntity
  8
0
  6
Continuous
 62
     1
370
    15
100
AcDbLine
 10
28.22329573780873
 20
3.002149857447783
 30
0.0
 11
27.49870671991516
 21
3.002149857447783
 31
0.0
1001
PE_URL
1000

  0
LINE
  5
A3
330
1F
100
AcDbEntity
  8
0
  6
Continuous
 62
   131
370
    15
100
AcDbLine
 10
-28.39738862341602
 20
-2.997850142552217
 30
0.0
 11
15.65719279713263
 21
-2.997850142552217
 31
0.0
  0
LINE
  5
A4
330
1F
100
AcDbEntity
  8
0
  6
Continuous
 62
   131
370
    15
100
AcDbLine
 10
15.65719279713262
 20
3.002149857447782
 30
0.0
 11
-28.39738862341602
 21
3.002149857447782
 31
0.0
  0
LINE
  5
A5
330
1F
100
AcDbEntity
  8
0
  6
Continuous
 62
   131
370
    15
100
AcDbLine
 10
-28.39738862341602
 20
3.002149857447783
 30
0.0
 11
-28.99738862341602
 21
2.402149857447784
 31
0.0
  0
LINE
  5
A6
330
1F
100
AcDbEntity
  8
0
  6
Continuous
 62
   131
370
    15
100
AcDbLine
 10
-28.99738862341602
 20
-2.397850142552219
 30
0.0
 11
-28.39738862341602
 21
-2.997850142552218
 31
0.0
  0
SPLINE
  5
A7
330
1F
100
AcDbEntity
  8
0
  6
Continuous
 62
     1
370
    15
100
AcDbSpline
210
0.0
220
0.0
230
1.0
 70
     8
 71
     3
 72
    24
 73
    20
 74
     0
 42
0.000000001
 43
0.00000001
 40
0.0
 40
0.0
 40
0.0
 40
0.0
 40
0.0191106118285758
 40
0.0818921544751648
 40
0.1446313489911996
 40
0.2072333660708613
 40
0.2699183690089949
 40
0.3327380332808602
 40
0.3953705956636757
 40
0.4579942407561988
 40
0.5208049674513151
 40
0.5835062680053494
 40
0.6461068030277961
 40
0.7088267881121506
 40
0.7716243707236685
 40
0.8342401858618953
 40
0.8968836835572302
 40
0.9597090111385354
 40
1.0
 40
1.0
 40
1.0
 40
1.0
 10
18.79872662466457
 20
2.988745165354803
 30
0.0
 10
18.86636334833739
 20
2.992358273816548
 30
0.0
 10
19.15619797387912
 20
3.007841045322707
 30
0.0
 10
19.66967010420699
 20
2.89462015672167
 30
0.0
 10
20.33667255119455
 20
2.64024152451279
 30
0.0
 10
21.00231132956752
 20
2.246284625185262
 30
0.0
 10
21.66880913830064
 20
1.744521543863053
 30
0.0
 10
22.33679915007692
 20
1.157535250041762
 30
0.0
 10
23.00275027909857
 20
0.5125099038152281
 30
0.0
 10
23.66860620365131
 20
-0.1577554392291454
 30
0.0
 10
24.3364954237681
 20
-0.8186293785129163
 30
0.0
 10
25.00317445311494
 20
-1.440195032329373
 30
0.0
 10
25.66877152540091
 20
-1.99110018172986
 30
0.0
 10
26.33565415112345
 20
-2.443546591948382
 30
0.0
 10
27.0033952034695
 20
-2.775070098388103
 30
0.0
 10
27.66917374285558
 20
-2.972122669909389
 30
0.0
 10
28.33521197965355
 20
-3.017007101355195
 30
0.0
 10
28.92389806958653
 20
-2.944196809624962
 30
0.0
 10
29.28916385670482
 20
-2.798975404001793
 30
0.0
 10
29.43188539940486
 20
-2.742232550511126
 30
0.0
  0
SPLINE
  5
A8
330
1F
100
AcDbEntity
  8
0
  6
Continuous
 62
     1
370
    15
100
AcDbSpline
210
0.0
220
0.0
230
1.0
 70
     8
 71
     3
 72
    24
 73
    20
 74
     0
 42
0.000000001
 43
0.00000001
 40
0.0
 40
0.0
 40
0.0
 40
0.0
 40
0.0286326104078069
 40
0.0912396784635536
 40
0.1539110038900808
 40
0.2167382704488964
 40
0.2793837015099275
 40
0.3420014491594839
 40
0.404800969892219
 40
0.4675228907029003
 40
0.5301253577650873
 40
0.5928285934687857
 40
0.6556412586907853
 40
0.7182668365362945
 40
0.7809013319473083
 40
0.8437229350218979
 40
0.9064098726067029
 40
0.9690138217718457
 40
1.0
 40
1.0
 40
1.0
 40
1.0
 10
30.63953971647027
 20
-2.979475115620773
 30
0.0
 10
30.53798792514959
 20
-2.983529135835347
 30
0.0
 10
30.21438652606201
 20
-2.996447535366308
 30
0.0
 10
29.66965079137252
 20
-2.86045914604442
 30
0.0
 10
29.00327923185611
 20
-2.584339805893532
 30
0.0
 10
28.33523721891618
 20
-2.173614450147726
 30
0.0
 10
27.66916699219986
 20
-1.657147415505864
 30
0.0
 10
27.00339701809897
 20
-1.058209100318196
 30
0.0
 10
26.33565366416554
 20
-0.4086281283733816
 30
0.0
 10
25.66877165841218
 20
0.2618957278476511
 30
0.0
 10
25.00317440669784
 20
0.9202211216907903
 30
0.0
 10
24.33649547644588
 20
1.532933036444793
 30
0.0
 10
23.66860603938647
 20
2.06955527724353
 30
0.0
 10
23.00275088147413
 20
2.505829355513907
 30
0.0
 10
22.33679690089426
 20
2.818150876867511
 30
0.0
 10
21.66881755204452
 20
2.993462272093841
 30
0.0
 10
21.0022800247647
 20
3.014915722817069
 30
0.0
 10
20.44917776821124
 20
2.931541847937714
 30
0.0
 10
20.11729939437639
 20
2.791490816803007
 30
0.0
 10
20.00741982985245
 20
2.74512218442002
 30
0.0
1001
PE_URL
1000

  0
LINE
  5
A9
330
1F
100
AcDbEntity
  8
0
  6
Continuous
 62
     1
370
    15
100
AcDbLine
 10
31.00261137658397
 20
-2.975957795265228
 30
0.0
 11
31.00261137658397
 21
-1.800202718729287
 31
0.0
1001
PE_URL
1000

  0
SPLINE
  5
AA
330
1F
100
AcDbEntity
  8
0
  6
Continuous
 62
     1
370
    15
100
AcDbSpline
210
0.0
220
0.0
230
1.0
 70
     8
 71
     3
 72
    21
 73
    17
 74
     0
 42
0.000000001
 43
0.00000001
 40
0.0
 40
0.0
 40
0.0
 40
0.0
 40
0.0437462570162374
 40
0.1172335564594942
 40
0.1907103931728704
 40
0.2644067342658705
 40
0.337974684769524
 40
0.411424406248025
 40
0.4850142794644394
 40
0.5586951984962856
 40
0.6321628482600288
 40
0.7056629781952062
 40
0.7793764506277951
 40
0.85290696169686
 40
0.9263620813922596
 40
1.0
 40
1.0
 40
1.0
 40
1.0
 10
21.94033544327052
 20
2.98426529930185
 30
0.0
 10
22.07264634532147
 20
2.986233505887884
 30
0.0
 10
22.42722016863254
 20
2.991508011037936
 30
0.0
 10
23.00274878966177
 20
2.835253615043953
 30
0.0
 10
23.66860660191607
 20
2.539173142870128
 30
0.0
 10
24.33649532519377
 20
2.112710956678092
 30
0.0
 10
25.00317444942041
 20
1.583630848307329
 30
0.0
 10
25.66877163837557
 20
0.9758344429953576
 30
0.0
 10
26.33565370163485
 20
0.3208040431363565
 30
0.0
 10
27.00339688829798
 20
-0.3491609792549298
 30
0.0
 10
27.66916747245548
 20
-1.003301356032978
 30
0.0
 10
28.33523542404792
 20
-1.607585819794095
 30
0.0
 10
29.00328594474488
 20
-2.132217365437353
 30
0.0
 10
29.66962582104264
 20
-2.550216196974398
 30
0.0
 10
30.33527661703162
 20
-2.853065786329271
 30
0.0
 10
30.77998223839801
 20
-2.934959867841656
 30
0.0
 10
31.00261137658396
 20
-2.975957795265228
 30
0.0
1001
PE_URL
1000

  0
SPLINE
  5
AB
330
1F
100
AcDbEntity
  8
0
  6
Continuous
 62
     1
370
    15
100
AcDbSpline
210
0.0
220
0.0
230
1.0
 70
     8
 71
     3
 72
    19
 73
    15
 74
     0
 42
0.000000001
 43
0.00000001
 40
0.0
 40
0.0
 40
0.0
 40
0.0
 40
0.0849716400119494
 40
0.1697323462595037
 40
0.2545800474790013
 40
0.3396388699171772
 40
0.4244515139973544
 40
0.5092266788346791
 40
0.5942479375298616
 40
0.6791641374129598
 40
0.7639186145960383
 40
0.8488095176090964
 40
0.9338485719977675
 40
1.0
 40
1.0
 40
1.0
 40
1.0
 10
31.00261137658398
 20
-1.800202718729287
 30
0.0
 10
30.77998223837618
 20
-1.613937785655527
 30
0.0
 10
30.33527661696613
 20
-1.241870303940068
 30
0.0
 10
29.66962582130397
 20
-0.5977058436839433
 30
0.0
 10
29.00328594376276
 20
0.0694398112633016
 30
0.0
 10
28.33523542772011
 20
0.733570641100537
 30
0.0
 10
27.66916745879828
 20
1.362848725212978
 30
0.0
 10
27.00339693930946
 20
1.925247216224994
 30
0.0
 10
26.33565351073779
 20
2.39207868164238
 30
0.0
 10
25.6687723491932
 20
2.741709338763498
 30
0.0
 10
25.00317180034518
 20
2.957892241518761
 30
0.0
 10
24.33650523735616
 20
3.024161781023884
 30
0.0
 10
23.7174340154664
 20
2.962877197432356
 30
0.0
 10
23.32203216458008
 20
2.815141339404244
 30
0.0
 10
23.149029230419
 20
2.750501437334042
 30
0.0
1001
PE_URL
1000

  0
SPLINE
  5
AC
330
1F
100
AcDbEntity
  8
0
  6
Continuous
 62
     1
370
    15
100
AcDbSpline
210
0.0
220
0.0
230
1.0
 70
     8
 71
     3
 72
    19
 73
    15
 74
     0
 42
0.000000001
 43
0.00000001
 40
0.0
 40
0.0
 40
0.0
 40
0.0
 40
0.0841197264871693
 40
0.167904562112117
 40
0.2519336742259067
 40
0.3359472209681447
 40
0.4197343105989826
 40
0.513138875295938
 40
0.6064804356681605
 40
0.6996179074151193
 40
0.7928788431239339
 40
0.8863401240732204
 40
0.9795230402394198
 40
1.0
 40
1.0
 40
1.0
 40
1.0
 10
16.00261137658397
 20
1.19337249579508
 30
0.0
 10
16.20329414095543
 20
1.005193030213548
 30
0.0
 10
16.6038607272053
 20
0.6295832643903237
 30
0.0
 10
17.20261974975713
 20
0.0260757095670046
 30
0.0
 10
17.80303874142107
 20
-0.5728566948877033
 30
0.0
 10
18.40333109345852
 20
-1.15000623202094
 30
0.0
 10
19.02419042421489
 20
-1.702236798066178
 30
0.0
 10
19.66964682871544
 20
-2.196355633931662
 30
0.0
 10
20.33667815056293
 20
-2.60024042480882
 30
0.0
 10
21.00231213755237
 20
-2.875639704408165
 30
0.0
 10
21.6688002812467
 20
-3.012207417092888
 30
0.0
 10
22.33683380750211
 20
-2.989407052048459
 30
0.0
 10
22.8296564756177
 20
-2.894540623986169
 30
0.0
 10
23.10027466561074
 20
-2.76884673044359
 30
0.0
 10
23.14902923041899
 20
-2.746201722438478
 30
0.0
1001
PE_URL
1000

  0
SPLINE
  5
AD
330
1F
100
AcDbEntity
  8
0
  6
Continuous
 62
   131
370
    15
100
AcDbSpline
210
0.0
220
0.0
230
1.0
 70
    24
 71
     3
 72
    17
 73
    13
 74
     0
 42
0.000000001
 43
0.00000001
 40
0.0
 40
0.0
 40
0.0
 40
0.0
 40
0.0923401514496991
 40
0.1864173415632689
 40
0.3000708656821373
 40
0.4170203496997554
 40
0.5306738738184557
 40
0.6476233578360342
 40
0.7612768819547342
 40
0.8782263659723135
 40
0.991879890091004
 40
1.0
 40
1.0
 40
1.0
 40
1.0
 10
16.00261137658397
 20
2.812958444289689
 30
0.0
 10
16.002611376584
 20
2.766028328493958
 30
0.0
 10
16.00261137658401
 20
2.671285280225703
 30
0.0
 10
16.00261137658399
 20
2.505601763685307
 30
0.0
 10
16.00261137658397
 20
2.319057197985424
 30
0.0
 10
16.00261137658396
 20
2.116913692425267
 30
0.0
 10
16.00261137658398
 20
1.914661275100066
 30
0.0
 10
16.00261137658403
 20
1.72185489977592
 30
0.0
 10
16.00261137658393
 20
1.539454705647196
 30
0.0
 10
16.00261137658397
 20
1.379816773342743
 30
0.0
 10
16.00261137658393
 20
1.276870855546375
 30
0.0
 10
16.00261137658398
 20
1.237404105324117
 30
0.0
 10
16.00261137658397
 20
1.23477238334165
 30
0.0
  0
SPLINE
  5
AE
330
1F
100
AcDbEntity
  8
0
  6
Continuous
 62
     1
370
    15
100
AcDbSpline
210
0.0
220
0.0
230
1.0
 70
     8
 71
     3
 72
    21
 73
    17
 74
     0
 42
0.000000001
 43
0.00000001
 40
0.0
 40
0.0
 40
0.0
 40
0.0
 40
0.0024483872875762
 40
0.0823865878421907
 40
0.1620866926533709
 40
0.2417981463563269
 40
0.3217477216209675
 40
0.4015259155743369
 40
0.4811984947617792
 40
0.5610456574638112
 40
0.6409467159497538
 40
0.712620698593758
 40
0.7844883994244635
 40
0.8563694153395712
 40
0.9280414698395174
 40
0.9999999999999999
 40
0.9999999999999999
 40
0.9999999999999999
 40
0.9999999999999999
 10
24.35715132675032
 20
-2.99565531899603
 30
0.0
 10
24.35033282339508
 20
-2.996383888693742
 30
0.0
 10
24.12089476493094
 20
-3.020899769700084
 30
0.0
 10
23.66853292323184
 20
-2.932924477410258
 30
0.0
 10
23.00276992100297
 20
-2.722633699399646
 30
0.0
 10
22.33679375680475
 20
-2.36085395161021
 30
0.0
 10
21.66881100111974
 20
-1.888565051926606
 30
0.0
 10
21.00230927216653
 20
-1.321220867685961
 30
0.0
 10
20.33667891996484
 20
-0.6887409010179565
 30
0.0
 10
19.66964662146391
 20
-0.022920245708257
 30
0.0
 10
19.02419047342909
 20
0.6213086953741518
 30
0.0
 10
18.4033310808441
 20
1.217033450283379
 30
0.0
 10
17.80303874480482
 20
1.742002797206698
 30
0.0
 10
17.20261974885785
 20
2.195575708291597
 30
0.0
 10
16.60386072743099
 20
2.571054611198976
 30
0.0
 10
16.20329414103083
 20
2.732216685671731
 30
0.0
 10
16.00261137658408
 20
2.812958444288751
 30
0.0
1001
PE_URL
1000

  0
LINE
  5
AF
330
1F
100
AcDbEntity
  8
0
  6
Continuous
 62
     1
370
    15
100
AcDbLine
 10
31.00261137658397
 20
1.790518663494481
 30
0.0
 11
31.00261137658397
 21
2.980257510160796
 31
0.0
1001
PE_URL
1000

  0
SPLINE
  5
B0
330
1F
100
AcDbEntity
  8
0
  6
Continuous
 62
     1
370
    15
100
AcDbSpline
210
0.0
220
0.0
230
1.0
 70
     8
 71
     3
 72
    14
 73
    10
 74
     0
 42
0.000000001
 43
0.00000001
 40
0.0
 40
0.0
 40
0.0
 40
0.0
 40
0.1501115289986773
 40
0.2996254457430702
 40
0.4495752735248592
 40
0.5994973249238589
 40
0.7490152639384692
 40
0.9156955731552908
 40
0.9999999999999999
 40
0.9999999999999999
 40
0.9999999999999999
 40
0.9999999999999999
 10
16.00261137658398
 20
-1.786718110228573
 30
0.0
 10
16.20329410140888
 20
-1.940402666630995
 30
0.0
 10
16.60386060872304
 20
-2.247159942524889
 30
0.0
 10
17.20262022205862
 20
-2.60020080511002
 30
0.0
 10
17.80303696442544
 20
-2.852928894850411
 30
0.0
 10
18.40333771807157
 20
-2.992525173783671
 30
0.0
 10
19.02416457886349
 20
-3.007721108151818
 30
0.0
 10
19.55974680913181
 20
-2.92894620192725
 30
0.0
 10
19.89485783381726
 20
-2.788123919110942
 30
0.0
 10
20.00741982985245
 20
-2.740822469524455
 30
0.0
1001
PE_URL
1000

  0
SPLINE
  5
B1
330
1F
100
AcDbEntity
  8
0
  6
Continuous
 62
     1
370
    15
100
AcDbSpline
210
0.0
220
0.0
230
1.0
 70
     8
 71
     3
 72
    12
 73
     8
 74
     0
 42
0.000000001
 43
0.00000001
 40
0.0
 40
0.0
 40
0.0
 40
0.0
 40
0.0401735998628778
 40
0.2805515735637264
 40
0.5203329143781011
 40
0.7598684056206392
 40
1.0
 40
1.0
 40
1.0
 40
1.0
 10
28.22329573780873
 20
2.991849025695629
 30
0.0
 10
28.26048849187348
 20
2.995112403306076
 30
0.0
 10
28.52022338527742
 20
3.017902139024774
 30
0.0
 10
29.00335458296999
 20
2.917465078151134
 30
0.0
 10
29.66960755917395
 20
2.68378218673053
 30
0.0
 10
30.33528119379949
 20
2.310761839499124
 30
0.0
 10
30.77998376525072
 20
1.973395322261341
 30
0.0
 10
31.00261137658396
 20
1.804502433624867
 30
0.0
1001
PE_URL
1000

  0
LINE
  5
B2
330
1F
100
AcDbEntity
  8
0
  6
Continuous
 62
   131
370
    15
100
AcDbLine
 10
16.00261137658397
 20
0.4995253428970063
 30
0.0
 11
16.00261137658399
 21
0.4813297971504
 31
0.0
  0
SPLINE
  5
B3
330
1F
100
AcDbEntity
  8
0
  6
Continuous
 62
   131
370
    15
100
AcDbSpline
210
0.0
220
0.0
230
1.0
 70
    24
 71
     3
 72
    15
 73
    11
 74
     0
 42
0.000000001
 43
0.00000001
 40
0.0
 40
0.0
 40
0.0
 40
0.0
 40
0.1166365366027329
 40
0.2565948779500392
 40
0.3965532192973451
 40
0.5365115606446378
 40
0.6764699019919058
 40
0.8164282433392508
 40
0.956386584686551
 40
1.0
 40
1.0
 40
1.0
 40
1.0
 10
16.00261137658399
 20
0.439929909603843
 30
0.0
 10
16.00261137658397
 20
0.4020962715688213
 30
0.0
 10
16.00261137658392
 20
0.3188640527738842
 30
0.0
 10
16.00261137658408
 20
0.0461184094119203
 30
0.0
 10
16.00261137658389
 20
-0.313434570852735
 30
0.0
 10
16.00261137658396
 20
-0.7200273992527303
 30
0.0
 10
16.00261137658403
 20
-1.12371424217167
 30
0.0
 10
16.002611376584
 20
-1.478594872182869
 30
0.0
 10
16.00261137658396
 20
-1.687965961528105
 30
0.0
 10
16.00261137658397
 20
-1.767760365596991
 30
0.0
 10
16.00261137658397
 20
-1.786718110228573
 30
0.0
  0
SPLINE
  5
B4
330
1F
100
AcDbEntity
  8
0
  6
Continuous
 62
     1
370
    15
100
AcDbSpline
210
0.0
220
0.0
230
1.0
 70
     8
 71
     3
 72
    10
 73
     6
 74
     0
 42
0.000000001
 43
0.00000001
 40
0.0
 40
0.0
 40
0.0
 40
0.0
 40
0.4247937867535578
 40
0.8485330645848568
 40
1.0
 40
1.0
 40
1.0
 40
1.0
 10
31.00261137658398
 20
2.980257510160796
 30
0.0
 10
30.77997000991909
 20
2.991186440359035
 30
0.0
 10
30.3352399619509
 20
3.013017170757939
 30
0.0
 10
29.81236411448681
 20
2.914985687339219
 30
0.0
 10
29.51119195568852
 20
2.781644507585047
 30
0.0
 10
29.43188539940486
 20
2.746532265406691
 30
0.0
1001
PE_URL
1000

  0
SPLINE
  5
B5
330
1F
100
AcDbEntity
  8
0
  6
Continuous
 62
     1
370
    15
100
AcDbSpline
210
0.0
220
0.0
230
1.0
 70
     8
 71
     3
 72
    16
 73
    12
 74
     0
 42
0.000000001
 43
0.00000001
 40
0.0
 40
0.0
 40
0.0
 40
0.0
 40
0.0407532756209047
 40
0.168454144542792
 40
0.2964348395571681
 40
0.4245019198562534
 40
0.5393824716857369
 40
0.6545735190586058
 40
0.7697859081260111
 40
0.8846633694860494
 40
1.0
 40
1.0
 40
1.0
 40
1.0
 10
21.21451593337906
 20
-2.981792955130138
 30
0.0
 10
21.14370647980359
 20
-2.986305320915934
 30
0.0
 10
20.85101476985229
 20
-3.004957238012892
 30
0.0
 10
20.33671985947148
 20
-2.887014104005385
 30
0.0
 10
19.66963559370811
 20
-2.631591328302552
 30
0.0
 10
19.02419309209218
 20
-2.249828388464018
 30
0.0
 10
18.40333040963521
 20
-1.784963370632546
 30
0.0
 10
17.80303892485086
 20
-1.265999343543516
 30
0.0
 10
17.20261970100401
 20
-0.6973495344608347
 30
0.0
 10
16.60386073943567
 20
-0.0972304275805062
 30
0.0
 10
16.20329414503771
 20
0.3003424289357484
 30
0.0
 10
16.00261137658408
 20
0.4995253428969424
 30
0.0
1001
PE_URL
1000

  0
SPLINE
  5
B6
330
1F
100
AcDbEntity
  8
0
  6
Continuous
 62
     1
370
    15
100
AcDbSpline
210
0.0
220
0.0
230
1.0
 70
     8
 71
     3
 72
    23
 73
    19
 74
     0
 42
0.000000001
 43
0.00000001
 40
0.0
 40
0.0
 40
0.0
 40
0.0
 40
0.0584388717846024
 40
0.1166450913129938
 40
0.1750210123253003
 40
0.2333861199078633
 40
0.2915939053182022
 40
0.3564830533024696
 40
0.4213284315099116
 40
0.4860320271711837
 40
0.5508213945644646
 40
0.6157499439345482
 40
0.6804851103188864
 40
0.7452110600553851
 40
0.8101303718101467
 40
0.8749365839378095
 40
0.9396386477885224
 40
1.0
 40
1.0
 40
1.0
 40
1.0
 10
16.00261137658397
 20
2.982240463471433
 30
0.0
 10
16.2032941410207
 20
2.947751585460926
 30
0.0
 10
16.60386072740086
 20
2.878911133857985
 30
0.0
 10
17.20261974897752
 20
2.628354342361917
 30
0.0
 10
17.80303874435428
 20
2.282493063476185
 30
0.0
 10
18.40333108252359
 20
1.843658492669413
 30
0.0
 10
19.02419046687657
 20
1.311575790593685
 30
0.0
 10
19.66964664905795
 20
0.7019609939817626
 30
0.0
 10
20.33667881752451
 20
0.0364144555598034
 30
0.0
 10
21.00230965367203
 20
-0.6315867634778197
 30
0.0
 10
21.66880957384566
 20
-1.268066348808718
 30
0.0
 10
22.33679908926735
 20
-1.841025145748625
 30
0.0
 10
23.00275008862104
 20
-2.324733880124245
 30
0.0
 10
23.66860702736213
 20
-2.693536837967041
 30
0.0
 10
24.33649231148687
 20
-2.930005461130407
 30
0.0
 10
25.0031860448002
 20
-3.019663110494595
 30
0.0
 10
25.65343968650956
 20
-2.973111418623885
 30
0.0
 10
26.0824971337795
 20
-2.824985719275775
 30
0.0
 10
26.28957997630108
 20
-2.753493449262324
 30
0.0
1001
PE_URL
1000

  0
SPLINE
  5
B7
330
1F
100
AcDbEntity
  8
0
  6
Continuous
 62
     1
370
    15
100
AcDbSpline
210
0.0
220
0.0
230
1.0
 70
     8
 71
     3
 72
    24
 73
    20
 74
     0
 42
0.000000001
 43
0.00000001
 40
0.0
 40
0.0
 40
0.0
 40
0.0
 40
0.0465771713542176
 40
0.1093711997312351
 40
0.1720876349729764
 40
0.2346846269134764
 40
0.2973823786824074
 40
0.3601895503990913
 40
0.4228096511016777
 40
0.4854386685898512
 40
0.5482547773774336
 40
0.6109362324528811
 40
0.6735347063667142
 40
0.7362703499529151
 40
0.7990483392728376
 40
0.8553623431446791
 40
0.9118285507355482
 40
0.9683052199428496
 40
1.0
 40
1.0
 40
1.0
 40
1.0
 10
27.49870671991513
 20
-2.983781606800016
 30
0.0
 10
27.33378223409692
 20
-2.981488064493039
 30
0.0
 10
26.94651120937504
 20
-2.976102433153582
 30
0.0
 10
26.3356443758087
 20
-2.795391600476994
 30
0.0
 10
25.66877413777317
 20
-2.478688927755218
 30
0.0
 10
25.00317375190671
 20
-2.034578202922463
 30
0.0
 10
24.33649561430634
 20
-1.491832586769235
 30
0.0
 10
23.66860614474089
 20
-0.8762591786722136
 30
0.0
 10
23.00275032456595
 20
-0.2161598049997242
 30
0.0
 10
22.33679902683549
 20
0.4546946172867623
 30
0.0
 10
21.66880958678277
 20
1.101749796172391
 30
0.0
 10
21.00230966424871
 20
1.695972544633676
 30
0.0
 10
20.33667876233984
 20
2.207002168563742
 30
0.0
 10
19.66964685981928
 20
2.609122418759505
 30
0.0
 10
19.02418971292865
 20
2.873425546838662
 30
0.0
 10
18.40333357879469
 20
3.004977285770328
 30
0.0
 10
17.80302936532598
 20
3.00665370047266
 30
0.0
 10
17.28997749693347
 20
2.922537165449962
 30
0.0
 10
16.97791331586413
 20
2.794601144423872
 30
0.0
 10
16.86573635081231
 20
2.748612288829052
 30
0.0
1001
PE_URL
1000

  0
LINE
  5
B8
330
1F
100
AcDbEntity
  8
0
  6
Continuous
 62
     1
370
    15
100
AcDbLine
 10
31.00261137658397
 20
-1.173605219088115
 30
0.0
 11
31.00261137658397
 21
1.177904933983737
 31
0.0
1001
PE_URL
1000

  0
SPLINE
  5
B9
330
1F
100
AcDbEntity
  8
0
  6
Continuous
 62
     1
370
    15
100
AcDbSpline
210
0.0
220
0.0
230
1.0
 70
     8
 71
     3
 72
     9
 73
     5
 74
     0
 42
0.000000001
 43
0.00000001
 40
0.0
 40
0.0
 40
0.0
 40
0.0
 40
0.6966591866027808
 40
1.0
 40
1.0
 40
1.0
 40
1.0
 10
16.00261137658397
 20
-2.97794074857587
 30
0.0
 10
16.20330663427338
 20
-2.948506388956901
 30
0.0
 10
16.49138904465268
 20
-2.906255658348575
 30
0.0
 10
16.77861039329125
 20
-2.782003365509701
 30
0.0
 10
16.86573635081233
 20
-2.744312573933486
 30
0.0
  0
SPLINE
  5
BA
330
1F
100
AcDbEntity
  8
0
  6
Continuous
 62
     1
370
    15
100
AcDbSpline
210
0.0
220
0.0
230
1.0
 70
     8
 71
     3
 72
    16
 73
    12
 74
     0
 42
0.000000001
 43
0.00000001
 40
0.0
 40
0.0
 40
0.0
 40
0.0
 40
0.0991030643908996
 40
0.2117426165169216
 40
0.3245215269462664
 40
0.4369739990520838
 40
0.5494761865848129
 40
0.662304924528727
 40
0.7748536146190037
 40
0.8872869077097661
 40
1.0
 40
1.0
 40
1.0
 40
1.0
 10
25.08221679002519
 20
2.994446383494068
 30
0.0
 10
25.27761239420295
 20
2.986473374878155
 30
0.0
 10
25.69509268846819
 20
2.969438324385806
 30
0.0
 10
26.33564682718543
 20
2.764080647312215
 30
0.0
 10
27.00339872528697
 20
2.428932633985069
 30
0.0
 10
27.6691669806423
 20
1.96989293500176
 30
0.0
 10
28.33523555628739
 20
1.415018013225831
 30
0.0
 10
29.00328590937719
 20
0.7915649847099879
 30
0.0
 10
29.66962583045255
 20
0.1291633700051896
 30
0.0
 10
30.33527661467331
 20
-0.5438892196610017
 30
0.0
 10
30.77998223761124
 20
-0.9635260523017002
 30
0.0
 10
31.00261137658396
 20
-1.173605219088114
 30
0.0
1001
PE_URL
1000

  0
SPLINE
  5
BB
330
1F
100
AcDbEntity
  8
0
  6
Continuous
 62
   131
370
    15
100
AcDbSpline
210
0.0
220
0.0
230
1.0
 70
    24
 71
     3
 72
    11
 73
     7
 74
     0
 42
0.000000001
 43
0.00000001
 40
0.0
 40
0.0
 40
0.0
 40
0.0
 40
0.1782149653480653
 40
0.4872700877487705
 40
0.8052878296359725
 40
1.0
 40
1.0
 40
1.0
 40
1.0
 10
16.00261137658397
 20
-2.352673131491432
 30
0.0
 10
16.00261137658399
 20
-2.386917204471582
 30
0.0
 10
16.00261137658403
 20
-2.480546336084207
 30
0.0
 10
16.00261137658392
 20
-2.649713409680396
 30
0.0
 10
16.00261137658397
 20
-2.825923453265951
 30
0.0
 10
16.00261137658397
 20
-2.936100408242651
 30
0.0
 10
16.00261137658397
 20
-2.97794074857587
 30
0.0
  0
SPLINE
  5
BC
330
1F
100
AcDbEntity
  8
0
  6
Continuous
 62
     1
370
    15
100
AcDbSpline
210
0.0
220
0.0
230
1.0
 70
     8
 71
     3
 72
    15
 73
    11
 74
     0
 42
0.000000001
 43
0.00000001
 40
0.0
 40
0.0
 40
0.0
 40
0.0
 40
0.1415968290496978
 40
0.2828421578556243
 40
0.4242324551730295
 40
0.565974565108218
 40
0.7073064431722977
 40
0.8485758657872143
 40
0.9902553794621171
 40
0.9999999999999999
 40
0.9999999999999999
 40
0.9999999999999999
 40
0.9999999999999999
 10
31.00261137658398
 20
1.177904933983737
 30
0.0
 10
30.77998221340842
 20
1.3767787320289
 30
0.0
 10
30.33527654212485
 20
1.774032643416246
 30
0.0
 10
29.66962611992982
 20
2.26830328847226
 30
0.0
 10
29.0032848213613
 20
2.655176837310527
 30
0.0
 10
28.33523962437048
 20
2.908932571853156
 30
0.0
 10
27.66915185099261
 20
3.024497519849549
 30
0.0
 10
27.00345523658176
 20
2.976593254561558
 30
0.0
 10
26.54280366362016
 20
2.880089464841554
 30
0.0
 10
26.3048904423275
 20
2.76518746986679
 30
0.0
 10
26.28957997630111
 20
2.75779316415789
 30
0.0
1001
PE_URL
1000

  0
SPLINE
  5
BD
330
1F
100
AcDbEntity
  8
0
  6
Continuous
 62
     1
370
    15
100
AcDbSpline
210
0.0
220
0.0
230
1.0
 70
     8
 71
     3
 72
    11
 73
     7
 74
     0
 42
0.000000001
 43
0.00000001
 40
0.0
 40
0.0
 40
0.0
 40
0.0
 40
0.1306874269476473
 40
0.4206350248120037
 40
0.7097397316904567
 40
1.0
 40
1.0
 40
1.0
 40
1.0
 10
18.07377959414616
 20
-2.983003388674836
 30
0.0
 10
17.98354716067047
 20
-2.986342121118316
 30
0.0
 10
17.69312196231455
 20
-2.997088279620361
 30
0.0
 10
17.20258836295113
 20
-2.886512151638021
 30
0.0
 10
16.6038686009469
 20
-2.667204662561213
 30
0.0
 10
16.20329676902359
 20
-2.430081366741639
 30
0.0
 10
16.00261137658409
 20
-2.311283243944003
 30
0.0
1001
PE_URL
1000

  0
LINE
  5
BE
330
1F
100
AcDbEntity
  8
0
  6
Continuous
 62
     1
370
    15
100
AcDbLine
 10
31.00261137658397
 20
2.980257510160796
 30
0.0
 11
31.00261137658397
 21
3.002149857447783
 31
0.0
1001
PE_URL
1000

  0
LINE
  5
BF
330
1F
100
AcDbEntity
  8
0
  6
Continuous
 62
   131
370
    15
100
AcDbLine
 10
16.00261137658397
 20
0.4995253428970063
 30
0.0
 11
16.00261137658397
 21
1.19337249579508
 31
0.0
  0
LINE
  5
C0
330
1F
100
AcDbEntity
  8
0
  6
Continuous
 62
     1
370
    15
100
AcDbLine
 10
31.00261137658397
 20
-2.997850142552219
 30
0.0
 11
31.00261137658397
 21
-2.975957795265228
 31
0.0
1001
PE_URL
1000

  0
LINE
  5
C1
330
1F
100
AcDbEntity
  8
0
  6
Continuous
 62
     1
370
    15
100
AcDbLine
 10
31.00261137658397
 20
-1.800202718729287
 30
0.0
 11
31.00261137658397
 21
-1.173605219088115
 31
0.0
1001
PE_URL
1000

  0
LINE
  5
C2
330
1F
100
AcDbEntity
  8
0
  6
Continuous
 62
   131
370
    15
100
AcDbLine
 10
16.00261137658397
 20
2.812958444289689
 30
0.0
 11
16.00261137658396
 21
2.982240463471432
 31
0.0
  0
LINE
  5
C3
330
1F
100
AcDbEntity
  8
0
  6
Continuous
 62
     1
370
    15
100
AcDbLine
 10
31.00261137658397
 20
1.177904933983737
 30
0.0
 11
31.00261137658397
 21
1.804502433624867
 31
0.0
1001
PE_URL
1000

  0
LINE
  5
C4
330
1F
100
AcDbEntity
  8
0
  6
Continuous
 62
   131
370
    15
100
AcDbLine
 10
16.00261137658397
 20
-2.311283243944875
 30
0.0
 11
16.00261137658397
 21
-1.786718110228573
 31
0.0
  0
LINE
  5
C5
330
1F
100
AcDbEntity
  8
0
  6
Continuous
 62
   131
370
    15
100
AcDbLine
 10
15.00253752993685
 20
-2.926721946008202
 30
0.0
 11
15.00253752993685
 21
-1.558652246674973
 31
0.0
  0
SPLINE
  5
C6
330
1F
100
AcDbEntity
  8
0
  6
Continuous
 62
   131
370
    15
100
AcDbSpline
210
0.0
220
0.0
230
1.0
 70
     8
 71
     3
 72
    10
 73
     6
 74
     0
 42
0.000000001
 43
0.00000001
 40
0.0
 40
0.0
 40
0.0
 40
0.0
 40
0.5
 40
0.5
 40
1.0
 40
1.0
 40
1.0
 40
1.0
 10
16.00261137658396
 20
-2.97794074857587
 30
0.0
 10
15.83694634858819
 20
-2.997079161916761
 30
0.0
 10
15.67115035174877
 20
-3.002472518559701
 30
0.0
 10
15.33563500774823
 20
-2.985312475100117
 30
0.0
 10
15.16752875230518
 20
-2.962689523922429
 30
0.0
 10
15.00253752993684
 20
-2.926718555522417
 30
0.0
  0
LINE
  5
C7
330
1F
100
AcDbEntity
  8
0
  6
Continuous
 62
   131
370
    15
100
AcDbLine
 10
15.65719279713262
 20
2.993277770881201
 30
0.0
 11
16.00261137658396
 21
2.982240463471433
 31
0.0
  0
SPLINE
  5
C8
330
1F
100
AcDbEntity
  8
0
  6
Continuous
 62
   131
370
    15
100
AcDbSpline
210
0.0
220
0.0
230
1.0
 70
     8
 71
     3
 72
    10
 73
     6
 74
     0
 42
0.000000001
 43
0.00000001
 40
0.0
 40
0.0
 40
0.0
 40
0.0
 40
0.5
 40
0.5
 40
1.0
 40
1.0
 40
1.0
 40
1.0
 10
16.00261137658398
 20
2.812958444288777
 30
0.0
 10
15.83694634858819
 20
2.871114108859615
 30
0.0
 10
15.67115035174877
 20
2.916317000384077
 30
0.0
 10
15.33563500774826
 20
2.979560564146107
 30
0.0
 10
15.16752875230518
 20
2.9974003966739
 30
0.0
 10
15.00253752993686
 20
3.001316612952994
 30
0.0
  0
LINE
  5
C9
330
1F
100
AcDbEntity
  8
0
  6
Continuous
 62
   131
370
    15
100
AcDbLine
 10
15.00253752993685
 20
2.028975721026393
 30
0.0
 11
15.00253752993685
 21
3.001316916510457
 31
0.0
  0
SPLINE
  5
CA
330
1F
100
AcDbEntity
  8
0
  6
Continuous
 62
   131
370
    15
100
AcDbSpline
210
0.0
220
0.0
230
1.0
 70
     8
 71
     3
 72
    10
 73
     6
 74
     0
 42
0.000000001
 43
0.00000001
 40
0.0
 40
0.0
 40
0.0
 40
0.0
 40
0.5
 40
0.5
 40
1.0
 40
1.0
 40
1.0
 40
1.0
 10
16.00261137658396
 20
1.193372495795098
 30
0.0
 10
15.83694634858819
 20
1.346088991532691
 30
0.0
 10
15.67115035174877
 20
1.493352833480233
 30
0.0
 10
15.33563500774823
 20
1.773804966343477
 30
0.0
 10
15.16752875230518
 20
1.906476265250513
 30
0.0
 10
15.00253752993684
 20
2.028987268608174
 30
0.0
  0
SPLINE
  5
CB
330
1F
100
AcDbEntity
  8
0
  6
Continuous
 62
   131
370
    15
100
AcDbSpline
210
0.0
220
0.0
230
1.0
 70
     8
 71
     3
 72
    10
 73
     6
 74
     0
 42
0.000000001
 43
0.00000001
 40
0.0
 40
0.0
 40
0.0
 40
0.0
 40
0.5
 40
0.5
 40
1.0
 40
1.0
 40
1.0
 40
1.0
 10
16.00261137658398
 20
0.4995253428970186
 30
0.0
 10
15.83694634858819
 20
0.6636190798934121
 30
0.0
 10
15.67115035174877
 20
0.8254649329730225
 30
0.0
 10
15.33563500774826
 20
1.14127085487483
 30
0.0
 10
15.16752875230518
 20
1.294676732647307
 30
0.0
 10
15.00253752993686
 20
1.440503507908332
 30
0.0
  0
SPLINE
  5
CC
330
1F
100
AcDbEntity
  8
0
  6
Continuous
 62
   131
370
    15
100
AcDbSpline
210
0.0
220
0.0
230
1.0
 70
     8
 71
     3
 72
    10
 73
     6
 74
     0
 42
0.000000001
 43
0.00000001
 40
0.0
 40
0.0
 40
0.0
 40
0.0
 40
0.5
 40
0.5
 40
1.0
 40
1.0
 40
1.0
 40
1.0
 10
16.00261137658396
 20
-1.786718110228556
 30
0.0
 10
15.83694634858819
 20
-1.653140027831857
 30
0.0
 10
15.67115035174877
 20
-1.511269542527255
 30
0.0
 10
15.33563500774823
 20
-1.213657366204432
 30
0.0
 10
15.16752875230518
 20
-1.05836311611971
 30
0.0
 10
15.00253752993684
 20
-0.8998811443620376
 30
0.0
  0
SPLINE
  5
CD
330
1F
100
AcDbEntity
  8
0
  6
Continuous
 62
   131
370
    15
100
AcDbSpline
210
0.0
220
0.0
230
1.0
 70
     8
 71
     3
 72
    10
 73
     6
 74
     0
 42
0.000000001
 43
0.00000001
 40
0.0
 40
0.0
 40
0.0
 40
0.0
 40
0.5
 40
0.5
 40
1.0
 40
1.0
 40
1.0
 40
1.0
 10
16.00261137658398
 20
-2.311283243943951
 30
0.0
 10
15.83694634858819
 20
-2.205345171518394
 30
0.0
 10
15.67115035174877
 20
-2.088702209963245
 30
0.0
 10
15.33563500774826
 20
-1.836139851823466
 30
0.0
 10
15.16752875230518
 20
-1.700573806578781
 30
0.0
 10
15.00253752993686
 20
-1.558663247596849
 30
0.0
  0
LINE
  5
CE
330
1F
100
AcDbEntity
  8
0
  6
Continuous
 62
   131
370
    15
100
AcDbLine
 10
-28.39738862341602
 20
0.0021498574477825
 30
0.0
 11
-28.39738862341602
 21
3.002149857447782
 31
0.0
  0
LINE
  5
CF
330
1F
100
AcDbEntity
  8
0
  6
Continuous
 62
   131
370
    15
100
AcDbLine
 10
-28.39738862341602
 20
-2.997850142552217
 30
0.0
 11
-28.39738862341602
 21
0.0021498574477825
 31
0.0
  0
LINE
  5
D0
330
1F
100
AcDbEntity
  8
0
  6
Continuous
 62
   131
370
    15
100
AcDbLine
 10
15.00253752993685
 20
-0.8998960824296041
 30
0.0
 11
15.00253752993685
 21
1.440514812387671
 31
0.0
  0
LINE
  5
D1
330
1F
100
AcDbEntity
  8
0
  6
Continuous
 62
   131
370
    15
100
AcDbLine
 10
-28.99738862341602
 20
0.0021498574477825
 30
0.0
 11
-28.99738862341602
 21
2.402149857447784
 31
0.0
  0
LINE
  5
D2
330
1F
100
AcDbEntity
  8
0
  6
Continuous
 62
   131
370
    15
100
AcDbLine
 10
-28.99738862341602
 20
-2.397850142552219
 30
0.0
 11
-28.99738862341602
 21
0.0021498574477825
 31
0.0
  0
SPLINE
  5
D3
330
1F
100
AcDbEntity
  8
0
  6
Continuous
 62
   131
370
    15
100
AcDbSpline
210
0.0
220
0.0
230
1.0
 70
    24
 71
     3
 72
    16
 73
    12
 74
     0
 42
0.000000001
 43
0.00000001
 40
0.0
 40
0.0
 40
0.0
 40
0.0
 40
0.0532638537767652
 40
0.1832721827932177
 40
0.3132805118096655
 40
0.4432888408261173
 40
0.5732971698425716
 40
0.7033054988590138
 40
0.8333138278754562
 40
0.9633221568919181
 40
0.9999999999999999
 40
0.9999999999999999
 40
0.9999999999999999
 40
0.9999999999999999
 10
16.00261137658397
 20
-1.786718110228561
 30
0.0
 10
16.00261137658398
 20
-1.761307699051309
 30
0.0
 10
16.002611376584
 20
-1.673874642824352
 30
0.0
 10
16.00261137658393
 20
-1.446926971316465
 30
0.0
 10
16.00261137658406
 20
-1.085744403617329
 30
0.0
 10
16.00261137658389
 20
-0.6794269095917945
 30
0.0
 10
16.00261137658405
 20
-0.2762683166093188
 30
0.0
 10
16.00261137658395
 20
0.0810006475221905
 30
0.0
 10
16.00261137658402
 20
0.343695848251184
 30
0.0
 10
16.00261137658395
 20
0.4725604826053493
 30
0.0
 10
16.00261137658397
 20
0.4826089966053937
 30
0.0
 10
16.00261137658397
 20
0.4848200847554511
 30
0.0
  0
SPLINE
  5
D4
330
1F
100
AcDbEntity
  8
0
  6
Continuous
 62
   131
370
    15
100
AcDbSpline
210
0.0
220
0.0
230
1.0
 70
    24
 71
     3
 72
    12
 73
     8
 74
     0
 42
0.000000001
 43
0.00000001
 40
0.0
 40
0.0
 40
0.0
 40
0.0
 40
0.1527242704957597
 40
0.380981337664575
 40
0.6092384048333903
 40
0.8374954720022402
 40
0.9999999999999999
 40
0.9999999999999999
 40
0.9999999999999999
 40
0.9999999999999999
 10
16.00261137658397
 20
1.234762383341637
 30
0.0
 10
16.00261137658399
 20
1.289624070510622
 30
0.0
 10
16.00261137658403
 20
1.426480373024476
 30
0.0
 10
16.00261137658395
 20
1.753751455159413
 30
0.0
 10
16.00261137658402
 20
2.152938626008134
 30
0.0
 10
16.00261137658394
 20
2.52419133906097
 30
0.0
 10
16.00261137658397
 20
2.728142186476409
 30
0.0
 10
16.00261137658399
 20
2.812958444276406
 30
0.0
  0
SPLINE
  5
D5
330
1F
100
AcDbEntity
  8
0
  6
Continuous
 62
   131
370
    15
100
AcDbSpline
210
0.0
220
0.0
230
1.0
 70
    24
 71
     3
 72
    12
 73
     8
 74
     0
 42
0.000000001
 43
0.00000001
 40
0.0
 40
0.0
 40
0.0
 40
0.0
 40
0.256581444670457
 40
0.4110600048437377
 40
0.7252656179397183
 40
0.8853684950398109
 40
1.0
 40
1.0
 40
1.0
 40
1.0
 10
16.00261137658396
 20
-2.977940748575868
 30
0.0
 10
16.00261137658396
 20
-2.922883577104371
 30
0.0
 10
16.00261137658397
 20
-2.834678441301104
 30
0.0
 10
16.002611376584
 20
-2.679590800266583
 30
0.0
 10
16.00261137658397
 20
-2.547417270933281
 30
0.0
 10
16.00261137658396
 20
-2.428073580341441
 30
0.0
 10
16.00261137658398
 20
-2.374871447303048
 30
0.0
 10
16.00261137658397
 20
-2.352673131491432
 30
0.0
  0
LINE
  5
D6
330
1F
100
AcDbEntity
  8
0
  6
Continuous
 62
     1
370
    15
100
AcDbLine
 10
-29.19998139830557
 20
0.002149857447779
 30
0.0
 11
34.00126876496845
 21
0.0021498574477785
 31
0.0
1001
PE_URL
1000

  0
CIRCLE
  5
D7
330
1F
100
AcDbEntity
  8
외형선
100
AcDbCircle
 10
0.0
 20
0.0
 30
0.0
 40
3.000000000000002
  0
INSERT
  5
D8
330
1F
100
AcDbEntity
  8
0
  6
Continuous
 62
     7
100
AcDbBlockReference
 66
     1
  2
블럭10
 10
-7.938174923097458
 20
-52.04502444419615
 30
0.0
  0
ATTRIB
  5
D9
330
D8
100
AcDbEntity
  8
FORMAT
 62
     2
100
AcDbText
 10
-20.89811411795522
 20
-49.96965753136396
 30
0.0
 40
4.233333333333333
  1
SEME75060E [ 6 FLUTE ]
 41
0.75
  7
SLDTEXTSTYLE0
 11
-20.89811411795522
 21
-52.08632419803063
 31
0.0
100
AcDbAttribute
  2
AUTOATTR0
 70
     0
 74
     1
  0
SEQEND
  5
DA
330
D8
100
AcDbEntity
  8
0
  6
Continuous
 62
     7
  0
HATCH
  5
DB
330
1F
100
AcDbEntity
  8
중심선
100
AcDbHatch
 10
0.0
 20
0.0
 30
0.0
210
0.0
220
0.0
230
1.0
  2
SOLID
 70
     1
 71
     0
 91
        1
 92
        0
 93
        4
 72
     1
 10
-2.223265618716608
 20
-35.79785014255221
 11
-5.669540862553889
 21
-35.79785014255221
 72
     1
 10
-5.669540862553889
 20
-35.79785014255221
 11
-7.797770721757912
 21
-38.33417572312482
 72
     1
 10
-7.797770721757912
 20
-38.33417572312482
 11
-4.351462392807479
 21
-38.33413629382233
 72
     1
 10
-4.351462392807479
 20
-38.33413629382233
 11
-2.223265618716608
 21
-35.79785014255221
 97
        0
 75
     0
 76
     1
 98
        1
 10
15.00126876496843
 20
0.0010749287238893
  0
HATCH
  5
DC
330
1F
100
AcDbEntity
  8
중심선
100
AcDbHatch
 10
0.0
 20
0.0
 30
0.0
210
0.0
220
0.0
230
1.0
  2
SOLID
 70
     1
 71
     0
 91
        1
 92
        0
 93
        4
 72
     1
 10
2.789498372319345
 20
-35.79785014255221
 11
-0.6567768715179376
 21
-35.79785014255221
 72
     1
 10
-0.6567768715179376
 20
-35.79785014255221
 11
-5.187914879875327
 21
-41.19785014255223
 72
     1
 10
-5.187914879875327
 20
-41.19785014255223
 11
-1.741639636038043
 21
-41.19785014255223
 72
     1
 10
-1.741639636038043
 20
-41.19785014255223
 11
2.789498372319345
 21
-35.79785014255221
 97
        0
 75
     0
 76
     1
 98
        1
 10
15.00126876496843
 20
0.0010749287238893
  0
HATCH
  5
DD
330
1F
100
AcDbEntity
  8
중심선
100
AcDbHatch
 10
0.0
 20
0.0
 30
0.0
210
0.0
220
0.0
230
1.0
  2
SOLID
 70
     1
 71
     0
 91
        1
 92
        0
 93
        4
 72
     1
 10
7.80226236335524
 20
-35.79785014255224
 11
4.355987119518124
 21
-35.79785014255221
 72
     1
 10
4.355987119518124
 20
-35.79785014255221
 11
-2.692449782371126
 21
-44.19785014255223
 72
     1
 10
-2.692449782371126
 20
-44.19785014255223
 11
0.7538254614661568
 21
-44.19785014255223
 72
     1
 10
0.7538254614661568
 20
-44.19785014255223
 11
7.80226236335524
 21
-35.79785014255224
 97
        0
 75
     0
 76
     1
 98
        1
 10
15.00126876496843
 20
0.0010749287238893
  0
HATCH
  5
DE
330
1F
100
AcDbEntity
  8
중심선
100
AcDbHatch
 10
0.0
 20
0.0
 30
0.0
210
0.0
220
0.0
230
1.0
  2
SOLID
 70
     1
 71
     0
 91
        1
 92
        0
 93
        6
 72
     3
 10
12.60215279436744
 20
-39.99785014260349
 11
3.960054785062285
 21
1.540882976769353E-10
 40
0.3939339440162626
 50
17.09539180608438
 51
320.0019657685079
 73
     0
 72
     1
 10
14.28515245006803
 20
-38.58574414719052
 11
16.59045432376907
 21
-36.6514174371426
 72
     3
 10
12.60215279431459
 20
-39.99785014255237
 11
6.600054785286828
 21
-1.278976924368180E-13
 40
0.6363583540795982
 50
39.9987384933741
 51
368.4976242363725
 73
     1
 72
     1
 10
19.0274852862152
 20
-39.03785014248224
 11
11.28222010115052
 21
-39.03785014248221
 72
     1
 10
11.28222010115051
 20
-39.03785014248221
 11
11.28219505670458
 21
-40.95785014248213
 72
     1
 10
11.28219505670458
 20
-40.95785014248213
 11
15.72357482617662
 21
-40.9578501424821
 97
        0
 75
     0
 76
     1
 98
        1
 10
15.00126876496843
 20
0.0010749287238893
  0
DIMENSION
  5
DF
330
1F
100
AcDbEntity
  8
치수문자_일반주서
100
AcDbDimension
  2
_D
 10
-47.02629475473943
 20
-2.99785014255229
 30
0.0
 11
-47.02629475473945
 21
0.0021498574477839
 31
0.0
 70
   160
  1
%%c<>
 71
     2
 42
6.000000000000005
 52
-270.0
  3
SLDDIMSTYLE0
100
AcDbAlignedDimension
 13
-28.39738862341601
 23
3.002149857447785
 33
0.0
 14
-28.39738862341601
 24
-2.99785014255222
 34
0.0
 50
90.0000000000002
100
AcDbRotatedDimension
  0
DIMENSION
  5
ED
330
1F
100
AcDbEntity
  8
치수문자_일반주서
100
AcDbDimension
  2
_D_1
 10
41.00261137658397
 20
-2.99785014255218
 30
0.0
 11
41.00261137658396
 21
0.3978083075053782
 31
0.0
 70
   160
  1
%%c<>
 71
     2
 42
6.0
 52
-270.0
  3
SLDDIMSTYLE0
100
AcDbAlignedDimension
 13
31.00261137658397
 23
3.002149857447783
 33
0.0
 14
31.00261137658397
 24
-2.997850142552218
 34
0.0
 50
90.0000000000002
100
AcDbRotatedDimension
1001
PE_URL
1000

1001
ACAD_DSTYLE_DIMFLIPARROW_SYMBOL
1070
   385
1070
     0
1001
ACAD_DSTYLE_DIMFLIPARROW_WHICH_SYMBOL
1070
   386
1070
     3
  0
DIMENSION
  5
FA
330
1F
100
AcDbEntity
  8
치수문자_일반주서
100
AcDbDimension
  2
_D_2
 10
31.00261137658397
 20
46.47708108211323
 30
0.0
 11
22.1413595412036
 21
46.47708108211323
 31
0.0
 70
   160
  1
<>
 71
     2
 42
15.00000000000001
  3
SLDDIMSTYLE0
100
AcDbAlignedDimension
 13
16.00261137658396
 23
2.982240463471431
 33
0.0
 14
31.00261137658397
 24
2.980257510160796
 34
0.0
100
AcDbRotatedDimension
1001
PE_URL
1000

  0
DIMENSION
  5
106
330
1F
100
AcDbEntity
  8
치수문자_일반주서
100
AcDbDimension
  2
_D_3
 10
-28.99738862341602
 20
73.92494017103044
 30
0.0
 11
2.861509295640282
 21
73.92494017103044
 31
0.0
 70
   160
  1
<>
 71
     2
 42
59.99999999999999
  3
SLDDIMSTYLE0
100
AcDbAlignedDimension
 13
31.00261137658397
 23
2.980257510160796
 33
0.0
 14
-28.99738862341602
 24
2.402149857447784
 34
0.0
100
AcDbRotatedDimension
1001
PE_URL
1000

  0
INSERT
  5
117
330
1F
100
AcDbEntity
  8
외형선
100
AcDbBlockReference
  2
SW_DOWELSYMBOL_0
 10
0.0
 20
0.0
 30
0.0
  0
ENDSEC
  0
SECTION
  2
OBJECTS
  0
DICTIONARY
  5
C
330
0
100
AcDbDictionary
281
     1
  3
ACAD_DETAILVIEWSTYLE
350
14C
  3
ACAD_GROUP
350
D
  3
ACAD_LAYOUT
350
1A
  3
ACAD_MLINESTYLE
350
17
  3
ACAD_PLOTSETTINGS
350
19
  3
ACAD_PLOTSTYLENAME
350
E
  3
ACAD_SCALELIST
350
47
  3
ACAD_SECTIONVIEWSTYLE
350
14D
  3
AcDbVariableDictionary
350
147
  3
APPDATA
350
139
  3
DWGPROPS
350
14E
  0
DICTIONARY
  5
14C
102
{ACAD_REACTORS
330
C
102
}
330
C
100
AcDbDictionary
281
     1
  0
DICTIONARY
  5
D
102
{ACAD_REACTORS
330
C
102
}
330
C
100
AcDbDictionary
281
     1
  0
DICTIONARY
  5
1A
102
{ACAD_REACTORS
330
C
102
}
330
C
100
AcDbDictionary
281
     1
  3
Layout1
350
1E
  3
Layout2
350
26
  3
Model
350
22
  0
DICTIONARY
  5
17
102
{ACAD_REACTORS
330
C
102
}
330
C
100
AcDbDictionary
281
     1
  3
Standard
350
18
  0
DICTIONARY
  5
19
102
{ACAD_REACTORS
330
C
102
}
330
C
100
AcDbDictionary
281
     1
  0
ACDBDICTIONARYWDFLT
  5
E
102
{ACAD_REACTORS
330
C
102
}
330
C
100
AcDbDictionary
281
     1
  3
Normal
350
F
100
AcDbDictionaryWithDefault
340
F
  0
DICTIONARY
  5
47
102
{ACAD_REACTORS
330
C
102
}
330
C
100
AcDbDictionary
281
     1
  3
A0
350
48
  3
A1
350
49
  3
A2
350
4A
  3
A3
350
4B
  3
A4
350
4C
  3
A5
350
4D
  3
A6
350
4E
  3
A7
350
4F
  3
A8
350
50
  3
A9
350
51
  3
B0
350
52
  3
B1
350
53
  3
B2
350
54
  3
B3
350
55
  3
B4
350
56
  3
B5
350
57
  3
B6
350
58
  3
B7
350
59
  3
B8
350
5A
  3
B9
350
5B
  3
C0
350
5C
  3
C1
350
5D
  3
C2
350
5E
  3
C3
350
5F
  3
C4
350
60
  3
C5
350
61
  3
C6
350
62
  3
C7
350
63
  3
C8
350
64
  3
C9
350
65
  3
D0
350
66
  3
D1
350
67
  3
D2
350
68
  0
DICTIONARY
  5
14D
102
{ACAD_REACTORS
330
C
102
}
330
C
100
AcDbDictionary
281
     1
  0
DICTIONARY
  5
147
102
{ACAD_REACTORS
330
C
102
}
330
C
100
AcDbDictionary
281
     1
  0
DICTIONARY
  5
139
102
{ACAD_REACTORS
330
C
102
}
330
C
100
AcDbDictionary
281
     1
  0
XRECORD
  5
14E
102
{ACAD_REACTORS
330
C
102
}
330
C
100
AcDbXrecord
280
     1
  1
DWGPROPS COOKIE
  2

  3

  4

  6

  7

  8
12011908
  9

300
=
301
=
302
=
303
=
304
=
305
=
306
=
307
=
308
=
309
=
 40
0.0
 41
2458268.394647812
 42
2458268.413534051
  1

 90
        0
  0
LAYOUT
  5
1E
102
{ACAD_REACTORS
330
1A
102
}
330
1A
100
AcDbPlotSettings
  1

  2
none_device
  4

  6

 40
0.0
 41
0.0
 42
0.0
 43
0.0
 44
0.0
 45
0.0
 46
0.0
 47
0.0
 48
0.0
 49
0.0
140
0.0
141
0.0
142
1.0
143
1.0
 70
   688
 72
     1
 73
     0
 74
     5
  7

 75
    16
147
1.0
148
0.0
149
0.0
100
AcDbLayout
  1
Layout1
 70
     1
 71
     1
 10
0.0
 20
0.0
 11
420.0
 21
297.0
 12
0.0
 22
0.0
 32
0.0
 14
1.000000000000000E+20
 24
1.000000000000000E+20
 34
1.000000000000000E+20
 15
-1.000000000000000E+20
 25
-1.000000000000000E+20
 35
-1.000000000000000E+20
146
0.0
 13
0.0
 23
0.0
 33
0.0
 16
1.0
 26
0.0
 36
0.0
 17
0.0
 27
1.0
 37
0.0
 76
     0
330
1B
  0
LAYOUT
  5
26
102
{ACAD_REACTORS
330
1A
102
}
330
1A
100
AcDbPlotSettings
  1

  2
none_device
  4

  6

 40
0.0
 41
0.0
 42
0.0
 43
0.0
 44
0.0
 45
0.0
 46
0.0
 47
0.0
 48
0.0
 49
0.0
140
0.0
141
0.0
142
1.0
143
1.0
 70
   688
 72
     1
 73
     0
 74
     5
  7

 75
    16
147
1.0
148
0.0
149
0.0
100
AcDbLayout
  1
Layout2
 70
     1
 71
     2
 10
0.0
 20
0.0
 11
0.0
 21
0.0
 12
0.0
 22
0.0
 32
0.0
 14
0.0
 24
0.0
 34
0.0
 15
0.0
 25
0.0
 35
0.0
146
0.0
 13
0.0
 23
0.0
 33
0.0
 16
1.0
 26
0.0
 36
0.0
 17
0.0
 27
1.0
 37
0.0
 76
     0
330
23
  0
LAYOUT
  5
22
102
{ACAD_REACTORS
330
1A
102
}
330
1A
100
AcDbPlotSettings
  1

  2
none_device
  4
ANSI_A_(11.00_x_8.50_Inches)
  6

 40
6.35
 41
19.05
 42
6.35000508
 43
19.05000254
 44
279.4
 45
215.9
 46
165.3607455478734
 47
65.9612455222848
 48
0.0
 49
0.0
140
0.0
141
0.0
142
0.0651566428949785
143
1.0
 70
  1696
 72
     0
 73
     0
 74
     0
  7

 75
     0
147
0.0235690232323232
148
0.0
149
0.0
100
AcDbLayout
  1
Model
 70
     1
 71
     0
 10
0.0
 20
0.0
 11
420.0
 21
297.0
 12
0.0
 22
0.0
 32
0.0
 14
-51.40129475473945
 24
-49.96965753136396
 34
0.0
 15
44.71855254871142
 25
78.29994017103044
 35
0.0
146
0.0
 13
0.0
 23
0.0
 33
0.0
 16
1.0
 26
0.0
 36
0.0
 17
0.0
 27
1.0
 37
0.0
 76
     0
330
1F
331
29
  0
MLINESTYLE
  5
18
102
{ACAD_REACTORS
330
17
102
}
330
17
100
AcDbMlineStyle
  2
Standard
 70
     0
  3

 62
   256
 51
90.0
 52
90.0
 71
     2
 49
0.5
 62
   256
  6
BYLAYER
 49
-0.5
 62
   256
  6
BYLAYER
  0
ACDBPLACEHOLDER
  5
F
102
{ACAD_REACTORS
330
E
102
}
330
E
  0
SCALE
  5
48
102
{ACAD_REACTORS
330
47
102
}
330
47
100
AcDbScale
 70
     0
300
1:1
140
1.0
141
1.0
290
     1
  0
SCALE
  5
49
102
{ACAD_REACTORS
330
47
102
}
330
47
100
AcDbScale
 70
     0
300
1:2
140
1.0
141
2.0
290
     0
  0
SCALE
  5
4A
102
{ACAD_REACTORS
330
47
102
}
330
47
100
AcDbScale
 70
     0
300
1:4
140
1.0
141
4.0
290
     0
  0
SCALE
  5
4B
102
{ACAD_REACTORS
330
47
102
}
330
47
100
AcDbScale
 70
     0
300
1:5
140
1.0
141
5.0
290
     0
  0
SCALE
  5
4C
102
{ACAD_REACTORS
330
47
102
}
330
47
100
AcDbScale
 70
     0
300
1:8
140
1.0
141
8.0
290
     0
  0
SCALE
  5
4D
102
{ACAD_REACTORS
330
47
102
}
330
47
100
AcDbScale
 70
     0
300
1:10
140
1.0
141
10.0
290
     0
  0
SCALE
  5
4E
102
{ACAD_REACTORS
330
47
102
}
330
47
100
AcDbScale
 70
     0
300
1:16
140
1.0
141
16.0
290
     0
  0
SCALE
  5
4F
102
{ACAD_REACTORS
330
47
102
}
330
47
100
AcDbScale
 70
     0
300
1:20
140
1.0
141
20.0
290
     0
  0
SCALE
  5
50
102
{ACAD_REACTORS
330
47
102
}
330
47
100
AcDbScale
 70
     0
300
1:30
140
1.0
141
30.0
290
     0
  0
SCALE
  5
51
102
{ACAD_REACTORS
330
47
102
}
330
47
100
AcDbScale
 70
     0
300
1:40
140
1.0
141
40.0
290
     0
  0
SCALE
  5
52
102
{ACAD_REACTORS
330
47
102
}
330
47
100
AcDbScale
 70
     0
300
1:50
140
1.0
141
50.0
290
     0
  0
SCALE
  5
53
102
{ACAD_REACTORS
330
47
102
}
330
47
100
AcDbScale
 70
     0
300
1:100
140
1.0
141
100.0
290
     0
  0
SCALE
  5
54
102
{ACAD_REACTORS
330
47
102
}
330
47
100
AcDbScale
 70
     0
300
2:1
140
2.0
141
1.0
290
     0
  0
SCALE
  5
55
102
{ACAD_REACTORS
330
47
102
}
330
47
100
AcDbScale
 70
     0
300
4:1
140
4.0
141
1.0
290
     0
  0
SCALE
  5
56
102
{ACAD_REACTORS
330
47
102
}
330
47
100
AcDbScale
 70
     0
300
8:1
140
8.0
141
1.0
290
     0
  0
SCALE
  5
57
102
{ACAD_REACTORS
330
47
102
}
330
47
100
AcDbScale
 70
     0
300
10:1
140
10.0
141
1.0
290
     0
  0
SCALE
  5
58
102
{ACAD_REACTORS
330
47
102
}
330
47
100
AcDbScale
 70
     0
300
100:1
140
100.0
141
1.0
290
     0
  0
SCALE
  5
59
102
{ACAD_REACTORS
330
47
102
}
330
47
100
AcDbScale
 70
     0
300
1/128" = 1'-0"
140
0.0078125
141
12.0
290
     0
  0
SCALE
  5
5A
102
{ACAD_REACTORS
330
47
102
}
330
47
100
AcDbScale
 70
     0
300
1/64" = 1'-0"
140
0.015625
141
12.0
290
     0
  0
SCALE
  5
5B
102
{ACAD_REACTORS
330
47
102
}
330
47
100
AcDbScale
 70
     0
300
1/32" = 1'-0"
140
0.03125
141
12.0
290
     0
  0
SCALE
  5
5C
102
{ACAD_REACTORS
330
47
102
}
330
47
100
AcDbScale
 70
     0
300
1/16" = 1'-0"
140
0.0625
141
12.0
290
     0
  0
SCALE
  5
5D
102
{ACAD_REACTORS
330
47
102
}
330
47
100
AcDbScale
 70
     0
300
3/32" = 1'-0"
140
0.09375
141
12.0
290
     0
  0
SCALE
  5
5E
102
{ACAD_REACTORS
330
47
102
}
330
47
100
AcDbScale
 70
     0
300
1/8" = 1'-0"
140
0.125
141
12.0
290
     0
  0
SCALE
  5
5F
102
{ACAD_REACTORS
330
47
102
}
330
47
100
AcDbScale
 70
     0
300
3/16" = 1'-0"
140
0.1875
141
12.0
290
     0
  0
SCALE
  5
60
102
{ACAD_REACTORS
330
47
102
}
330
47
100
AcDbScale
 70
     0
300
1/4" = 1'-0"
140
0.25
141
12.0
290
     0
  0
SCALE
  5
61
102
{ACAD_REACTORS
330
47
102
}
330
47
100
AcDbScale
 70
     0
300
3/8" = 1'-0"
140
0.375
141
12.0
290
     0
  0
SCALE
  5
62
102
{ACAD_REACTORS
330
47
102
}
330
47
100
AcDbScale
 70
     0
300
1/2" = 1'-0"
140
0.5
141
12.0
290
     0
  0
SCALE
  5
63
102
{ACAD_REACTORS
330
47
102
}
330
47
100
AcDbScale
 70
     0
300
3/4" = 1'-0"
140
0.75
141
12.0
290
     0
  0
SCALE
  5
64
102
{ACAD_REACTORS
330
47
102
}
330
47
100
AcDbScale
 70
     0
300
1" = 1'-0"
140
1.0
141
12.0
290
     0
  0
SCALE
  5
65
102
{ACAD_REACTORS
330
47
102
}
330
47
100
AcDbScale
 70
     0
300
1-1/2" = 1'-0"
140
1.5
141
12.0
290
     0
  0
SCALE
  5
66
102
{ACAD_REACTORS
330
47
102
}
330
47
100
AcDbScale
 70
     0
300
3" = 1'-0"
140
3.0
141
12.0
290
     0
  0
SCALE
  5
67
102
{ACAD_REACTORS
330
47
102
}
330
47
100
AcDbScale
 70
     0
300
6" = 1'-0"
140
6.0
141
12.0
290
     0
  0
SCALE
  5
68
102
{ACAD_REACTORS
330
47
102
}
330
47
100
AcDbScale
 70
     0
300
1'-0" = 1'-0"
140
12.0
141
12.0
290
     0
  0
ENDSEC
  0
EOF
