  0
SECTION
  2
HEADER
  9
$ACADVER
  1
AC1015
  9
$ACADMAINTVER
 70
     6
  9
$DWGCODEPAGE
  3
ANSI_949
  9
$INSBASE
 10
0.0
 20
0.0
 30
0.0
  9
$EXTMIN
 10
-66.59277278556965
 20
-49.97073246008785
 30
0.0
  9
$EXTMAX
 10
46.55167594494886
 20
78.43560215688545
 30
0.0
  9
$LIMMIN
 10
0.0
 20
0.0
  9
$LIMMAX
 10
420.0
 20
297.0
  9
$ORTHOMODE
 70
     1
  9
$REGENMODE
 70
     1
  9
$FILLMODE
 70
     1
  9
$QTEXTMODE
 70
     0
  9
$MIRRTEXT
 70
     1
  9
$LTSCALE
 40
1.0
  9
$ATTMODE
 70
     1
  9
$TEXTSIZE
 40
3.5
  9
$TRACEWID
 40
1.0
  9
$TEXTSTYLE
  7
Standard
  9
$CLAYER
  8
0
  9
$CELTYPE
  6
ByLayer
  9
$CECOLOR
 62
   256
  9
$CELTSCALE
 40
1.0
  9
$DISPSILH
 70
     0
  9
$DIMSCALE
 40
1.0
  9
$DIMASZ
 40
3.302
  9
$DIMEXO
 40
1.0
  9
$DIMDLI
 40
3.75
  9
$DIMRND
 40
0.0
  9
$DIMDLE
 40
0.0
  9
$DIMEXE
 40
1.0
  9
$DIMTP
 40
0.0
  9
$DIMTM
 40
0.0
  9
$DIMTXT
 40
3.5
  9
$DIMCEN
 40
2.5
  9
$DIMTSZ
 40
0.0
  9
$DIMTOL
 70
     0
  9
$DIMLIM
 70
     0
  9
$DIMTIH
 70
     1
  9
$DIMTOH
 70
     1
  9
$DIMSE1
 70
     0
  9
$DIMSE2
 70
     0
  9
$DIMTAD
 70
     1
  9
$DIMZIN
 70
     0
  9
$DIMBLK
  1

  9
$DIMASO
 70
     1
  9
$DIMSHO
 70
     1
  9
$DIMPOST
  1

  9
$DIMAPOST
  1

  9
$DIMALT
 70
     0
  9
$DIMALTD
 70
     3
  9
$DIMALTF
 40
0.0393700787401575
  9
$DIMLFAC
 40
1.0
  9
$DIMTOFL
 70
     1
  9
$DIMTVP
 40
0.0
  9
$DIMTIX
 70
     0
  9
$DIMSOXD
 70
     0
  9
$DIMSAH
 70
     0
  9
$DIMBLK1
  1

  9
$DIMBLK2
  1

  9
$DIMSTYLE
  2
ISO-25
  9
$DIMCLRD
 70
     0
  9
$DIMCLRE
 70
     0
  9
$DIMCLRT
 70
     0
  9
$DIMTFAC
 40
1.0
  9
$DIMGAP
 40
1.524
  9
$DIMJUST
 70
     0
  9
$DIMSD1
 70
     0
  9
$DIMSD2
 70
     0
  9
$DIMTOLJ
 70
     0
  9
$DIMTZIN
 70
     0
  9
$DIMALTZ
 70
     0
  9
$DIMALTTZ
 70
     0
  9
$DIMUPT
 70
     0
  9
$DIMDEC
 70
     2
  9
$DIMTDEC
 70
     2
  9
$DIMALTU
 70
     2
  9
$DIMALTTD
 70
     3
  9
$DIMTXSTY
  7
Standard
  9
$DIMAUNIT
 70
     0
  9
$DIMADEC
 70
     2
  9
$DIMALTRND
 40
0.0
  9
$DIMAZIN
 70
     0
  9
$DIMDSEP
 70
    44
  9
$DIMATFIT
 70
     3
  9
$DIMFRAC
 70
     0
  9
$DIMLDRBLK
  1

  9
$DIMLUNIT
 70
     2
  9
$DIMLWD
 70
    -2
  9
$DIMLWE
 70
    -2
  9
$DIMTMOVE
 70
     0
  9
$LUNITS
 70
     2
  9
$LUPREC
 70
     2
  9
$SKETCHINC
 40
1.0
  9
$FILLETRAD
 40
10.0
  9
$AUNITS
 70
     0
  9
$AUPREC
 70
     2
  9
$MENU
  1
.
  9
$ELEVATION
 40
0.0
  9
$PELEVATION
 40
0.0
  9
$THICKNESS
 40
0.0
  9
$LIMCHECK
 70
     0
  9
$CHAMFERA
 40
0.0
  9
$CHAMFERB
 40
0.0
  9
$CHAMFERC
 40
0.0
  9
$CHAMFERD
 40
0.0
  9
$SKPOLY
 70
     0
  9
$TDCREATE
 40
2458268.769460324
  9
$TDUCREATE
 40
2458268.394460324
  9
$TDUPDATE
 40
2458270.366654063
  9
$TDUUPDATE
 40
2458269.991654063
  9
$TDINDWG
 40
0.0006668403
  9
$TDUSRTIMER
 40
2458269.990987373
  9
$USRTIMER
 70
     1
  9
$ANGBASE
 50
0.0
  9
$ANGDIR
 70
     0
  9
$PDMODE
 70
     0
  9
$PDSIZE
 40
-1.0
  9
$PLINEWID
 40
0.0
  9
$SPLFRAME
 70
     0
  9
$SPLINETYPE
 70
     6
  9
$SPLINESEGS
 70
     8
  9
$HANDSEED
  5
156
  9
$SURFTAB1
 70
     6
  9
$SURFTAB2
 70
     6
  9
$SURFTYPE
 70
     6
  9
$SURFU
 70
     6
  9
$SURFV
 70
     6
  9
$UCSBASE
  2

  9
$UCSNAME
  2

  9
$UCSORG
 10
0.0
 20
0.0
 30
0.0
  9
$UCSXDIR
 10
1.0
 20
0.0
 30
0.0
  9
$UCSYDIR
 10
0.0
 20
1.0
 30
0.0
  9
$UCSORTHOREF
  2

  9
$UCSORTHOVIEW
 70
     0
  9
$UCSORGTOP
 10
0.0
 20
0.0
 30
0.0
  9
$UCSORGBOTTOM
 10
0.0
 20
0.0
 30
0.0
  9
$UCSORGLEFT
 10
0.0
 20
0.0
 30
0.0
  9
$UCSORGRIGHT
 10
0.0
 20
0.0
 30
0.0
  9
$UCSORGFRONT
 10
0.0
 20
0.0
 30
0.0
  9
$UCSORGBACK
 10
0.0
 20
0.0
 30
0.0
  9
$PUCSBASE
  2

  9
$PUCSNAME
  2

  9
$PUCSORG
 10
0.0
 20
0.0
 30
0.0
  9
$PUCSXDIR
 10
1.0
 20
0.0
 30
0.0
  9
$PUCSYDIR
 10
0.0
 20
1.0
 30
0.0
  9
$PUCSORTHOREF
  2

  9
$PUCSORTHOVIEW
 70
     0
  9
$PUCSORGTOP
 10
0.0
 20
0.0
 30
0.0
  9
$PUCSORGBOTTOM
 10
0.0
 20
0.0
 30
0.0
  9
$PUCSORGLEFT
 10
0.0
 20
0.0
 30
0.0
  9
$PUCSORGRIGHT
 10
0.0
 20
0.0
 30
0.0
  9
$PUCSORGFRONT
 10
0.0
 20
0.0
 30
0.0
  9
$PUCSORGBACK
 10
0.0
 20
0.0
 30
0.0
  9
$USERI1
 70
     0
  9
$USERI2
 70
     0
  9
$USERI3
 70
     0
  9
$USERI4
 70
     0
  9
$USERI5
 70
     0
  9
$USERR1
 40
0.0
  9
$USERR2
 40
0.0
  9
$USERR3
 40
0.0
  9
$USERR4
 40
0.0
  9
$USERR5
 40
0.0
  9
$WORLDVIEW
 70
     1
  9
$SHADEDGE
 70
     3
  9
$SHADEDIF
 70
    70
  9
$TILEMODE
 70
     1
  9
$MAXACTVP
 70
    64
  9
$PINSBASE
 10
0.0
 20
0.0
 30
0.0
  9
$PLIMCHECK
 70
     0
  9
$PEXTMIN
 10
1.000000000000000E+20
 20
1.000000000000000E+20
 30
1.000000000000000E+20
  9
$PEXTMAX
 10
-1.000000000000000E+20
 20
-1.000000000000000E+20
 30
-1.000000000000000E+20
  9
$PLIMMIN
 10
0.0
 20
0.0
  9
$PLIMMAX
 10
0.0
 20
0.0
  9
$UNITMODE
 70
     0
  9
$VISRETAIN
 70
     1
  9
$PLINEGEN
 70
     0
  9
$PSLTSCALE
 70
     1
  9
$TREEDEPTH
 70
  3020
  9
$CMLSTYLE
  2
Standard
  9
$CMLJUST
 70
     0
  9
$CMLSCALE
 40
20.0
  9
$PROXYGRAPHICS
 70
     1
  9
$MEASUREMENT
 70
     1
  9
$CELWEIGHT
370
    -1
  9
$ENDCAPS
280
     0
  9
$JOINSTYLE
280
     0
  9
$LWDISPLAY
290
     1
  9
$INSUNITS
 70
     4
  9
$HYPERLINKBASE
  1

  9
$STYLESHEET
  1

  9
$XEDIT
290
     1
  9
$CEPSNTYPE
380
     0
  9
$PSTYLEMODE
290
     1
  9
$FINGERPRINTGUID
  2
{0951D509-2826-4AC8-B168-68908ACF5EB9}
  9
$VERSIONGUID
  2
{FAEB1C32-E019-11D5-929B-00C0DF256EC4}
  9
$EXTNAMES
290
     1
  9
$PSVPSCALE
 40
0.0
  9
$OLESTARTUP
290
     0
  0
ENDSEC
  0
SECTION
  2
CLASSES
  0
CLASS
  1
ACDBDICTIONARYWDFLT
  2
AcDbDictionaryWithDefault
  3
ObjectDBX Classes
 90
        0
280
     0
281
     0
  0
CLASS
  1
VISUALSTYLE
  2
AcDbVisualStyle
  3
ObjectDBX Classes
 90
     4095
280
     0
281
     0
  0
CLASS
  1
MATERIAL
  2
AcDbMaterial
  3
ObjectDBX Classes
 90
     1153
280
     0
281
     0
  0
CLASS
  1
SCALE
  2
AcDbScale
  3
ObjectDBX Classes
 90
     1153
280
     0
281
     0
  0
CLASS
  1
SUN
  2
AcDbSun
  3
SCENEOE
 90
     1153
280
     0
281
     0
  0
CLASS
  1
ACDBPLACEHOLDER
  2
AcDbPlaceHolder
  3
ObjectDBX Classes
 90
        0
280
     0
281
     0
  0
CLASS
  1
LAYOUT
  2
AcDbLayout
  3
ObjectDBX Classes
 90
        0
280
     0
281
     0
  0
CLASS
  1
TABLESTYLE
  2
AcDbTableStyle
  3
ObjectDBX Classes
 90
     4095
280
     0
281
     0
  0
CLASS
  1
MLEADERSTYLE
  2
AcDbMLeaderStyle
  3
ACDB_MLEADERSTYLE_CLASS
 90
     4095
280
     0
281
     0
  0
CLASS
  1
RASTERVARIABLES
  2
AcDbRasterVariables
  3
ISM
 90
        0
280
     0
281
     0
  0
ENDSEC
  0
SECTION
  2
TABLES
  0
TABLE
  2
VPORT
  5
8
330
0
100
AcDbSymbolTable
 70
     1
  0
VPORT
  5
29
330
8
100
AcDbSymbolTableRecord
100
AcDbViewportTableRecord
  2
*Active
 70
     0
 10
0.0
 20
0.0
 11
1.0
 21
1.0
 12
37.40282881757551
 22
2.247115994324692
 13
0.0
 23
0.0
 14
10.0
 24
10.0
 15
10.0
 25
10.0
 16
0.0
 26
0.0
 36
1.0
 17
0.0
 27
0.0
 37
0.0
 40
17.86874608714753
 41
1.627413127413127
 42
50.0
 43
0.0
 44
0.0
 50
0.0
 51
0.0
 71
    16
 72
  2000
 73
     1
 74
     3
 75
     0
 76
     0
 77
     0
 78
     0
281
     0
 65
     1
110
0.0
120
0.0
130
0.0
111
1.0
121
0.0
131
0.0
112
0.0
122
1.0
132
0.0
 79
     0
146
0.0
  0
ENDTAB
  0
TABLE
  2
LTYPE
  5
5
330
0
100
AcDbSymbolTable
 70
     6
  0
LTYPE
  5
14
330
5
100
AcDbSymbolTableRecord
100
AcDbLinetypeTableRecord
  2
ByBlock
 70
     0
  3

 72
    65
 73
     0
 40
0.0
  0
LTYPE
  5
15
330
5
100
AcDbSymbolTableRecord
100
AcDbLinetypeTableRecord
  2
ByLayer
 70
     0
  3

 72
    65
 73
     0
 40
0.0
  0
LTYPE
  5
16
330
5
100
AcDbSymbolTableRecord
100
AcDbLinetypeTableRecord
  2
Continuous
 70
     0
  3
Solid line
 72
    65
 73
     0
 40
0.0
  0
LTYPE
  5
6A
330
5
100
AcDbSymbolTableRecord
100
AcDbLinetypeTableRecord
  2
HIDDEN
 70
     0
  3
Hidden __ __ __ __ __ __ __ __ __ __ __ __ __ __
 72
    65
 73
     2
 40
1.905
 49
1.27
 74
     0
 49
-0.635
 74
     0
  0
LTYPE
  5
6B
330
5
100
AcDbSymbolTableRecord
100
AcDbLinetypeTableRecord
  2
PHANTOM
 70
     0
  3
Phantom ______  __  __  ______  __  __  ______
 72
    65
 73
     6
 40
12.7
 49
6.35
 74
     0
 49
-1.27
 74
     0
 49
1.27
 74
     0
 49
-1.27
 74
     0
 49
1.27
 74
     0
 49
-1.27
 74
     0
  0
LTYPE
  5
6C
330
5
100
AcDbSymbolTableRecord
100
AcDbLinetypeTableRecord
  2
CENTER
 70
     0
  3
Center ____ _ ____ _ ____ _ ____ _ ____ _ ____
 72
    65
 73
     4
 40
10.16
 49
6.35
 74
     0
 49
-1.27
 74
     0
 49
1.27
 74
     0
 49
-1.27
 74
     0
  0
LTYPE
  5
6D
330
5
100
AcDbSymbolTableRecord
100
AcDbLinetypeTableRecord
  2
CENTERX2
 70
     0
  3
Center (2x) ________  __  ________  __  _____
 72
    65
 73
     4
 40
20.32
 49
12.7
 74
     0
 49
-2.54
 74
     0
 49
2.54
 74
     0
 49
-2.54
 74
     0
  0
LTYPE
  5
6E
330
5
100
AcDbSymbolTableRecord
100
AcDbLinetypeTableRecord
  2
DOT2
 70
     0
  3
Dot (.5x) ........................................
 72
    65
 73
     2
 40
0.635
 49
0.0
 74
     0
 49
-0.635
 74
     0
  0
ENDTAB
  0
TABLE
  2
LAYER
  5
2
330
0
100
AcDbSymbolTable
 70
    17
  0
LAYER
  5
10
330
2
100
AcDbSymbolTableRecord
100
AcDbLayerTableRecord
  2
0
 70
     0
 62
     7
  6
Continuous
370
    -3
390
F
  0
LAYER
  5
6F
330
2
100
AcDbSymbolTableRecord
100
AcDbLayerTableRecord
  2
FORMAT
 70
     0
 62
     2
  6
Continuous
370
    -3
390
F
  0
LAYER
  5
70
330
2
100
AcDbSymbolTableRecord
100
AcDbLayerTableRecord
  2
외형선
 70
     0
 62
   100
  6
Continuous
370
    30
390
F
  0
LAYER
  5
71
330
2
100
AcDbSymbolTableRecord
100
AcDbLayerTableRecord
  2
숨은선
 70
     0
 62
     2
  6
HIDDEN
370
    15
390
F
  0
LAYER
  5
72
330
2
100
AcDbSymbolTableRecord
100
AcDbLayerTableRecord
  2
중심선
 70
     0
 62
     1
  6
CENTERX2
370
    -3
390
F
  0
LAYER
  5
73
330
2
100
AcDbSymbolTableRecord
100
AcDbLayerTableRecord
  2
파단선
 70
     0
 62
     4
  6
Continuous
370
    -3
390
F
  0
LAYER
  5
74
330
2
100
AcDbSymbolTableRecord
100
AcDbLayerTableRecord
  2
해칭선
 70
     0
 62
     4
  6
Continuous
370
    -3
390
F
  0
LAYER
  5
75
330
2
100
AcDbSymbolTableRecord
100
AcDbLayerTableRecord
  2
가는실선
 70
     0
 62
     4
  6
Continuous
370
    -3
390
F
  0
LAYER
  5
76
330
2
100
AcDbSymbolTableRecord
100
AcDbLayerTableRecord
  2
치수_보조선
 70
     0
 62
     4
  6
Continuous
370
    -3
390
F
  0
LAYER
  5
77
330
2
100
AcDbSymbolTableRecord
100
AcDbLayerTableRecord
  2
치수문자_일반주서
 70
     0
 62
     7
  6
Continuous
370
    15
390
F
  0
LAYER
  5
78
330
2
100
AcDbSymbolTableRecord
100
AcDbLayerTableRecord
  2
개별주서
 70
     0
 62
   100
  6
Continuous
370
    30
390
F
  0
LAYER
  5
79
330
2
100
AcDbSymbolTableRecord
100
AcDbLayerTableRecord
  2
중간선
 70
     0
 62
     2
  6
Continuous
370
    15
390
F
  0
LAYER
  5
7A
330
2
100
AcDbSymbolTableRecord
100
AcDbLayerTableRecord
  2
윤곽선
 70
     0
 62
     3
  6
Continuous
370
    40
390
F
  0
LAYER
  5
7B
330
2
100
AcDbSymbolTableRecord
100
AcDbLayerTableRecord
  2
중심마크
 70
     0
 62
   100
  6
Continuous
370
    30
390
F
  0
LAYER
  5
7C
330
2
100
AcDbSymbolTableRecord
100
AcDbLayerTableRecord
  2
가상선
 70
     0
 62
     4
  6
PHANTOM
370
    -3
390
F
  0
LAYER
  5
7D
330
2
100
AcDbSymbolTableRecord
100
AcDbLayerTableRecord
  2
특수지정선
 70
     0
 62
     5
  6
CENTERX2
370
    60
390
F
  0
LAYER
  5
154
330
2
100
AcDbSymbolTableRecord
100
AcDbLayerTableRecord
  2
Defpoints
 70
     0
 62
     7
  6
Continuous
290
     0
370
    -3
390
F
  0
ENDTAB
  0
TABLE
  2
STYLE
  5
3
330
0
100
AcDbSymbolTable
 70
     2
  0
STYLE
  5
11
330
3
100
AcDbSymbolTableRecord
100
AcDbTextStyleTableRecord
  2
Standard
 70
     0
 40
0.0
 41
1.0
 50
0.0
 71
     0
 42
3.5
  3
txt
  4

  0
STYLE
  5
93
330
3
100
AcDbSymbolTableRecord
100
AcDbTextStyleTableRecord
  2
SLDTEXTSTYLE0
 70
     0
 40
0.0
 41
0.75
 50
0.0
 71
     0
 42
3.5
  3
TXT
  4

  0
ENDTAB
  0
TABLE
  2
VIEW
  5
6
330
0
100
AcDbSymbolTable
 70
     0
  0
ENDTAB
  0
TABLE
  2
UCS
  5
7
330
0
100
AcDbSymbolTable
 70
     0
  0
ENDTAB
  0
TABLE
  2
APPID
  5
9
330
0
100
AcDbSymbolTable
 70
     1
  0
APPID
  5
12
330
9
100
AcDbSymbolTableRecord
100
AcDbRegAppTableRecord
  2
ACAD
 70
     0
  0
ENDTAB
  0
TABLE
  2
DIMSTYLE
  5
A
330
0
100
AcDbSymbolTable
 70
     3
100
AcDbDimStyleTable
  0
DIMSTYLE
105
27
330
A
100
AcDbSymbolTableRecord
100
AcDbDimStyleTableRecord
  2
ISO-25
 70
     0
 41
2.5
 42
0.625
 43
3.75
 44
1.25
 73
     0
 74
     0
 77
     1
 78
     8
140
2.5
141
2.5
143
0.03937007874016
147
0.625
171
     3
172
     1
178
     0
271
     2
272
     2
274
     3
278
    44
283
     0
284
     8
340
11
  0
DIMSTYLE
105
F9
102
{ACAD_REACTORS
330
F8
330
106
102
}
330
A
100
AcDbSymbolTableRecord
100
AcDbDimStyleTableRecord
  2
SLDDIMSTYLE0
 70
     0
 41
3.302
 44
0.0
 45
0.000000001
 73
     0
 74
     0
 77
     1
 78
    12
 79
     3
140
3.5
147
0.875
172
     1
173
     1
178
     0
271
     2
272
     2
276
     2
284
    12
289
     0
340
93
  0
DIMSTYLE
105
114
102
{ACAD_REACTORS
330
113
330
11E
102
}
330
A
100
AcDbSymbolTableRecord
100
AcDbDimStyleTableRecord
  2
SLDDIMSTYLE1
 70
     0
 41
3.302
 44
0.0
 45
0.000000001
 73
     0
 74
     0
 77
     1
 78
    12
 79
     3
140
3.5
147
0.875
173
     1
178
     0
271
     2
272
     2
276
     2
284
    12
340
93
  0
ENDTAB
  0
TABLE
  2
BLOCK_RECORD
  5
1
330
0
100
AcDbSymbolTable
 70
     7
  0
BLOCK_RECORD
  5
1F
330
1
100
AcDbSymbolTableRecord
100
AcDbBlockTableRecord
  2
*Model_Space
340
22
  0
BLOCK_RECORD
  5
1B
330
1
100
AcDbSymbolTableRecord
100
AcDbBlockTableRecord
  2
*Paper_Space
340
1E
  0
BLOCK_RECORD
  5
23
330
1
100
AcDbSymbolTableRecord
100
AcDbBlockTableRecord
  2
*Paper_Space0
340
26
  0
BLOCK_RECORD
  5
7E
330
1
100
AcDbSymbolTableRecord
100
AcDbBlockTableRecord
  2
블럭10
340
0
102
{BLKREFS
331
F1
102
}
  0
BLOCK_RECORD
  5
FA
330
1
100
AcDbSymbolTableRecord
100
AcDbBlockTableRecord
  2
_D
340
0
  0
BLOCK_RECORD
  5
107
330
1
100
AcDbSymbolTableRecord
100
AcDbBlockTableRecord
  2
_D_1
340
0
  0
BLOCK_RECORD
  5
115
330
1
100
AcDbSymbolTableRecord
100
AcDbBlockTableRecord
  2
_D_2
340
0
  0
BLOCK_RECORD
  5
11F
330
1
100
AcDbSymbolTableRecord
100
AcDbBlockTableRecord
  2
_D_3
340
0
  0
BLOCK_RECORD
  5
128
330
1
100
AcDbSymbolTableRecord
100
AcDbBlockTableRecord
  2
SW_DOWELSYMBOL_0
340
0
102
{BLKREFS
331
12E
102
}
  0
ENDTAB
  0
ENDSEC
  0
SECTION
  2
BLOCKS
  0
BLOCK
  5
20
330
1F
100
AcDbEntity
  8
0
100
AcDbBlockBegin
  2
*Model_Space
 70
     0
 10
0.0
 20
0.0
 30
0.0
  3
*Model_Space
  1
*Model_Space
  0
ENDBLK
  5
21
330
1F
100
AcDbEntity
  8
0
100
AcDbBlockEnd
  0
BLOCK
  5
1C
330
1B
100
AcDbEntity
 67
     1
  8
0
100
AcDbBlockBegin
  2
*Paper_Space
 70
     0
 10
0.0
 20
0.0
 30
0.0
  3
*Paper_Space
  1
*Paper_Space
  0
ENDBLK
  5
1D
330
1B
100
AcDbEntity
 67
     1
  8
0
100
AcDbBlockEnd
  0
BLOCK
  5
24
330
23
100
AcDbEntity
  8
0
100
AcDbBlockBegin
  2
*Paper_Space0
 70
     0
 10
0.0
 20
0.0
 30
0.0
  3
*Paper_Space0
  1
*Paper_Space0
  0
ENDBLK
  5
25
330
23
100
AcDbEntity
  8
0
100
AcDbBlockEnd
  0
BLOCK
  5
7F
330
7E
100
AcDbEntity
  8
0
100
AcDbBlockBegin
  2
블럭10
 70
     2
 10
0.0
 20
0.0
 30
0.0
  3
블럭10
  1
블럭10
  0
ELLIPSE
  5
81
330
7E
100
AcDbEntity
  8
중심선
100
AcDbEllipse
 10
20.54032771741204
 20
12.0471743016438
 30
0.0
 11
6.600054785286829
 21
-1.261213355974178E-13
 31
0.0
210
0.0
220
0.0
230
1.0
 40
0.636358354079598
 41
0.9219305317359503
 42
6.513795318482858
  0
ELLIPSE
  5
82
330
7E
100
AcDbEntity
  8
중심선
100
AcDbEllipse
 10
20.54032771746488
 20
12.04717430159265
 30
0.0
 11
3.960054785062283
 21
1.540847449632565E-10
 31
0.0
210
0.0
220
0.0
230
1.0
 40
0.3939339440162632
 41
1.131841032648279
 42
5.62031148352944
  0
LINE
  5
83
330
7E
100
AcDbEntity
  8
중심선
100
AcDbLine
 10
2.268634060543552
 20
16.24717430164393
 30
0.0
 11
5.714909304380834
 21
16.24717430164393
 31
0.0
  0
LINE
  5
84
330
7E
100
AcDbEntity
  8
중심선
100
AcDbLine
 10
5.245725140726316
 20
7.84717430164391
 30
0.0
 11
8.692000384563599
 21
7.84717430164391
 31
0.0
  0
LINE
  5
85
330
7E
100
AcDbEntity
  8
중심선
100
AcDbLine
 10
15.74043728645272
 20
16.24717430164393
 30
0.0
 11
8.692000384563599
 21
7.84717430164391
 31
0.0
  0
LINE
  5
86
330
7E
100
AcDbEntity
  8
중심선
100
AcDbLine
 10
0.1404042013395286
 20
13.71084872107135
 30
0.0
 11
3.58671253028996
 21
13.71088815037384
 31
0.0
  0
LINE
  5
87
330
7E
100
AcDbEntity
  8
중심선
100
AcDbLine
 10
2.750260043222114
 20
10.84717430164391
 30
0.0
 11
6.196535287059397
 21
10.84717430164391
 31
0.0
  0
LINE
  5
88
330
7E
100
AcDbEntity
  8
중심선
100
AcDbLine
 10
12.29416204261559
 20
16.24717430164393
 30
0.0
 11
5.245725140726316
 21
7.84717430164391
 31
0.0
  0
LINE
  5
89
330
7E
100
AcDbEntity
  8
중심선
100
AcDbLine
 10
10.72767329541681
 20
16.24717430164393
 30
0.0
 11
6.196535287059397
 21
10.84717430164391
 31
0.0
  0
LINE
  5
8A
330
7E
100
AcDbEntity
  8
중심선
100
AcDbLine
 10
7.28139805157953
 20
16.24717430164393
 30
0.0
 11
2.750260043222114
 21
10.84717430164391
 31
0.0
  0
LINE
  5
8B
330
7E
100
AcDbEntity
  8
중심선
100
AcDbLine
 10
5.714909304380834
 20
16.24717430164393
 30
0.0
 11
3.58671253028996
 21
13.71088815037384
 31
0.0
  0
LINE
  5
8C
330
7E
100
AcDbEntity
  8
중심선
100
AcDbLine
 10
2.268634060543552
 20
16.24717430164393
 30
0.0
 11
0.1404042013395286
 21
13.71084872107135
 31
0.0
  0
LINE
  5
8D
330
7E
100
AcDbEntity
  8
중심선
100
AcDbLine
 10
7.28139805157953
 20
16.24717430164393
 30
0.0
 11
10.72767329541681
 21
16.24717430164393
 31
0.0
  0
LINE
  5
8E
330
7E
100
AcDbEntity
  8
중심선
100
AcDbLine
 10
12.29416204261559
 20
16.24717430164393
 30
0.0
 11
15.74043728645272
 21
16.24717430164393
 31
0.0
  0
LINE
  5
8F
330
7E
100
AcDbEntity
  8
중심선
100
AcDbLine
 10
19.22036997980202
 20
11.08717430171403
 30
0.0
 11
23.66174974927406
 21
11.08717430171406
 31
0.0
  0
LINE
  5
90
330
7E
100
AcDbEntity
  8
중심선
100
AcDbLine
 10
19.22039502424796
 20
13.00717430171391
 30
0.0
 11
19.22036997980202
 21
11.08717430171403
 31
0.0
  0
LINE
  5
91
330
7E
100
AcDbEntity
  8
중심선
100
AcDbLine
 10
19.22039502424796
 20
13.00717430171391
 30
0.0
 11
26.96566020931264
 21
13.00717430171391
 31
0.0
  0
LINE
  5
92
330
7E
100
AcDbEntity
  8
중심선
100
AcDbLine
 10
22.22332737316547
 20
13.45928029700563
 30
0.0
 11
24.52862924686651
 21
15.39360700705356
 31
0.0
  0
ATTDEF
  5
94
330
7E
100
AcDbEntity
  8
FORMAT
 62
     2
100
AcDbText
 10
-16.11926103943555
 20
2.075366912832191
 30
0.0
 40
4.233333333333333
  1
SEME7506030E [ 6 FLUTE ]
 41
0.75
  7
SLDTEXTSTYLE0
 11
-16.11926103943555
 21
-0.0412997538344756
 31
0.0
100
AcDbAttributeDefinition
  3

  2
AUTOATTR0
 70
     0
 74
     1
  0
ENDBLK
  5
80
330
7E
100
AcDbEntity
  8
0
100
AcDbBlockEnd
  0
BLOCK
  5
FB
330
FA
100
AcDbEntity
  8
0
100
AcDbBlockBegin
  2
_D
 70
     0
 10
0.0
 20
0.0
 30
0.0
  3
_D
  1
_D
  0
SOLID
  5
FD
330
FA
100
AcDbEntity
  8
치수문자_일반주서
100
AcDbTrace
 10
-62.02756351970788
 20
3.001074928723895
 30
0.0
 11
-61.51956351970787
 21
6.303074928723895
 31
0.0
 12
-62.53556351970788
 22
6.303074928723895
 32
0.0
 13
-62.53556351970788
 23
6.303074928723895
 33
0.0
  0
SOLID
  5
FE
330
FA
100
AcDbEntity
  8
치수문자_일반주서
100
AcDbTrace
 10
-62.02756351970788
 20
-2.998925071276111
 30
0.0
 11
-62.53556351970788
 21
-6.30092507127611
 31
0.0
 12
-61.51956351970787
 22
-6.30092507127611
 32
0.0
 13
-61.51956351970787
 23
-6.30092507127611
 33
0.0
  0
LINE
  5
FF
330
FA
100
AcDbEntity
  8
치수문자_일반주서
100
AcDbLine
 10
-44.39865738838444
 20
3.001074928723896
 30
0.0
 11
-63.02756351970787
 21
3.001074928723895
 31
0.0
  0
LINE
  5
100
330
FA
100
AcDbEntity
  8
치수문자_일반주서
100
AcDbLine
 10
-44.39865738838444
 20
-2.998925071276109
 30
0.0
 11
-63.02756351970787
 21
-2.998925071276111
 31
0.0
  0
LINE
  5
101
330
FA
100
AcDbEntity
  8
치수문자_일반주서
100
AcDbLine
 10
-62.02756351970788
 20
3.001074928723895
 30
0.0
 11
-62.02756351970788
 21
9.351074928723893
 31
0.0
  0
LINE
  5
102
330
FA
100
AcDbEntity
  8
치수문자_일반주서
100
AcDbLine
 10
-62.02756351970788
 20
3.001074928723895
 30
0.0
 11
-62.02756351970788
 21
-2.998925071276111
 31
0.0
  0
LINE
  5
103
330
FA
100
AcDbEntity
  8
치수문자_일반주서
100
AcDbLine
 10
-62.02756351970788
 20
-2.998925071276111
 30
0.0
 11
-62.02756351970788
 21
-9.348925071276112
 31
0.0
  0
MTEXT
  5
104
330
FA
100
AcDbEntity
  8
치수문자_일반주서
100
AcDbMText
 10
-66.53930060890973
 20
-3.931199483639909
 30
0.0
 40
3.5
 41
0.0
 71
     1
 72
     1
  1
%%c
  7
SLDTEXTSTYLE0
 11
-7.044195017643634E-15
 21
1.0
 31
0.0
 73
     1
 44
1.0
  0
MTEXT
  5
105
330
FA
100
AcDbEntity
  8
치수문자_일반주서
100
AcDbMText
 10
-66.59277278556962
 20
1.347237914734172
 30
0.0
 40
3.5
 41
0.0
 71
     1
 72
     1
  1
6
  7
SLDTEXTSTYLE0
 11
-7.044195017643634E-15
 21
1.0
 31
0.0
 73
     1
 44
1.0
  0
ENDBLK
  5
FC
330
FA
100
AcDbEntity
  8
0
100
AcDbBlockEnd
  0
BLOCK
  5
108
330
107
100
AcDbEntity
  8
0
100
AcDbBlockBegin
  2
_D_1
 70
     0
 10
0.0
 20
0.0
 30
0.0
  3
_D_1
  1
_D_1
  0
LINE
  5
10A
330
107
100
AcDbEntity
  8
치수문자_일반주서
 62
     0
370
    -2
100
AcDbLine
 10
36.06384261161554
 20
3.001074928723895
 30
0.0
 11
46.00134261161551
 21
3.001074928723929
 31
0.0
  0
LINE
  5
10B
330
107
100
AcDbEntity
  8
치수문자_일반주서
 62
     0
370
    -2
100
AcDbLine
 10
36.06384261161554
 20
-2.998925071276108
 30
0.0
 11
46.00134261161553
 21
-2.998925071276074
 31
0.0
  0
LINE
  5
10C
330
107
100
AcDbEntity
  8
치수문자_일반주서
 62
     0
370
    -2
100
AcDbLine
 10
46.00134261161553
 20
-0.3009250712760703
 30
0.0
 11
46.00134261161552
 21
0.3030749287239258
 31
0.0
  0
SOLID
  5
10D
330
107
100
AcDbEntity
  8
치수문자_일반주서
 62
     0
100
AcDbTrace
 10
46.55167594494886
 20
-0.3009250712760683
 30
0.0
 11
45.45100927828219
 21
-0.3009250712760722
 31
0.0
 12
46.00134261161551
 22
3.001074928723929
 32
0.0
 13
46.00134261161551
 23
3.001074928723929
 33
0.0
  0
SOLID
  5
10E
330
107
100
AcDbEntity
  8
치수문자_일반주서
 62
     0
100
AcDbTrace
 10
45.45100927828219
 20
0.3030749287239239
 30
0.0
 11
46.55167594494885
 21
0.3030749287239278
 31
0.0
 12
46.00134261161553
 22
-2.998925071276074
 32
0.0
 13
46.00134261161553
 23
-2.998925071276074
 33
0.0
  0
MTEXT
  5
10F
330
107
100
AcDbEntity
  8
치수문자_일반주서
 62
     0
100
AcDbMText
 10
41.62634261161552
 20
0.3967333787814735
 30
0.0
 40
3.5
 41
0.0
 71
     2
 72
     1
  1
\A1;%%c6
  7
SLDTEXTSTYLE0
 11
-3.552713678800499E-15
 21
1.0
 31
0.0
 73
     1
 44
1.0
  0
POINT
  5
110
330
107
100
AcDbEntity
  8
Defpoints
 62
     0
100
AcDbPoint
 10
36.00134261161554
 20
3.001074928723895
 30
0.0
  0
POINT
  5
111
330
107
100
AcDbEntity
  8
Defpoints
 62
     0
100
AcDbPoint
 10
36.00134261161554
 20
-2.998925071276108
 30
0.0
  0
POINT
  5
112
330
107
100
AcDbEntity
  8
Defpoints
 62
     0
100
AcDbPoint
 10
46.00134261161553
 20
-2.998925071276073
 30
0.0
  0
ENDBLK
  5
109
330
107
100
AcDbEntity
  8
0
100
AcDbBlockEnd
  0
BLOCK
  5
116
330
115
100
AcDbEntity
  8
0
100
AcDbBlockBegin
  2
_D_2
 70
     0
 10
0.0
 20
0.0
 30
0.0
  3
_D_2
  1
_D_2
  0
SOLID
  5
118
330
115
100
AcDbEntity
  8
치수문자_일반주서
100
AcDbTrace
 10
6.001342611615545
 20
46.3126592336156
 30
0.0
 11
9.303342611615545
 21
45.8046592336156
 31
0.0
 12
9.303342611615545
 22
46.8206592336156
 32
0.0
 13
9.303342611615545
 23
46.8206592336156
 33
0.0
  0
SOLID
  5
119
330
115
100
AcDbEntity
  8
치수문자_일반주서
100
AcDbTrace
 10
36.00134261161554
 20
46.3126592336156
 30
0.0
 11
32.69934261161554
 21
46.8206592336156
 31
0.0
 12
32.69934261161554
 22
45.8046592336156
 32
0.0
 13
32.69934261161554
 23
45.8046592336156
 33
0.0
  0
LINE
  5
11A
330
115
100
AcDbEntity
  8
치수문자_일반주서
100
AcDbLine
 10
6.001342611615542
 20
3.817818614973794
 30
0.0
 11
6.001342611615545
 21
47.3126592336156
 31
0.0
  0
LINE
  5
11B
330
115
100
AcDbEntity
  8
치수문자_일반주서
100
AcDbLine
 10
36.00134261161554
 20
3.979182581436908
 30
0.0
 11
36.00134261161554
 21
47.3126592336156
 31
0.0
  0
LINE
  5
11C
330
115
100
AcDbEntity
  8
치수문자_일반주서
100
AcDbLine
 10
6.001342611615545
 20
46.3126592336156
 30
0.0
 11
36.00134261161554
 21
46.3126592336156
 31
0.0
  0
MTEXT
  5
11D
330
115
100
AcDbEntity
  8
치수문자_일반주서
100
AcDbMText
 10
15.69272774733201
 20
50.8243961481945
 30
0.0
 40
3.5
 41
0.0
 71
     1
 72
     1
  1
30
  7
SLDTEXTSTYLE0
 73
     1
 44
1.0
  0
ENDBLK
  5
117
330
115
100
AcDbEntity
  8
0
100
AcDbBlockEnd
  0
BLOCK
  5
120
330
11F
100
AcDbEntity
  8
0
100
AcDbBlockBegin
  2
_D_3
 70
     0
 10
0.0
 20
0.0
 30
0.0
  3
_D_3
  1
_D_3
  0
SOLID
  5
122
330
11F
100
AcDbEntity
  8
치수문자_일반주서
100
AcDbTrace
 10
36.00134261161553
 20
73.92386524230655
 30
0.0
 11
32.69934261161553
 21
74.43186524230654
 31
0.0
 12
32.69934261161553
 22
73.41586524230655
 32
0.0
 13
32.69934261161553
 23
73.41586524230655
 33
0.0
  0
SOLID
  5
123
330
11F
100
AcDbEntity
  8
치수문자_일반주서
100
AcDbTrace
 10
-43.99865738838447
 20
73.92386524230655
 30
0.0
 11
-40.69665738838447
 21
73.41586524230655
 31
0.0
 12
-40.69665738838447
 22
74.43186524230654
 32
0.0
 13
-40.69665738838447
 23
74.43186524230654
 33
0.0
  0
LINE
  5
124
330
11F
100
AcDbEntity
  8
치수문자_일반주서
100
AcDbLine
 10
36.00134261161554
 20
3.979182581436908
 30
0.0
 11
36.00134261161553
 21
74.92386524230655
 31
0.0
  0
LINE
  5
125
330
11F
100
AcDbEntity
  8
치수문자_일반주서
100
AcDbLine
 10
-43.99865738838446
 20
3.401074928723894
 30
0.0
 11
-43.99865738838447
 21
74.92386524230655
 31
0.0
  0
LINE
  5
126
330
11F
100
AcDbEntity
  8
치수문자_일반주서
100
AcDbLine
 10
36.00134261161553
 20
73.92386524230655
 30
0.0
 11
-43.99865738838447
 21
73.92386524230655
 31
0.0
  0
MTEXT
  5
127
330
11F
100
AcDbEntity
  8
치수문자_일반주서
100
AcDbMText
 10
-4.106238023165538
 20
78.43560215688545
 30
0.0
 40
3.5
 41
0.0
 71
     1
 72
     1
  1
80
  7
SLDTEXTSTYLE0
 73
     1
 44
1.0
  0
ENDBLK
  5
121
330
11F
100
AcDbEntity
  8
0
100
AcDbBlockEnd
  0
BLOCK
  5
129
330
128
100
AcDbEntity
  8
0
100
AcDbBlockBegin
  2
SW_DOWELSYMBOL_0
 70
     0
 10
0.0
 20
0.0
 30
0.0
  3
SW_DOWELSYMBOL_0
  1
SW_DOWELSYMBOL_0
  0
CIRCLE
  5
12B
330
128
100
AcDbEntity
  8
외형선
 62
     0
100
AcDbCircle
 10
0.0
 20
0.0
 30
0.0
 40
3.000000000000001
  0
HATCH
  5
12C
330
128
100
AcDbEntity
  8
0
  6
Continuous
 62
     0
370
    30
100
AcDbHatch
 10
0.0
 20
0.0
 30
0.0
210
0.0
220
0.0
230
1.0
  2
SOLID
 70
     1
 71
     0
 91
        1
 92
        0
 93
        3
 72
     2
 10
-0.0000000000000035
 20
0.0
 40
3.000000000000001
 50
0.0
 51
90.0
 73
     1
 72
     1
 10
-0.0000000000000035
 20
3.000000000000001
 11
-0.0000000000000035
 21
0.0
 72
     1
 10
-0.0000000000000035
 20
0.0
 11
2.999999999999998
 21
0.0
 97
        0
 75
     0
 76
     1
 98
        1
 10
0.0
 20
0.0
  0
HATCH
  5
12D
330
128
100
AcDbEntity
  8
0
  6
Continuous
 62
     0
370
    30
100
AcDbHatch
 10
0.0
 20
0.0
 30
0.0
210
0.0
220
0.0
230
1.0
  2
SOLID
 70
     1
 71
     0
 91
        1
 92
        0
 93
        3
 72
     2
 10
-0.0000000000000035
 20
0.0
 40
3.000000000000001
 50
180.0
 51
270.0000000000008
 73
     1
 72
     1
 10
-0.0000000000000035
 20
-3.000000000000001
 11
-0.0000000000000035
 21
0.0
 72
     1
 10
-0.0000000000000035
 20
0.0
 11
-3.000000000000005
 21
0.0
 97
        0
 75
     0
 76
     1
 98
        1
 10
0.0
 20
0.0
  0
ENDBLK
  5
12A
330
128
100
AcDbEntity
  8
0
100
AcDbBlockEnd
  0
ENDSEC
  0
SECTION
  2
ENTITIES
  0
LINE
  5
95
330
1F
100
AcDbEntity
  8
0
  6
Continuous
 62
   131
370
    15
100
AcDbLine
 10
20.94395943743714
 20
0.5567831017692801
 30
0.0
 11
20.89780938709209
 21
0.6009055355516074
 31
0.0
  0
LINE
  5
96
330
1F
100
AcDbEntity
  8
0
  6
Continuous
 62
   131
370
    15
100
AcDbLine
 10
11.51878199052097
 20
0.5572243394758817
 30
0.0
 11
11.47300761191235
 21
0.600929033771723
 31
0.0
  0
LINE
  5
97
330
1F
100
AcDbEntity
  8
0
  6
Continuous
 62
   131
370
    15
100
AcDbLine
 10
30.36235259298066
 20
0.5628911783703284
 30
0.0
 11
30.32255639895155
 21
0.6009360735316823
 31
0.0
  0
LINE
  5
98
330
1F
100
AcDbEntity
  8
0
  6
Continuous
 62
   131
370
    15
100
AcDbLine
 10
29.06255357766807
 20
-0.5492310793393753
 30
0.0
 11
29.1158268830575
 21
-0.6000065710765697
 31
0.0
  0
LINE
  5
99
330
1F
100
AcDbEntity
  8
0
  6
Continuous
 62
   131
370
    15
100
AcDbLine
 10
24.07905267803044
 20
0.562190359030064
 30
0.0
 11
24.03770379601186
 21
0.6017640763673907
 31
0.0
  0
LINE
  5
9A
330
1F
100
AcDbEntity
  8
0
  6
Continuous
 62
   131
370
    15
100
AcDbLine
 10
17.80704784635062
 20
0.5521765039475159
 30
0.0
 11
17.75663905407832
 21
0.6008069663893145
 31
0.0
  0
LINE
  5
9B
330
1F
100
AcDbEntity
  8
0
  6
Continuous
 62
     1
370
    15
100
AcDbLine
 10
35.30852082898864
 20
-0.5147610940979651
 30
0.0
 11
35.42443943712704
 21
-0.6259250286691441
 31
0.0
  0
LINE
  5
9C
330
1F
100
AcDbEntity
  8
0
  6
Continuous
 62
   131
370
    15
100
AcDbLine
 10
7.062652412046622
 20
-0.5414192616052877
 30
0.0
 11
7.107092147170903
 21
-0.5839339671085387
 31
0.0
  0
LINE
  5
9D
330
1F
100
AcDbEntity
  8
0
  6
Continuous
 62
   131
370
    15
100
AcDbLine
 10
25.94342253742819
 20
-0.5714509031048445
 30
0.0
 11
25.97094798955458
 21
-0.5979105572094003
 31
0.0
  0
LINE
  5
9E
330
1F
100
AcDbEntity
  8
0
  6
Continuous
 62
     1
370
    15
100
AcDbLine
 10
35.63842123344136
 20
-2.998925071276108
 30
0.0
 11
36.00134261161554
 21
-2.998925071276108
 31
0.0
  0
LINE
  5
9F
330
1F
100
AcDbEntity
  8
0
  6
Continuous
 62
     1
370
    15
100
AcDbLine
 10
16.78840043771553
 20
-2.998925071276108
 30
0.0
 11
17.51337198862234
 21
-2.998925071276108
 31
0.0
  0
LINE
  5
A0
330
1F
100
AcDbEntity
  8
0
  6
Continuous
 62
   131
370
    15
100
AcDbLine
 10
8.089810204439788
 20
3.001074928723895
 30
0.0
 11
7.365235968031458
 21
3.001074928723895
 31
0.0
  0
LINE
  5
A1
330
1F
100
AcDbEntity
  8
0
  6
Continuous
 62
     1
370
    15
100
AcDbLine
 10
26.93849638022536
 20
3.001074928723895
 30
0.0
 11
26.21301558576367
 21
3.001074928723895
 31
0.0
  0
LINE
  5
A2
330
1F
100
AcDbEntity
  8
0
  6
Continuous
 62
     1
370
    15
100
AcDbLine
 10
26.21301558576364
 20
-2.998925071276108
 30
0.0
 11
26.93849638022533
 21
-2.998925071276108
 31
0.0
  0
LINE
  5
A3
330
1F
100
AcDbEntity
  8
0
  6
Continuous
 62
     1
370
    15
100
AcDbLine
 10
7.365235968031458
 20
-2.998925071276108
 30
0.0
 11
8.089810204439752
 21
-2.998925071276108
 31
0.0
  0
LINE
  5
A4
330
1F
100
AcDbEntity
  8
0
  6
Continuous
 62
     1
370
    15
100
AcDbLine
 10
17.51337198862233
 20
3.001074928723895
 30
0.0
 11
16.78840043771554
 21
3.001074928723895
 31
0.0
  0
LINE
  5
A5
330
1F
100
AcDbEntity
  8
0
  6
Continuous
 62
     1
370
    15
100
AcDbLine
 10
36.00134261161554
 20
3.001074928723895
 30
0.0
 11
35.63842123344136
 21
3.001074928723895
 31
0.0
  0
LINE
  5
A6
330
1F
100
AcDbEntity
  8
0
  6
Continuous
 62
     1
370
    15
100
AcDbLine
 10
29.35543736498655
 20
-2.998925071276108
 30
0.0
 11
30.080074196248
 21
-2.998925071276108
 31
0.0
  0
LINE
  5
A7
330
1F
100
AcDbEntity
  8
0
  6
Continuous
 62
     1
370
    15
100
AcDbLine
 10
10.50629723568258
 20
-2.998925071276108
 30
0.0
 11
11.2317096951329
 21
-2.998925071276108
 31
0.0
  0
LINE
  5
A8
330
1F
100
AcDbEntity
  8
0
  6
Continuous
 62
     1
370
    15
100
AcDbLine
 10
20.65569235119033
 20
3.001074928723895
 30
0.0
 11
19.93091128931475
 21
3.001074928723895
 31
0.0
  0
LINE
  5
A9
330
1F
100
AcDbEntity
  8
0
  6
Continuous
 62
     1
370
    15
100
AcDbLine
 10
23.0720983614735
 20
-2.998925071276108
 30
0.0
 11
23.79788888014028
 21
-2.998925071276108
 31
0.0
  0
LINE
  5
AA
330
1F
100
AcDbEntity
  8
0
  6
Continuous
 62
     1
370
    15
100
AcDbLine
 10
14.37277385584929
 20
3.001074928723895
 30
0.0
 11
13.6465896698585
 21
3.001074928723895
 31
0.0
  0
LINE
  5
AB
330
1F
100
AcDbEntity
  8
0
  6
Continuous
 62
     1
370
    15
100
AcDbLine
 10
33.22266714082538
 20
3.001074928723895
 30
0.0
 11
32.49768732680197
 21
3.001074928723895
 31
0.0
  0
LINE
  5
AC
330
1F
100
AcDbEntity
  8
0
  6
Continuous
 62
     1
370
    15
100
AcDbLine
 10
19.93091128931476
 20
-2.998925071276108
 30
0.0
 11
20.65569235119036
 21
-2.998925071276108
 31
0.0
  0
LINE
  5
AD
330
1F
100
AcDbEntity
  8
0
  6
Continuous
 62
     1
370
    15
100
AcDbLine
 10
11.2317096951329
 20
3.001074928723895
 30
0.0
 11
10.5062972356826
 21
3.001074928723895
 31
0.0
  0
LINE
  5
AE
330
1F
100
AcDbEntity
  8
0
  6
Continuous
 62
     1
370
    15
100
AcDbLine
 10
30.08007419624803
 20
3.001074928723895
 30
0.0
 11
29.35543736498658
 21
3.001074928723895
 31
0.0
  0
LINE
  5
AF
330
1F
100
AcDbEntity
  8
0
  6
Continuous
 62
     1
370
    15
100
AcDbLine
 10
32.49768732680194
 20
-2.998925071276108
 30
0.0
 11
33.22266714082539
 21
-2.998925071276108
 31
0.0
  0
LINE
  5
B0
330
1F
100
AcDbEntity
  8
0
  6
Continuous
 62
     1
370
    15
100
AcDbLine
 10
13.64658966985847
 20
-2.998925071276108
 30
0.0
 11
14.37277385584929
 21
-2.998925071276108
 31
0.0
  0
LINE
  5
B1
330
1F
100
AcDbEntity
  8
0
  6
Continuous
 62
     1
370
    15
100
AcDbLine
 10
23.79788888014027
 20
3.001074928723895
 30
0.0
 11
23.07209836147348
 21
3.001074928723895
 31
0.0
  0
LINE
  5
B2
330
1F
100
AcDbEntity
  8
0
  6
Continuous
 62
   131
370
    15
100
AcDbLine
 10
-43.39865738838446
 20
-2.998925071276107
 30
0.0
 11
5.001088293705734
 21
-2.998925071276107
 31
0.0
  0
LINE
  5
B3
330
1F
100
AcDbEntity
  8
0
  6
Continuous
 62
   131
370
    15
100
AcDbLine
 10
5.001088293705734
 20
3.001074928723893
 30
0.0
 11
-43.39865738838446
 21
3.001074928723893
 31
0.0
  0
LINE
  5
B4
330
1F
100
AcDbEntity
  8
0
  6
Continuous
 62
   131
370
    15
100
AcDbLine
 10
-43.39865738838446
 20
3.001074928723893
 30
0.0
 11
-43.99865738838446
 21
2.401074928723894
 31
0.0
  0
LINE
  5
B5
330
1F
100
AcDbEntity
  8
0
  6
Continuous
 62
   131
370
    15
100
AcDbLine
 10
-43.99865738838446
 20
-2.398925071276108
 30
0.0
 11
-43.39865738838446
 21
-2.998925071276107
 31
0.0
  0
LINE
  5
B6
330
1F
100
AcDbEntity
  8
0
  6
Continuous
 62
     1
370
    15
100
AcDbLine
 10
36.00134261161554
 20
1.7942109477494
 30
0.0
 11
36.00134261161554
 21
2.979182581436908
 31
0.0
  0
LINE
  5
B7
330
1F
100
AcDbEntity
  8
0
  6
Continuous
 62
     1
370
    15
100
AcDbLine
 10
6.001342611620782
 20
-2.815668757524201
 30
0.0
 11
6.156400082319019
 21
-2.745559735412874
 31
0.0
  0
SPLINE
  5
B8
330
1F
100
AcDbEntity
  8
0
  6
Continuous
 62
     1
370
    15
100
AcDbSpline
210
0.0
220
0.0
230
1.0
 70
     8
 71
     3
 72
    21
 73
    17
 74
     0
 42
0.000000001
 43
0.00000001
 40
0.0
 40
0.0
 40
0.0
 40
0.0
 40
0.0662931942436479
 40
0.1391540772448062
 40
0.2119814025190988
 40
0.2848246259303195
 40
0.3577329881637459
 40
0.4307195513262594
 40
0.5036265213761251
 40
0.5764691165721714
 40
0.649296586095933
 40
0.7221583838572664
 40
0.795103499576499
 40
0.8680736430781059
 40
0.9409508797524796
 40
0.9999999999999999
 40
0.9999999999999999
 40
0.9999999999999999
 40
0.9999999999999999
 10
14.37277385584929
 20
2.992809276518173
 30
0.0
 10
14.60784114784796
 20
2.980202336703955
 30
0.0
 10
15.10126392648629
 20
2.953739483363675
 30
0.0
 10
15.85231505887501
 20
2.670405897815778
 30
0.0
 10
16.6264489657684
 20
2.218817280712039
 30
0.0
 10
17.40082963290342
 20
1.615315351745941
 30
0.0
 10
18.17609380267385
 20
0.9057114236045758
 30
0.0
 10
18.95231064702493
 20
0.1361960187813142
 30
0.0
 10
19.7275568307225
 20
-0.6426825639334545
 30
0.0
 10
20.50192975630451
 20
-1.378576704213985
 30
0.0
 10
21.27606026863403
 20
-2.02296983490778
 30
0.0
 10
22.05070836177595
 20
-2.532823423788571
 30
0.0
 10
22.8264265808322
 20
-2.875897775989519
 30
0.0
 10
23.60244527859333
 20
-3.022592918917641
 30
0.0
 10
24.3284733960312
 20
-2.990987630579262
 30
0.0
 10
24.79583073135716
 20
-2.820954857858796
 30
0.0
 10
25.00501591721474
 20
-2.744849628572927
 30
0.0
  0
SPLINE
  5
B9
330
1F
100
AcDbEntity
  8
0
  6
Continuous
 62
     1
370
    15
100
AcDbSpline
210
0.0
220
0.0
230
1.0
 70
     8
 71
     3
 72
    11
 73
     7
 74
     0
 42
0.000000001
 43
0.00000001
 40
0.0
 40
0.0
 40
0.0
 40
0.0
 40
0.1634010648840438
 40
0.442051205679291
 40
0.7208551645700606
 40
1.0
 40
1.0
 40
1.0
 40
1.0
 10
33.22266714082539
 20
2.976849635076912
 30
0.0
 10
33.3739751525369
 20
2.979741069723656
 30
0.0
 10
33.78331085089039
 20
2.987563308658534
 30
0.0
 10
34.45071088906385
 20
2.776609922271112
 30
0.0
 10
35.22546698805204
 20
2.389394807114436
 30
0.0
 10
35.74261208786486
 20
1.998829477070358
 30
0.0
 10
36.00134261161553
 20
1.803427504900978
 30
0.0
  0
LINE
  5
BA
330
1F
100
AcDbEntity
  8
0
  6
Continuous
 62
   131
370
    15
100
AcDbLine
 10
6.001342611615536
 20
-2.749914341082329
 30
0.0
 11
6.001342611615542
 21
-2.815668757526008
 31
0.0
  0
SPLINE
  5
BB
330
1F
100
AcDbEntity
  8
0
  6
Continuous
 62
     1
370
    15
100
AcDbSpline
210
0.0
220
0.0
230
1.0
 70
     8
 71
     3
 72
    10
 73
     6
 74
     0
 42
0.000000001
 43
0.00000001
 40
0.0
 40
0.0
 40
0.0
 40
0.0
 40
0.4936908148155855
 40
0.9867787611735873
 40
1.0
 40
1.0
 40
1.0
 40
1.0
 10
36.00134261161556
 20
2.979182581436908
 30
0.0
 10
35.74261382481936
 20
2.987274694449979
 30
0.0
 10
35.22547219679441
 20
3.003449038826424
 30
0.0
 10
34.70182735994975
 20
2.895440369848266
 30
0.0
 10
34.43675742377471
 20
2.762165061717836
 30
0.0
 10
34.42983565929873
 20
2.758684846999207
 30
0.0
  0
SPLINE
  5
BC
330
1F
100
AcDbEntity
  8
0
  6
Continuous
 62
     1
370
    15
100
AcDbSpline
210
0.0
220
0.0
230
1.0
 70
     8
 71
     3
 72
    22
 73
    18
 74
     0
 42
0.000000001
 43
0.00000001
 40
0.0
 40
0.0
 40
0.0
 40
0.0
 40
0.0270318633182668
 40
0.0998640230488597
 40
0.1726928479551861
 40
0.2455677402726173
 40
0.3185355364286018
 40
0.3914783056073196
 40
0.4643377595083602
 40
0.5371628862761169
 40
0.6100031382295896
 40
0.6829077629660336
 40
0.7558919782547276
 40
0.8287979951299462
 40
0.9016388752783828
 40
0.9744638578013115
 40
1.0
 40
1.0
 40
1.0
 40
1.0
 10
26.21301558576367
 20
-2.975608418549081
 30
0.0
 10
26.1172052050417
 20
-2.981711985533754
 30
0.0
 10
25.76325216983706
 20
-3.004260440550018
 30
0.0
 10
25.15152035451658
 20
-2.836101239350608
 30
0.0
 10
24.37730083089412
 20
-2.483343828625659
 30
0.0
 10
23.60244735300146
 20
-1.952588268810436
 30
0.0
 10
22.82642602451644
 20
-1.29589017778661
 30
0.0
 10
22.05070851201511
 20
-0.5520386948781882
 30
0.0
 10
21.27606022326252
 20
0.2283277480294665
 30
0.0
 10
20.50192978769654
 20
0.9934842851950307
 30
0.0
 10
19.72755675047257
 20
1.692804827012275
 30
0.0
 10
18.95231093702577
 20
2.280264197279373
 30
0.0
 10
18.17609272224624
 20
2.715285389696946
 30
0.0
 10
17.40083365791813
 20
2.973682665182709
 30
0.0
 10
16.62643396022916
 20
3.022495954791357
 30
0.0
 10
16.01999770227278
 20
2.939346491400502
 30
0.0
 10
15.67144050481133
 20
2.781210364352194
 30
0.0
 10
15.58094940699251
 20
2.740155662726075
 30
0.0
  0
SPLINE
  5
BD
330
1F
100
AcDbEntity
  8
0
  6
Continuous
 62
     1
370
    15
100
AcDbSpline
210
0.0
220
0.0
230
1.0
 70
     8
 71
     3
 72
     9
 73
     5
 74
     0
 42
0.000000001
 43
0.00000001
 40
0.0
 40
0.0
 40
0.0
 40
0.0
 40
0.4720151579854682
 40
0.9999999999999999
 40
0.9999999999999999
 40
0.9999999999999999
 40
0.9999999999999999
 10
7.365235968031458
 20
-2.990871609424505
 30
0.0
 10
7.1507480657989
 20
-2.982451468372074
 30
0.0
 10
6.696339137178945
 20
-2.964612759360338
 30
0.0
 10
6.241493966959951
 20
-2.788094960551209
 30
0.0
 10
6.001342611620789
 20
-2.694896238434218
 30
0.0
  0
SPLINE
  5
BE
330
1F
100
AcDbEntity
  8
0
  6
Continuous
 62
     1
370
    15
100
AcDbSpline
210
0.0
220
0.0
230
1.0
 70
     8
 71
     3
 72
    20
 73
    16
 74
     0
 42
0.000000001
 43
0.00000001
 40
0.0
 40
0.0
 40
0.0
 40
0.0
 40
0.075149873396721
 40
0.1502034089948872
 40
0.2251495799842117
 40
0.3001191484800403
 40
0.3810670818386013
 40
0.4620662519736362
 40
0.5429624057946634
 40
0.6238009264031223
 40
0.7046366034813049
 40
0.785524265207799
 40
0.8665152778230014
 40
0.9474751910149823
 40
1.0
 40
1.0
 40
1.0
 40
1.0
 10
6.001342611620782
 20
2.817818614971987
 30
0.0
 10
6.241482429499352
 20
2.719684389824541
 30
0.0
 10
6.721454219875612
 20
2.523541741940034
 30
0.0
 10
7.440393943371565
 20
2.042133035812952
 30
0.0
 10
8.15808251196442
 20
1.455583459442022
 30
0.0
 10
8.89470936161324
 20
0.765492360331997
 30
0.0
 10
9.651555562372787
 20
0.0096991606398125
 30
0.0
 10
10.42765150619526
 20
-0.7653960008306282
 30
0.0
 10
11.20263524789868
 20
-1.489933203437744
 30
0.0
 10
11.97687549640209
 20
-2.11538938231277
 30
0.0
 10
12.75107594566361
 20
-2.599911887517004
 30
0.0
 10
13.52595342261174
 20
-2.913923767830507
 30
0.0
 10
14.30197880221954
 20
-3.02698772350885
 30
0.0
 10
14.98716507853933
 20
-2.973724636526752
 30
0.0
 10
15.41327838370966
 20
-2.80456737611905
 30
0.0
 10
15.58094940699251
 20
-2.73800580527829
 30
0.0
  0
SPLINE
  5
BF
330
1F
100
AcDbEntity
  8
0
  6
Continuous
 62
     1
370
    15
100
AcDbSpline
210
0.0
220
0.0
230
1.0
 70
     8
 71
     3
 72
    21
 73
    17
 74
     0
 42
0.000000001
 43
0.00000001
 40
0.0
 40
0.0
 40
0.0
 40
0.0
 40
0.054511774257246
 40
0.1273414847731168
 40
0.2001745301538073
 40
0.2730602680875453
 40
0.3460385185955958
 40
0.4189681249359996
 40
0.4918209656762171
 40
0.5646461308235328
 40
0.6374930847742755
 40
0.7104109970835917
 40
0.7833942813226527
 40
0.8562895611875141
 40
0.9291263023746038
 40
1.0
 40
1.0
 40
1.0
 40
1.0
 10
23.79788888014027
 20
2.982255496349835
 30
0.0
 10
23.99108598789254
 20
2.97898511349115
 30
0.0
 10
24.44240144937333
 20
2.971345380338522
 30
0.0
 10
25.15148929949063
 20
2.726724994491829
 30
0.0
 10
25.92575306501663
 20
2.303488673507047
 30
0.0
 10
26.70074115586121
 20
1.720615289940316
 30
0.0
 10
27.47687678154298
 20
1.025754002811831
 30
0.0
 10
28.25242285780201
 20
0.2621095707660825
 30
0.0
 10
29.02696555089596
 20
-0.5186604109699078
 30
0.0
 10
29.80108088981541
 20
-1.264797623834504
 30
0.0
 10
30.57553909215702
 20
-1.927129561832578
 30
0.0
 10
31.35094098077637
 20
-2.461320600444772
 30
0.0
 10
32.12713538265176
 20
-2.832879089684506
 30
0.0
 10
32.90225371481548
 20
-3.012772083515804
 30
0.0
 10
33.66962890408411
 20
-3.006680139356345
 30
0.0
 10
34.17875156428474
 20
-2.839153919375555
 30
0.0
 10
34.42983565929873
 20
-2.756534989551421
 30
0.0
  0
SPLINE
  5
C0
330
1F
100
AcDbEntity
  8
0
  6
Continuous
 62
     1
370
    15
100
AcDbSpline
210
0.0
220
0.0
230
1.0
 70
     8
 71
     3
 72
    22
 73
    18
 74
     0
 42
0.000000001
 43
0.00000001
 40
0.0
 40
0.0
 40
0.0
 40
0.0
 40
0.038835831416464
 40
0.1116961414883302
 40
0.1845162540171678
 40
0.2573455966145723
 40
0.3302334719435231
 40
0.4032093427073933
 40
0.4761198481818474
 40
0.5489594025055167
 40
0.6217771702390168
 40
0.6946226107541935
 40
0.7675448090718823
 40
0.8405156466160556
 40
0.9133939809831317
 40
0.9862196281495489
 40
1.0
 40
1.0
 40
1.0
 40
1.0
 10
35.63842123344136
 20
-2.974016526072568
 30
0.0
 10
35.50068722611241
 20
-2.978197134325239
 30
0.0
 10
35.10454900506106
 20
-2.990221025506817
 30
0.0
 10
34.45072544244636
 20
-2.791779028380162
 30
0.0
 10
33.67655552949496
 20
-2.407984988031942
 30
0.0
 10
32.90225242791679
 20
-1.854559475370327
 30
0.0
 10
32.12713572790891
 20
-1.180345053115066
 30
0.0
 10
31.35094088889798
 20
-0.4274665463186268
 30
0.0
 10
30.57553911453808
 20
0.3540786803777451
 30
0.0
 10
29.80108089203064
 20
1.112088348752258
 30
0.0
 10
29.02696551967495
 20
1.796177072988481
 30
0.0
 10
28.2524229805815
 20
2.361602665671631
 30
0.0
 10
27.47687632100875
 20
2.769236318039106
 30
0.0
 10
26.70074287533437
 20
2.997306246575882
 30
0.0
 10
25.92574665890901
 20
3.01075112682489
 30
0.0
 10
25.36069738266289
 20
2.917904391396723
 30
0.0
 10
25.0538414882094
 20
2.770460167561305
 30
0.0
 10
25.00501591721474
 20
2.746999486020713
 30
0.0
  0
SPLINE
  5
C1
330
1F
100
AcDbEntity
  8
0
  6
Continuous
 62
     1
370
    15
100
AcDbSpline
210
0.0
220
0.0
230
1.0
 70
     8
 71
     3
 72
    22
 73
    18
 74
     0
 42
0.000000001
 43
0.00000001
 40
0.0
 40
0.0
 40
0.0
 40
0.0
 40
0.0152407165077968
 40
0.0880671263724353
 40
0.1609270935421345
 40
0.2338696194699519
 40
0.3068401650731299
 40
0.3797175945329984
 40
0.4525481873374381
 40
0.5253813420799156
 40
0.5982664226698429
 40
0.6712443179610139
 40
0.7441760504075257
 40
0.8117214500775684
 40
0.8792457692750985
 40
0.9468668208609827
 40
1.0
 40
1.0
 40
1.0
 40
1.0
 10
16.78840043771554
 20
-2.982419915400917
 30
0.0
 10
16.73440148141989
 20
-2.98752568258932
 30
0.0
 10
16.42237330967111
 20
-3.017028904696978
 30
0.0
 10
15.85232919725829
 20
-2.874913938871473
 30
0.0
 10
15.07768188036986
 20
-2.55445229788098
 30
0.0
 10
14.30198743055693
 20
-2.047361422893375
 30
0.0
 10
13.52595111343225
 20
-1.409065377538398
 30
0.0
 10
12.75107656394022
 20
-0.6756462857903169
 30
0.0
 10
11.9768753296141
 20
0.1020703702992819
 30
0.0
 10
11.20263529697026
 20
0.8731972964093611
 30
0.0
 10
10.42765147678054
 20
1.586672957328038
 30
0.0
 10
9.651555630949716
 20
2.194672137858579
 30
0.0
 10
8.8947091246313
 20
2.645710069313907
 30
0.0
 10
8.15808332141664
 20
2.925258875748387
 30
0.0
 10
7.440390914640875
 20
3.025873602692339
 30
0.0
 10
6.773119153731153
 20
2.975891957686922
 30
0.0
 10
6.344845266046992
 20
2.817433182832852
 30
0.0
 10
6.156400082319019
 20
2.74770959286066
 30
0.0
  0
LINE
  5
C2
330
1F
100
AcDbEntity
  8
0
  6
Continuous
 62
     1
370
    15
100
AcDbLine
 10
36.00134261161554
 20
-2.977032723989117
 30
0.0
 11
36.00134261161554
 21
-1.787264516403681
 31
0.0
  0
SPLINE
  5
C3
330
1F
100
AcDbEntity
  8
0
  6
Continuous
 62
     1
370
    15
100
AcDbSpline
210
0.0
220
0.0
230
1.0
 70
     8
 71
     3
 72
    22
 73
    18
 74
     0
 42
0.000000001
 43
0.00000001
 40
0.0
 40
0.0
 40
0.0
 40
0.0
 40
0.0064211342171226
 40
0.0739677983197345
 40
0.1469008960295813
 40
0.2198801574482452
 40
0.2927666024281997
 40
0.3656011205886644
 40
0.4384330767631354
 40
0.5113118704698004
 40
0.5842837820628871
 40
0.6572276734560943
 40
0.7300890045457016
 40
0.8029167777020662
 40
0.8757604490931309
 40
0.9486692597069998
 40
1.0
 40
1.0
 40
1.0
 40
1.0
 10
8.08981020443978
 20
2.993703239897749
 30
0.0
 10
8.112550067408172
 20
2.996111415762859
 30
0.0
 10
8.374500299406112
 20
3.023852226137757
 30
0.0
 10
8.894698328052092
 20
2.911422127413584
 30
0.0
 10
9.651558619084614
 20
2.635854313449329
 30
0.0
 10
10.42765067790998
 20
2.158854829378691
 30
0.0
 10
11.20263550740035
 20
1.54369019571671
 30
0.0
 10
11.97687528571181
 20
0.8249611391707007
 30
0.0
 10
12.75107652919164
 20
0.0519801582513778
 30
0.0
 10
13.52595129659175
 20
-0.7247894134499585
 30
0.0
 10
14.30198673183868
 20
-1.452982715066688
 30
0.0
 10
15.07768448937209
 20
-2.085011092689328
 30
0.0
 10
15.85231947337316
 20
-2.578105909493009
 30
0.0
 10
16.62644886414769
 20
-2.901733087726013
 30
0.0
 10
17.40082562227174
 20
-3.026142258190525
 30
0.0
 10
18.09935305676151
 20
-2.979640944385755
 30
0.0
 10
18.54000315545863
 20
-2.809866282781238
 30
0.0
 10
18.72206189288325
 20
-2.739722282746288
 30
0.0
  0
SPLINE
  5
C4
330
1F
100
AcDbEntity
  8
0
  6
Continuous
 62
     1
370
    15
100
AcDbSpline
210
0.0
220
0.0
230
1.0
 70
     8
 71
     3
 72
    19
 73
    15
 74
     0
 42
0.000000001
 43
0.00000001
 40
0.0
 40
0.0
 40
0.0
 40
0.0
 40
0.0593800484449491
 40
0.1449427734816595
 40
0.2304154353153635
 40
0.3158556274942246
 40
0.4013213828084168
 40
0.4868703881335213
 40
0.5724960893401827
 40
0.6580185417505114
 40
0.7434723152108014
 40
0.828915258638026
 40
0.9144053675567027
 40
1.0
 40
1.0
 40
1.0
 40
1.0
 10
26.93849638022536
 20
2.979815598503654
 30
0.0
 10
27.11799595916361
 20
2.978962934313273
 30
0.0
 10
27.55614256718168
 20
2.976881637382084
 30
0.0
 10
28.25243023287016
 20
2.744388985086333
 30
0.0
 10
29.02696357905829
 20
2.330715416514836
 30
0.0
 10
29.80108140866566
 20
1.755251153374921
 30
0.0
 10
30.57553898872829
 20
1.065262685737654
 30
0.0
 10
31.35094087486814
 20
0.3039564550517851
 30
0.0
 10
32.12713591011748
 20
-0.4769518323928744
 30
0.0
 10
32.90225171439619
 20
-1.226376958571454
 30
0.0
 10
33.67655819925309
 20
-1.895059478136019
 30
0.0
 10
34.45071547507167
 20
-2.434132403885363
 30
0.0
 10
35.22546583965057
 20
-2.825911390046166
 30
0.0
 10
35.7426117049085
 20
-2.926638433082826
 30
0.0
 10
36.00134261161553
 20
-2.977032723989117
 30
0.0
  0
SPLINE
  5
C5
330
1F
100
AcDbEntity
  8
0
  6
Continuous
 62
     1
370
    15
100
AcDbSpline
210
0.0
220
0.0
230
1.0
 70
     8
 71
     3
 72
    18
 73
    14
 74
     0
 42
0.000000001
 43
0.00000001
 40
0.0
 40
0.0
 40
0.0
 40
0.0
 40
0.0987621951454789
 40
0.197403787252643
 40
0.2959909581030318
 40
0.3945906250388452
 40
0.4932695362411788
 40
0.5920675796540406
 40
0.69077712857367
 40
0.7893906206076183
 40
0.8879746169677392
 40
0.9865960779946986
 40
1.0
 40
1.0
 40
1.0
 40
1.0
 10
36.00134261161556
 20
-1.801277647453177
 30
0.0
 10
35.74261170469184
 20
-1.583063375115476
 30
0.0
 10
35.22546583900084
 20
-1.146901301878956
 30
0.0
 10
34.45071547766644
 20
-0.3841020750958513
 30
0.0
 10
33.67655818952799
 20
0.3954213503213987
 30
0.0
 10
32.90225175072137
 20
1.151155688627719
 30
0.0
 10
32.12713577435665
 20
1.830106466218054
 30
0.0
 10
31.35094138201072
 20
2.387795208448133
 30
0.0
 10
30.5755370987906
 20
2.786093034960266
 30
0.0
 10
29.80108845366701
 20
3.004070862433469
 30
0.0
 10
29.02693729038522
 20
3.005543761607879
 30
0.0
 10
28.47580253418359
 20
2.910553380054313
 30
0.0
 10
28.1824129075975
 20
2.76742718218582
 30
0.0
 10
28.14730861636031
 20
2.7503020241081
 30
0.0
  0
SPLINE
  5
C6
330
1F
100
AcDbEntity
  8
0
  6
Continuous
 62
     1
370
    15
100
AcDbSpline
210
0.0
220
0.0
230
1.0
 70
     8
 71
     3
 72
    22
 73
    18
 74
     0
 42
0.000000001
 43
0.00000001
 40
0.0
 40
0.0
 40
0.0
 40
0.0
 40
0.0191139432414463
 40
0.0920145114359384
 40
0.1649946657541218
 40
0.2378966260099274
 40
0.3107334531632734
 40
0.3835543835756834
 40
0.4564088687683057
 40
0.529345906507333
 40
0.6023109618135233
 40
0.6751829079824537
 40
0.7480080210199409
 40
0.820835695802706
 40
0.8937152925260249
 40
0.9666876969672182
 40
1.0
 40
1.0
 40
1.0
 40
1.0
 10
19.93091128931476
 20
-2.979607339447225
 30
0.0
 10
19.86318740962446
 20
-2.985346238741879
 30
0.0
 10
19.53716469293372
 20
-3.012973296545038
 30
0.0
 10
18.9522999926901
 20
-2.862537190529009
 30
0.0
 10
18.17609657089103
 20
-2.531283893662123
 30
0.0
 10
17.40082920741375
 20
-2.016164022530035
 30
0.0
 10
16.62644790468905
 20
-1.371473614547533
 30
0.0
 10
15.85231972845422
 20
-0.6346929764929067
 30
0.0
 10
15.07768442878234
 20
0.1441763481710817
 30
0.0
 10
14.30198671871969
 20
0.9136047973395556
 30
0.0
 10
13.52595140969968
 20
1.622215682637842
 30
0.0
 10
12.7510760906477
 20
2.223729871894681
 30
0.0
 10
11.9768769258929
 20
2.676774269230598
 30
0.0
 10
11.20262938269635
 20
2.955087810682489
 30
0.0
 10
10.42767356641589
 20
3.027120505928431
 30
0.0
 10
9.792018886082102
 20
2.953060635368547
 30
0.0
 10
9.41521988995491
 20
2.789505195174156
 30
0.0
 10
9.297121598678993
 20
2.738242802719911
 30
0.0
  0
SPLINE
  5
C7
330
1F
100
AcDbEntity
  8
0
  6
Continuous
 62
     1
370
    15
100
AcDbSpline
210
0.0
220
0.0
230
1.0
 70
     8
 71
     3
 72
    12
 73
     8
 74
     0
 42
0.000000001
 43
0.00000001
 40
0.0
 40
0.0
 40
0.0
 40
0.0
 40
0.2184014666303705
 40
0.4365229551909774
 40
0.6543324194330421
 40
0.8722098817901418
 40
1.0
 40
1.0
 40
1.0
 40
1.0
 10
6.001342611620782
 20
-2.301425682803295
 30
0.0
 10
6.241482809571395
 20
-2.442184525829477
 30
0.0
 10
6.721455359604493
 20
-2.723521767172471
 30
0.0
 10
7.440389393986495
 20
-2.956659490945601
 30
0.0
 10
8.158099547881402
 20
-3.022365759943186
 30
0.0
 10
8.776674103785375
 20
-2.953676350288639
 30
0.0
 10
9.15664854888741
 20
-2.794820491828868
 30
0.0
 10
9.297121598678974
 20
-2.736092945272124
 30
0.0
  0
SPLINE
  5
C8
330
1F
100
AcDbEntity
  8
0
  6
Continuous
 62
     1
370
    15
100
AcDbSpline
210
0.0
220
0.0
230
1.0
 70
     8
 71
     3
 72
    21
 73
    17
 74
     0
 42
0.000000001
 43
0.00000001
 40
0.0
 40
0.0
 40
0.0
 40
0.0
 40
0.062302632375826
 40
0.1352827876226573
 40
0.2081833567447839
 40
0.2810195566649347
 40
0.3538406322407717
 40
0.4266960330403046
 40
0.4996347444827677
 40
0.57259848151027
 40
0.645469319867371
 40
0.7182940933760519
 40
0.7911222015234874
 40
0.8640029986520283
 40
0.9369763020836053
 40
1.0
 40
1.0
 40
1.0
 40
1.0
 10
17.51337198862233
 20
2.988677210069874
 30
0.0
 10
17.7341914957242
 20
2.979563602357552
 30
0.0
 10
18.21367490345565
 20
2.959774482546613
 30
0.0
 10
18.95231753636653
 20
2.689820227439691
 30
0.0
 10
19.72755498655983
 20
2.247397449369233
 30
0.0
 10
20.50193025321015
 20
1.650685533802436
 30
0.0
 10
21.27606012397226
 20
0.9460383827059776
 30
0.0
 10
22.05070844341958
 20
0.1781015003984125
 30
0.0
 10
22.82642639887531
 20
-0.6014378185143071
 30
0.0
 10
23.6024459245512
 20
-1.340821926146491
 30
0.0
 10
24.37730616133163
 20
-1.991529422700084
 30
0.0
 10
25.15150047158253
 20
-2.509410630995431
 30
0.0
 10
25.92575195847091
 20
-2.862073293463923
 30
0.0
 10
26.70073439223891
 20
-3.019928995595456
 30
0.0
 10
27.44177890967413
 20
-2.99649373246058
 30
0.0
 10
27.92388918677541
 20
-2.826794257060619
 30
0.0
 10
28.14730861636029
 20
-2.748152166660312
 30
0.0
  0
SPLINE
  5
C9
330
1F
100
AcDbEntity
  8
0
  6
Continuous
 62
   131
370
    15
100
AcDbSpline
210
0.0
220
0.0
230
1.0
 70
    24
 71
     3
 72
    22
 73
    18
 74
     0
 42
0.000000001
 43
0.00000001
 40
0.0
 40
0.0
 40
0.0
 40
0.0
 40
0.0106347937871059
 40
0.080630774318442
 40
0.1526566430270506
 40
0.222652623558393
 40
0.2946784922670085
 40
0.3646744727985288
 40
0.436700341506962
 40
0.5066963220383062
 40
0.5787221907469235
 40
0.6487181712782624
 40
0.7207440399868745
 40
0.7907400205181478
 40
0.8627658892268303
 40
0.9304676401121184
 40
1.0
 40
1.0
 40
1.0
 40
1.0
 10
6.001342611615529
 20
-0.1708532668481358
 30
0.0
 10
6.001342611615529
 20
-0.1710787856516786
 30
0.0
 10
6.001342611615564
 20
-0.1727886218851808
 30
0.0
 10
6.001342611615564
 20
-0.2087606382741458
 30
0.0
 10
6.001342611615529
 20
-0.2791886492135485
 30
0.0
 10
6.001342611615542
 20
-0.3845134969910733
 30
0.0
 10
6.001342611615557
 20
-0.5156781301427507
 30
0.0
 10
6.001342611615508
 20
-0.6724529308136005
 30
0.0
 10
6.001342611615591
 20
-0.8472784325098328
 30
0.0
 10
6.001342611615557
 20
-1.038434194500608
 30
0.0
 10
6.001342611615515
 20
-1.237044296987029
 30
0.0
 10
6.001342611615549
 20
-1.441079741699734
 30
0.0
 10
6.001342611615515
 20
-1.641045931016695
 30
0.0
 10
6.001342611615571
 20
-1.835052723740226
 30
0.0
 10
6.001342611615494
 20
-2.011551245812695
 30
0.0
 10
6.001342611615529
 20
-2.171548292495649
 30
0.0
 10
6.001342611615536
 20
-2.257749929109962
 30
0.0
 10
6.001342611615549
 20
-2.301425682799931
 30
0.0
  0
SPLINE
  5
CA
330
1F
100
AcDbEntity
  8
0
  6
Continuous
 62
     1
370
    15
100
AcDbSpline
210
0.0
220
0.0
230
1.0
 70
     8
 71
     3
 72
    22
 73
    18
 74
     0
 42
0.000000001
 43
0.00000001
 40
0.0
 40
0.0
 40
0.0
 40
0.0
 40
0.0308966989923205
 40
0.1037433221244342
 40
0.1766667043051925
 40
0.249638726502074
 40
0.3225182440201056
 40
0.3953450734821224
 40
0.4681685683639341
 40
0.5410381272853773
 40
0.6140005832461464
 40
0.6869380140612643
 40
0.7597921356961875
 40
0.83261193271008
 40
0.905446853802742
 40
0.9783461429672118
 40
1.0
 40
1.0
 40
1.0
 40
1.0
 10
29.35543736498655
 20
-2.974531030959352
 30
0.0
 10
29.24597347869754
 20
-2.980323048726848
 30
0.0
 10
28.87842135867665
 20
-2.999771183466195
 30
0.0
 10
28.25242218243816
 20
-2.821953862200052
 30
0.0
 10
27.47687675299275
 20
-2.458604527385316
 30
0.0
 10
26.70074194644755
 20
-1.920415071516447
 30
0.0
 10
25.92574993693915
 20
-1.257539685609154
 30
0.0
 10
25.15150101342291
 20
-0.5105449031319009
 30
0.0
 10
24.37730601463862
 20
0.2701367919362173
 30
0.0
 10
23.60244596920764
 20
1.033333040040763
 30
0.0
 10
22.82642636716278
 20
1.727618388642866
 30
0.0
 10
22.0507085255226
 20
2.307755200461977
 30
0.0
 10
21.27605982767244
 20
2.733849454170086
 30
0.0
 10
20.50193135598627
 20
2.982073133155463
 30
0.0
 10
19.72755086907262
 20
3.019256723682941
 30
0.0
 10
19.13425196382135
 20
2.932388259496503
 30
0.0
 10
18.79886883754524
 20
2.777372658193404
 30
0.0
 10
18.72206189288323
 20
2.741872140194074
 30
0.0
  0
SPLINE
  5
CB
330
1F
100
AcDbEntity
  8
0
  6
Continuous
 62
     1
370
    15
100
AcDbSpline
210
0.0
220
0.0
230
1.0
 70
     8
 71
     3
 72
    14
 73
    10
 74
     0
 42
0.000000001
 43
0.00000001
 40
0.0
 40
0.0
 40
0.0
 40
0.0
 40
0.0174137040956911
 40
0.189658862045137
 40
0.3617950647220581
 40
0.5212182433229964
 40
0.6805916670042693
 40
0.8401934020864729
 40
0.9999999999999999
 40
0.9999999999999999
 40
0.9999999999999999
 40
0.9999999999999999
 10
10.50629723568258
 20
-2.989855057187794
 30
0.0
 10
10.4801502005366
 20
-2.992812134233719
 30
0.0
 10
10.19537351520928
 20
-3.02501871500642
 30
0.0
 10
9.651518694013976
 20
-2.897497525021836
 30
0.0
 10
8.89471842900858
 20
-2.606880400071058
 30
0.0
 10
8.15808016331908
 20
-2.145928737399047
 30
0.0
 10
7.440394570569497
 20
-1.578651719896772
 30
0.0
 10
6.72145406274767
 20
-0.9207822699235119
 30
0.0
 10
6.241482377100989
 20
-0.4452021449675169
 30
0.0
 10
6.001342611620789
 20
-0.2072595681671692
 30
0.0
  0
LINE
  5
CC
330
1F
100
AcDbEntity
  8
0
  6
Continuous
 62
     1
370
    15
100
AcDbLine
 10
36.00134261161554
 20
-1.174680147812004
 30
0.0
 11
36.00134261161554
 21
1.176830005259847
 31
0.0
  0
SPLINE
  5
CD
330
1F
100
AcDbEntity
  8
0
  6
Continuous
 62
     1
370
    15
100
AcDbSpline
210
0.0
220
0.0
230
1.0
 70
     8
 71
     3
 72
    21
 73
    17
 74
     0
 42
0.000000001
 43
0.00000001
 40
0.0
 40
0.0
 40
0.0
 40
0.0
 40
0.0701169887882296
 40
0.1429533364054192
 40
0.2158365243788975
 40
0.2888128358533915
 40
0.3617611254385128
 40
0.4346268497420153
 40
0.507459014088881
 40
0.5803070776290399
 40
0.6532202843196079
 40
0.7262116971353892
 40
0.7991235115498917
 40
0.8719709468331337
 40
0.9448032554390532
 40
1.0
 40
1.0
 40
1.0
 40
1.0
 10
11.23170969513292
 20
2.997494584302888
 30
0.0
 10
11.48010435399671
 20
2.981038447908935
 30
0.0
 10
11.98652720305986
 20
2.947487954048404
 30
0.0
 10
12.75107379661607
 20
2.650645115668127
 30
0.0
 10
13.52595202439502
 20
2.189683875729434
 30
0.0
 10
14.30198655787353
 20
1.579513237660141
 30
0.0
 10
15.07768445733262
 20
0.8655595779832037
 30
0.0
 10
15.85231977479856
 20
0.0938864302562357
 30
0.0
 10
16.62644769086579
 20
-0.6836650316398875
 30
0.0
 10
17.40083001690153
 20
-1.4158686301956
 30
0.0
 10
18.17609354253366
 20
-2.054330683320745
 30
0.0
 10
18.9523113034024
 20
-2.555618357869306
 30
0.0
 10
19.72755446924615
 20
-2.889120984655164
 30
0.0
 10
20.50193853777893
 20
-3.024662752291705
 30
0.0
 10
21.21344092317892
 20
-2.9853722300049
 30
0.0
 10
21.66709914890587
 20
-2.81535580134195
 30
0.0
 10
21.8626833275281
 20
-2.742057177694064
 30
0.0
  0
SPLINE
  5
CE
330
1F
100
AcDbEntity
  8
0
  6
Continuous
 62
     1
370
    15
100
AcDbSpline
210
0.0
220
0.0
230
1.0
 70
     8
 71
     3
 72
    15
 73
    11
 74
     0
 42
0.000000001
 43
0.00000001
 40
0.0
 40
0.0
 40
0.0
 40
0.0
 40
0.083670597179803
 40
0.214610748891166
 40
0.3456682902826137
 40
0.4765678004613731
 40
0.6073621915671137
 40
0.7381400063705673
 40
0.868990012037992
 40
1.0
 40
1.0
 40
1.0
 40
1.0
 10
30.08007419624803
 20
2.978053697994668
 30
0.0
 10
30.24515500734582
 20
2.979229214144636
 30
0.0
 10
30.66857873911533
 20
2.982244352195299
 30
0.0
 10
31.35094660816268
 20
2.76143406190877
 30
0.0
 10
32.1271343753281
 20
2.35775367681265
 30
0.0
 10
32.90225212505555
 20
1.789373795999967
 30
0.0
 10
33.67655808931022
 20
1.104282691566316
 30
0.0
 10
34.45071550440512
 20
0.346974406406188
 30
0.0
 10
35.22546583230507
 20
-0.4389867736423011
 30
0.0
 10
35.74261170245902
 20
-0.9293491614554689
 30
0.0
 10
36.00134261161553
 20
-1.174680147812003
 30
0.0
  0
SPLINE
  5
CF
330
1F
100
AcDbEntity
  8
0
  6
Continuous
 62
     1
370
    15
100
AcDbSpline
210
0.0
220
0.0
230
1.0
 70
     8
 71
     3
 72
    14
 73
    10
 74
     0
 42
0.000000001
 43
0.00000001
 40
0.0
 40
0.0
 40
0.0
 40
0.0
 40
0.1645854386167078
 40
0.3289698944187838
 40
0.4932636581660383
 40
0.6575782464170166
 40
0.8220248938262983
 40
0.9866700729419101
 40
1.0
 40
1.0
 40
1.0
 40
1.0
 10
36.00134261161556
 20
1.176830005259847
 30
0.0
 10
35.74261176233286
 20
1.406953321593014
 30
0.0
 10
35.22546601185348
 20
1.866918940141588
 30
0.0
 10
34.45071478739938
 20
2.412754185507742
 30
0.0
 10
33.67656077667855
 20
2.802620369110898
 30
0.0
 10
32.90224208717574
 20
3.010233797743779
 30
0.0
 10
32.12717189068318
 20
2.999597139464901
 30
0.0
 10
31.58857778992932
 20
2.903202020037906
 30
0.0
 10
31.3089196576699
 20
2.764623117021375
 30
0.0
 10
31.28797390528708
 20
2.754243875178432
 30
0.0
  0
SPLINE
  5
D0
330
1F
100
AcDbEntity
  8
0
  6
Continuous
 62
     1
370
    15
100
AcDbSpline
210
0.0
220
0.0
230
1.0
 70
     8
 71
     3
 72
    22
 73
    18
 74
     0
 42
0.000000001
 43
0.00000001
 40
0.0
 40
0.0
 40
0.0
 40
0.0
 40
0.023095926401565
 40
0.0960349248822981
 40
0.1688906123922478
 40
0.2417119745434177
 40
0.3145484610984235
 40
0.3874493171087188
 40
0.4604297595569161
 40
0.5333320076340209
 40
0.6061691223515167
 40
0.6789903402653151
 40
0.7518451130918021
 40
0.8247824387906166
 40
0.897747782167209
 40
0.9706200160389411
 40
1.0
 40
1.0
 40
1.0
 40
1.0
 10
23.0720983614735
 20
-2.977287483901889
 30
0.0
 10
22.99019145141899
 20
-2.983376999701547
 30
0.0
 10
22.64961520357067
 20
-3.008697750305864
 30
0.0
 10
22.05070051232277
 20
-2.849682217547914
 30
0.0
 10
21.27606236932206
 20
-2.507420595209524
 30
0.0
 10
20.50192919502575
 20
-1.984647027739338
 30
0.0
 10
19.72755697530164
 20
-1.333876319015629
 30
0.0
 10
18.95231063053924
 20
-0.5932399708083697
 30
0.0
 10
18.17609372372758
 20
0.1860851276616954
 30
0.0
 10
17.40082996459326
 20
0.9536990934348418
 30
0.0
 10
16.62644771914195
 20
1.657763809373953
 30
0.0
 10
15.85231971396672
 20
2.252071890524602
 30
0.0
 10
15.07768467259515
 20
2.696344586176553
 30
0.0
 10
14.30198575659009
 20
2.964688949183082
 30
0.0
 10
13.52595501351263
 20
3.025128513076481
 30
0.0
 10
12.9050234333969
 20
2.946232078627966
 30
0.0
 10
12.54275321932863
 20
2.785224593935225
 30
0.0
 10
12.43866263523687
 20
2.738962542919193
 30
0.0
  0
SPLINE
  5
D1
330
1F
100
AcDbEntity
  8
0
  6
Continuous
 62
     1
370
    15
100
AcDbSpline
210
0.0
220
0.0
230
1.0
 70
     8
 71
     3
 72
    16
 73
    12
 74
     0
 42
0.000000001
 43
0.00000001
 40
0.0
 40
0.0
 40
0.0
 40
0.0
 40
0.1118260035467843
 40
0.2235086526138334
 40
0.3350315388684356
 40
0.4465892415442357
 40
0.5670429891516701
 40
0.6875729791223811
 40
0.807949676716473
 40
0.9282406137957194
 40
1.0
 40
1.0
 40
1.0
 40
1.0
 10
6.001342611620768
 20
0.5153180034448273
 30
0.0
 10
6.241482429780933
 20
0.2763138784290556
 30
0.0
 10
6.721454220720028
 20
-0.2013879821142692
 30
0.0
 10
7.440393940000907
 20
-0.9142720559975069
 30
0.0
 10
8.15808252458633
 20
-1.57283511495031
 30
0.0
 10
8.89470931288388
 20
-2.15694095395598
 30
0.0
 10
9.651555760508163
 20
-2.621394493060964
 30
0.0
 10
10.42765076850539
 20
-2.925424647098506
 30
0.0
 10
11.20263799570801
 20
-3.027244677233152
 30
0.0
 10
11.87277681175076
 20
-2.967509351263412
 30
0.0
 10
12.28473494457715
 20
-2.79956492900615
 30
0.0
 10
12.43866263523685
 20
-2.736812685471407
 30
0.0
  0
SPLINE
  5
D2
330
1F
100
AcDbEntity
  8
0
  6
Continuous
 62
     1
370
    15
100
AcDbSpline
210
0.0
220
0.0
230
1.0
 70
     8
 71
     3
 72
    21
 73
    17
 74
     0
 42
0.000000001
 43
0.00000001
 40
0.0
 40
0.0
 40
0.0
 40
0.0
 40
0.0583620186787624
 40
0.1312222919792396
 40
0.2041658814943846
 40
0.2771344982682568
 40
0.3500102101587514
 40
0.4228398541200521
 40
0.495672832943125
 40
0.5685585042710929
 40
0.6415366880888318
 40
0.7144662277833769
 40
0.787319001947887
 40
0.8601441005447862
 40
0.9329909879252011
 40
1.0
 40
1.0
 40
1.0
 40
1.0
 10
20.65569235119033
 20
2.985202163356689
 30
0.0
 10
20.86244441077925
 20
2.979194984815206
 30
0.0
 10
21.3273097417751
 20
2.965688328356308
 30
0.0
 10
22.05070812815112
 20
2.708516399111044
 30
0.0
 10
22.82642647361059
 20
2.275623793091989
 30
0.0
 10
23.60244594118456
 20
1.685976464760764
 30
0.0
 10
24.37730602041015
 20
0.9858186963716822
 30
0.0
 10
25.15150101832126
 20
0.2201530229999379
 30
0.0
 10
25.92574991156536
 20
-0.5599543770957586
 30
0.0
 10
26.70074204317287
 20
-1.30312962227768
 30
0.0
 10
27.47687639109907
 20
-1.959431624309538
 30
0.0
 10
28.25242353151823
 20
-2.485600365096943
 30
0.0
 10
29.02696324896634
 20
-2.847790244932738
 30
0.0
 10
29.80108942245817
 20
-3.016625112710765
 30
0.0
 10
30.55457348358206
 20
-3.001646899195144
 30
0.0
 10
31.05040612566599
 20
-2.832930791467061
 30
0.0
 10
31.28797390528706
 20
-2.752094017730644
 30
0.0
  0
SPLINE
  5
D3
330
1F
100
AcDbEntity
  8
0
  6
Continuous
 62
   131
370
    15
100
AcDbSpline
210
0.0
220
0.0
230
1.0
 70
    24
 71
     3
 72
    20
 73
    16
 74
     0
 42
0.000000001
 43
0.00000001
 40
0.0
 40
0.0
 40
0.0
 40
0.0
 40
0.0256767210335523
 40
0.1087726820763523
 40
0.1942784316187152
 40
0.2773743926614985
 40
0.3628801422038418
 40
0.4459761032466323
 40
0.5314818527889837
 40
0.6145778138319851
 40
0.7000835633741205
 40
0.7831795244169131
 40
0.8686852739592669
 40
0.9517812350020534
 40
1.0
 40
1.0
 40
1.0
 40
1.0
 10
6.001342611615557
 20
2.488711598993873
 30
0.0
 10
6.001342611615557
 20
2.474095442211464
 30
0.0
 10
6.001342611615542
 20
2.412177934411555
 30
0.0
 10
6.001342611615536
 20
2.288350202753107
 30
0.0
 10
6.001342611615515
 20
2.110256921978814
 30
0.0
 10
6.001342611615564
 20
1.91666238090238
 30
0.0
 10
6.001342611615529
 20
1.716853379940902
 30
0.0
 10
6.001342611615522
 20
1.512800198728979
 30
0.0
 10
6.001342611615571
 20
1.31398405892066
 30
0.0
 10
6.00134261161548
 20
1.122411229699599
 30
0.0
 10
6.001342611615613
 20
0.9470903610422725
 30
0.0
 10
6.001342611615529
 20
0.789317242691803
 30
0.0
 10
6.001342611615542
 20
0.6582999029689981
 30
0.0
 10
6.001342611615508
 20
0.5644185787098329
 30
0.0
 10
6.001342611615515
 20
0.5285053429598945
 30
0.0
 10
6.001342611615522
 20
0.5153180034500442
 30
0.0
  0
SPLINE
  5
D4
330
1F
100
AcDbEntity
  8
0
  6
Continuous
 62
     1
370
    15
100
AcDbSpline
210
0.0
220
0.0
230
1.0
 70
     8
 71
     3
 72
    22
 73
    18
 74
     0
 42
0.000000001
 43
0.00000001
 40
0.0
 40
0.0
 40
0.0
 40
0.0
 40
0.0348260811882513
 40
0.1077968852537396
 40
0.1807023285681092
 40
0.2535368256578165
 40
0.3263495376699929
 40
0.3991899205425307
 40
0.4721070558883036
 40
0.5450728270835503
 40
0.6179461015241748
 40
0.6907666924222009
 40
0.7635839490256717
 40
0.8364472657227908
 40
0.9094034715013977
 40
0.9823346542780822
 40
0.9999999999999999
 40
0.9999999999999999
 40
0.9999999999999999
 40
0.9999999999999999
 10
32.49768732680194
 20
-2.973981658941097
 30
0.0
 10
32.37424536133185
 20
-2.979139545745138
 30
0.0
 10
31.99215645171995
 20
-2.995104710730586
 30
0.0
 10
31.3509228245082
 20
-2.807217954195947
 30
0.0
 10
30.57554394900253
 20
-2.433524649482198
 30
0.0
 10
29.80107959330774
 20
-1.887529233653128
 30
0.0
 10
29.02696588386293
 20
-1.219220776475634
 30
0.0
 10
28.25242282270932
 20
-0.4690200149023918
 30
0.0
 10
27.47687658821824
 20
0.3122560187997809
 30
0.0
 10
26.7007419644301
 20
1.07262303932523
 30
0.0
 10
25.92575002942543
 20
1.762194773683228
 30
0.0
 10
25.15150062581335
 20
2.334896045271015
 30
0.0
 10
24.37730747302253
 20
2.751733475384234
 30
0.0
 10
23.60244051658425
 20
2.990018532773534
 30
0.0
 10
22.8264467429588
 20
3.01530944891006
 30
0.0
 10
22.24635495976808
 20
2.925283308740628
 30
0.0
 10
21.92528793396051
 20
2.773753678391748
 30
0.0
 10
21.86268332752808
 20
2.74420703514185
 30
0.0
  0
SPLINE
  5
D5
330
1F
100
AcDbEntity
  8
0
  6
Continuous
 62
     1
370
    15
100
AcDbSpline
210
0.0
220
0.0
230
1.0
 70
     8
 71
     3
 72
    18
 73
    14
 74
     0
 42
0.000000001
 43
0.00000001
 40
0.0
 40
0.0
 40
0.0
 40
0.0
 40
0.0157961865693192
 40
0.117142444930478
 40
0.21842357037165
 40
0.3197082585459783
 40
0.4210651568735773
 40
0.5225511270243961
 40
0.6239729012833428
 40
0.7179042264796779
 40
0.8118062363306521
 40
0.9058427660967041
 40
1.0
 40
1.0
 40
1.0
 40
1.0
 10
13.64658966985847
 20
-2.985798018858533
 30
0.0
 10
13.60630758408047
 20
-2.989984538025787
 30
0.0
 10
13.30758092659093
 20
-3.021031214313657
 30
0.0
 10
12.7510986649569
 20
-2.886521418477404
 30
0.0
 10
11.97686941035828
 20
-2.577213595391782
 30
0.0
 10
11.20263687992259
 20
-2.078252519993056
 30
0.0
 10
10.42765106805445
 20
-1.446046667053291
 30
0.0
 10
9.651555680052617
 20
-0.716782173000086
 30
0.0
 10
8.894709332671065
 20
0.0410118430731693
 30
0.0
 10
8.158082519461068
 20
0.7771092817893167
 30
0.0
 10
7.440393941369597
 20
1.447589436944632
 30
0.0
 10
6.721454220377162
 20
2.045532988770473
 30
0.0
 10
6.241482429666621
 20
2.340922243110483
 30
0.0
 10
6.001342611620789
 20
2.488711598990943
 30
0.0
  0
LINE
  5
D6
330
1F
100
AcDbEntity
  8
0
  6
Continuous
 62
   131
370
    15
100
AcDbLine
 10
36.00134261161554
 20
-2.998925071276109
 30
0.0
 11
36.00134261161554
 21
-2.977032723989117
 31
0.0
  0
LINE
  5
D7
330
1F
100
AcDbEntity
  8
0
  6
Continuous
 62
   131
370
    15
100
AcDbLine
 10
36.00134261161554
 20
2.979182581436908
 30
0.0
 11
36.00134261161554
 21
3.001074928723895
 31
0.0
  0
LINE
  5
D8
330
1F
100
AcDbEntity
  8
0
  6
Continuous
 62
   131
370
    15
100
AcDbLine
 10
6.001342611615557
 20
-2.694896238431909
 30
0.0
 11
6.001342611615549
 21
-2.301425682799931
 31
0.0
  0
LINE
  5
D9
330
1F
100
AcDbEntity
  8
0
  6
Continuous
 62
   131
370
    15
100
AcDbLine
 10
6.001342611615557
 20
-0.2072595681619305
 30
0.0
 11
6.001342611615536
 21
0.5153180034499907
 31
0.0
  0
LINE
  5
DA
330
1F
100
AcDbEntity
  8
0
  6
Continuous
 62
     1
370
    15
100
AcDbLine
 10
36.00134261161554
 20
1.176830005259847
 30
0.0
 11
36.00134261161554
 21
1.803427504900978
 31
0.0
  0
LINE
  5
DB
330
1F
100
AcDbEntity
  8
0
  6
Continuous
 62
     1
370
    15
100
AcDbLine
 10
36.00134261161554
 20
-1.801277647453177
 30
0.0
 11
36.00134261161554
 21
-1.174680147812004
 31
0.0
  0
LINE
  5
DC
330
1F
100
AcDbEntity
  8
0
  6
Continuous
 62
   131
370
    15
100
AcDbLine
 10
6.001342611615557
 20
2.488711598993873
 30
0.0
 11
6.001342611615542
 21
2.817818614973794
 31
0.0
  0
SPLINE
  5
DD
330
1F
100
AcDbEntity
  8
0
  6
Continuous
 62
   131
370
    15
100
AcDbSpline
210
0.0
220
0.0
230
1.0
 70
    24
 71
     3
 72
    15
 73
    11
 74
     0
 42
0.000000001
 43
0.00000001
 40
0.0
 40
0.0
 40
0.0
 40
0.0
 40
0.0695982627538879
 40
0.2214094726977928
 40
0.3732206826416974
 40
0.5250318925856056
 40
0.6768431025295019
 40
0.8286543124734114
 40
0.9804655224172969
 40
1.0
 40
1.0
 40
1.0
 40
1.0
 10
6.001342611615536
 20
-2.301425682799922
 30
0.0
 10
6.001342611615542
 20
-2.26075273666476
 30
0.0
 10
6.001342611615577
 20
-2.131361927174348
 30
0.0
 10
6.001342611615515
 20
-1.845379868914065
 30
0.0
 10
6.001342611615529
 20
-1.447175827245016
 30
0.0
 10
6.001342611615557
 20
-1.039040527995416
 30
0.0
 10
6.001342611615542
 20
-0.6643793181879682
 30
0.0
 10
6.001342611615564
 20
-0.3814674616380967
 30
0.0
 10
6.001342611615494
 20
-0.224798500188936
 30
0.0
 10
6.001342611615549
 20
-0.2090544842252486
 30
0.0
 10
6.001342611615542
 20
-0.2072595681620319
 30
0.0
  0
SPLINE
  5
DE
330
1F
100
AcDbEntity
  8
0
  6
Continuous
 62
   131
370
    15
100
AcDbSpline
210
0.0
220
0.0
230
1.0
 70
     8
 71
     3
 72
    10
 73
     6
 74
     0
 42
0.000000001
 43
0.00000001
 40
0.0
 40
0.0
 40
0.0
 40
0.0
 40
0.5000000000000001
 40
0.5000000000000001
 40
1.0
 40
1.0
 40
1.0
 40
1.0
 10
6.00134261162076
 20
-2.301425682803282
 30
0.0
 10
5.834917537694364
 20
-2.194602975791055
 30
0.0
 10
5.670482299818875
 20
-2.077594219953059
 30
0.0
 10
5.335415213168659
 20
-1.823942483506001
 30
0.0
 10
5.166966045016756
 20
-1.687755726544892
 30
0.0
 10
5.001088293705748
 20
-1.545111757835756
 30
0.0
  0
SPLINE
  5
DF
330
1F
100
AcDbEntity
  8
0
  6
Continuous
 62
   131
370
    15
100
AcDbSpline
210
0.0
220
0.0
230
1.0
 70
     8
 71
     3
 72
    10
 73
     6
 74
     0
 42
0.000000001
 43
0.00000001
 40
0.0
 40
0.0
 40
0.0
 40
0.0
 40
0.5
 40
0.5
 40
1.0
 40
1.0
 40
1.0
 40
1.0
 10
6.001342611615542
 20
-0.20725956816194
 30
0.0
 10
5.83491753769004
 20
-0.0410244369482723
 30
0.0
 10
5.670482299815371
 20
0.1255130921324302
 30
0.0
 10
5.33541521316689
 20
0.4579540784507002
 30
0.0
 10
5.166966045015868
 20
0.6231089101452532
 30
0.0
 10
5.00108829370572
 20
0.7837984782795233
 30
0.0
  0
LINE
  5
E0
330
1F
100
AcDbEntity
  8
0
  6
Continuous
 62
   131
370
    15
100
AcDbLine
 10
5.001088293705734
 20
3.000596004569777
 30
0.0
 11
5.001088293705734
 21
3.001074928723893
 31
0.0
  0
SPLINE
  5
E1
330
1F
100
AcDbEntity
  8
0
  6
Continuous
 62
   131
370
    15
100
AcDbSpline
210
0.0
220
0.0
230
1.0
 70
     8
 71
     3
 72
    10
 73
     6
 74
     0
 42
0.000000001
 43
0.00000001
 40
0.0
 40
0.0
 40
0.0
 40
0.0
 40
0.5
 40
0.5
 40
1.0
 40
1.0
 40
1.0
 40
1.0
 10
6.00134261162076
 20
2.817818614971992
 30
0.0
 10
5.834917537694349
 20
2.875166939845278
 30
0.0
 10
5.670482299818868
 20
2.919310571721926
 30
0.0
 10
5.335415213168659
 20
2.980683507087234
 30
0.0
 10
5.166966045016756
 20
2.997621456154945
 30
0.0
 10
5.001088293705748
 20
3.000595914602791
 30
0.0
  0
SPLINE
  5
E2
330
1F
100
AcDbEntity
  8
0
  6
Continuous
 62
   131
370
    15
100
AcDbSpline
210
0.0
220
0.0
230
1.0
 70
     8
 71
     3
 72
    10
 73
     6
 74
     0
 42
0.000000001
 43
0.00000001
 40
0.0
 40
0.0
 40
0.0
 40
0.0
 40
0.5
 40
0.5
 40
1.0
 40
1.0
 40
1.0
 40
1.0
 10
6.001342611615542
 20
2.48871159899387
 30
0.0
 10
5.83491753769004
 20
2.581850904336521
 30
0.0
 10
5.670482299815371
 20
2.663160286926145
 30
0.0
 10
5.33541521316689
 20
2.801355163496952
 30
0.0
 10
5.166966045015868
 20
2.857791377783403
 30
0.0
 10
5.00108829370572
 20
2.900525195506782
 30
0.0
  0
LINE
  5
E3
330
1F
100
AcDbEntity
  8
0
  6
Continuous
 62
   131
370
    15
100
AcDbLine
 10
5.001088293705734
 20
1.454413632697057
 30
0.0
 11
5.001088293705734
 21
2.900524814623818
 31
0.0
  0
SPLINE
  5
E4
330
1F
100
AcDbEntity
  8
0
  6
Continuous
 62
   131
370
    15
100
AcDbSpline
210
0.0
220
0.0
230
1.0
 70
     8
 71
     3
 72
    10
 73
     6
 74
     0
 42
0.000000001
 43
0.00000001
 40
0.0
 40
0.0
 40
0.0
 40
0.0
 40
0.5
 40
0.5
 40
1.0
 40
1.0
 40
1.0
 40
1.0
 10
6.00134261162076
 20
0.515318003444827
 30
0.0
 10
5.834917537694349
 20
0.679489035330339
 30
0.0
 10
5.670482299818868
 20
0.8406414230449823
 30
0.0
 10
5.335415213168659
 20
1.155666094857348
 30
0.0
 10
5.166966045016756
 20
1.308790800886168
 30
0.0
 10
5.001088293705748
 20
1.454409228043149
 30
0.0
  0
SPLINE
  5
E5
330
1F
100
AcDbEntity
  8
0
  6
Continuous
 62
   131
370
    15
100
AcDbSpline
210
0.0
220
0.0
230
1.0
 70
     8
 71
     3
 72
    10
 73
     6
 74
     0
 42
0.000000001
 43
0.00000001
 40
0.0
 40
0.0
 40
0.0
 40
0.0
 40
0.5
 40
0.5
 40
1.0
 40
1.0
 40
1.0
 40
1.0
 10
6.001342611615542
 20
-2.694896238431916
 30
0.0
 10
5.83491753769004
 20
-2.621800412560899
 30
0.0
 10
5.670482299815371
 20
-2.536572266069822
 30
0.0
 10
5.33541521316689
 20
-2.34232615632236
 30
0.0
 10
5.166966045015868
 20
-2.233607538914259
 30
0.0
 10
5.00108829370572
 20
-2.115651788503369
 30
0.0
  0
LINE
  5
E6
330
1F
100
AcDbEntity
  8
0
  6
Continuous
 62
   131
370
    15
100
AcDbLine
 10
5.001088293705734
 20
-2.998925071276107
 30
0.0
 11
5.001088293705734
 21
-2.115652839831927
 31
0.0
  0
SPLINE
  5
E7
330
1F
100
AcDbEntity
  8
0
  6
Continuous
 62
   131
370
    15
100
AcDbSpline
210
0.0
220
0.0
230
1.0
 70
     8
 71
     3
 72
    10
 73
     6
 74
     0
 42
0.000000001
 43
0.00000001
 40
0.0
 40
0.0
 40
0.0
 40
0.0
 40
0.5
 40
0.5
 40
1.0
 40
1.0
 40
1.0
 40
1.0
 10
6.00134261162076
 20
-2.815668757524206
 30
0.0
 10
5.834917537694349
 20
-2.873017082397491
 30
0.0
 10
5.670482299818868
 20
-2.91716071427414
 30
0.0
 10
5.335415213168659
 20
-2.978533649639447
 30
0.0
 10
5.166966045016756
 20
-2.995471598707159
 30
0.0
 10
5.001088293705748
 20
-2.998446057155005
 30
0.0
  0
LINE
  5
E8
330
1F
100
AcDbEntity
  8
0
  6
Continuous
 62
   131
370
    15
100
AcDbLine
 10
-43.39865738838446
 20
0.0010749287238931
 30
0.0
 11
-43.39865738838446
 21
3.001074928723893
 31
0.0
  0
LINE
  5
E9
330
1F
100
AcDbEntity
  8
0
  6
Continuous
 62
   131
370
    15
100
AcDbLine
 10
-43.39865738838446
 20
-2.998925071276107
 30
0.0
 11
-43.39865738838446
 21
0.0010749287238931
 31
0.0
  0
LINE
  5
EA
330
1F
100
AcDbEntity
  8
0
  6
Continuous
 62
   131
370
    15
100
AcDbLine
 10
5.001088293705734
 20
-1.545107443148833
 30
0.0
 11
5.001088293705734
 21
0.7837970460680003
 31
0.0
  0
LINE
  5
EB
330
1F
100
AcDbEntity
  8
0
  6
Continuous
 62
   131
370
    15
100
AcDbLine
 10
-43.99865738838446
 20
0.0010749287238931
 30
0.0
 11
-43.99865738838446
 21
2.401074928723894
 31
0.0
  0
LINE
  5
EC
330
1F
100
AcDbEntity
  8
0
  6
Continuous
 62
   131
370
    15
100
AcDbLine
 10
-43.99865738838446
 20
-2.398925071276108
 30
0.0
 11
-43.99865738838446
 21
0.0010749287238931
 31
0.0
  0
SPLINE
  5
ED
330
1F
100
AcDbEntity
  8
0
  6
Continuous
 62
   131
370
    15
100
AcDbSpline
210
0.0
220
0.0
230
1.0
 70
    24
 71
     3
 72
    15
 73
    11
 74
     0
 42
0.000000001
 43
0.00000001
 40
0.0
 40
0.0
 40
0.0
 40
0.0
 40
0.0467463048783235
 40
0.1898049657211941
 40
0.3328636265640681
 40
0.4759222874069311
 40
0.6189809482498064
 40
0.7620396090926592
 40
0.9050982699355467
 40
1.0
 40
1.0
 40
1.0
 40
1.0
 10
6.001342611615542
 20
0.4475447442301546
 30
0.0
 10
6.001342611615536
 20
0.4437087909184956
 30
0.0
 10
6.001342611615557
 20
0.4281335922215576
 30
0.0
 10
6.001342611615557
 20
0.5400499904884699
 30
0.0
 10
6.001342611615515
 20
0.772399016271727
 30
0.0
 10
6.001342611615549
 20
1.111025844267903
 30
0.0
 10
6.001342611615536
 20
1.506349596028622
 30
0.0
 10
6.001342611615564
 20
1.914990415198216
 30
0.0
 10
6.001342611615473
 20
2.254597900150485
 30
0.0
 10
6.001342611615515
 20
2.421963856746042
 30
0.0
 10
6.001342611615542
 20
2.488711598982671
 30
0.0
  0
LINE
  5
EE
330
1F
100
AcDbEntity
  8
0
  6
Continuous
 62
   131
370
    15
100
AcDbLine
 10
6.001342611615536
 20
-2.81566875752601
 30
0.0
 11
6.001342611615542
 21
-2.749914341082329
 31
0.0
  0
LINE
  5
EF
330
1F
100
AcDbEntity
  8
중심선
 62
     1
100
AcDbLine
 10
-47.20125016327401
 20
0.0010749287238885
 30
0.0
 11
39.00134261161553
 21
0.001074928723923
 31
0.0
  0
CIRCLE
  5
F0
330
1F
100
AcDbEntity
  8
외형선
100
AcDbCircle
 10
-3.998657388384453
 20
0.1540292176437474
 30
0.0
 40
3.000000000000001
  0
INSERT
  5
F1
330
1F
100
AcDbEntity
  8
0
  6
Continuous
 62
     7
100
AcDbBlockReference
 66
     1
  2
블럭10
 10
-22.93944368806589
 20
-52.04609937292004
 30
0.0
  0
ATTRIB
  5
F2
330
F1
100
AcDbEntity
  8
FORMAT
 62
     2
100
AcDbText
 10
-39.05870472750145
 20
-49.97073246008785
 30
0.0
 40
4.233333333333333
  1
SEME7506030E [ 6 FLUTE ]
 41
0.75
  7
SLDTEXTSTYLE0
 11
-39.05870472750145
 21
-52.08739912675452
 31
0.0
100
AcDbAttribute
  2
AUTOATTR0
 70
     0
 74
     1
  0
SEQEND
  5
F3
330
F1
100
AcDbEntity
  8
0
  6
Continuous
 62
     7
  0
HATCH
  5
F4
330
1F
100
AcDbEntity
  8
중심선
100
AcDbHatch
 10
0.0
 20
0.0
 30
0.0
210
0.0
220
0.0
230
1.0
  2
SOLID
 70
     1
 71
     0
 91
        1
 92
        0
 93
        4
 72
     1
 10
-17.22453438368504
 20
-35.7989250712761
 11
-20.67080962752232
 21
-35.7989250712761
 72
     1
 10
-20.67080962752232
 20
-35.7989250712761
 11
-22.79903948672635
 21
-38.3352506518487
 72
     1
 10
-22.79903948672635
 20
-38.3352506518487
 11
-19.35273115777591
 21
-38.33521122254621
 72
     1
 10
-19.35273115777591
 20
-38.33521122254621
 11
-17.22453438368504
 21
-35.7989250712761
 97
        0
 75
     0
 76
     1
 98
        1
 10
0.0
 20
0.0
  0
HATCH
  5
F5
330
1F
100
AcDbEntity
  8
중심선
100
AcDbHatch
 10
0.0
 20
0.0
 30
0.0
210
0.0
220
0.0
230
1.0
  2
SOLID
 70
     1
 71
     0
 91
        1
 92
        0
 93
        4
 72
     1
 10
-12.21177039264909
 20
-35.7989250712761
 11
-15.65804563648637
 21
-35.7989250712761
 72
     1
 10
-15.65804563648637
 20
-35.7989250712761
 11
-20.18918364484376
 21
-41.19892507127612
 72
     1
 10
-20.18918364484376
 20
-41.19892507127612
 11
-16.74290840100648
 21
-41.19892507127612
 72
     1
 10
-16.74290840100648
 20
-41.19892507127612
 11
-12.21177039264909
 21
-35.7989250712761
 97
        0
 75
     0
 76
     1
 98
        1
 10
0.0
 20
0.0
  0
HATCH
  5
F6
330
1F
100
AcDbEntity
  8
중심선
100
AcDbHatch
 10
0.0
 20
0.0
 30
0.0
210
0.0
220
0.0
230
1.0
  2
SOLID
 70
     1
 71
     0
 91
        1
 92
        0
 93
        4
 72
     1
 10
-7.199006401613195
 20
-35.79892507127613
 11
-10.64528164545031
 21
-35.7989250712761
 72
     1
 10
-10.64528164545031
 20
-35.7989250712761
 11
-17.69371854733956
 21
-44.19892507127612
 72
     1
 10
-17.69371854733956
 20
-44.19892507127612
 11
-14.24744330350228
 21
-44.19892507127612
 72
     1
 10
-14.24744330350228
 20
-44.19892507127612
 11
-7.199006401613195
 21
-35.79892507127613
 97
        0
 75
     0
 76
     1
 98
        1
 10
0.0
 20
0.0
  0
HATCH
  5
F7
330
1F
100
AcDbEntity
  8
중심선
100
AcDbHatch
 10
0.0
 20
0.0
 30
0.0
210
0.0
220
0.0
230
1.0
  2
SOLID
 70
     1
 71
     0
 91
        1
 92
        0
 93
        6
 72
     3
 10
-2.399115970600996
 20
-39.99892507132738
 11
3.960054785062284
 21
1.540850780301639E-10
 40
0.3939339440162633
 50
17.09539180608433
 51
320.0019657685079
 73
     0
 72
     1
 10
-0.7161163149004002
 20
-38.58681907591441
 11
1.589185558800638
 21
-36.65249236586649
 72
     3
 10
-2.399115970653842
 20
-39.99892507127625
 11
6.600054785286829
 21
-1.249000902703301E-13
 40
0.6363583540795982
 50
39.99873849337408
 51
368.4976242363725
 73
     1
 72
     1
 10
4.026216521246767
 20
-39.03892507120613
 11
-3.71904866381792
 21
-39.0389250712061
 72
     1
 10
-3.71904866381792
 20
-39.0389250712061
 11
-3.719073708263854
 21
-40.95892507120602
 72
     1
 10
-3.719073708263854
 20
-40.95892507120602
 11
0.7223060612081831
 21
-40.95892507120599
 97
        0
 75
     0
 76
     1
 98
        1
 10
0.0
 20
0.0
  0
DIMENSION
  5
F8
330
1F
100
AcDbEntity
  8
치수문자_일반주서
100
AcDbDimension
  2
_D
 10
-62.02756351970788
 20
-2.998925071276111
 30
0.0
 11
-62.02756351970788
 21
0.0010749287238946
 31
0.0
 70
   160
  1
%%c<>
 71
     2
 42
-1.0
  3
SLDDIMSTYLE0
100
AcDbAlignedDimension
 13
-43.39865738838444
 23
3.001074928723896
 33
0.0
 14
-43.39865738838444
 24
-2.998925071276109
 34
0.0
 50
90.0000000000002
100
AcDbRotatedDimension
  0
DIMENSION
  5
106
330
1F
100
AcDbEntity
  8
치수문자_일반주서
100
AcDbDimension
  2
_D_1
 10
46.00134261161553
 20
-2.998925071276074
 30
0.0
 11
46.00134261161552
 21
0.3967333787814889
 31
0.0
 70
   160
  1
%%c<>
 71
     2
 42
6.000000000000004
  3
SLDDIMSTYLE0
100
AcDbAlignedDimension
 13
36.00134261161554
 23
3.001074928723895
 33
0.0
 14
36.00134261161554
 24
-2.998925071276108
 34
0.0
 50
90.0000000000002
100
AcDbRotatedDimension
  0
DIMENSION
  5
113
330
1F
100
AcDbEntity
  8
치수문자_일반주서
100
AcDbDimension
  2
_D_2
 10
36.00134261161554
 20
46.3126592336156
 30
0.0
 11
18.27883894085482
 21
46.3126592336156
 31
0.0
 70
   160
  1
<>
 71
     2
 42
-1.0
  3
SLDDIMSTYLE1
100
AcDbAlignedDimension
 13
6.001342611615542
 23
2.817818614973794
 33
0.0
 14
36.00134261161554
 24
2.979182581436908
 34
0.0
100
AcDbRotatedDimension
  0
DIMENSION
  5
11E
330
1F
100
AcDbEntity
  8
치수문자_일반주서
100
AcDbDimension
  2
_D_3
 10
-43.99865738838447
 20
73.92386524230655
 30
0.0
 11
-1.520126829642719
 21
73.92386524230655
 31
0.0
 70
   160
  1
<>
 71
     2
 42
-1.0
  3
SLDDIMSTYLE1
100
AcDbAlignedDimension
 13
36.00134261161554
 23
2.979182581436908
 33
0.0
 14
-43.99865738838446
 24
2.401074928723894
 34
0.0
100
AcDbRotatedDimension
  0
INSERT
  5
12E
330
1F
100
AcDbEntity
  8
외형선
100
AcDbBlockReference
  2
SW_DOWELSYMBOL_0
 10
-3.998657388384453
 20
0.1540292176437474
 30
0.0
  0
ENDSEC
  0
SECTION
  2
OBJECTS
  0
DICTIONARY
  5
C
330
0
100
AcDbDictionary
281
     1
  3
ACAD_GROUP
350
D
  3
ACAD_IMAGE_VARS
350
152
  3
ACAD_LAYOUT
350
1A
  3
ACAD_MLINESTYLE
350
17
  3
ACAD_PLOTSETTINGS
350
19
  3
ACAD_PLOTSTYLENAME
350
E
  3
ACAD_SCALELIST
350
47
  3
APPDATA
350
150
  3
DWGPROPS
350
155
  0
DICTIONARY
  5
D
102
{ACAD_REACTORS
330
C
102
}
330
C
100
AcDbDictionary
281
     1
  0
RASTERVARIABLES
  5
152
102
{ACAD_REACTORS
330
C
102
}
330
C
100
AcDbRasterVariables
 90
        0
 70
     1
 71
     1
 72
     1
  0
DICTIONARY
  5
1A
102
{ACAD_REACTORS
330
C
102
}
330
C
100
AcDbDictionary
281
     1
  3
Layout1
350
1E
  3
Layout2
350
26
  3
Model
350
22
  0
DICTIONARY
  5
17
102
{ACAD_REACTORS
330
C
102
}
330
C
100
AcDbDictionary
281
     1
  3
Standard
350
18
  0
DICTIONARY
  5
19
102
{ACAD_REACTORS
330
C
102
}
330
C
100
AcDbDictionary
281
     1
  0
ACDBDICTIONARYWDFLT
  5
E
102
{ACAD_REACTORS
330
C
102
}
330
C
100
AcDbDictionary
281
     1
  3
Normal
350
F
100
AcDbDictionaryWithDefault
340
F
  0
DICTIONARY
  5
47
102
{ACAD_REACTORS
330
C
102
}
330
C
100
AcDbDictionary
281
     1
  3
A0
350
48
  3
A1
350
49
  3
A2
350
4A
  3
A3
350
4B
  3
A4
350
4C
  3
A5
350
4D
  3
A6
350
4E
  3
A7
350
4F
  3
A8
350
50
  3
A9
350
51
  3
B0
350
52
  3
B1
350
53
  3
B2
350
54
  3
B3
350
55
  3
B4
350
56
  3
B5
350
57
  3
B6
350
58
  3
B7
350
59
  3
B8
350
5A
  3
B9
350
5B
  3
C0
350
5C
  3
C1
350
5D
  3
C2
350
5E
  3
C3
350
5F
  3
C4
350
60
  3
C5
350
61
  3
C6
350
62
  3
C7
350
63
  3
C8
350
64
  3
C9
350
65
  3
D0
350
66
  3
D1
350
67
  3
D2
350
68
  0
DICTIONARY
  5
150
102
{ACAD_REACTORS
330
C
102
}
330
C
100
AcDbDictionary
281
     1
  0
XRECORD
  5
155
102
{ACAD_REACTORS
330
C
102
}
330
C
100
AcDbXrecord
280
     1
  1
DWGPROPS COOKIE
  2

  3

  4

  6

  7

  8
12016016
  9

300
=
301
=
302
=
303
=
304
=
305
=
306
=
307
=
308
=
309
=
 40
0.0
 41
2458268.394460324
 42
2458269.991654063
  1

 90
        0
  0
LAYOUT
  5
1E
102
{ACAD_REACTORS
330
1A
102
}
330
1A
100
AcDbPlotSettings
  1

  2
none_device
  4

  6

 40
0.0
 41
0.0
 42
0.0
 43
0.0
 44
0.0
 45
0.0
 46
0.0
 47
0.0
 48
0.0
 49
0.0
140
0.0
141
0.0
142
1.0
143
1.0
 70
   688
 72
     1
 73
     0
 74
     5
  7

 75
    16
147
1.0
148
0.0
149
0.0
100
AcDbLayout
  1
Layout1
 70
     1
 71
     1
 10
0.0
 20
0.0
 11
420.0
 21
297.0
 12
0.0
 22
0.0
 32
0.0
 14
1.000000000000000E+20
 24
1.000000000000000E+20
 34
1.000000000000000E+20
 15
-1.000000000000000E+20
 25
-1.000000000000000E+20
 35
-1.000000000000000E+20
146
0.0
 13
0.0
 23
0.0
 33
0.0
 16
1.0
 26
0.0
 36
0.0
 17
0.0
 27
1.0
 37
0.0
 76
     0
330
1B
  0
LAYOUT
  5
26
102
{ACAD_REACTORS
330
1A
102
}
330
1A
100
AcDbPlotSettings
  1

  2
none_device
  4

  6

 40
0.0
 41
0.0
 42
0.0
 43
0.0
 44
0.0
 45
0.0
 46
0.0
 47
0.0
 48
0.0
 49
0.0
140
0.0
141
0.0
142
1.0
143
1.0
 70
   688
 72
     1
 73
     0
 74
     5
  7

 75
    16
147
1.0
148
0.0
149
0.0
100
AcDbLayout
  1
Layout2
 70
     1
 71
     2
 10
0.0
 20
0.0
 11
0.0
 21
0.0
 12
0.0
 22
0.0
 32
0.0
 14
0.0
 24
0.0
 34
0.0
 15
0.0
 25
0.0
 35
0.0
146
0.0
 13
0.0
 23
0.0
 33
0.0
 16
1.0
 26
0.0
 36
0.0
 17
0.0
 27
1.0
 37
0.0
 76
     0
330
23
  0
LAYOUT
  5
22
102
{ACAD_REACTORS
330
1A
102
}
330
1A
100
AcDbPlotSettings
  1

  2
none_device
  4
ANSI_A_(11.00_x_8.50_Inches)
  6

 40
6.35
 41
19.05
 42
6.35000508
 43
19.05000254
 44
279.4
 45
215.9
 46
149.5616975695072
 47
65.9612455222848
 48
0.0
 49
0.0
140
0.0
141
0.0
142
0.0651566428949785
143
1.0
 70
  1696
 72
     0
 73
     0
 74
     0
  7

 75
     0
147
0.0235690232323232
148
0.0
149
0.0
100
AcDbLayout
  1
Model
 70
     1
 71
     0
 10
0.0
 20
0.0
 11
420.0
 21
297.0
 12
0.0
 22
0.0
 32
0.0
 14
-66.59277278556965
 24
-49.97073246008785
 34
0.0
 15
46.55167594494886
 25
78.43560215688545
 35
0.0
146
0.0
 13
0.0
 23
0.0
 33
0.0
 16
1.0
 26
0.0
 36
0.0
 17
0.0
 27
1.0
 37
0.0
 76
     0
330
1F
331
29
  0
MLINESTYLE
  5
18
102
{ACAD_REACTORS
330
17
102
}
330
17
100
AcDbMlineStyle
  2
Standard
 70
     0
  3

 62
   256
 51
90.0
 52
90.0
 71
     2
 49
0.5
 62
   256
  6
BYLAYER
 49
-0.5
 62
   256
  6
BYLAYER
  0
ACDBPLACEHOLDER
  5
F
102
{ACAD_REACTORS
330
E
102
}
330
E
  0
SCALE
  5
48
102
{ACAD_REACTORS
330
47
102
}
330
47
100
AcDbScale
 70
     0
300
1:1
140
1.0
141
1.0
290
     1
  0
SCALE
  5
49
102
{ACAD_REACTORS
330
47
102
}
330
47
100
AcDbScale
 70
     0
300
1:2
140
1.0
141
2.0
290
     0
  0
SCALE
  5
4A
102
{ACAD_REACTORS
330
47
102
}
330
47
100
AcDbScale
 70
     0
300
1:4
140
1.0
141
4.0
290
     0
  0
SCALE
  5
4B
102
{ACAD_REACTORS
330
47
102
}
330
47
100
AcDbScale
 70
     0
300
1:5
140
1.0
141
5.0
290
     0
  0
SCALE
  5
4C
102
{ACAD_REACTORS
330
47
102
}
330
47
100
AcDbScale
 70
     0
300
1:8
140
1.0
141
8.0
290
     0
  0
SCALE
  5
4D
102
{ACAD_REACTORS
330
47
102
}
330
47
100
AcDbScale
 70
     0
300
1:10
140
1.0
141
10.0
290
     0
  0
SCALE
  5
4E
102
{ACAD_REACTORS
330
47
102
}
330
47
100
AcDbScale
 70
     0
300
1:16
140
1.0
141
16.0
290
     0
  0
SCALE
  5
4F
102
{ACAD_REACTORS
330
47
102
}
330
47
100
AcDbScale
 70
     0
300
1:20
140
1.0
141
20.0
290
     0
  0
SCALE
  5
50
102
{ACAD_REACTORS
330
47
102
}
330
47
100
AcDbScale
 70
     0
300
1:30
140
1.0
141
30.0
290
     0
  0
SCALE
  5
51
102
{ACAD_REACTORS
330
47
102
}
330
47
100
AcDbScale
 70
     0
300
1:40
140
1.0
141
40.0
290
     0
  0
SCALE
  5
52
102
{ACAD_REACTORS
330
47
102
}
330
47
100
AcDbScale
 70
     0
300
1:50
140
1.0
141
50.0
290
     0
  0
SCALE
  5
53
102
{ACAD_REACTORS
330
47
102
}
330
47
100
AcDbScale
 70
     0
300
1:100
140
1.0
141
100.0
290
     0
  0
SCALE
  5
54
102
{ACAD_REACTORS
330
47
102
}
330
47
100
AcDbScale
 70
     0
300
2:1
140
2.0
141
1.0
290
     0
  0
SCALE
  5
55
102
{ACAD_REACTORS
330
47
102
}
330
47
100
AcDbScale
 70
     0
300
4:1
140
4.0
141
1.0
290
     0
  0
SCALE
  5
56
102
{ACAD_REACTORS
330
47
102
}
330
47
100
AcDbScale
 70
     0
300
8:1
140
8.0
141
1.0
290
     0
  0
SCALE
  5
57
102
{ACAD_REACTORS
330
47
102
}
330
47
100
AcDbScale
 70
     0
300
10:1
140
10.0
141
1.0
290
     0
  0
SCALE
  5
58
102
{ACAD_REACTORS
330
47
102
}
330
47
100
AcDbScale
 70
     0
300
100:1
140
100.0
141
1.0
290
     0
  0
SCALE
  5
59
102
{ACAD_REACTORS
330
47
102
}
330
47
100
AcDbScale
 70
     0
300
1/128" = 1'-0"
140
0.0078125
141
12.0
290
     0
  0
SCALE
  5
5A
102
{ACAD_REACTORS
330
47
102
}
330
47
100
AcDbScale
 70
     0
300
1/64" = 1'-0"
140
0.015625
141
12.0
290
     0
  0
SCALE
  5
5B
102
{ACAD_REACTORS
330
47
102
}
330
47
100
AcDbScale
 70
     0
300
1/32" = 1'-0"
140
0.03125
141
12.0
290
     0
  0
SCALE
  5
5C
102
{ACAD_REACTORS
330
47
102
}
330
47
100
AcDbScale
 70
     0
300
1/16" = 1'-0"
140
0.0625
141
12.0
290
     0
  0
SCALE
  5
5D
102
{ACAD_REACTORS
330
47
102
}
330
47
100
AcDbScale
 70
     0
300
3/32" = 1'-0"
140
0.09375
141
12.0
290
     0
  0
SCALE
  5
5E
102
{ACAD_REACTORS
330
47
102
}
330
47
100
AcDbScale
 70
     0
300
1/8" = 1'-0"
140
0.125
141
12.0
290
     0
  0
SCALE
  5
5F
102
{ACAD_REACTORS
330
47
102
}
330
47
100
AcDbScale
 70
     0
300
3/16" = 1'-0"
140
0.1875
141
12.0
290
     0
  0
SCALE
  5
60
102
{ACAD_REACTORS
330
47
102
}
330
47
100
AcDbScale
 70
     0
300
1/4" = 1'-0"
140
0.25
141
12.0
290
     0
  0
SCALE
  5
61
102
{ACAD_REACTORS
330
47
102
}
330
47
100
AcDbScale
 70
     0
300
3/8" = 1'-0"
140
0.375
141
12.0
290
     0
  0
SCALE
  5
62
102
{ACAD_REACTORS
330
47
102
}
330
47
100
AcDbScale
 70
     0
300
1/2" = 1'-0"
140
0.5
141
12.0
290
     0
  0
SCALE
  5
63
102
{ACAD_REACTORS
330
47
102
}
330
47
100
AcDbScale
 70
     0
300
3/4" = 1'-0"
140
0.75
141
12.0
290
     0
  0
SCALE
  5
64
102
{ACAD_REACTORS
330
47
102
}
330
47
100
AcDbScale
 70
     0
300
1" = 1'-0"
140
1.0
141
12.0
290
     0
  0
SCALE
  5
65
102
{ACAD_REACTORS
330
47
102
}
330
47
100
AcDbScale
 70
     0
300
1-1/2" = 1'-0"
140
1.5
141
12.0
290
     0
  0
SCALE
  5
66
102
{ACAD_REACTORS
330
47
102
}
330
47
100
AcDbScale
 70
     0
300
3" = 1'-0"
140
3.0
141
12.0
290
     0
  0
SCALE
  5
67
102
{ACAD_REACTORS
330
47
102
}
330
47
100
AcDbScale
 70
     0
300
6" = 1'-0"
140
6.0
141
12.0
290
     0
  0
SCALE
  5
68
102
{ACAD_REACTORS
330
47
102
}
330
47
100
AcDbScale
 70
     0
300
1'-0" = 1'-0"
140
12.0
141
12.0
290
     0
  0
ENDSEC
  0
EOF
