  0
SECTION
  2
HEADER
  9
$ACADVER
  1
AC1015
  9
$ACADMAINTVER
 70
     6
  9
$DWGCODEPAGE
  3
ANSI_949
  9
$INSBASE
 10
0.0
 20
0.0
 30
0.0
  9
$EXTMIN
 10
-92.40390613132342
 20
-49.97073246008785
 30
0.0
  9
$EXTMAX
 10
50.55033333333331
 20
78.29779031358264
 30
0.0
  9
$LIMMIN
 10
0.0
 20
0.0
  9
$LIMMAX
 10
420.0
 20
297.0
  9
$ORTHOMODE
 70
     1
  9
$REGENMODE
 70
     1
  9
$FILLMODE
 70
     1
  9
$QTEXTMODE
 70
     0
  9
$MIRRTEXT
 70
     1
  9
$LTSCALE
 40
1.0
  9
$ATTMODE
 70
     1
  9
$TEXTSIZE
 40
3.5
  9
$TRACEWID
 40
1.0
  9
$TEXTSTYLE
  7
Standard
  9
$CLAYER
  8
0
  9
$CELTYPE
  6
ByLayer
  9
$CECOLOR
 62
   256
  9
$CELTSCALE
 40
1.0
  9
$DISPSILH
 70
     0
  9
$DIMSCALE
 40
1.0
  9
$DIMASZ
 40
3.302
  9
$DIMEXO
 40
1.0
  9
$DIMDLI
 40
3.75
  9
$DIMRND
 40
0.0
  9
$DIMDLE
 40
0.0
  9
$DIMEXE
 40
1.0
  9
$DIMTP
 40
0.0
  9
$DIMTM
 40
0.0
  9
$DIMTXT
 40
3.5
  9
$DIMCEN
 40
2.5
  9
$DIMTSZ
 40
0.0
  9
$DIMTOL
 70
     0
  9
$DIMLIM
 70
     0
  9
$DIMTIH
 70
     1
  9
$DIMTOH
 70
     1
  9
$DIMSE1
 70
     0
  9
$DIMSE2
 70
     0
  9
$DIMTAD
 70
     1
  9
$DIMZIN
 70
     0
  9
$DIMBLK
  1

  9
$DIMASO
 70
     1
  9
$DIMSHO
 70
     1
  9
$DIMPOST
  1

  9
$DIMAPOST
  1

  9
$DIMALT
 70
     0
  9
$DIMALTD
 70
     3
  9
$DIMALTF
 40
0.0393700787401575
  9
$DIMLFAC
 40
1.0
  9
$DIMTOFL
 70
     1
  9
$DIMTVP
 40
0.0
  9
$DIMTIX
 70
     0
  9
$DIMSOXD
 70
     0
  9
$DIMSAH
 70
     0
  9
$DIMBLK1
  1

  9
$DIMBLK2
  1

  9
$DIMSTYLE
  2
ISO-25
  9
$DIMCLRD
 70
     0
  9
$DIMCLRE
 70
     0
  9
$DIMCLRT
 70
     0
  9
$DIMTFAC
 40
1.0
  9
$DIMGAP
 40
1.524
  9
$DIMJUST
 70
     0
  9
$DIMSD1
 70
     0
  9
$DIMSD2
 70
     0
  9
$DIMTOLJ
 70
     0
  9
$DIMTZIN
 70
     0
  9
$DIMALTZ
 70
     0
  9
$DIMALTTZ
 70
     0
  9
$DIMUPT
 70
     0
  9
$DIMDEC
 70
     2
  9
$DIMTDEC
 70
     2
  9
$DIMALTU
 70
     2
  9
$DIMALTTD
 70
     3
  9
$DIMTXSTY
  7
Standard
  9
$DIMAUNIT
 70
     0
  9
$DIMADEC
 70
     2
  9
$DIMALTRND
 40
0.0
  9
$DIMAZIN
 70
     0
  9
$DIMDSEP
 70
    44
  9
$DIMATFIT
 70
     3
  9
$DIMFRAC
 70
     0
  9
$DIMLDRBLK
  1

  9
$DIMLUNIT
 70
     2
  9
$DIMLWD
 70
    -2
  9
$DIMLWE
 70
    -2
  9
$DIMTMOVE
 70
     0
  9
$LUNITS
 70
     2
  9
$LUPREC
 70
     2
  9
$SKETCHINC
 40
1.0
  9
$FILLETRAD
 40
10.0
  9
$AUNITS
 70
     0
  9
$AUPREC
 70
     2
  9
$MENU
  1
.
  9
$ELEVATION
 40
0.0
  9
$PELEVATION
 40
0.0
  9
$THICKNESS
 40
0.0
  9
$LIMCHECK
 70
     0
  9
$CHAMFERA
 40
0.0
  9
$CHAMFERB
 40
0.0
  9
$CHAMFERC
 40
0.0
  9
$CHAMFERD
 40
0.0
  9
$SKPOLY
 70
     0
  9
$TDCREATE
 40
2458268.769272847
  9
$TDUCREATE
 40
2458268.394272847
  9
$TDUPDATE
 40
2458270.372359931
  9
$TDUUPDATE
 40
2458269.997359931
  9
$TDINDWG
 40
0.0005711111
  9
$TDUSRTIMER
 40
2458269.99678897
  9
$USRTIMER
 70
     1
  9
$ANGBASE
 50
0.0
  9
$ANGDIR
 70
     0
  9
$PDMODE
 70
     0
  9
$PDSIZE
 40
-1.0
  9
$PLINEWID
 40
0.0
  9
$SPLFRAME
 70
     0
  9
$SPLINETYPE
 70
     6
  9
$SPLINESEGS
 70
     8
  9
$HANDSEED
  5
153
  9
$SURFTAB1
 70
     6
  9
$SURFTAB2
 70
     6
  9
$SURFTYPE
 70
     6
  9
$SURFU
 70
     6
  9
$SURFV
 70
     6
  9
$UCSBASE
  2

  9
$UCSNAME
  2

  9
$UCSORG
 10
0.0
 20
0.0
 30
0.0
  9
$UCSXDIR
 10
1.0
 20
0.0
 30
0.0
  9
$UCSYDIR
 10
0.0
 20
1.0
 30
0.0
  9
$UCSORTHOREF
  2

  9
$UCSORTHOVIEW
 70
     0
  9
$UCSORGTOP
 10
0.0
 20
0.0
 30
0.0
  9
$UCSORGBOTTOM
 10
0.0
 20
0.0
 30
0.0
  9
$UCSORGLEFT
 10
0.0
 20
0.0
 30
0.0
  9
$UCSORGRIGHT
 10
0.0
 20
0.0
 30
0.0
  9
$UCSORGFRONT
 10
0.0
 20
0.0
 30
0.0
  9
$UCSORGBACK
 10
0.0
 20
0.0
 30
0.0
  9
$PUCSBASE
  2

  9
$PUCSNAME
  2

  9
$PUCSORG
 10
0.0
 20
0.0
 30
0.0
  9
$PUCSXDIR
 10
1.0
 20
0.0
 30
0.0
  9
$PUCSYDIR
 10
0.0
 20
1.0
 30
0.0
  9
$PUCSORTHOREF
  2

  9
$PUCSORTHOVIEW
 70
     0
  9
$PUCSORGTOP
 10
0.0
 20
0.0
 30
0.0
  9
$PUCSORGBOTTOM
 10
0.0
 20
0.0
 30
0.0
  9
$PUCSORGLEFT
 10
0.0
 20
0.0
 30
0.0
  9
$PUCSORGRIGHT
 10
0.0
 20
0.0
 30
0.0
  9
$PUCSORGFRONT
 10
0.0
 20
0.0
 30
0.0
  9
$PUCSORGBACK
 10
0.0
 20
0.0
 30
0.0
  9
$USERI1
 70
     0
  9
$USERI2
 70
     0
  9
$USERI3
 70
     0
  9
$USERI4
 70
     0
  9
$USERI5
 70
     0
  9
$USERR1
 40
0.0
  9
$USERR2
 40
0.0
  9
$USERR3
 40
0.0
  9
$USERR4
 40
0.0
  9
$USERR5
 40
0.0
  9
$WORLDVIEW
 70
     1
  9
$SHADEDGE
 70
     3
  9
$SHADEDIF
 70
    70
  9
$TILEMODE
 70
     1
  9
$MAXACTVP
 70
    64
  9
$PINSBASE
 10
0.0
 20
0.0
 30
0.0
  9
$PLIMCHECK
 70
     0
  9
$PEXTMIN
 10
1.000000000000000E+20
 20
1.000000000000000E+20
 30
1.000000000000000E+20
  9
$PEXTMAX
 10
-1.000000000000000E+20
 20
-1.000000000000000E+20
 30
-1.000000000000000E+20
  9
$PLIMMIN
 10
0.0
 20
0.0
  9
$PLIMMAX
 10
0.0
 20
0.0
  9
$UNITMODE
 70
     0
  9
$VISRETAIN
 70
     1
  9
$PLINEGEN
 70
     0
  9
$PSLTSCALE
 70
     1
  9
$TREEDEPTH
 70
  3020
  9
$CMLSTYLE
  2
Standard
  9
$CMLJUST
 70
     0
  9
$CMLSCALE
 40
20.0
  9
$PROXYGRAPHICS
 70
     1
  9
$MEASUREMENT
 70
     1
  9
$CELWEIGHT
370
    -1
  9
$ENDCAPS
280
     0
  9
$JOINSTYLE
280
     0
  9
$LWDISPLAY
290
     1
  9
$INSUNITS
 70
     4
  9
$HYPERLINKBASE
  1

  9
$STYLESHEET
  1

  9
$XEDIT
290
     1
  9
$CEPSNTYPE
380
     0
  9
$PSTYLEMODE
290
     1
  9
$FINGERPRINTGUID
  2
{C5444274-64DC-403F-B24A-9EF3B374FAD2}
  9
$VERSIONGUID
  2
{FAEB1C32-E019-11D5-929B-00C0DF256EC4}
  9
$EXTNAMES
290
     1
  9
$PSVPSCALE
 40
0.0
  9
$OLESTARTUP
290
     0
  0
ENDSEC
  0
SECTION
  2
CLASSES
  0
CLASS
  1
ACDBDICTIONARYWDFLT
  2
AcDbDictionaryWithDefault
  3
ObjectDBX Classes
 90
        0
280
     0
281
     0
  0
CLASS
  1
VISUALSTYLE
  2
AcDbVisualStyle
  3
ObjectDBX Classes
 90
     4095
280
     0
281
     0
  0
CLASS
  1
MATERIAL
  2
AcDbMaterial
  3
ObjectDBX Classes
 90
     1153
280
     0
281
     0
  0
CLASS
  1
SCALE
  2
AcDbScale
  3
ObjectDBX Classes
 90
     1153
280
     0
281
     0
  0
CLASS
  1
SUN
  2
AcDbSun
  3
SCENEOE
 90
     1153
280
     0
281
     0
  0
CLASS
  1
ACDBPLACEHOLDER
  2
AcDbPlaceHolder
  3
ObjectDBX Classes
 90
        0
280
     0
281
     0
  0
CLASS
  1
LAYOUT
  2
AcDbLayout
  3
ObjectDBX Classes
 90
        0
280
     0
281
     0
  0
CLASS
  1
TABLESTYLE
  2
AcDbTableStyle
  3
ObjectDBX Classes
 90
     4095
280
     0
281
     0
  0
CLASS
  1
MLEADERSTYLE
  2
AcDbMLeaderStyle
  3
ACDB_MLEADERSTYLE_CLASS
 90
     4095
280
     0
281
     0
  0
CLASS
  1
RASTERVARIABLES
  2
AcDbRasterVariables
  3
ISM
 90
        0
280
     0
281
     0
  0
ENDSEC
  0
SECTION
  2
TABLES
  0
TABLE
  2
VPORT
  5
8
330
0
100
AcDbSymbolTable
 70
     1
  0
VPORT
  5
29
330
8
100
AcDbSymbolTableRecord
100
AcDbViewportTableRecord
  2
*Active
 70
     0
 10
0.0
 20
0.0
 11
1.0
 21
1.0
 12
16.5999814500652
 22
1.993064125326068
 13
0.0
 23
0.0
 14
10.0
 24
10.0
 15
10.0
 25
10.0
 16
0.0
 26
0.0
 36
1.0
 17
0.0
 27
0.0
 37
0.0
 40
43.62486837682501
 41
1.627413127413127
 42
50.0
 43
0.0
 44
0.0
 50
0.0
 51
0.0
 71
    16
 72
  2000
 73
     1
 74
     3
 75
     0
 76
     0
 77
     0
 78
     0
281
     0
 65
     1
110
0.0
120
0.0
130
0.0
111
1.0
121
0.0
131
0.0
112
0.0
122
1.0
132
0.0
 79
     0
146
0.0
  0
ENDTAB
  0
TABLE
  2
LTYPE
  5
5
330
0
100
AcDbSymbolTable
 70
     6
  0
LTYPE
  5
14
330
5
100
AcDbSymbolTableRecord
100
AcDbLinetypeTableRecord
  2
ByBlock
 70
     0
  3

 72
    65
 73
     0
 40
0.0
  0
LTYPE
  5
15
330
5
100
AcDbSymbolTableRecord
100
AcDbLinetypeTableRecord
  2
ByLayer
 70
     0
  3

 72
    65
 73
     0
 40
0.0
  0
LTYPE
  5
16
330
5
100
AcDbSymbolTableRecord
100
AcDbLinetypeTableRecord
  2
Continuous
 70
     0
  3
Solid line
 72
    65
 73
     0
 40
0.0
  0
LTYPE
  5
6A
330
5
100
AcDbSymbolTableRecord
100
AcDbLinetypeTableRecord
  2
HIDDEN
 70
     0
  3
Hidden __ __ __ __ __ __ __ __ __ __ __ __ __ __
 72
    65
 73
     2
 40
1.905
 49
1.27
 74
     0
 49
-0.635
 74
     0
  0
LTYPE
  5
6B
330
5
100
AcDbSymbolTableRecord
100
AcDbLinetypeTableRecord
  2
PHANTOM
 70
     0
  3
Phantom ______  __  __  ______  __  __  ______
 72
    65
 73
     6
 40
12.7
 49
6.35
 74
     0
 49
-1.27
 74
     0
 49
1.27
 74
     0
 49
-1.27
 74
     0
 49
1.27
 74
     0
 49
-1.27
 74
     0
  0
LTYPE
  5
6C
330
5
100
AcDbSymbolTableRecord
100
AcDbLinetypeTableRecord
  2
CENTER
 70
     0
  3
Center ____ _ ____ _ ____ _ ____ _ ____ _ ____
 72
    65
 73
     4
 40
10.16
 49
6.35
 74
     0
 49
-1.27
 74
     0
 49
1.27
 74
     0
 49
-1.27
 74
     0
  0
LTYPE
  5
6D
330
5
100
AcDbSymbolTableRecord
100
AcDbLinetypeTableRecord
  2
CENTERX2
 70
     0
  3
Center (2x) ________  __  ________  __  _____
 72
    65
 73
     4
 40
20.32
 49
12.7
 74
     0
 49
-2.54
 74
     0
 49
2.54
 74
     0
 49
-2.54
 74
     0
  0
LTYPE
  5
6E
330
5
100
AcDbSymbolTableRecord
100
AcDbLinetypeTableRecord
  2
DOT2
 70
     0
  3
Dot (.5x) ........................................
 72
    65
 73
     2
 40
0.635
 49
0.0
 74
     0
 49
-0.635
 74
     0
  0
ENDTAB
  0
TABLE
  2
LAYER
  5
2
330
0
100
AcDbSymbolTable
 70
    17
  0
LAYER
  5
10
330
2
100
AcDbSymbolTableRecord
100
AcDbLayerTableRecord
  2
0
 70
     0
 62
     7
  6
Continuous
370
    -3
390
F
  0
LAYER
  5
6F
330
2
100
AcDbSymbolTableRecord
100
AcDbLayerTableRecord
  2
FORMAT
 70
     0
 62
     2
  6
Continuous
370
    -3
390
F
  0
LAYER
  5
70
330
2
100
AcDbSymbolTableRecord
100
AcDbLayerTableRecord
  2
외형선
 70
     0
 62
   100
  6
Continuous
370
    30
390
F
  0
LAYER
  5
71
330
2
100
AcDbSymbolTableRecord
100
AcDbLayerTableRecord
  2
숨은선
 70
     0
 62
     2
  6
HIDDEN
370
    15
390
F
  0
LAYER
  5
72
330
2
100
AcDbSymbolTableRecord
100
AcDbLayerTableRecord
  2
중심선
 70
     0
 62
     1
  6
CENTERX2
370
    -3
390
F
  0
LAYER
  5
73
330
2
100
AcDbSymbolTableRecord
100
AcDbLayerTableRecord
  2
파단선
 70
     0
 62
     4
  6
Continuous
370
    -3
390
F
  0
LAYER
  5
74
330
2
100
AcDbSymbolTableRecord
100
AcDbLayerTableRecord
  2
해칭선
 70
     0
 62
     4
  6
Continuous
370
    -3
390
F
  0
LAYER
  5
75
330
2
100
AcDbSymbolTableRecord
100
AcDbLayerTableRecord
  2
가는실선
 70
     0
 62
     4
  6
Continuous
370
    -3
390
F
  0
LAYER
  5
76
330
2
100
AcDbSymbolTableRecord
100
AcDbLayerTableRecord
  2
치수_보조선
 70
     0
 62
     4
  6
Continuous
370
    -3
390
F
  0
LAYER
  5
77
330
2
100
AcDbSymbolTableRecord
100
AcDbLayerTableRecord
  2
치수문자_일반주서
 70
     0
 62
     7
  6
Continuous
370
    15
390
F
  0
LAYER
  5
78
330
2
100
AcDbSymbolTableRecord
100
AcDbLayerTableRecord
  2
개별주서
 70
     0
 62
   100
  6
Continuous
370
    30
390
F
  0
LAYER
  5
79
330
2
100
AcDbSymbolTableRecord
100
AcDbLayerTableRecord
  2
중간선
 70
     0
 62
     2
  6
Continuous
370
    15
390
F
  0
LAYER
  5
7A
330
2
100
AcDbSymbolTableRecord
100
AcDbLayerTableRecord
  2
윤곽선
 70
     0
 62
     3
  6
Continuous
370
    40
390
F
  0
LAYER
  5
7B
330
2
100
AcDbSymbolTableRecord
100
AcDbLayerTableRecord
  2
중심마크
 70
     0
 62
   100
  6
Continuous
370
    30
390
F
  0
LAYER
  5
7C
330
2
100
AcDbSymbolTableRecord
100
AcDbLayerTableRecord
  2
가상선
 70
     0
 62
     4
  6
PHANTOM
370
    -3
390
F
  0
LAYER
  5
7D
330
2
100
AcDbSymbolTableRecord
100
AcDbLayerTableRecord
  2
특수지정선
 70
     0
 62
     5
  6
CENTERX2
370
    60
390
F
  0
LAYER
  5
14A
330
2
100
AcDbSymbolTableRecord
100
AcDbLayerTableRecord
  2
Defpoints
 70
     0
 62
     7
  6
Continuous
290
     0
370
    -3
390
F
  0
ENDTAB
  0
TABLE
  2
STYLE
  5
3
330
0
100
AcDbSymbolTable
 70
     2
  0
STYLE
  5
11
330
3
100
AcDbSymbolTableRecord
100
AcDbTextStyleTableRecord
  2
Standard
 70
     0
 40
0.0
 41
1.0
 50
0.0
 71
     0
 42
3.5
  3
txt
  4

  0
STYLE
  5
93
330
3
100
AcDbSymbolTableRecord
100
AcDbTextStyleTableRecord
  2
SLDTEXTSTYLE0
 70
     0
 40
0.0
 41
0.75
 50
0.0
 71
     0
 42
3.5
  3
TXT
  4

  0
ENDTAB
  0
TABLE
  2
VIEW
  5
6
330
0
100
AcDbSymbolTable
 70
     0
  0
ENDTAB
  0
TABLE
  2
UCS
  5
7
330
0
100
AcDbSymbolTable
 70
     0
  0
ENDTAB
  0
TABLE
  2
APPID
  5
9
330
0
100
AcDbSymbolTable
 70
     1
  0
APPID
  5
12
330
9
100
AcDbSymbolTableRecord
100
AcDbRegAppTableRecord
  2
ACAD
 70
     0
  0
ENDTAB
  0
TABLE
  2
DIMSTYLE
  5
A
330
0
100
AcDbSymbolTable
 70
     3
100
AcDbDimStyleTable
  0
DIMSTYLE
105
27
330
A
100
AcDbSymbolTableRecord
100
AcDbDimStyleTableRecord
  2
ISO-25
 70
     0
 41
2.5
 42
0.625
 43
3.75
 44
1.25
 73
     0
 74
     0
 77
     1
 78
     8
140
2.5
141
2.5
143
0.03937007874016
147
0.625
171
     3
172
     1
178
     0
271
     2
272
     2
274
     3
278
    44
283
     0
284
     8
340
11
  0
DIMSTYLE
105
F0
102
{ACAD_REACTORS
330
EF
330
FD
102
}
330
A
100
AcDbSymbolTableRecord
100
AcDbDimStyleTableRecord
  2
SLDDIMSTYLE0
 70
     0
 41
3.302
 44
0.0
 45
0.000000001
 73
     0
 74
     0
 77
     1
 78
    12
 79
     3
140
3.5
147
0.875
172
     1
173
     1
178
     0
271
     2
272
     2
276
     2
284
    12
289
     0
340
93
  0
DIMSTYLE
105
10B
102
{ACAD_REACTORS
330
10A
330
115
102
}
330
A
100
AcDbSymbolTableRecord
100
AcDbDimStyleTableRecord
  2
SLDDIMSTYLE1
 70
     0
 41
3.302
 44
0.0
 45
0.000000001
 73
     0
 74
     0
 77
     1
 78
    12
 79
     3
140
3.5
147
0.875
173
     1
178
     0
271
     2
272
     2
276
     2
284
    12
340
93
  0
ENDTAB
  0
TABLE
  2
BLOCK_RECORD
  5
1
330
0
100
AcDbSymbolTable
 70
     7
  0
BLOCK_RECORD
  5
1F
330
1
100
AcDbSymbolTableRecord
100
AcDbBlockTableRecord
  2
*Model_Space
340
22
  0
BLOCK_RECORD
  5
1B
330
1
100
AcDbSymbolTableRecord
100
AcDbBlockTableRecord
  2
*Paper_Space
340
1E
  0
BLOCK_RECORD
  5
23
330
1
100
AcDbSymbolTableRecord
100
AcDbBlockTableRecord
  2
*Paper_Space0
340
26
  0
BLOCK_RECORD
  5
7E
330
1
100
AcDbSymbolTableRecord
100
AcDbBlockTableRecord
  2
블럭10
340
0
102
{BLKREFS
331
E8
102
}
  0
BLOCK_RECORD
  5
F1
330
1
100
AcDbSymbolTableRecord
100
AcDbBlockTableRecord
  2
_D
340
0
  0
BLOCK_RECORD
  5
FE
330
1
100
AcDbSymbolTableRecord
100
AcDbBlockTableRecord
  2
_D_1
340
0
  0
BLOCK_RECORD
  5
10C
330
1
100
AcDbSymbolTableRecord
100
AcDbBlockTableRecord
  2
_D_2
340
0
  0
BLOCK_RECORD
  5
116
330
1
100
AcDbSymbolTableRecord
100
AcDbBlockTableRecord
  2
_D_3
340
0
  0
BLOCK_RECORD
  5
11F
330
1
100
AcDbSymbolTableRecord
100
AcDbBlockTableRecord
  2
SW_DOWELSYMBOL_0
340
0
102
{BLKREFS
331
125
102
}
  0
ENDTAB
  0
ENDSEC
  0
SECTION
  2
BLOCKS
  0
BLOCK
  5
20
330
1F
100
AcDbEntity
  8
0
100
AcDbBlockBegin
  2
*Model_Space
 70
     0
 10
0.0
 20
0.0
 30
0.0
  3
*Model_Space
  1
*Model_Space
  0
ENDBLK
  5
21
330
1F
100
AcDbEntity
  8
0
100
AcDbBlockEnd
  0
BLOCK
  5
1C
330
1B
100
AcDbEntity
 67
     1
  8
0
100
AcDbBlockBegin
  2
*Paper_Space
 70
     0
 10
0.0
 20
0.0
 30
0.0
  3
*Paper_Space
  1
*Paper_Space
  0
ENDBLK
  5
1D
330
1B
100
AcDbEntity
 67
     1
  8
0
100
AcDbBlockEnd
  0
BLOCK
  5
24
330
23
100
AcDbEntity
  8
0
100
AcDbBlockBegin
  2
*Paper_Space0
 70
     0
 10
0.0
 20
0.0
 30
0.0
  3
*Paper_Space0
  1
*Paper_Space0
  0
ENDBLK
  5
25
330
23
100
AcDbEntity
  8
0
100
AcDbBlockEnd
  0
BLOCK
  5
7F
330
7E
100
AcDbEntity
  8
0
100
AcDbBlockBegin
  2
블럭10
 70
     2
 10
0.0
 20
0.0
 30
0.0
  3
블럭10
  1
블럭10
  0
ELLIPSE
  5
81
330
7E
100
AcDbEntity
  8
중심선
100
AcDbEllipse
 10
20.54032771741204
 20
12.0471743016438
 30
0.0
 11
6.600054785286829
 21
-1.261213355974178E-13
 31
0.0
210
0.0
220
0.0
230
1.0
 40
0.636358354079598
 41
0.9219305317359503
 42
6.513795318482858
  0
ELLIPSE
  5
82
330
7E
100
AcDbEntity
  8
중심선
100
AcDbEllipse
 10
20.54032771746488
 20
12.04717430159265
 30
0.0
 11
3.960054785062283
 21
1.540847449632565E-10
 31
0.0
210
0.0
220
0.0
230
1.0
 40
0.3939339440162632
 41
1.131841032648279
 42
5.62031148352944
  0
LINE
  5
83
330
7E
100
AcDbEntity
  8
중심선
100
AcDbLine
 10
2.268634060543552
 20
16.24717430164393
 30
0.0
 11
5.714909304380834
 21
16.24717430164393
 31
0.0
  0
LINE
  5
84
330
7E
100
AcDbEntity
  8
중심선
100
AcDbLine
 10
5.245725140726316
 20
7.84717430164391
 30
0.0
 11
8.692000384563599
 21
7.84717430164391
 31
0.0
  0
LINE
  5
85
330
7E
100
AcDbEntity
  8
중심선
100
AcDbLine
 10
15.74043728645272
 20
16.24717430164393
 30
0.0
 11
8.692000384563599
 21
7.84717430164391
 31
0.0
  0
LINE
  5
86
330
7E
100
AcDbEntity
  8
중심선
100
AcDbLine
 10
0.1404042013395286
 20
13.71084872107135
 30
0.0
 11
3.58671253028996
 21
13.71088815037384
 31
0.0
  0
LINE
  5
87
330
7E
100
AcDbEntity
  8
중심선
100
AcDbLine
 10
2.750260043222114
 20
10.84717430164391
 30
0.0
 11
6.196535287059397
 21
10.84717430164391
 31
0.0
  0
LINE
  5
88
330
7E
100
AcDbEntity
  8
중심선
100
AcDbLine
 10
12.29416204261559
 20
16.24717430164393
 30
0.0
 11
5.245725140726316
 21
7.84717430164391
 31
0.0
  0
LINE
  5
89
330
7E
100
AcDbEntity
  8
중심선
100
AcDbLine
 10
10.72767329541681
 20
16.24717430164393
 30
0.0
 11
6.196535287059397
 21
10.84717430164391
 31
0.0
  0
LINE
  5
8A
330
7E
100
AcDbEntity
  8
중심선
100
AcDbLine
 10
7.28139805157953
 20
16.24717430164393
 30
0.0
 11
2.750260043222114
 21
10.84717430164391
 31
0.0
  0
LINE
  5
8B
330
7E
100
AcDbEntity
  8
중심선
100
AcDbLine
 10
5.714909304380834
 20
16.24717430164393
 30
0.0
 11
3.58671253028996
 21
13.71088815037384
 31
0.0
  0
LINE
  5
8C
330
7E
100
AcDbEntity
  8
중심선
100
AcDbLine
 10
2.268634060543552
 20
16.24717430164393
 30
0.0
 11
0.1404042013395286
 21
13.71084872107135
 31
0.0
  0
LINE
  5
8D
330
7E
100
AcDbEntity
  8
중심선
100
AcDbLine
 10
7.28139805157953
 20
16.24717430164393
 30
0.0
 11
10.72767329541681
 21
16.24717430164393
 31
0.0
  0
LINE
  5
8E
330
7E
100
AcDbEntity
  8
중심선
100
AcDbLine
 10
12.29416204261559
 20
16.24717430164393
 30
0.0
 11
15.74043728645272
 21
16.24717430164393
 31
0.0
  0
LINE
  5
8F
330
7E
100
AcDbEntity
  8
중심선
100
AcDbLine
 10
19.22036997980202
 20
11.08717430171403
 30
0.0
 11
23.66174974927406
 21
11.08717430171406
 31
0.0
  0
LINE
  5
90
330
7E
100
AcDbEntity
  8
중심선
100
AcDbLine
 10
19.22039502424796
 20
13.00717430171391
 30
0.0
 11
19.22036997980202
 21
11.08717430171403
 31
0.0
  0
LINE
  5
91
330
7E
100
AcDbEntity
  8
중심선
100
AcDbLine
 10
19.22039502424796
 20
13.00717430171391
 30
0.0
 11
26.96566020931264
 21
13.00717430171391
 31
0.0
  0
LINE
  5
92
330
7E
100
AcDbEntity
  8
중심선
100
AcDbLine
 10
22.22332737316547
 20
13.45928029700563
 30
0.0
 11
24.52862924686651
 21
15.39360700705356
 31
0.0
  0
ATTDEF
  5
94
330
7E
100
AcDbEntity
  8
FORMAT
 62
     2
100
AcDbText
 10
-20.85824753159254
 20
2.075366912832191
 30
0.0
 40
4.233333333333333
  1
SEME7506030110E [ 6 FLUTE ]
 41
0.75
  7
SLDTEXTSTYLE0
 11
-20.85824753159254
 21
-0.0412997538344756
 31
0.0
100
AcDbAttributeDefinition
  3

  2
AUTOATTR0
 70
     0
 74
     1
  0
ENDBLK
  5
80
330
7E
100
AcDbEntity
  8
0
100
AcDbBlockEnd
  0
BLOCK
  5
F2
330
F1
100
AcDbEntity
  8
0
100
AcDbBlockBegin
  2
_D
 70
     0
 10
0.0
 20
0.0
 30
0.0
  3
_D
  1
_D
  0
LINE
  5
F4
330
F1
100
AcDbEntity
  8
치수문자_일반주서
 62
     0
370
    -2
100
AcDbLine
 10
-69.46249999999998
 20
2.999999999999985
 30
0.0
 11
-88.02890613132342
 21
2.999999999999916
 31
0.0
  0
LINE
  5
F5
330
F1
100
AcDbEntity
  8
치수문자_일반주서
 62
     0
370
    -2
100
AcDbLine
 10
-69.46249999999998
 20
-3.00000000000002
 30
0.0
 11
-88.02890613132341
 21
-3.000000000000089
 31
0.0
  0
LINE
  5
F6
330
F1
100
AcDbEntity
  8
치수문자_일반주서
 62
     0
370
    -2
100
AcDbLine
 10
-88.02890613132341
 20
-0.3020000000000835
 30
0.0
 11
-88.02890613132342
 21
0.3019999999999103
 31
0.0
  0
SOLID
  5
F7
330
F1
100
AcDbEntity
  8
치수문자_일반주서
 62
     0
100
AcDbTrace
 10
-87.47857279799008
 20
-0.3020000000000823
 30
0.0
 11
-88.57923946465674
 21
-0.3020000000000848
 31
0.0
 12
-88.02890613132342
 22
2.999999999999916
 32
0.0
 13
-88.02890613132342
 23
2.999999999999916
 33
0.0
  0
SOLID
  5
F8
330
F1
100
AcDbEntity
  8
치수문자_일반주서
 62
     0
100
AcDbTrace
 10
-88.57923946465675
 20
0.3019999999999091
 30
0.0
 11
-87.4785727979901
 21
0.3019999999999116
 31
0.0
 12
-88.02890613132341
 22
-3.000000000000089
 32
0.0
 13
-88.02890613132341
 23
-3.000000000000089
 33
0.0
  0
MTEXT
  5
F9
330
F1
100
AcDbEntity
  8
치수문자_일반주서
 62
     0
100
AcDbMText
 10
-92.40390613132342
 20
-0.0000000000000259
 30
0.0
 40
3.5
 41
0.0
 71
     2
 72
     1
  1
\A1;%%c6
  7
SLDTEXTSTYLE0
 11
-2.368475785866999E-15
 21
1.0
 31
0.0
 73
     1
 44
1.0
  0
POINT
  5
FA
330
F1
100
AcDbEntity
  8
Defpoints
 62
     0
100
AcDbPoint
 10
-69.39999999999998
 20
2.999999999999986
 30
0.0
  0
POINT
  5
FB
330
F1
100
AcDbEntity
  8
Defpoints
 62
     0
100
AcDbPoint
 10
-69.39999999999998
 20
-3.00000000000002
 30
0.0
  0
POINT
  5
FC
330
F1
100
AcDbEntity
  8
Defpoints
 62
     0
100
AcDbPoint
 10
-88.02890613132342
 20
-3.000000000000089
 30
0.0
  0
ENDBLK
  5
F3
330
F1
100
AcDbEntity
  8
0
100
AcDbBlockEnd
  0
BLOCK
  5
FF
330
FE
100
AcDbEntity
  8
0
100
AcDbBlockBegin
  2
_D_1
 70
     0
 10
0.0
 20
0.0
 30
0.0
  3
_D_1
  1
_D_1
  0
LINE
  5
101
330
FE
100
AcDbEntity
  8
치수문자_일반주서
 62
     0
370
    -2
100
AcDbLine
 10
40.06249999999999
 20
2.999999999999984
 30
0.0
 11
49.99999999999996
 21
3.000000000000021
 31
0.0
  0
LINE
  5
102
330
FE
100
AcDbEntity
  8
치수문자_일반주서
 62
     0
370
    -2
100
AcDbLine
 10
40.06249999999999
 20
-3.000000000000018
 30
0.0
 11
49.99999999999999
 21
-2.999999999999981
 31
0.0
  0
LINE
  5
103
330
FE
100
AcDbEntity
  8
치수문자_일반주서
 62
     0
370
    -2
100
AcDbLine
 10
49.99999999999998
 20
-0.3019999999999783
 30
0.0
 11
49.99999999999997
 21
0.3020000000000183
 31
0.0
  0
SOLID
  5
104
330
FE
100
AcDbEntity
  8
치수문자_일반주서
 62
     0
100
AcDbTrace
 10
50.55033333333331
 20
-0.3019999999999763
 30
0.0
 11
49.44966666666664
 21
-0.3019999999999802
 31
0.0
 12
49.99999999999996
 22
3.000000000000021
 32
0.0
 13
49.99999999999996
 23
3.000000000000021
 33
0.0
  0
SOLID
  5
105
330
FE
100
AcDbEntity
  8
치수문자_일반주서
 62
     0
100
AcDbTrace
 10
49.44966666666664
 20
0.3020000000000163
 30
0.0
 11
50.55033333333331
 21
0.3020000000000202
 31
0.0
 12
49.99999999999999
 22
-2.999999999999981
 32
0.0
 13
49.99999999999999
 23
-2.999999999999981
 33
0.0
  0
MTEXT
  5
106
330
FE
100
AcDbEntity
  8
치수문자_일반주서
 62
     0
100
AcDbMText
 10
45.62499999999997
 20
0.3956584500575633
 30
0.0
 40
3.5
 41
0.0
 71
     2
 72
     1
  1
\A1;%%c6
  7
SLDTEXTSTYLE0
 11
-3.552713678800499E-15
 21
1.0
 31
0.0
 73
     1
 44
1.0
  0
POINT
  5
107
330
FE
100
AcDbEntity
  8
Defpoints
 62
     0
100
AcDbPoint
 10
39.99999999999999
 20
2.999999999999984
 30
0.0
  0
POINT
  5
108
330
FE
100
AcDbEntity
  8
Defpoints
 62
     0
100
AcDbPoint
 10
39.99999999999999
 20
-3.000000000000019
 30
0.0
  0
POINT
  5
109
330
FE
100
AcDbEntity
  8
Defpoints
 62
     0
100
AcDbPoint
 10
49.99999999999999
 20
-2.999999999999981
 30
0.0
  0
ENDBLK
  5
100
330
FE
100
AcDbEntity
  8
0
100
AcDbBlockEnd
  0
BLOCK
  5
10D
330
10C
100
AcDbEntity
  8
0
100
AcDbBlockBegin
  2
_D_2
 70
     0
 10
0.0
 20
0.0
 30
0.0
  3
_D_2
  1
_D_2
  0
LINE
  5
10F
330
10C
100
AcDbEntity
  8
치수문자_일반주서
 62
     0
370
    -2
100
AcDbLine
 10
9.999999999999986
 20
2.879243686249883
 30
0.0
 11
9.999999999999986
 21
46.31158430489169
 31
0.0
  0
LINE
  5
110
330
10C
100
AcDbEntity
  8
치수문자_일반주서
 62
     0
370
    -2
100
AcDbLine
 10
39.99999999999999
 20
3.040607652712997
 30
0.0
 11
39.99999999999999
 21
46.31158430489169
 31
0.0
  0
LINE
  5
111
330
10C
100
AcDbEntity
  8
치수문자_일반주서
 62
     0
370
    -2
100
AcDbLine
 10
13.30199999999999
 20
46.31158430489169
 30
0.0
 11
36.69799999999999
 21
46.31158430489169
 31
0.0
  0
SOLID
  5
112
330
10C
100
AcDbEntity
  8
치수문자_일반주서
 62
     0
100
AcDbTrace
 10
13.30199999999999
 20
46.86191763822502
 30
0.0
 11
13.30199999999999
 21
45.76125097155835
 31
0.0
 12
9.999999999999986
 22
46.31158430489169
 32
0.0
 13
9.999999999999986
 23
46.31158430489169
 33
0.0
  0
SOLID
  5
113
330
10C
100
AcDbEntity
  8
치수문자_일반주서
 62
     0
100
AcDbTrace
 10
36.69799999999999
 20
45.76125097155835
 30
0.0
 11
36.69799999999999
 21
46.86191763822502
 31
0.0
 12
39.99999999999999
 22
46.31158430489169
 32
0.0
 13
39.99999999999999
 23
46.31158430489169
 33
0.0
  0
MTEXT
  5
114
330
10C
100
AcDbEntity
  8
치수문자_일반주서
 62
     0
100
AcDbMText
 10
22.27749632923926
 20
50.68658430489169
 30
0.0
 40
3.5
 41
0.0
 71
     2
 72
     1
  1
\A1;30
  7
SLDTEXTSTYLE0
 73
     1
 44
1.0
  0
POINT
  5
14C
330
10C
100
AcDbEntity
  8
Defpoints
 62
     0
100
AcDbPoint
 10
9.999999999999986
 20
2.816743686249883
 30
0.0
  0
POINT
  5
14D
330
10C
100
AcDbEntity
  8
Defpoints
 62
     0
100
AcDbPoint
 10
39.99999999999999
 20
2.978107652712997
 30
0.0
  0
POINT
  5
14E
330
10C
100
AcDbEntity
  8
Defpoints
 62
     0
100
AcDbPoint
 10
39.99999999999999
 20
46.31158430489169
 30
0.0
  0
ENDBLK
  5
10E
330
10C
100
AcDbEntity
  8
0
100
AcDbBlockEnd
  0
BLOCK
  5
117
330
116
100
AcDbEntity
  8
0
100
AcDbBlockBegin
  2
_D_3
 70
     0
 10
0.0
 20
0.0
 30
0.0
  3
_D_3
  1
_D_3
  0
LINE
  5
119
330
116
100
AcDbEntity
  8
치수문자_일반주서
 62
     0
370
    -2
100
AcDbLine
 10
39.99999999999999
 20
3.040607652712997
 30
0.0
 11
39.99999999999999
 21
73.92279031358264
 31
0.0
  0
LINE
  5
11A
330
116
100
AcDbEntity
  8
치수문자_일반주서
 62
     0
370
    -2
100
AcDbLine
 10
-70.0
 20
2.462499999999984
 30
0.0
 11
-70.0
 21
73.92279031358264
 31
0.0
  0
LINE
  5
11B
330
116
100
AcDbEntity
  8
치수문자_일반주서
 62
     0
370
    -2
100
AcDbLine
 10
36.69799999999999
 20
73.92279031358264
 30
0.0
 11
-66.69800000000001
 21
73.92279031358264
 31
0.0
  0
SOLID
  5
11C
330
116
100
AcDbEntity
  8
치수문자_일반주서
 62
     0
100
AcDbTrace
 10
36.69799999999999
 20
73.37245698024931
 30
0.0
 11
36.69799999999999
 21
74.47312364691597
 31
0.0
 12
39.99999999999999
 22
73.92279031358264
 32
0.0
 13
39.99999999999999
 23
73.92279031358264
 33
0.0
  0
SOLID
  5
11D
330
116
100
AcDbEntity
  8
치수문자_일반주서
 62
     0
100
AcDbTrace
 10
-66.69800000000001
 20
74.47312364691597
 30
0.0
 11
-66.69800000000001
 21
73.37245698024931
 31
0.0
 12
-70.0
 22
73.92279031358264
 32
0.0
 13
-70.0
 23
73.92279031358264
 33
0.0
  0
MTEXT
  5
11E
330
116
100
AcDbEntity
  8
치수문자_일반주서
 62
     0
100
AcDbMText
 10
-11.59202048173011
 20
78.29779031358264
 30
0.0
 40
3.5
 41
0.0
 71
     2
 72
     1
  1
\A1;110
  7
SLDTEXTSTYLE0
 73
     1
 44
1.0
  0
POINT
  5
14F
330
116
100
AcDbEntity
  8
Defpoints
 62
     0
100
AcDbPoint
 10
39.99999999999999
 20
2.978107652712997
 30
0.0
  0
POINT
  5
150
330
116
100
AcDbEntity
  8
Defpoints
 62
     0
100
AcDbPoint
 10
-70.0
 20
2.399999999999984
 30
0.0
  0
POINT
  5
151
330
116
100
AcDbEntity
  8
Defpoints
 62
     0
100
AcDbPoint
 10
-70.0
 20
73.92279031358264
 30
0.0
  0
ENDBLK
  5
118
330
116
100
AcDbEntity
  8
0
100
AcDbBlockEnd
  0
BLOCK
  5
120
330
11F
100
AcDbEntity
  8
0
100
AcDbBlockBegin
  2
SW_DOWELSYMBOL_0
 70
     0
 10
0.0
 20
0.0
 30
0.0
  3
SW_DOWELSYMBOL_0
  1
SW_DOWELSYMBOL_0
  0
CIRCLE
  5
122
330
11F
100
AcDbEntity
  8
외형선
 62
     0
100
AcDbCircle
 10
0.0
 20
0.0
 30
0.0
 40
3.000000000000001
  0
HATCH
  5
123
330
11F
100
AcDbEntity
  8
0
  6
Continuous
 62
     0
370
    30
100
AcDbHatch
 10
0.0
 20
0.0
 30
0.0
210
0.0
220
0.0
230
1.0
  2
SOLID
 70
     1
 71
     0
 91
        1
 92
        0
 93
        3
 72
     2
 10
0.0
 20
0.0
 40
3.000000000000001
 50
0.0
 51
90.0
 73
     1
 72
     1
 10
0.0
 20
3.000000000000001
 11
0.0
 21
0.0
 72
     1
 10
0.0
 20
0.0
 11
3.000000000000003
 21
0.0
 97
        0
 75
     0
 76
     1
 98
        1
 10
0.0
 20
0.0
  0
HATCH
  5
124
330
11F
100
AcDbEntity
  8
0
  6
Continuous
 62
     0
370
    30
100
AcDbHatch
 10
0.0
 20
0.0
 30
0.0
210
0.0
220
0.0
230
1.0
  2
SOLID
 70
     1
 71
     0
 91
        1
 92
        0
 93
        3
 72
     2
 10
0.0
 20
0.0
 40
3.000000000000001
 50
180.0
 51
270.0000000000008
 73
     1
 72
     1
 10
0.0
 20
-3.000000000000001
 11
0.0
 21
0.0
 72
     1
 10
0.0
 20
0.0
 11
-3.000000000000003
 21
0.0
 97
        0
 75
     0
 76
     1
 98
        1
 10
0.0
 20
0.0
  0
ENDBLK
  5
121
330
11F
100
AcDbEntity
  8
0
100
AcDbBlockEnd
  0
ENDSEC
  0
SECTION
  2
ENTITIES
  0
LINE
  5
95
330
1F
100
AcDbEntity
  8
0
  6
Continuous
 62
     1
370
    15
100
AcDbLine
 10
39.63707862182582
 20
-3.000000000000018
 30
0.0
 11
39.99999999999999
 21
-3.000000000000018
 31
0.0
  0
LINE
  5
96
330
1F
100
AcDbEntity
  8
0
  6
Continuous
 62
     1
370
    15
100
AcDbLine
 10
20.78705782609998
 20
-3.000000000000018
 30
0.0
 11
21.5120293770068
 21
-3.000000000000018
 31
0.0
  0
LINE
  5
97
330
1F
100
AcDbEntity
  8
0
  6
Continuous
 62
     1
370
    15
100
AcDbLine
 10
12.08846759282419
 20
2.999999999999984
 30
0.0
 11
11.36389335641593
 21
2.999999999999984
 31
0.0
  0
LINE
  5
98
330
1F
100
AcDbEntity
  8
0
  6
Continuous
 62
     1
370
    15
100
AcDbLine
 10
30.9371537686098
 20
2.999999999999984
 30
0.0
 11
30.21167297414811
 21
2.999999999999984
 31
0.0
  0
LINE
  5
99
330
1F
100
AcDbEntity
  8
0
  6
Continuous
 62
     1
370
    15
100
AcDbLine
 10
30.21167297414812
 20
-3.000000000000018
 30
0.0
 11
30.93715376860978
 21
-3.000000000000018
 31
0.0
  0
LINE
  5
9A
330
1F
100
AcDbEntity
  8
0
  6
Continuous
 62
     1
370
    15
100
AcDbLine
 10
11.3638933564159
 20
-3.000000000000018
 30
0.0
 11
12.08846759282417
 21
-3.000000000000018
 31
0.0
  0
LINE
  5
9B
330
1F
100
AcDbEntity
  8
0
  6
Continuous
 62
     1
370
    15
100
AcDbLine
 10
21.51202937700678
 20
2.999999999999984
 30
0.0
 11
20.7870578261
 21
2.999999999999984
 31
0.0
  0
LINE
  5
9C
330
1F
100
AcDbEntity
  8
0
  6
Continuous
 62
     1
370
    15
100
AcDbLine
 10
39.99999999999999
 20
2.999999999999984
 30
0.0
 11
39.63707862182581
 21
2.999999999999984
 31
0.0
  0
LINE
  5
9D
330
1F
100
AcDbEntity
  8
0
  6
Continuous
 62
     1
370
    15
100
AcDbLine
 10
33.35409475337099
 20
-3.000000000000018
 30
0.0
 11
34.07873158463249
 21
-3.000000000000018
 31
0.0
  0
LINE
  5
9E
330
1F
100
AcDbEntity
  8
0
  6
Continuous
 62
     1
370
    15
100
AcDbLine
 10
14.50495462406705
 20
-3.000000000000018
 30
0.0
 11
15.23036708351736
 21
-3.000000000000018
 31
0.0
  0
LINE
  5
9F
330
1F
100
AcDbEntity
  8
0
  6
Continuous
 62
     1
370
    15
100
AcDbLine
 10
24.65434973957478
 20
2.999999999999984
 30
0.0
 11
23.92956867769918
 21
2.999999999999984
 31
0.0
  0
LINE
  5
A0
330
1F
100
AcDbEntity
  8
0
  6
Continuous
 62
     1
370
    15
100
AcDbLine
 10
27.07075574985793
 20
-3.000000000000018
 30
0.0
 11
27.79654626852469
 21
-3.000000000000018
 31
0.0
  0
LINE
  5
A1
330
1F
100
AcDbEntity
  8
0
  6
Continuous
 62
     1
370
    15
100
AcDbLine
 10
18.37143124423372
 20
2.999999999999984
 30
0.0
 11
17.6452470582429
 21
2.999999999999984
 31
0.0
  0
LINE
  5
A2
330
1F
100
AcDbEntity
  8
0
  6
Continuous
 62
     1
370
    15
100
AcDbLine
 10
37.22132452920981
 20
2.999999999999984
 30
0.0
 11
36.4963447151864
 21
2.999999999999984
 31
0.0
  0
LINE
  5
A3
330
1F
100
AcDbEntity
  8
0
  6
Continuous
 62
     1
370
    15
100
AcDbLine
 10
23.92956867769919
 20
-3.000000000000018
 30
0.0
 11
24.65434973957479
 21
-3.000000000000018
 31
0.0
  0
LINE
  5
A4
330
1F
100
AcDbEntity
  8
0
  6
Continuous
 62
     1
370
    15
100
AcDbLine
 10
15.23036708351739
 20
2.999999999999984
 30
0.0
 11
14.50495462406707
 21
2.999999999999984
 31
0.0
  0
LINE
  5
A5
330
1F
100
AcDbEntity
  8
0
  6
Continuous
 62
     1
370
    15
100
AcDbLine
 10
34.07873158463249
 20
2.999999999999984
 30
0.0
 11
33.35409475337102
 21
2.999999999999984
 31
0.0
  0
LINE
  5
A6
330
1F
100
AcDbEntity
  8
0
  6
Continuous
 62
     1
370
    15
100
AcDbLine
 10
36.49634471518637
 20
-3.000000000000018
 30
0.0
 11
37.22132452920981
 21
-3.000000000000018
 31
0.0
  0
LINE
  5
A7
330
1F
100
AcDbEntity
  8
0
  6
Continuous
 62
     1
370
    15
100
AcDbLine
 10
17.64524705824289
 20
-3.000000000000018
 30
0.0
 11
18.37143124423372
 21
-3.000000000000018
 31
0.0
  0
LINE
  5
A8
330
1F
100
AcDbEntity
  8
0
  6
Continuous
 62
     1
370
    15
100
AcDbLine
 10
27.79654626852471
 20
2.999999999999984
 30
0.0
 11
27.0707557498579
 21
2.999999999999984
 31
0.0
  0
LINE
  5
A9
330
1F
100
AcDbEntity
  8
0
  6
Continuous
 62
   131
370
    15
100
AcDbLine
 10
-69.4
 20
-3.000000000000016
 30
0.0
 11
8.999745682090158
 21
-3.000000000000016
 31
0.0
  0
LINE
  5
AA
330
1F
100
AcDbEntity
  8
0
  6
Continuous
 62
   131
370
    15
100
AcDbLine
 10
8.999745682090158
 20
2.999999999999982
 30
0.0
 11
-69.4
 21
2.999999999999982
 31
0.0
  0
LINE
  5
AB
330
1F
100
AcDbEntity
  8
0
  6
Continuous
 62
   131
370
    15
100
AcDbLine
 10
-69.4
 20
2.999999999999983
 30
0.0
 11
-70.0
 21
2.399999999999984
 31
0.0
  0
LINE
  5
AC
330
1F
100
AcDbEntity
  8
0
  6
Continuous
 62
   131
370
    15
100
AcDbLine
 10
-70.0
 20
-2.400000000000018
 30
0.0
 11
-69.4
 21
-3.000000000000017
 31
0.0
  0
LINE
  5
AD
330
1F
100
AcDbEntity
  8
0
  6
Continuous
 62
     1
370
    15
100
AcDbLine
 10
39.99999999999999
 20
1.79313601902549
 30
0.0
 11
39.99999999999999
 21
2.978107652712997
 31
0.0
  0
LINE
  5
AE
330
1F
100
AcDbEntity
  8
0
  6
Continuous
 62
     1
370
    15
100
AcDbLine
 10
10.00000000000526
 20
-2.816743686248102
 30
0.0
 11
10.15505747070346
 21
-2.746634664136787
 31
0.0
  0
SPLINE
  5
AF
330
1F
100
AcDbEntity
  8
0
  6
Continuous
 62
     1
370
    15
100
AcDbSpline
210
0.0
220
0.0
230
1.0
 70
     8
 71
     3
 72
    21
 73
    17
 74
     0
 42
0.000000001
 43
0.00000001
 40
0.0
 40
0.0
 40
0.0
 40
0.0
 40
0.0662931942436483
 40
0.1391540772448071
 40
0.2119814025190995
 40
0.2848246259303213
 40
0.3577329881637472
 40
0.4307195513262597
 40
0.5036265213761254
 40
0.5764691165721723
 40
0.6492965860959333
 40
0.7221583838572682
 40
0.7951034995765008
 40
0.8680736430781057
 40
0.9409508797524815
 40
1.0
 40
1.0
 40
1.0
 40
1.0
 10
18.37143124423372
 20
2.991734347794263
 30
0.0
 10
18.60649853623239
 20
2.979127407980044
 30
0.0
 10
19.09992131487074
 20
2.952664554639765
 30
0.0
 10
19.85097244725948
 20
2.669330969091875
 30
0.0
 10
20.62510635415286
 20
2.217742351988125
 30
0.0
 10
21.3994870212879
 20
1.614240423022044
 30
0.0
 10
22.17475119105831
 20
0.9046364948806719
 30
0.0
 10
22.95096803540935
 20
0.1351210900574014
 30
0.0
 10
23.72621421910693
 20
-0.643757492657363
 30
0.0
 10
24.50058714468892
 20
-1.379651632937885
 30
0.0
 10
25.27471765701848
 20
-2.024044763631701
 30
0.0
 10
26.04936575016038
 20
-2.533898352512474
 30
0.0
 10
26.82508396921667
 20
-2.876972704713426
 30
0.0
 10
27.60110266697772
 20
-3.023667847641553
 30
0.0
 10
28.32713078441567
 20
-2.992062559303175
 30
0.0
 10
28.79448811974157
 20
-2.822029786582711
 30
0.0
 10
29.00367330559919
 20
-2.745924557296847
 30
0.0
  0
SPLINE
  5
B0
330
1F
100
AcDbEntity
  8
0
  6
Continuous
 62
     1
370
    15
100
AcDbSpline
210
0.0
220
0.0
230
1.0
 70
     8
 71
     3
 72
    11
 73
     7
 74
     0
 42
0.000000001
 43
0.00000001
 40
0.0
 40
0.0
 40
0.0
 40
0.0
 40
0.1634010648840492
 40
0.4420512056792928
 40
0.7208551645700614
 40
1.0
 40
1.0
 40
1.0
 40
1.0
 10
37.22132452920982
 20
2.975774706353001
 30
0.0
 10
37.37263254092134
 20
2.978666140999747
 30
0.0
 10
37.78196823927485
 20
2.986488379934626
 30
0.0
 10
38.44936827744829
 20
2.7755349935472
 30
0.0
 10
39.22412437643646
 20
2.388319878390526
 30
0.0
 10
39.74126947624929
 20
1.997754548346448
 30
0.0
 10
39.99999999999997
 20
1.802352576177068
 30
0.0
  0
LINE
  5
B1
330
1F
100
AcDbEntity
  8
0
  6
Continuous
 62
   131
370
    15
100
AcDbLine
 10
10.00000000000001
 20
-2.771350788037419
 30
0.0
 11
10.00000000000003
 21
-2.816743686249909
 31
0.0
  0
SPLINE
  5
B2
330
1F
100
AcDbEntity
  8
0
  6
Continuous
 62
     1
370
    15
100
AcDbSpline
210
0.0
220
0.0
230
1.0
 70
     8
 71
     3
 72
    10
 73
     6
 74
     0
 42
0.000000001
 43
0.00000001
 40
0.0
 40
0.0
 40
0.0
 40
0.0
 40
0.4936908148155836
 40
0.9867787611735878
 40
1.0
 40
1.0
 40
1.0
 40
1.0
 10
40.00000000000001
 20
2.978107652712997
 30
0.0
 10
39.74127121320382
 20
2.98619976572607
 30
0.0
 10
39.22412958517896
 20
3.002374110102521
 30
0.0
 10
38.70048474833392
 20
2.894365441124334
 30
0.0
 10
38.43541481215917
 20
2.761090132993926
 30
0.0
 10
38.42849304768319
 20
2.757609918275298
 30
0.0
  0
SPLINE
  5
B3
330
1F
100
AcDbEntity
  8
0
  6
Continuous
 62
     1
370
    15
100
AcDbSpline
210
0.0
220
0.0
230
1.0
 70
     8
 71
     3
 72
    22
 73
    18
 74
     0
 42
0.000000001
 43
0.00000001
 40
0.0
 40
0.0
 40
0.0
 40
0.0
 40
0.0270318633182683
 40
0.0998640230488625
 40
0.1726928479551887
 40
0.2455677402726198
 40
0.3185355364286036
 40
0.3914783056073207
 40
0.4643377595083619
 40
0.5371628862761177
 40
0.6100031382295912
 40
0.6829077629660357
 40
0.7558919782547274
 40
0.8287979951299463
 40
0.9016388752783835
 40
0.9744638578013127
 40
0.9999999999999999
 40
0.9999999999999999
 40
0.9999999999999999
 40
0.9999999999999999
 10
30.21167297414811
 20
-2.97668334727299
 30
0.0
 10
30.11586259342614
 20
-2.982786914257665
 30
0.0
 10
29.76190955822152
 20
-3.005335369273929
 30
0.0
 10
29.15017774290106
 20
-2.837176168074521
 30
0.0
 10
28.37595821927854
 20
-2.484418757349566
 30
0.0
 10
27.60110474138589
 20
-1.953663197534348
 30
0.0
 10
26.82508341290085
 20
-1.296965106510518
 30
0.0
 10
26.04936590039954
 20
-0.5531136236020865
 30
0.0
 10
25.27471761164696
 20
0.2272528193055481
 30
0.0
 10
24.50058717608098
 20
0.9924093564711322
 30
0.0
 10
23.726214138857
 20
1.691729898288365
 30
0.0
 10
22.95096832541021
 20
2.279189268555452
 30
0.0
 10
22.17475011063071
 20
2.714210460973046
 30
0.0
 10
21.39949104630259
 20
2.972607736458796
 30
0.0
 10
20.62509134861363
 20
3.021421026067447
 30
0.0
 10
20.01865509065725
 20
2.938271562676592
 30
0.0
 10
19.67009789319576
 20
2.780135435628285
 30
0.0
 10
19.57960679537695
 20
2.739080734002168
 30
0.0
  0
SPLINE
  5
B4
330
1F
100
AcDbEntity
  8
0
  6
Continuous
 62
     1
370
    15
100
AcDbSpline
210
0.0
220
0.0
230
1.0
 70
     8
 71
     3
 72
     9
 73
     5
 74
     0
 42
0.000000001
 43
0.00000001
 40
0.0
 40
0.0
 40
0.0
 40
0.0
 40
0.4720151579854744
 40
1.0
 40
1.0
 40
1.0
 40
1.0
 10
11.3638933564159
 20
-2.991946538148414
 30
0.0
 10
11.14940545418332
 20
-2.983526397095984
 30
0.0
 10
10.69499652556335
 20
-2.965687688084252
 30
0.0
 10
10.24015135534436
 20
-2.789169889275119
 30
0.0
 10
10.00000000000523
 20
-2.695971167158127
 30
0.0
  0
SPLINE
  5
B5
330
1F
100
AcDbEntity
  8
0
  6
Continuous
 62
     1
370
    15
100
AcDbSpline
210
0.0
220
0.0
230
1.0
 70
     8
 71
     3
 72
    20
 73
    16
 74
     0
 42
0.000000001
 43
0.00000001
 40
0.0
 40
0.0
 40
0.0
 40
0.0
 40
0.0751498733967194
 40
0.1502034089948852
 40
0.2251495799842084
 40
0.3001191484800373
 40
0.3810670818385993
 40
0.4620662519736343
 40
0.5429624057946626
 40
0.6238009264031211
 40
0.7046366034813029
 40
0.7855242652077984
 40
0.8665152778230008
 40
0.9474751910149823
 40
1.0
 40
1.0
 40
1.0
 40
1.0
 10
10.00000000000526
 20
2.816743686248067
 30
0.0
 10
10.24013981788383
 20
2.718609461100619
 30
0.0
 10
10.72011160826008
 20
2.522466813216107
 30
0.0
 10
11.43905133175602
 20
2.041058107089037
 30
0.0
 10
12.15673990034882
 20
1.454508530718099
 30
0.0
 10
12.8933667499977
 20
0.7644174316080898
 30
0.0
 10
13.65021295075721
 20
0.0086242319159127
 30
0.0
 10
14.42630889457971
 20
-0.766470929554542
 30
0.0
 10
15.20129263628312
 20
-1.491008132161643
 30
0.0
 10
15.97553288478654
 20
-2.116464311036677
 30
0.0
 10
16.749733334048
 20
-2.600986816240918
 30
0.0
 10
17.52461081099616
 20
-2.914998696554411
 30
0.0
 10
18.30063619060397
 20
-3.028062652232762
 30
0.0
 10
18.98582246692377
 20
-2.974799565250663
 30
0.0
 10
19.4119357720941
 20
-2.805642304842962
 30
0.0
 10
19.57960679537695
 20
-2.739080734002203
 30
0.0
  0
SPLINE
  5
B6
330
1F
100
AcDbEntity
  8
0
  6
Continuous
 62
     1
370
    15
100
AcDbSpline
210
0.0
220
0.0
230
1.0
 70
     8
 71
     3
 72
    21
 73
    17
 74
     0
 42
0.000000001
 43
0.00000001
 40
0.0
 40
0.0
 40
0.0
 40
0.0
 40
0.0545117742572462
 40
0.1273414847731177
 40
0.200174530153807
 40
0.2730602680875457
 40
0.3460385185955956
 40
0.4189681249359987
 40
0.491820965676217
 40
0.564646130823534
 40
0.6374930847742767
 40
0.7104109970835902
 40
0.7833942813226531
 40
0.8562895611875126
 40
0.9291263023746043
 40
1.0
 40
1.0
 40
1.0
 40
1.0
 10
27.79654626852471
 20
2.981180567625925
 30
0.0
 10
27.98974337627697
 20
2.977910184767238
 30
0.0
 10
28.44105883775778
 20
2.970270451614611
 30
0.0
 10
29.15014668787509
 20
2.725650065767927
 30
0.0
 10
29.92441045340103
 20
2.302413744783128
 30
0.0
 10
30.69939854424568
 20
1.719540361216416
 30
0.0
 10
31.47553416992742
 20
1.02467907408792
 30
0.0
 10
32.25108024618643
 20
0.2610346420421656
 30
0.0
 10
33.02562293928041
 20
-0.5197353396938216
 30
0.0
 10
33.79973827819984
 20
-1.265872552558408
 30
0.0
 10
34.57419648054149
 20
-1.928204490556473
 30
0.0
 10
35.34959836916074
 20
-2.462395529168703
 30
0.0
 10
36.12579277103625
 20
-2.833954018408403
 30
0.0
 10
36.90091110319988
 20
-3.013847012239718
 30
0.0
 10
37.66828629246855
 20
-3.007755068080257
 30
0.0
 10
38.17740895266918
 20
-2.840228848099464
 30
0.0
 10
38.42849304768316
 20
-2.757609918275331
 30
0.0
  0
SPLINE
  5
B7
330
1F
100
AcDbEntity
  8
0
  6
Continuous
 62
     1
370
    15
100
AcDbSpline
210
0.0
220
0.0
230
1.0
 70
     8
 71
     3
 72
    22
 73
    18
 74
     0
 42
0.000000001
 43
0.00000001
 40
0.0
 40
0.0
 40
0.0
 40
0.0
 40
0.0388358314164643
 40
0.1116961414883312
 40
0.1845162540171688
 40
0.2573455966145734
 40
0.3302334719435261
 40
0.4032093427073963
 40
0.4761198481818491
 40
0.548959402505517
 40
0.6217771702390178
 40
0.6946226107541952
 40
0.7675448090718853
 40
0.8405156466160555
 40
0.913393980983133
 40
0.9862196281495514
 40
1.0
 40
1.0
 40
1.0
 40
1.0
 10
39.63707862182581
 20
-2.975091454796477
 30
0.0
 10
39.49934461449688
 20
-2.979272063049149
 30
0.0
 10
39.10320639344556
 20
-2.991295954230726
 30
0.0
 10
38.44938283083077
 20
-2.792853957104073
 30
0.0
 10
37.6752129178794
 20
-2.409059916755853
 30
0.0
 10
36.90090981630124
 20
-1.855634404094223
 30
0.0
 10
36.1257931162933
 20
-1.181419981838988
 30
0.0
 10
35.34959827728245
 20
-0.4285414750425428
 30
0.0
 10
34.57419650292248
 20
0.3530037516538349
 30
0.0
 10
33.79973828041512
 20
1.111013420028362
 30
0.0
 10
33.02562290805936
 20
1.79510214426457
 30
0.0
 10
32.25108036896597
 20
2.360527736947724
 30
0.0
 10
31.47553370939313
 20
2.768161389315183
 30
0.0
 10
30.69940026371884
 20
2.996231317851978
 30
0.0
 10
29.92440404729344
 20
3.009676198100977
 30
0.0
 10
29.35935477104728
 20
2.916829462672814
 30
0.0
 10
29.05249887659382
 20
2.769385238837401
 30
0.0
 10
29.00367330559919
 20
2.745924557296813
 30
0.0
  0
SPLINE
  5
B8
330
1F
100
AcDbEntity
  8
0
  6
Continuous
 62
     1
370
    15
100
AcDbSpline
210
0.0
220
0.0
230
1.0
 70
     8
 71
     3
 72
    22
 73
    18
 74
     0
 42
0.000000001
 43
0.00000001
 40
0.0
 40
0.0
 40
0.0
 40
0.0
 40
0.0152407165077968
 40
0.088067126372436
 40
0.1609270935421352
 40
0.2338696194699534
 40
0.3068401650731311
 40
0.3797175945329972
 40
0.4525481873374381
 40
0.5253813420799159
 40
0.5982664226698423
 40
0.6712443179610145
 40
0.744176050407526
 40
0.8117214500775687
 40
0.879245769275098
 40
0.9468668208609842
 40
1.0
 40
1.0
 40
1.0
 40
1.0
 10
20.78705782609998
 20
-2.983494844124825
 30
0.0
 10
20.73305886980435
 20
-2.988600611313229
 30
0.0
 10
20.42103069805557
 20
-3.018103833420889
 30
0.0
 10
19.85098658564272
 20
-2.875988867595383
 30
0.0
 10
19.0763392687543
 20
-2.555527226604884
 30
0.0
 10
18.30064481894133
 20
-2.048436351617284
 30
0.0
 10
17.52460850181669
 20
-1.410140306262318
 30
0.0
 10
16.74973395232468
 20
-0.676721214514201
 30
0.0
 10
15.97553271799857
 20
0.1009954415753702
 30
0.0
 10
15.20129268535472
 20
0.8721223676854473
 30
0.0
 10
14.42630886516498
 20
1.585598028604145
 30
0.0
 10
13.65021301933416
 20
2.193597209134664
 30
0.0
 10
12.89336651301575
 20
2.644635140589999
 30
0.0
 10
12.15674070980108
 20
2.924183947024475
 30
0.0
 10
11.43904830302535
 20
3.024798673968427
 30
0.0
 10
10.77177654211559
 20
2.974817028963019
 30
0.0
 10
10.34350265443145
 20
2.816358254108945
 30
0.0
 10
10.15505747070346
 20
2.746634664136753
 30
0.0
  0
LINE
  5
B9
330
1F
100
AcDbEntity
  8
0
  6
Continuous
 62
     1
370
    15
100
AcDbLine
 10
39.99999999999999
 20
-2.978107652713028
 30
0.0
 11
39.99999999999999
 21
-1.788339445127591
 31
0.0
  0
SPLINE
  5
BA
330
1F
100
AcDbEntity
  8
0
  6
Continuous
 62
     1
370
    15
100
AcDbSpline
210
0.0
220
0.0
230
1.0
 70
     8
 71
     3
 72
    22
 73
    18
 74
     0
 42
0.000000001
 43
0.00000001
 40
0.0
 40
0.0
 40
0.0
 40
0.0
 40
0.0064211342171232
 40
0.0739677983197348
 40
0.1469008960295822
 40
0.2198801574482458
 40
0.2927666024282008
 40
0.3656011205886649
 40
0.4384330767631348
 40
0.5113118704698008
 40
0.5842837820628872
 40
0.6572276734560948
 40
0.7300890045457027
 40
0.8029167777020668
 40
0.8757604490931326
 40
0.9486692597070008
 40
1.0
 40
1.0
 40
1.0
 40
1.0
 10
12.0884675928242
 20
2.992628311173837
 30
0.0
 10
12.11120745579262
 20
2.995036487038948
 30
0.0
 10
12.37315768779055
 20
3.022777297413846
 30
0.0
 10
12.89335571643654
 20
2.910347198689673
 30
0.0
 10
13.65021600746905
 20
2.634779384725425
 30
0.0
 10
14.42630806629443
 20
2.15777990065478
 30
0.0
 10
15.20129289578477
 20
1.542615266992809
 30
0.0
 10
15.97553267409629
 20
0.823886210446799
 30
0.0
 10
16.74973391757604
 20
0.0509052295274578
 30
0.0
 10
17.5246086849762
 20
-0.725864342173855
 30
0.0
 10
18.3006441202231
 20
-1.454057643790599
 30
0.0
 10
19.07634187775652
 20
-2.086086021413237
 30
0.0
 10
19.85097686175759
 20
-2.579180838216913
 30
0.0
 10
20.62510625253216
 20
-2.902808016449924
 30
0.0
 10
21.39948301065618
 20
-3.027217186914433
 30
0.0
 10
22.09801044514594
 20
-2.980715873109667
 30
0.0
 10
22.53866054384306
 20
-2.81094121150515
 30
0.0
 10
22.72071928126768
 20
-2.7407972114702
 30
0.0
  0
SPLINE
  5
BB
330
1F
100
AcDbEntity
  8
0
  6
Continuous
 62
     1
370
    15
100
AcDbSpline
210
0.0
220
0.0
230
1.0
 70
     8
 71
     3
 72
    19
 73
    15
 74
     0
 42
0.000000001
 43
0.00000001
 40
0.0
 40
0.0
 40
0.0
 40
0.0
 40
0.0593800484449475
 40
0.1449427734816573
 40
0.2304154353153622
 40
0.315855627494225
 40
0.4013213828084173
 40
0.486870388133519
 40
0.5724960893401827
 40
0.6580185417505092
 40
0.7434723152108016
 40
0.8289152586380256
 40
0.9144053675567024
 40
1.0
 40
1.0
 40
1.0
 40
1.0
 10
30.93715376860982
 20
2.978740669779743
 30
0.0
 10
31.11665334754809
 20
2.977888005589362
 30
0.0
 10
31.55479995556612
 20
2.975806708658173
 30
0.0
 10
32.25108762125459
 20
2.743314056362419
 30
0.0
 10
33.02562096744272
 20
2.329640487790922
 30
0.0
 10
33.79973879705013
 20
1.754176224651015
 30
0.0
 10
34.57419637711281
 20
1.064187757013764
 30
0.0
 10
35.34959826325255
 20
0.3028815263278394
 30
0.0
 10
36.12579329850188
 20
-0.4780267611167506
 30
0.0
 10
36.90090910278064
 20
-1.227451887295395
 30
0.0
 10
37.67521558763748
 20
-1.89613440685991
 30
0.0
 10
38.44937286345616
 20
-2.43520733260928
 30
0.0
 10
39.22412322803504
 20
-2.826986318770075
 30
0.0
 10
39.74126909329293
 20
-2.927713361806735
 30
0.0
 10
39.99999999999997
 20
-2.978107652713028
 30
0.0
  0
SPLINE
  5
BC
330
1F
100
AcDbEntity
  8
0
  6
Continuous
 62
     1
370
    15
100
AcDbSpline
210
0.0
220
0.0
230
1.0
 70
     8
 71
     3
 72
    18
 73
    14
 74
     0
 42
0.000000001
 43
0.00000001
 40
0.0
 40
0.0
 40
0.0
 40
0.0
 40
0.0987621951454788
 40
0.1974037872526435
 40
0.2959909581030322
 40
0.3945906250388453
 40
0.4932695362411814
 40
0.5920675796540429
 40
0.6907771285736705
 40
0.789390620607617
 40
0.8879746169677385
 40
0.9865960779946987
 40
1.0
 40
1.0
 40
1.0
 40
1.0
 10
40.00000000000001
 20
-1.802352576177087
 30
0.0
 10
39.74126909307627
 20
-1.584138303839385
 30
0.0
 10
39.22412322738526
 20
-1.147976230602861
 30
0.0
 10
38.44937286605085
 20
-0.385177003819765
 30
0.0
 10
37.67521557791245
 20
0.394346421597488
 30
0.0
 10
36.90090913910577
 20
1.150080759903821
 30
0.0
 10
36.12579316274107
 20
1.829031537494133
 30
0.0
 10
35.3495987703951
 20
2.386720279724217
 30
0.0
 10
34.57419448717504
 20
2.785018106236358
 30
0.0
 10
33.79974584205144
 20
3.002995933709559
 30
0.0
 10
33.02559467876968
 20
3.004468832883969
 30
0.0
 10
32.47445992256797
 20
2.909478451330397
 30
0.0
 10
32.18107029598193
 20
2.76635225346191
 30
0.0
 10
32.14596600474474
 20
2.749227095384191
 30
0.0
  0
SPLINE
  5
BD
330
1F
100
AcDbEntity
  8
0
  6
Continuous
 62
     1
370
    15
100
AcDbSpline
210
0.0
220
0.0
230
1.0
 70
     8
 71
     3
 72
    22
 73
    18
 74
     0
 42
0.000000001
 43
0.00000001
 40
0.0
 40
0.0
 40
0.0
 40
0.0
 40
0.0191139432414461
 40
0.092014511435939
 40
0.1649946657541202
 40
0.2378966260099262
 40
0.3107334531632731
 40
0.3835543835756838
 40
0.4564088687683062
 40
0.5293459065073342
 40
0.6023109618135242
 40
0.6751829079824524
 40
0.7480080210199408
 40
0.8208356958027062
 40
0.8937152925260243
 40
0.9666876969672188
 40
0.9999999999999999
 40
0.9999999999999999
 40
0.9999999999999999
 40
0.9999999999999999
 10
23.92956867769919
 20
-2.980682268171133
 30
0.0
 10
23.8618447980089
 20
-2.986421167465788
 30
0.0
 10
23.53582208131814
 20
-3.014048225268947
 30
0.0
 10
22.95095738107455
 20
-2.863612119252926
 30
0.0
 10
22.17475395927551
 20
-2.532358822386021
 30
0.0
 10
21.39948659579819
 20
-2.017238951253942
 30
0.0
 10
20.62510529307352
 20
-1.37254854327144
 30
0.0
 10
19.85097711683861
 20
-0.635767905216816
 30
0.0
 10
19.07634181716675
 20
0.1431014194471797
 30
0.0
 10
18.3006441071041
 20
0.9125298686156448
 30
0.0
 10
17.5246087980841
 20
1.621140753913924
 30
0.0
 10
16.74973347903218
 20
2.222654943170791
 30
0.0
 10
15.97553431427733
 20
2.675699340506683
 30
0.0
 10
15.2012867710808
 20
2.954012881958581
 30
0.0
 10
14.42633095480033
 20
3.026045577204518
 30
0.0
 10
13.79067627446656
 20
2.951985706644639
 30
0.0
 10
13.41387727833936
 20
2.788430266450244
 30
0.0
 10
13.29577898706344
 20
2.737167873995998
 30
0.0
  0
SPLINE
  5
BE
330
1F
100
AcDbEntity
  8
0
  6
Continuous
 62
     1
370
    15
100
AcDbSpline
210
0.0
220
0.0
230
1.0
 70
     8
 71
     3
 72
    12
 73
     8
 74
     0
 42
0.000000001
 43
0.00000001
 40
0.0
 40
0.0
 40
0.0
 40
0.0
 40
0.2184014666303637
 40
0.436522955190973
 40
0.6543324194330368
 40
0.8722098817901378
 40
1.0
 40
1.0
 40
1.0
 40
1.0
 10
10.00000000000523
 20
-2.302500611527205
 30
0.0
 10
10.24014019795583
 20
-2.443259454553387
 30
0.0
 10
10.7201127479889
 20
-2.724596695896385
 30
0.0
 10
11.43904678237096
 20
-2.957734419669509
 30
0.0
 10
12.15675693626581
 20
-3.023440688667096
 30
0.0
 10
12.77533149216981
 20
-2.954751279012549
 30
0.0
 10
13.15530593727186
 20
-2.795895420552777
 30
0.0
 10
13.29577898706343
 20
-2.737167873996032
 30
0.0
  0
SPLINE
  5
BF
330
1F
100
AcDbEntity
  8
0
  6
Continuous
 62
     1
370
    15
100
AcDbSpline
210
0.0
220
0.0
230
1.0
 70
     8
 71
     3
 72
    21
 73
    17
 74
     0
 42
0.000000001
 43
0.00000001
 40
0.0
 40
0.0
 40
0.0
 40
0.0
 40
0.0623026323758262
 40
0.1352827876226566
 40
0.2081833567447833
 40
0.2810195566649348
 40
0.3538406322407713
 40
0.4266960330403056
 40
0.4996347444827687
 40
0.5725984815102692
 40
0.6454693198673722
 40
0.7182940933760537
 40
0.7911222015234881
 40
0.8640029986520297
 40
0.9369763020836062
 40
1.0
 40
1.0
 40
1.0
 40
1.0
 10
21.51202937700678
 20
2.987602281345963
 30
0.0
 10
21.73284888410865
 20
2.978488673633643
 30
0.0
 10
22.21233229184011
 20
2.958699553822705
 30
0.0
 10
22.95097492475096
 20
2.68874529871578
 30
0.0
 10
23.72621237494428
 20
2.246322520645323
 30
0.0
 10
24.50058764159461
 20
1.649610605078537
 30
0.0
 10
25.27471751235669
 20
0.9449634539820565
 30
0.0
 10
26.04936583180404
 20
0.1770265716745123
 30
0.0
 10
26.82508378725976
 20
-0.6025127472382014
 30
0.0
 10
27.60110331293564
 20
-1.341896854870425
 30
0.0
 10
28.37596354971605
 20
-1.992604351423982
 30
0.0
 10
29.15015785996702
 20
-2.510485559719337
 30
0.0
 10
29.92440934685533
 20
-2.863148222187835
 30
0.0
 10
30.69939178062337
 20
-3.021003924319365
 30
0.0
 10
31.44043629805857
 20
-2.997568661184491
 30
0.0
 10
31.92254657515985
 20
-2.827869185784531
 30
0.0
 10
32.14596600474472
 20
-2.749227095384224
 30
0.0
  0
SPLINE
  5
C0
330
1F
100
AcDbEntity
  8
0
  6
Continuous
 62
   131
370
    15
100
AcDbSpline
210
0.0
220
0.0
230
1.0
 70
    24
 71
     3
 72
    22
 73
    18
 74
     0
 42
0.000000001
 43
0.00000001
 40
0.0
 40
0.0
 40
0.0
 40
0.0
 40
0.0106347942860558
 40
0.0806307747821004
 40
0.152656643454396
 40
0.2226526239504303
 40
0.2946784926227142
 40
0.3646744731189344
 40
0.4367003417910453
 40
0.5066963222870878
 40
0.5787221909593806
 40
0.648718171455417
 40
0.7207440401277035
 40
0.7907400206236734
 40
0.8627658892960258
 40
0.9304676401471768
 40
1.0
 40
1.0
 40
1.0
 40
1.0
 10
10.00000000000001
 20
-0.171928195525696
 30
0.0
 10
10.0
 20
-0.1721537143358861
 30
0.0
 10
10.00000000000004
 20
-0.1738635505493996
 30
0.0
 10
9.999999999999943
 20
-0.2098355669725404
 30
0.0
 10
10.00000000000007
 20
-0.2802635779441452
 30
0.0
 10
9.999999999999915
 20
-0.3855884257131358
 30
0.0
 10
10.00000000000003
 20
-0.5167530588671175
 30
0.0
 10
9.999999999999972
 20
-0.6735278595373468
 30
0.0
 10
10.00000000000011
 20
-0.8483533612337465
 30
0.0
 10
10.0
 20
-1.039509123224482
 30
0.0
 10
10.00000000000001
 20
-1.238119225710913
 30
0.0
 10
10.00000000000003
 20
-1.442154670423616
 30
0.0
 10
9.999999999999986
 20
-1.642120859740579
 30
0.0
 10
9.999999999999986
 20
-1.836127652464102
 30
0.0
 10
10.0
 20
-2.012626174536591
 30
0.0
 10
10.00000000000004
 20
-2.172623221219558
 30
0.0
 10
10.00000000000001
 20
-2.258824857833874
 30
0.0
 10
10.0
 20
-2.302500611523844
 30
0.0
  0
SPLINE
  5
C1
330
1F
100
AcDbEntity
  8
0
  6
Continuous
 62
     1
370
    15
100
AcDbSpline
210
0.0
220
0.0
230
1.0
 70
     8
 71
     3
 72
    22
 73
    18
 74
     0
 42
0.000000001
 43
0.00000001
 40
0.0
 40
0.0
 40
0.0
 40
0.0
 40
0.0308966989923211
 40
0.1037433221244353
 40
0.1766667043051949
 40
0.2496387265020731
 40
0.3225182440201061
 40
0.3953450734821242
 40
0.4681685683639356
 40
0.5410381272853787
 40
0.6140005832461471
 40
0.6869380140612643
 40
0.759792135696188
 40
0.8326119327100797
 40
0.9054468538027425
 40
0.9783461429672128
 40
1.0
 40
1.0
 40
1.0
 40
1.0
 10
33.35409475337101
 20
-2.975605959683262
 30
0.0
 10
33.24463086708199
 20
-2.981397977450758
 30
0.0
 10
32.87707874706113
 20
-3.000846112190106
 30
0.0
 10
32.25107957082259
 20
-2.823028790923957
 30
0.0
 10
31.4755341413771
 20
-2.459679456109245
 30
0.0
 10
30.69939933483204
 20
-1.92149000024033
 30
0.0
 10
29.92440732532359
 20
-1.258614614333062
 30
0.0
 10
29.15015840180735
 20
-0.5116198318558149
 30
0.0
 10
28.37596340302301
 20
0.269061863212311
 30
0.0
 10
27.60110335759207
 20
1.032258111316851
 30
0.0
 10
26.8250837555472
 20
1.726543459918956
 30
0.0
 10
26.04936591390707
 20
2.306680271738073
 30
0.0
 10
25.27471721605684
 20
2.732774525446173
 30
0.0
 10
24.50058874437074
 20
2.980998204431555
 30
0.0
 10
23.72620825745702
 20
3.018181794959027
 30
0.0
 10
23.13290935220575
 20
2.931313330772597
 30
0.0
 10
22.79752622592965
 20
2.776297729469493
 30
0.0
 10
22.72071928126766
 20
2.740797211470164
 30
0.0
  0
SPLINE
  5
C2
330
1F
100
AcDbEntity
  8
0
  6
Continuous
 62
     1
370
    15
100
AcDbSpline
210
0.0
220
0.0
230
1.0
 70
     8
 71
     3
 72
    14
 73
    10
 74
     0
 42
0.000000001
 43
0.00000001
 40
0.0
 40
0.0
 40
0.0
 40
0.0
 40
0.0174137040956913
 40
0.189658862045139
 40
0.3617950647220591
 40
0.5212182433229974
 40
0.680591667004268
 40
0.8401934020864753
 40
1.0
 40
1.0
 40
1.0
 40
1.0
 10
14.50495462406704
 20
-2.990929985911703
 30
0.0
 10
14.47880758892105
 20
-2.993887062957628
 30
0.0
 10
14.19403090359364
 20
-3.026093643730327
 30
0.0
 10
13.65017608239847
 20
-2.89857245374575
 30
0.0
 10
12.89337581739303
 20
-2.607955328794961
 30
0.0
 10
12.15673755170349
 20
-2.147003666122964
 30
0.0
 10
11.43905195895398
 20
-1.579726648620669
 30
0.0
 10
10.72011145113206
 20
-0.9218571986474506
 30
0.0
 10
10.24013976548541
 20
-0.4462770736914332
 30
0.0
 10
10.00000000000523
 20
-0.2083344968910787
 30
0.0
  0
LINE
  5
C3
330
1F
100
AcDbEntity
  8
0
  6
Continuous
 62
     1
370
    15
100
AcDbLine
 10
39.99999999999999
 20
-1.175755076535914
 30
0.0
 11
39.99999999999999
 21
1.175755076535937
 31
0.0
  0
SPLINE
  5
C4
330
1F
100
AcDbEntity
  8
0
  6
Continuous
 62
     1
370
    15
100
AcDbSpline
210
0.0
220
0.0
230
1.0
 70
     8
 71
     3
 72
    21
 73
    17
 74
     0
 42
0.000000001
 43
0.00000001
 40
0.0
 40
0.0
 40
0.0
 40
0.0
 40
0.0701169887882271
 40
0.1429533364054158
 40
0.2158365243788953
 40
0.2888128358533891
 40
0.3617611254385109
 40
0.4346268497420142
 40
0.5074590140888797
 40
0.5803070776290397
 40
0.6532202843196072
 40
0.7262116971353877
 40
0.7991235115498901
 40
0.871970946833133
 40
0.944803255439052
 40
1.0
 40
1.0
 40
1.0
 40
1.0
 10
15.23036708351739
 20
2.996419655578975
 30
0.0
 10
15.47876174238118
 20
2.979963519185023
 30
0.0
 10
15.98518459144434
 20
2.946413025324496
 30
0.0
 10
16.74973118500048
 20
2.649570186944211
 30
0.0
 10
17.52460941277945
 20
2.188608947005533
 30
0.0
 10
18.30064394625794
 20
1.57843830893623
 30
0.0
 10
19.07634184571704
 20
0.8644846492592948
 30
0.0
 10
19.85097716318305
 20
0.092811501532338
 30
0.0
 10
20.62510507925021
 20
-0.6847399603638038
 30
0.0
 10
21.39948740528602
 20
-1.416943558919497
 30
0.0
 10
22.1747509309181
 20
-2.055405612044651
 30
0.0
 10
22.95096869178683
 20
-2.556693286593216
 30
0.0
 10
23.72621185763062
 20
-2.890195913379074
 30
0.0
 10
24.50059592616334
 20
-3.025737681015613
 30
0.0
 10
25.21209831156335
 20
-2.986447158728808
 30
0.0
 10
25.66575653729033
 20
-2.816430730065862
 30
0.0
 10
25.86134071591255
 20
-2.743132106417976
 30
0.0
  0
SPLINE
  5
C5
330
1F
100
AcDbEntity
  8
0
  6
Continuous
 62
     1
370
    15
100
AcDbSpline
210
0.0
220
0.0
230
1.0
 70
     8
 71
     3
 72
    15
 73
    11
 74
     0
 42
0.000000001
 43
0.00000001
 40
0.0
 40
0.0
 40
0.0
 40
0.0
 40
0.0836705971798047
 40
0.2146107488911631
 40
0.3456682902826144
 40
0.4765678004613704
 40
0.6073621915671147
 40
0.7381400063705672
 40
0.868990012037992
 40
1.0
 40
1.0
 40
1.0
 40
1.0
 10
34.07873158463249
 20
2.976978769270758
 30
0.0
 10
34.24381239573029
 20
2.978154285420727
 30
0.0
 10
34.66723612749978
 20
2.981169423471393
 30
0.0
 10
35.34960399654714
 20
2.760359133184844
 30
0.0
 10
36.12579176371256
 20
2.35667874808876
 30
0.0
 10
36.90090951343997
 20
1.788298867276032
 30
0.0
 10
37.67521547769469
 20
1.103207762842426
 30
0.0
 10
38.44937289278957
 20
0.3458994776822714
 30
0.0
 10
39.22412322068952
 20
-0.4400617023662094
 30
0.0
 10
39.74126909084345
 20
-0.9304240901793781
 30
0.0
 10
39.99999999999997
 20
-1.175755076535913
 30
0.0
  0
SPLINE
  5
C6
330
1F
100
AcDbEntity
  8
0
  6
Continuous
 62
     1
370
    15
100
AcDbSpline
210
0.0
220
0.0
230
1.0
 70
     8
 71
     3
 72
    14
 73
    10
 74
     0
 42
0.000000001
 43
0.00000001
 40
0.0
 40
0.0
 40
0.0
 40
0.0
 40
0.1645854386167073
 40
0.3289698944187843
 40
0.4932636581660381
 40
0.6575782464170158
 40
0.8220248938263013
 40
0.9866700729419126
 40
1.0
 40
1.0
 40
1.0
 40
1.0
 10
40.00000000000003
 20
1.175755076535937
 30
0.0
 10
39.74126915071732
 20
1.405878392869104
 30
0.0
 10
39.22412340023793
 20
1.865844011417681
 30
0.0
 10
38.44937217578386
 20
2.41167925678383
 30
0.0
 10
37.67521816506299
 20
2.801545440386988
 30
0.0
 10
36.90089947556018
 20
3.009158869019866
 30
0.0
 10
36.12582927906752
 20
2.998522210740991
 30
0.0
 10
35.58723517831389
 20
2.902127091313998
 30
0.0
 10
35.3075770460543
 20
2.763548188297467
 30
0.0
 10
35.2866312936715
 20
2.753168946454525
 30
0.0
  0
SPLINE
  5
C7
330
1F
100
AcDbEntity
  8
0
  6
Continuous
 62
     1
370
    15
100
AcDbSpline
210
0.0
220
0.0
230
1.0
 70
     8
 71
     3
 72
    22
 73
    18
 74
     0
 42
0.000000001
 43
0.00000001
 40
0.0
 40
0.0
 40
0.0
 40
0.0
 40
0.0230959264015652
 40
0.0960349248822977
 40
0.168890612392248
 40
0.2417119745434173
 40
0.3145484610984237
 40
0.3874493171087197
 40
0.4604297595569147
 40
0.5333320076340199
 40
0.6061691223515163
 40
0.6789903402653156
 40
0.7518451130918026
 40
0.8247824387906176
 40
0.8977477821672096
 40
0.9706200160389395
 40
1.0
 40
1.0
 40
1.0
 40
1.0
 10
27.07075574985793
 20
-2.978362412625799
 30
0.0
 10
26.98884883980342
 20
-2.984451928425457
 30
0.0
 10
26.64827259195511
 20
-3.009772679029775
 30
0.0
 10
26.04935790070723
 20
-2.850757146271816
 30
0.0
 10
25.27471975770644
 20
-2.50849552393344
 30
0.0
 10
24.50058658341023
 20
-1.98572195646324
 30
0.0
 10
23.72621436368607
 20
-1.334951247739534
 30
0.0
 10
22.95096801892366
 20
-0.5943148995322984
 30
0.0
 10
22.17475111211207
 20
0.1850101989378074
 30
0.0
 10
21.39948735297772
 20
0.9526241647109318
 30
0.0
 10
20.62510510752639
 20
1.656688880650048
 30
0.0
 10
19.85097710235114
 20
2.25099696180069
 30
0.0
 10
19.07634206097958
 20
2.695269657452648
 30
0.0
 10
18.30064314497452
 20
2.963614020459169
 30
0.0
 10
17.52461240189707
 20
3.024053584352573
 30
0.0
 10
16.90368082178135
 20
2.945157149904048
 30
0.0
 10
16.5414106077131
 20
2.784149665211312
 30
0.0
 10
16.43732002362131
 20
2.737887614195276
 30
0.0
  0
SPLINE
  5
C8
330
1F
100
AcDbEntity
  8
0
  6
Continuous
 62
     1
370
    15
100
AcDbSpline
210
0.0
220
0.0
230
1.0
 70
     8
 71
     3
 72
    16
 73
    12
 74
     0
 42
0.000000001
 43
0.00000001
 40
0.0
 40
0.0
 40
0.0
 40
0.0
 40
0.1118260035467817
 40
0.2235086526138321
 40
0.3350315388684311
 40
0.446589241544232
 40
0.5670429891516676
 40
0.6875729791223785
 40
0.8079496767164717
 40
0.9282406137957173
 40
1.0
 40
1.0
 40
1.0
 40
1.0
 10
10.00000000000523
 20
0.5142430747208965
 30
0.0
 10
10.24013981816538
 20
0.2752389497051246
 30
0.0
 10
10.72011160910449
 20
-0.2024629108382088
 30
0.0
 10
11.43905132838533
 20
-0.9153469847214011
 30
0.0
 10
12.1567399129708
 20
-1.57391004367423
 30
0.0
 10
12.8933667012683
 20
-2.158015882679887
 30
0.0
 10
13.65021314889263
 20
-2.62246942178487
 30
0.0
 10
14.42630815688985
 20
-2.926499575822418
 30
0.0
 10
15.20129538409245
 20
-3.02831960595706
 30
0.0
 10
15.87143420013522
 20
-2.968584279987325
 30
0.0
 10
16.28339233296158
 20
-2.800639857730055
 30
0.0
 10
16.43732002362128
 20
-2.737887614195309
 30
0.0
  0
SPLINE
  5
C9
330
1F
100
AcDbEntity
  8
0
  6
Continuous
 62
     1
370
    15
100
AcDbSpline
210
0.0
220
0.0
230
1.0
 70
     8
 71
     3
 72
    21
 73
    17
 74
     0
 42
0.000000001
 43
0.00000001
 40
0.0
 40
0.0
 40
0.0
 40
0.0
 40
0.0583620186787618
 40
0.1312222919792404
 40
0.2041658814943856
 40
0.2771344982682558
 40
0.3500102101587526
 40
0.422839854120054
 40
0.4956728329431258
 40
0.5685585042710944
 40
0.6415366880888328
 40
0.7144662277833773
 40
0.7873190019478883
 40
0.860144100544789
 40
0.932990987925204
 40
0.9999999999999999
 40
0.9999999999999999
 40
0.9999999999999999
 40
0.9999999999999999
 10
24.65434973957478
 20
2.984127234632779
 30
0.0
 10
24.86110179916368
 20
2.978120056091295
 30
0.0
 10
25.3259671301595
 20
2.964613399632395
 30
0.0
 10
26.04936551653562
 20
2.707441470387138
 30
0.0
 10
26.82508386199506
 20
2.274548864368091
 30
0.0
 10
27.60110332956898
 20
1.684901536036833
 30
0.0
 10
28.37596340879458
 20
0.9847437676477832
 30
0.0
 10
29.15015840670576
 20
0.2190780942760427
 30
0.0
 10
29.92440729994983
 20
-0.5610293058196816
 30
0.0
 10
30.6993994315573
 20
-1.304204551001579
 30
0.0
 10
31.47553377948351
 20
-1.96050655303345
 30
0.0
 10
32.25108091990263
 20
-2.486675293820856
 30
0.0
 10
33.0256206373508
 20
-2.848865173656649
 30
0.0
 10
33.79974681084261
 20
-3.017700041434674
 30
0.0
 10
34.55323087196655
 20
-3.002721827919058
 30
0.0
 10
35.04906351405042
 20
-2.834005720190973
 30
0.0
 10
35.28663129367148
 20
-2.753168946454557
 30
0.0
  0
SPLINE
  5
CA
330
1F
100
AcDbEntity
  8
0
  6
Continuous
 62
   131
370
    15
100
AcDbSpline
210
0.0
220
0.0
230
1.0
 70
    24
 71
     3
 72
    20
 73
    16
 74
     0
 42
0.000000001
 43
0.00000001
 40
0.0
 40
0.0
 40
0.0
 40
0.0
 40
0.025676721033541
 40
0.1087726820763266
 40
0.1942784316186744
 40
0.2773743926614665
 40
0.3628801422038213
 40
0.4459761032466015
 40
0.5314818527889421
 40
0.6145778138319429
 40
0.7000835633740785
 40
0.7831795244168682
 40
0.8686852739592196
 40
0.9517812350020021
 40
1.0
 40
1.0
 40
1.0
 40
1.0
 10
10.00000000000001
 20
2.48763667026997
 30
0.0
 10
10.00000000000004
 20
2.473020513487561
 30
0.0
 10
10.00000000000014
 20
2.411103005687642
 30
0.0
 10
9.9999999999999
 20
2.287275274029253
 30
0.0
 10
10.00000000000007
 20
2.10918199325496
 30
0.0
 10
9.999999999999957
 20
1.915587452178521
 30
0.0
 10
10.00000000000003
 20
1.715778451217025
 30
0.0
 10
9.999999999999957
 20
1.5117252700051
 30
0.0
 10
10.0
 20
1.31290913019679
 30
0.0
 10
10.0
 20
1.121336300975726
 30
0.0
 10
10.00000000000007
 20
0.9460154323183876
 30
0.0
 10
10.0
 20
0.7882423139679132
 30
0.0
 10
9.999999999999986
 20
0.6572249742450974
 30
0.0
 10
10.00000000000004
 20
0.5633436499859028
 30
0.0
 10
10.00000000000004
 20
0.5274304142359525
 30
0.0
 10
10.00000000000001
 20
0.5142430747260883
 30
0.0
  0
SPLINE
  5
CB
330
1F
100
AcDbEntity
  8
0
  6
Continuous
 62
     1
370
    15
100
AcDbSpline
210
0.0
220
0.0
230
1.0
 70
     8
 71
     3
 72
    22
 73
    18
 74
     0
 42
0.000000001
 43
0.00000001
 40
0.0
 40
0.0
 40
0.0
 40
0.0
 40
0.0348260811882528
 40
0.1077968852537412
 40
0.1807023285681097
 40
0.2535368256578157
 40
0.3263495376699927
 40
0.3991899205425312
 40
0.4721070558883055
 40
0.5450728270835492
 40
0.6179461015241751
 40
0.6907666924222025
 40
0.7635839490256733
 40
0.8364472657227925
 40
0.9094034715013987
 40
0.9823346542780825
 40
1.0
 40
1.0
 40
1.0
 40
1.0
 10
36.49634471518639
 20
-2.975056587665006
 30
0.0
 10
36.37290274971628
 20
-2.980214474469048
 30
0.0
 10
35.99081384010435
 20
-2.996179639454497
 30
0.0
 10
35.34958021289259
 20
-2.80829288291986
 30
0.0
 10
34.574201337387
 20
-2.434599578206109
 30
0.0
 10
33.79973698169216
 20
-1.888604162377026
 30
0.0
 10
33.02562327224734
 20
-1.220295705199545
 30
0.0
 10
32.25108021109372
 20
-0.4700949436262918
 30
0.0
 10
31.47553397660263
 20
0.3111810900758409
 30
0.0
 10
30.69939935281456
 20
1.071548110601352
 30
0.0
 10
29.9244074178099
 20
1.76111984495932
 30
0.0
 10
29.15015801419773
 20
2.333821116547101
 30
0.0
 10
28.37596486140697
 20
2.750658546660325
 30
0.0
 10
27.60109790496865
 20
2.988943604049621
 30
0.0
 10
26.82510413134325
 20
3.014234520186153
 30
0.0
 10
26.24501234815252
 20
2.924208380016711
 30
0.0
 10
25.92394532234495
 20
2.772678749667837
 30
0.0
 10
25.86134071591253
 20
2.743132106417941
 30
0.0
  0
SPLINE
  5
CC
330
1F
100
AcDbEntity
  8
0
  6
Continuous
 62
     1
370
    15
100
AcDbSpline
210
0.0
220
0.0
230
1.0
 70
     8
 71
     3
 72
    18
 73
    14
 74
     0
 42
0.000000001
 43
0.00000001
 40
0.0
 40
0.0
 40
0.0
 40
0.0
 40
0.0157961865693195
 40
0.1171424449304752
 40
0.2184235703716488
 40
0.3197082585459777
 40
0.4210651568735754
 40
0.5225511270243958
 40
0.6239729012833422
 40
0.7179042264796776
 40
0.8118062363306506
 40
0.9058427660967052
 40
1.0
 40
1.0
 40
1.0
 40
1.0
 10
17.64524705824289
 20
-2.986872947582442
 30
0.0
 10
17.60496497246489
 20
-2.991059466749696
 30
0.0
 10
17.30623831497537
 20
-3.022106143037567
 30
0.0
 10
16.74975605334133
 20
-2.887596347201307
 30
0.0
 10
15.97552679874278
 20
-2.578288524115691
 30
0.0
 10
15.20129426830702
 20
-2.079327448716972
 30
0.0
 10
14.42630845643889
 20
-1.447121595777183
 30
0.0
 10
13.65021306843708
 20
-0.7178571017240034
 30
0.0
 10
12.89336672105547
 20
0.0399369143492712
 30
0.0
 10
12.15673990784551
 20
0.7760343530653959
 30
0.0
 10
11.43905132975407
 20
1.446514508220736
 30
0.0
 10
10.72011160876159
 20
2.044458060046539
 30
0.0
 10
10.24013981805104
 20
2.339847314386566
 30
0.0
 10
10.00000000000523
 20
2.487636670267032
 30
0.0
  0
LINE
  5
CD
330
1F
100
AcDbEntity
  8
0
  6
Continuous
 62
   131
370
    15
100
AcDbLine
 10
39.99999999999999
 20
-3.000000000000019
 30
0.0
 11
39.99999999999999
 21
-2.978107652713028
 31
0.0
  0
LINE
  5
CE
330
1F
100
AcDbEntity
  8
0
  6
Continuous
 62
   131
370
    15
100
AcDbLine
 10
39.99999999999999
 20
2.978107652712997
 30
0.0
 11
39.99999999999999
 21
2.999999999999984
 31
0.0
  0
LINE
  5
CF
330
1F
100
AcDbEntity
  8
0
  6
Continuous
 62
   131
370
    15
100
AcDbLine
 10
10.0
 20
-2.695971167155829
 30
0.0
 11
10.0
 21
-2.302500611523844
 31
0.0
  0
LINE
  5
D0
330
1F
100
AcDbEntity
  8
0
  6
Continuous
 62
   131
370
    15
100
AcDbLine
 10
10.0
 20
-0.2083344968858434
 30
0.0
 11
10.0
 21
0.5142430747260647
 31
0.0
  0
LINE
  5
D1
330
1F
100
AcDbEntity
  8
0
  6
Continuous
 62
     1
370
    15
100
AcDbLine
 10
39.99999999999999
 20
1.175755076535937
 30
0.0
 11
39.99999999999999
 21
1.802352576177068
 31
0.0
  0
LINE
  5
D2
330
1F
100
AcDbEntity
  8
0
  6
Continuous
 62
     1
370
    15
100
AcDbLine
 10
39.99999999999999
 20
-1.802352576177087
 30
0.0
 11
39.99999999999999
 21
-1.175755076535914
 31
0.0
  0
LINE
  5
D3
330
1F
100
AcDbEntity
  8
0
  6
Continuous
 62
   131
370
    15
100
AcDbLine
 10
10.0
 20
2.487636670269969
 30
0.0
 11
10.00000000000003
 21
2.816743686249875
 31
0.0
  0
SPLINE
  5
D4
330
1F
100
AcDbEntity
  8
0
  6
Continuous
 62
   131
370
    15
100
AcDbSpline
210
0.0
220
0.0
230
1.0
 70
    24
 71
     3
 72
    15
 73
    11
 74
     0
 42
0.000000001
 43
0.00000001
 40
0.0
 40
0.0
 40
0.0
 40
0.0
 40
0.069598262753889
 40
0.221409472697788
 40
0.3732206826416772
 40
0.5250318925855731
 40
0.6768431025294697
 40
0.8286543124733543
 40
0.9804655224172086
 40
1.0
 40
1.0
 40
1.0
 40
1.0
 10
9.999999999999986
 20
-2.302500611523838
 30
0.0
 10
10.00000000000001
 20
-2.261827665388679
 30
0.0
 10
10.00000000000009
 20
-2.13243685589828
 30
0.0
 10
10.00000000000001
 20
-1.846454797637956
 30
0.0
 10
9.999999999999986
 20
-1.448250755968898
 30
0.0
 10
9.9999999999999
 20
-1.040115456719286
 30
0.0
 10
9.999999999999915
 20
-0.6654542469118306
 30
0.0
 10
10.00000000000018
 20
-0.3825423903619993
 30
0.0
 10
9.999999999999943
 20
-0.2258734289128108
 30
0.0
 10
9.999999999999943
 20
-0.2101294129491324
 30
0.0
 10
9.999999999999943
 20
-0.2083344968859093
 30
0.0
  0
SPLINE
  5
D5
330
1F
100
AcDbEntity
  8
0
  6
Continuous
 62
   131
370
    15
100
AcDbSpline
210
0.0
220
0.0
230
1.0
 70
     8
 71
     3
 72
    10
 73
     6
 74
     0
 42
0.000000001
 43
0.00000001
 40
0.0
 40
0.0
 40
0.0
 40
0.0
 40
0.5
 40
0.5
 40
1.0
 40
1.0
 40
1.0
 40
1.0
 10
10.00000000000523
 20
-2.302500611527206
 30
0.0
 10
9.83357492607881
 20
-2.195677904514977
 30
0.0
 10
9.669139688203337
 20
-2.078669148676979
 30
0.0
 10
9.334072601553089
 20
-1.825017412229915
 30
0.0
 10
9.16562343340118
 20
-1.688830655268802
 30
0.0
 10
8.999745682090158
 20
-1.546186686559662
 30
0.0
  0
SPLINE
  5
D6
330
1F
100
AcDbEntity
  8
0
  6
Continuous
 62
   131
370
    15
100
AcDbSpline
210
0.0
220
0.0
230
1.0
 70
     8
 71
     3
 72
    10
 73
     6
 74
     0
 42
0.000000001
 43
0.00000001
 40
0.0
 40
0.0
 40
0.0
 40
0.0
 40
0.5
 40
0.5
 40
1.0
 40
1.0
 40
1.0
 40
1.0
 10
10.00000000000001
 20
-0.208334496885871
 30
0.0
 10
9.833574926074498
 20
-0.0420993656721991
 30
0.0
 10
9.669139688199841
 20
0.1244381634085076
 30
0.0
 10
9.334072601551341
 20
0.4568791497267861
 30
0.0
 10
9.165623433400306
 20
0.6220339814213428
 30
0.0
 10
8.999745682090143
 20
0.782723549555617
 30
0.0
  0
LINE
  5
D7
330
1F
100
AcDbEntity
  8
0
  6
Continuous
 62
   131
370
    15
100
AcDbLine
 10
8.999745682090158
 20
2.999521075845867
 30
0.0
 11
8.999745682090158
 21
2.999999999999982
 31
0.0
  0
SPLINE
  5
D8
330
1F
100
AcDbEntity
  8
0
  6
Continuous
 62
   131
370
    15
100
AcDbSpline
210
0.0
220
0.0
230
1.0
 70
     8
 71
     3
 72
    10
 73
     6
 74
     0
 42
0.000000001
 43
0.00000001
 40
0.0
 40
0.0
 40
0.0
 40
0.0
 40
0.5
 40
0.5
 40
1.0
 40
1.0
 40
1.0
 40
1.0
 10
10.00000000000523
 20
2.816743686248075
 30
0.0
 10
9.83357492607881
 20
2.874092011121362
 30
0.0
 10
9.669139688203337
 20
2.918235642998014
 30
0.0
 10
9.334072601553089
 20
2.979608578363323
 30
0.0
 10
9.16562343340118
 20
2.996546527431036
 30
0.0
 10
8.999745682090158
 20
2.999520985878881
 30
0.0
  0
SPLINE
  5
D9
330
1F
100
AcDbEntity
  8
0
  6
Continuous
 62
   131
370
    15
100
AcDbSpline
210
0.0
220
0.0
230
1.0
 70
     8
 71
     3
 72
    10
 73
     6
 74
     0
 42
0.000000001
 43
0.00000001
 40
0.0
 40
0.0
 40
0.0
 40
0.0
 40
0.5
 40
0.5
 40
1.0
 40
1.0
 40
1.0
 40
1.0
 10
10.00000000000001
 20
2.487636670269949
 30
0.0
 10
9.833574926074498
 20
2.580775975612604
 30
0.0
 10
9.669139688199841
 20
2.662085358202231
 30
0.0
 10
9.334072601551341
 20
2.800280234773042
 30
0.0
 10
9.165623433400306
 20
2.856716449059493
 30
0.0
 10
8.999745682090143
 20
2.899450266782872
 30
0.0
  0
LINE
  5
DA
330
1F
100
AcDbEntity
  8
0
  6
Continuous
 62
   131
370
    15
100
AcDbLine
 10
8.999745682090158
 20
1.45333870397315
 30
0.0
 11
8.999745682090158
 21
2.899449885899908
 31
0.0
  0
SPLINE
  5
DB
330
1F
100
AcDbEntity
  8
0
  6
Continuous
 62
   131
370
    15
100
AcDbSpline
210
0.0
220
0.0
230
1.0
 70
     8
 71
     3
 72
    10
 73
     6
 74
     0
 42
0.000000001
 43
0.00000001
 40
0.0
 40
0.0
 40
0.0
 40
0.0
 40
0.5
 40
0.5
 40
1.0
 40
1.0
 40
1.0
 40
1.0
 10
10.00000000000523
 20
0.5142430747208963
 30
0.0
 10
9.83357492607881
 20
0.6784141066064123
 30
0.0
 10
9.669139688203337
 20
0.8395664943210607
 30
0.0
 10
9.334072601553089
 20
1.154591166133434
 30
0.0
 10
9.16562343340118
 20
1.307715872162259
 30
0.0
 10
8.999745682090158
 20
1.453334299319243
 30
0.0
  0
SPLINE
  5
DC
330
1F
100
AcDbEntity
  8
0
  6
Continuous
 62
   131
370
    15
100
AcDbSpline
210
0.0
220
0.0
230
1.0
 70
     8
 71
     3
 72
    10
 73
     6
 74
     0
 42
0.000000001
 43
0.00000001
 40
0.0
 40
0.0
 40
0.0
 40
0.0
 40
0.5
 40
0.5
 40
1.0
 40
1.0
 40
1.0
 40
1.0
 10
10.00000000000001
 20
-2.695971167155836
 30
0.0
 10
9.833574926074498
 20
-2.62287534128482
 30
0.0
 10
9.669139688199841
 20
-2.537647194793739
 30
0.0
 10
9.334072601551341
 20
-2.343401085046273
 30
0.0
 10
9.165623433400306
 20
-2.234682467638169
 30
0.0
 10
8.999745682090143
 20
-2.116726717227275
 30
0.0
  0
LINE
  5
DD
330
1F
100
AcDbEntity
  8
0
  6
Continuous
 62
   131
370
    15
100
AcDbLine
 10
8.999745682090158
 20
-3.000000000000016
 30
0.0
 11
8.999745682090158
 21
-2.116727768555834
 31
0.0
  0
SPLINE
  5
DE
330
1F
100
AcDbEntity
  8
0
  6
Continuous
 62
   131
370
    15
100
AcDbSpline
210
0.0
220
0.0
230
1.0
 70
     8
 71
     3
 72
    10
 73
     6
 74
     0
 42
0.000000001
 43
0.00000001
 40
0.0
 40
0.0
 40
0.0
 40
0.0
 40
0.5
 40
0.5
 40
1.0
 40
1.0
 40
1.0
 40
1.0
 10
10.00000000000523
 20
-2.816743686248109
 30
0.0
 10
9.83357492607881
 20
-2.874092011121396
 30
0.0
 10
9.669139688203337
 20
-2.918235642998048
 30
0.0
 10
9.334072601553089
 20
-2.979608578363357
 30
0.0
 10
9.16562343340118
 20
-2.99654652743107
 30
0.0
 10
8.999745682090158
 20
-2.999520985878915
 30
0.0
  0
LINE
  5
DF
330
1F
100
AcDbEntity
  8
0
  6
Continuous
 62
   131
370
    15
100
AcDbLine
 10
-69.4
 20
-0.000000000000017
 30
0.0
 11
-69.4
 21
2.999999999999982
 31
0.0
  0
LINE
  5
E0
330
1F
100
AcDbEntity
  8
0
  6
Continuous
 62
   131
370
    15
100
AcDbLine
 10
-69.4
 20
-3.000000000000016
 30
0.0
 11
-69.4
 21
-0.000000000000017
 31
0.0
  0
LINE
  5
E1
330
1F
100
AcDbEntity
  8
0
  6
Continuous
 62
   131
370
    15
100
AcDbLine
 10
8.999745682090158
 20
-1.54618237187274
 30
0.0
 11
8.999745682090158
 21
0.7827221173440936
 31
0.0
  0
LINE
  5
E2
330
1F
100
AcDbEntity
  8
0
  6
Continuous
 62
   131
370
    15
100
AcDbLine
 10
-70.0
 20
-0.000000000000017
 30
0.0
 11
-70.0
 21
2.399999999999984
 31
0.0
  0
LINE
  5
E3
330
1F
100
AcDbEntity
  8
0
  6
Continuous
 62
   131
370
    15
100
AcDbLine
 10
-70.0
 20
-2.400000000000018
 30
0.0
 11
-70.0
 21
-0.000000000000017
 31
0.0
  0
SPLINE
  5
E4
330
1F
100
AcDbEntity
  8
0
  6
Continuous
 62
   131
370
    15
100
AcDbSpline
210
0.0
220
0.0
230
1.0
 70
    24
 71
     3
 72
    15
 73
    11
 74
     0
 42
0.000000001
 43
0.00000001
 40
0.0
 40
0.0
 40
0.0
 40
0.0
 40
0.0467463048780803
 40
0.189804965720135
 40
0.3328636265621959
 40
0.4759222874042575
 40
0.6189809482463077
 40
0.7620396090883296
 40
0.9050982699304235
 40
1.0
 40
1.0
 40
1.0
 40
1.0
 10
10.00000000000004
 20
0.4464698155062223
 30
0.0
 10
10.00000000000003
 20
0.4426338621945633
 30
0.0
 10
10.00000000000003
 20
0.4270586634976309
 30
0.0
 10
9.999999999999957
 20
0.5389750617645556
 30
0.0
 10
9.999999999999915
 20
0.771324087547855
 30
0.0
 10
9.999999999999872
 20
1.109950915544035
 30
0.0
 10
10.00000000000019
 20
1.50527466730477
 30
0.0
 10
9.999999999999872
 20
1.913915486474311
 30
0.0
 10
9.999999999999986
 20
2.25352297143179
 30
0.0
 10
9.999999999999986
 20
2.420888928029984
 30
0.0
 10
9.999999999999986
 20
2.487636670270053
 30
0.0
  0
LINE
  5
E5
330
1F
100
AcDbEntity
  8
0
  6
Continuous
 62
   131
370
    15
100
AcDbLine
 10
9.999999999999986
 20
-2.816743686249918
 30
0.0
 11
10.0
 21
-2.771350788037418
 31
0.0
  0
LINE
  5
E6
330
1F
100
AcDbEntity
  8
중심선
 62
     1
100
AcDbLine
 10
-73.20259277488955
 20
-0.0000000000000213
 30
0.0
 11
42.99999999999999
 21
0.0000000000000125
 31
0.0
  0
CIRCLE
  5
E7
330
1F
100
AcDbEntity
  8
외형선
100
AcDbCircle
 10
0.0
 20
0.0
 30
0.0
 40
2.999999999999997
  0
INSERT
  5
E8
330
1F
100
AcDbEntity
  8
0
  6
Continuous
 62
     7
100
AcDbBlockReference
 66
     1
  2
블럭10
 10
-22.93944368806589
 20
-52.04609937292004
 30
0.0
  0
ATTRIB
  5
E9
330
E8
100
AcDbEntity
  8
FORMAT
 62
     2
100
AcDbText
 10
-43.79769121965843
 20
-49.97073246008785
 30
0.0
 40
4.233333333333333
  1
SEME7506030110E [ 6 FLUTE ]
 41
0.75
  7
SLDTEXTSTYLE0
 11
-43.79769121965843
 21
-52.08739912675452
 31
0.0
100
AcDbAttribute
  2
AUTOATTR0
 70
     0
 74
     1
  0
SEQEND
  5
EA
330
E8
100
AcDbEntity
  8
0
  6
Continuous
 62
     7
  0
HATCH
  5
EB
330
1F
100
AcDbEntity
  8
중심선
100
AcDbHatch
 10
0.0
 20
0.0
 30
0.0
210
0.0
220
0.0
230
1.0
  2
SOLID
 70
     1
 71
     0
 91
        1
 92
        0
 93
        4
 72
     1
 10
-17.22453438368504
 20
-35.7989250712761
 11
-20.67080962752232
 21
-35.7989250712761
 72
     1
 10
-20.67080962752232
 20
-35.7989250712761
 11
-22.79903948672635
 21
-38.3352506518487
 72
     1
 10
-22.79903948672635
 20
-38.3352506518487
 11
-19.35273115777591
 21
-38.33521122254621
 72
     1
 10
-19.35273115777591
 20
-38.33521122254621
 11
-17.22453438368504
 21
-35.7989250712761
 97
        0
 75
     0
 76
     1
 98
        1
 10
0.0
 20
0.0
  0
HATCH
  5
EC
330
1F
100
AcDbEntity
  8
중심선
100
AcDbHatch
 10
0.0
 20
0.0
 30
0.0
210
0.0
220
0.0
230
1.0
  2
SOLID
 70
     1
 71
     0
 91
        1
 92
        0
 93
        4
 72
     1
 10
-12.21177039264909
 20
-35.7989250712761
 11
-15.65804563648637
 21
-35.7989250712761
 72
     1
 10
-15.65804563648637
 20
-35.7989250712761
 11
-20.18918364484376
 21
-41.19892507127612
 72
     1
 10
-20.18918364484376
 20
-41.19892507127612
 11
-16.74290840100648
 21
-41.19892507127612
 72
     1
 10
-16.74290840100648
 20
-41.19892507127612
 11
-12.21177039264909
 21
-35.7989250712761
 97
        0
 75
     0
 76
     1
 98
        1
 10
0.0
 20
0.0
  0
HATCH
  5
ED
330
1F
100
AcDbEntity
  8
중심선
100
AcDbHatch
 10
0.0
 20
0.0
 30
0.0
210
0.0
220
0.0
230
1.0
  2
SOLID
 70
     1
 71
     0
 91
        1
 92
        0
 93
        4
 72
     1
 10
-7.199006401613195
 20
-35.79892507127613
 11
-10.64528164545031
 21
-35.7989250712761
 72
     1
 10
-10.64528164545031
 20
-35.7989250712761
 11
-17.69371854733956
 21
-44.19892507127612
 72
     1
 10
-17.69371854733956
 20
-44.19892507127612
 11
-14.24744330350228
 21
-44.19892507127612
 72
     1
 10
-14.24744330350228
 20
-44.19892507127612
 11
-7.199006401613195
 21
-35.79892507127613
 97
        0
 75
     0
 76
     1
 98
        1
 10
0.0
 20
0.0
  0
HATCH
  5
EE
330
1F
100
AcDbEntity
  8
중심선
100
AcDbHatch
 10
0.0
 20
0.0
 30
0.0
210
0.0
220
0.0
230
1.0
  2
SOLID
 70
     1
 71
     0
 91
        1
 92
        0
 93
        6
 72
     3
 10
-2.399115970600996
 20
-39.99892507132738
 11
3.960054785062284
 21
1.540850780301639E-10
 40
0.3939339440162633
 50
17.09539180608433
 51
320.0019657685079
 73
     0
 72
     1
 10
-0.7161163149004002
 20
-38.58681907591441
 11
1.589185558800638
 21
-36.65249236586649
 72
     3
 10
-2.399115970653842
 20
-39.99892507127625
 11
6.600054785286829
 21
-1.249000902703301E-13
 40
0.6363583540795982
 50
39.99873849337408
 51
368.4976242363725
 73
     1
 72
     1
 10
4.026216521246767
 20
-39.03892507120613
 11
-3.71904866381792
 21
-39.0389250712061
 72
     1
 10
-3.71904866381792
 20
-39.0389250712061
 11
-3.719073708263854
 21
-40.95892507120602
 72
     1
 10
-3.719073708263854
 20
-40.95892507120602
 11
0.7223060612081831
 21
-40.95892507120599
 97
        0
 75
     0
 76
     1
 98
        1
 10
0.0
 20
0.0
  0
DIMENSION
  5
EF
330
1F
100
AcDbEntity
  8
치수문자_일반주서
100
AcDbDimension
  2
_D
 10
-88.02890613132341
 20
-3.000000000000089
 30
0.0
 11
-88.02890613132342
 21
-0.0000000000000155
 31
0.0
 70
   160
  1
%%c<>
 71
     2
 42
6.000000000000005
 52
-270.0
  3
SLDDIMSTYLE0
100
AcDbAlignedDimension
 13
-69.39999999999998
 23
2.999999999999986
 33
0.0
 14
-69.39999999999998
 24
-3.00000000000002
 34
0.0
 50
90.0000000000002
100
AcDbRotatedDimension
  0
DIMENSION
  5
FD
330
1F
100
AcDbEntity
  8
치수문자_일반주서
100
AcDbDimension
  2
_D_1
 10
49.99999999999999
 20
-2.999999999999981
 30
0.0
 11
49.99999999999997
 21
0.3956584500575788
 31
0.0
 70
   160
  1
%%c<>
 71
     2
 42
6.000000000000003
 52
-270.0
  3
SLDDIMSTYLE0
100
AcDbAlignedDimension
 13
39.99999999999999
 23
2.999999999999984
 33
0.0
 14
39.99999999999999
 24
-3.000000000000019
 34
0.0
 50
90.0000000000002
100
AcDbRotatedDimension
  0
DIMENSION
  5
10A
330
1F
100
AcDbEntity
  8
치수문자_일반주서
100
AcDbDimension
  2
_D_2
 10
39.99999999999999
 20
46.31158430489169
 30
0.0
 11
22.27749632923926
 21
46.31158430489169
 31
0.0
 70
   160
  1
<>
 71
     2
 42
30.0
  3
SLDDIMSTYLE1
100
AcDbAlignedDimension
 13
9.999999999999986
 23
2.816743686249883
 33
0.0
 14
39.99999999999999
 24
2.978107652712997
 34
0.0
100
AcDbRotatedDimension
  0
DIMENSION
  5
115
330
1F
100
AcDbEntity
  8
치수문자_일반주서
100
AcDbDimension
  2
_D_3
 10
-70.0
 20
73.92279031358264
 30
0.0
 11
-11.59202048173011
 21
73.92279031358264
 31
0.0
 70
   160
  1
<>
 71
     2
 42
110.0
  3
SLDDIMSTYLE1
100
AcDbAlignedDimension
 13
39.99999999999999
 23
2.978107652712997
 33
0.0
 14
-70.0
 24
2.399999999999984
 34
0.0
100
AcDbRotatedDimension
  0
INSERT
  5
125
330
1F
100
AcDbEntity
  8
외형선
100
AcDbBlockReference
  2
SW_DOWELSYMBOL_0
 10
0.0
 20
0.0
 30
0.0
  0
ENDSEC
  0
SECTION
  2
OBJECTS
  0
DICTIONARY
  5
C
330
0
100
AcDbDictionary
281
     1
  3
ACAD_GROUP
350
D
  3
ACAD_IMAGE_VARS
350
149
  3
ACAD_LAYOUT
350
1A
  3
ACAD_MLINESTYLE
350
17
  3
ACAD_PLOTSETTINGS
350
19
  3
ACAD_PLOTSTYLENAME
350
E
  3
ACAD_SCALELIST
350
47
  3
APPDATA
350
147
  3
DWGPROPS
350
152
  0
DICTIONARY
  5
D
102
{ACAD_REACTORS
330
C
102
}
330
C
100
AcDbDictionary
281
     1
  0
RASTERVARIABLES
  5
149
102
{ACAD_REACTORS
330
C
102
}
330
C
100
AcDbRasterVariables
 90
        0
 70
     1
 71
     1
 72
     1
  0
DICTIONARY
  5
1A
102
{ACAD_REACTORS
330
C
102
}
330
C
100
AcDbDictionary
281
     1
  3
Layout1
350
1E
  3
Layout2
350
26
  3
Model
350
22
  0
DICTIONARY
  5
17
102
{ACAD_REACTORS
330
C
102
}
330
C
100
AcDbDictionary
281
     1
  3
Standard
350
18
  0
DICTIONARY
  5
19
102
{ACAD_REACTORS
330
C
102
}
330
C
100
AcDbDictionary
281
     1
  0
ACDBDICTIONARYWDFLT
  5
E
102
{ACAD_REACTORS
330
C
102
}
330
C
100
AcDbDictionary
281
     1
  3
Normal
350
F
100
AcDbDictionaryWithDefault
340
F
  0
DICTIONARY
  5
47
102
{ACAD_REACTORS
330
C
102
}
330
C
100
AcDbDictionary
281
     1
  3
A0
350
48
  3
A1
350
49
  3
A2
350
4A
  3
A3
350
4B
  3
A4
350
4C
  3
A5
350
4D
  3
A6
350
4E
  3
A7
350
4F
  3
A8
350
50
  3
A9
350
51
  3
B0
350
52
  3
B1
350
53
  3
B2
350
54
  3
B3
350
55
  3
B4
350
56
  3
B5
350
57
  3
B6
350
58
  3
B7
350
59
  3
B8
350
5A
  3
B9
350
5B
  3
C0
350
5C
  3
C1
350
5D
  3
C2
350
5E
  3
C3
350
5F
  3
C4
350
60
  3
C5
350
61
  3
C6
350
62
  3
C7
350
63
  3
C8
350
64
  3
C9
350
65
  3
D0
350
66
  3
D1
350
67
  3
D2
350
68
  0
DICTIONARY
  5
147
102
{ACAD_REACTORS
330
C
102
}
330
C
100
AcDbDictionary
281
     1
  0
XRECORD
  5
152
102
{ACAD_REACTORS
330
C
102
}
330
C
100
AcDbXrecord
280
     1
  1
DWGPROPS COOKIE
  2

  3

  4

  6

  7

  8
12016016
  9

300
=
301
=
302
=
303
=
304
=
305
=
306
=
307
=
308
=
309
=
 40
0.0
 41
2458268.394272847
 42
2458269.997359931
  1

 90
        0
  0
LAYOUT
  5
1E
102
{ACAD_REACTORS
330
1A
102
}
330
1A
100
AcDbPlotSettings
  1

  2
none_device
  4

  6

 40
0.0
 41
0.0
 42
0.0
 43
0.0
 44
0.0
 45
0.0
 46
0.0
 47
0.0
 48
0.0
 49
0.0
140
0.0
141
0.0
142
1.0
143
1.0
 70
   688
 72
     1
 73
     0
 74
     5
  7

 75
    16
147
1.0
148
0.0
149
0.0
100
AcDbLayout
  1
Layout1
 70
     1
 71
     1
 10
0.0
 20
0.0
 11
420.0
 21
297.0
 12
0.0
 22
0.0
 32
0.0
 14
1.000000000000000E+20
 24
1.000000000000000E+20
 34
1.000000000000000E+20
 15
-1.000000000000000E+20
 25
-1.000000000000000E+20
 35
-1.000000000000000E+20
146
0.0
 13
0.0
 23
0.0
 33
0.0
 16
1.0
 26
0.0
 36
0.0
 17
0.0
 27
1.0
 37
0.0
 76
     0
330
1B
  0
LAYOUT
  5
26
102
{ACAD_REACTORS
330
1A
102
}
330
1A
100
AcDbPlotSettings
  1

  2
none_device
  4

  6

 40
0.0
 41
0.0
 42
0.0
 43
0.0
 44
0.0
 45
0.0
 46
0.0
 47
0.0
 48
0.0
 49
0.0
140
0.0
141
0.0
142
1.0
143
1.0
 70
   688
 72
     1
 73
     0
 74
     5
  7

 75
    16
147
1.0
148
0.0
149
0.0
100
AcDbLayout
  1
Layout2
 70
     1
 71
     2
 10
0.0
 20
0.0
 11
0.0
 21
0.0
 12
0.0
 22
0.0
 32
0.0
 14
0.0
 24
0.0
 34
0.0
 15
0.0
 25
0.0
 35
0.0
146
0.0
 13
0.0
 23
0.0
 33
0.0
 16
1.0
 26
0.0
 36
0.0
 17
0.0
 27
1.0
 37
0.0
 76
     0
330
23
  0
LAYOUT
  5
22
102
{ACAD_REACTORS
330
1A
102
}
330
1A
100
AcDbPlotSettings
  1

  2
none_device
  4
ANSI_A_(11.00_x_8.50_Inches)
  6

 40
6.35
 41
19.05
 42
6.35000508
 43
19.05000254
 44
279.4
 45
215.9
 46
124.7370166265204
 47
65.9612455222848
 48
0.0
 49
0.0
140
0.0
141
0.0
142
0.0651566428949785
143
1.0
 70
  1696
 72
     0
 73
     0
 74
     0
  7

 75
     0
147
0.0235690232323232
148
0.0
149
0.0
100
AcDbLayout
  1
Model
 70
     1
 71
     0
 10
0.0
 20
0.0
 11
420.0
 21
297.0
 12
0.0
 22
0.0
 32
0.0
 14
-92.40390613132342
 24
-49.97073246008785
 34
0.0
 15
50.55033333333331
 25
78.29779031358264
 35
0.0
146
0.0
 13
0.0
 23
0.0
 33
0.0
 16
1.0
 26
0.0
 36
0.0
 17
0.0
 27
1.0
 37
0.0
 76
     0
330
1F
331
29
  0
MLINESTYLE
  5
18
102
{ACAD_REACTORS
330
17
102
}
330
17
100
AcDbMlineStyle
  2
Standard
 70
     0
  3

 62
   256
 51
90.0
 52
90.0
 71
     2
 49
0.5
 62
   256
  6
BYLAYER
 49
-0.5
 62
   256
  6
BYLAYER
  0
ACDBPLACEHOLDER
  5
F
102
{ACAD_REACTORS
330
E
102
}
330
E
  0
SCALE
  5
48
102
{ACAD_REACTORS
330
47
102
}
330
47
100
AcDbScale
 70
     0
300
1:1
140
1.0
141
1.0
290
     1
  0
SCALE
  5
49
102
{ACAD_REACTORS
330
47
102
}
330
47
100
AcDbScale
 70
     0
300
1:2
140
1.0
141
2.0
290
     0
  0
SCALE
  5
4A
102
{ACAD_REACTORS
330
47
102
}
330
47
100
AcDbScale
 70
     0
300
1:4
140
1.0
141
4.0
290
     0
  0
SCALE
  5
4B
102
{ACAD_REACTORS
330
47
102
}
330
47
100
AcDbScale
 70
     0
300
1:5
140
1.0
141
5.0
290
     0
  0
SCALE
  5
4C
102
{ACAD_REACTORS
330
47
102
}
330
47
100
AcDbScale
 70
     0
300
1:8
140
1.0
141
8.0
290
     0
  0
SCALE
  5
4D
102
{ACAD_REACTORS
330
47
102
}
330
47
100
AcDbScale
 70
     0
300
1:10
140
1.0
141
10.0
290
     0
  0
SCALE
  5
4E
102
{ACAD_REACTORS
330
47
102
}
330
47
100
AcDbScale
 70
     0
300
1:16
140
1.0
141
16.0
290
     0
  0
SCALE
  5
4F
102
{ACAD_REACTORS
330
47
102
}
330
47
100
AcDbScale
 70
     0
300
1:20
140
1.0
141
20.0
290
     0
  0
SCALE
  5
50
102
{ACAD_REACTORS
330
47
102
}
330
47
100
AcDbScale
 70
     0
300
1:30
140
1.0
141
30.0
290
     0
  0
SCALE
  5
51
102
{ACAD_REACTORS
330
47
102
}
330
47
100
AcDbScale
 70
     0
300
1:40
140
1.0
141
40.0
290
     0
  0
SCALE
  5
52
102
{ACAD_REACTORS
330
47
102
}
330
47
100
AcDbScale
 70
     0
300
1:50
140
1.0
141
50.0
290
     0
  0
SCALE
  5
53
102
{ACAD_REACTORS
330
47
102
}
330
47
100
AcDbScale
 70
     0
300
1:100
140
1.0
141
100.0
290
     0
  0
SCALE
  5
54
102
{ACAD_REACTORS
330
47
102
}
330
47
100
AcDbScale
 70
     0
300
2:1
140
2.0
141
1.0
290
     0
  0
SCALE
  5
55
102
{ACAD_REACTORS
330
47
102
}
330
47
100
AcDbScale
 70
     0
300
4:1
140
4.0
141
1.0
290
     0
  0
SCALE
  5
56
102
{ACAD_REACTORS
330
47
102
}
330
47
100
AcDbScale
 70
     0
300
8:1
140
8.0
141
1.0
290
     0
  0
SCALE
  5
57
102
{ACAD_REACTORS
330
47
102
}
330
47
100
AcDbScale
 70
     0
300
10:1
140
10.0
141
1.0
290
     0
  0
SCALE
  5
58
102
{ACAD_REACTORS
330
47
102
}
330
47
100
AcDbScale
 70
     0
300
100:1
140
100.0
141
1.0
290
     0
  0
SCALE
  5
59
102
{ACAD_REACTORS
330
47
102
}
330
47
100
AcDbScale
 70
     0
300
1/128" = 1'-0"
140
0.0078125
141
12.0
290
     0
  0
SCALE
  5
5A
102
{ACAD_REACTORS
330
47
102
}
330
47
100
AcDbScale
 70
     0
300
1/64" = 1'-0"
140
0.015625
141
12.0
290
     0
  0
SCALE
  5
5B
102
{ACAD_REACTORS
330
47
102
}
330
47
100
AcDbScale
 70
     0
300
1/32" = 1'-0"
140
0.03125
141
12.0
290
     0
  0
SCALE
  5
5C
102
{ACAD_REACTORS
330
47
102
}
330
47
100
AcDbScale
 70
     0
300
1/16" = 1'-0"
140
0.0625
141
12.0
290
     0
  0
SCALE
  5
5D
102
{ACAD_REACTORS
330
47
102
}
330
47
100
AcDbScale
 70
     0
300
3/32" = 1'-0"
140
0.09375
141
12.0
290
     0
  0
SCALE
  5
5E
102
{ACAD_REACTORS
330
47
102
}
330
47
100
AcDbScale
 70
     0
300
1/8" = 1'-0"
140
0.125
141
12.0
290
     0
  0
SCALE
  5
5F
102
{ACAD_REACTORS
330
47
102
}
330
47
100
AcDbScale
 70
     0
300
3/16" = 1'-0"
140
0.1875
141
12.0
290
     0
  0
SCALE
  5
60
102
{ACAD_REACTORS
330
47
102
}
330
47
100
AcDbScale
 70
     0
300
1/4" = 1'-0"
140
0.25
141
12.0
290
     0
  0
SCALE
  5
61
102
{ACAD_REACTORS
330
47
102
}
330
47
100
AcDbScale
 70
     0
300
3/8" = 1'-0"
140
0.375
141
12.0
290
     0
  0
SCALE
  5
62
102
{ACAD_REACTORS
330
47
102
}
330
47
100
AcDbScale
 70
     0
300
1/2" = 1'-0"
140
0.5
141
12.0
290
     0
  0
SCALE
  5
63
102
{ACAD_REACTORS
330
47
102
}
330
47
100
AcDbScale
 70
     0
300
3/4" = 1'-0"
140
0.75
141
12.0
290
     0
  0
SCALE
  5
64
102
{ACAD_REACTORS
330
47
102
}
330
47
100
AcDbScale
 70
     0
300
1" = 1'-0"
140
1.0
141
12.0
290
     0
  0
SCALE
  5
65
102
{ACAD_REACTORS
330
47
102
}
330
47
100
AcDbScale
 70
     0
300
1-1/2" = 1'-0"
140
1.5
141
12.0
290
     0
  0
SCALE
  5
66
102
{ACAD_REACTORS
330
47
102
}
330
47
100
AcDbScale
 70
     0
300
3" = 1'-0"
140
3.0
141
12.0
290
     0
  0
SCALE
  5
67
102
{ACAD_REACTORS
330
47
102
}
330
47
100
AcDbScale
 70
     0
300
6" = 1'-0"
140
6.0
141
12.0
290
     0
  0
SCALE
  5
68
102
{ACAD_REACTORS
330
47
102
}
330
47
100
AcDbScale
 70
     0
300
1'-0" = 1'-0"
140
12.0
141
12.0
290
     0
  0
ENDSEC
  0
EOF
