  0
SECTION
  2
HEADER
  9
$ACADVER
  1
AC1015
  9
$ACADMAINTVER
 70
     6
  9
$DWGCODEPAGE
  3
ANSI_949
  9
$INSBASE
 10
0.0
 20
0.0
 30
0.0
  9
$EXTMIN
 10
-66.59277278556965
 20
-49.97073246008785
 30
0.0
  9
$EXTMAX
 10
36.55167594494887
 20
78.43560215688544
 30
0.0
  9
$LIMMIN
 10
0.0
 20
0.0
  9
$LIMMAX
 10
420.0
 20
297.0
  9
$ORTHOMODE
 70
     1
  9
$REGENMODE
 70
     1
  9
$FILLMODE
 70
     1
  9
$QTEXTMODE
 70
     0
  9
$MIRRTEXT
 70
     1
  9
$LTSCALE
 40
1.0
  9
$ATTMODE
 70
     1
  9
$TEXTSIZE
 40
3.5
  9
$TRACEWID
 40
1.0
  9
$TEXTSTYLE
  7
Standard
  9
$CLAYER
  8
0
  9
$CELTYPE
  6
ByLayer
  9
$CECOLOR
 62
   256
  9
$CELTSCALE
 40
1.0
  9
$DISPSILH
 70
     0
  9
$DIMSCALE
 40
1.0
  9
$DIMASZ
 40
3.302
  9
$DIMEXO
 40
1.0
  9
$DIMDLI
 40
3.75
  9
$DIMRND
 40
0.0
  9
$DIMDLE
 40
0.0
  9
$DIMEXE
 40
1.0
  9
$DIMTP
 40
0.0
  9
$DIMTM
 40
0.0
  9
$DIMTXT
 40
3.5
  9
$DIMCEN
 40
2.5
  9
$DIMTSZ
 40
0.0
  9
$DIMTOL
 70
     0
  9
$DIMLIM
 70
     0
  9
$DIMTIH
 70
     1
  9
$DIMTOH
 70
     1
  9
$DIMSE1
 70
     0
  9
$DIMSE2
 70
     0
  9
$DIMTAD
 70
     1
  9
$DIMZIN
 70
     0
  9
$DIMBLK
  1

  9
$DIMASO
 70
     1
  9
$DIMSHO
 70
     1
  9
$DIMPOST
  1

  9
$DIMAPOST
  1

  9
$DIMALT
 70
     0
  9
$DIMALTD
 70
     3
  9
$DIMALTF
 40
0.0393700787401575
  9
$DIMLFAC
 40
1.0
  9
$DIMTOFL
 70
     1
  9
$DIMTVP
 40
0.0
  9
$DIMTIX
 70
     0
  9
$DIMSOXD
 70
     0
  9
$DIMSAH
 70
     0
  9
$DIMBLK1
  1

  9
$DIMBLK2
  1

  9
$DIMSTYLE
  2
ISO-25
  9
$DIMCLRD
 70
     0
  9
$DIMCLRE
 70
     0
  9
$DIMCLRT
 70
     0
  9
$DIMTFAC
 40
1.0
  9
$DIMGAP
 40
1.524
  9
$DIMJUST
 70
     0
  9
$DIMSD1
 70
     0
  9
$DIMSD2
 70
     0
  9
$DIMTOLJ
 70
     0
  9
$DIMTZIN
 70
     0
  9
$DIMALTZ
 70
     0
  9
$DIMALTTZ
 70
     0
  9
$DIMUPT
 70
     0
  9
$DIMDEC
 70
     2
  9
$DIMTDEC
 70
     2
  9
$DIMALTU
 70
     2
  9
$DIMALTTD
 70
     3
  9
$DIMTXSTY
  7
Standard
  9
$DIMAUNIT
 70
     0
  9
$DIMADEC
 70
     2
  9
$DIMALTRND
 40
0.0
  9
$DIMAZIN
 70
     0
  9
$DIMDSEP
 70
    44
  9
$DIMATFIT
 70
     3
  9
$DIMFRAC
 70
     0
  9
$DIMLDRBLK
  1

  9
$DIMLUNIT
 70
     2
  9
$DIMLWD
 70
    -2
  9
$DIMLWE
 70
    -2
  9
$DIMTMOVE
 70
     0
  9
$LUNITS
 70
     2
  9
$LUPREC
 70
     2
  9
$SKETCHINC
 40
1.0
  9
$FILLETRAD
 40
10.0
  9
$AUNITS
 70
     0
  9
$AUPREC
 70
     2
  9
$MENU
  1
.
  9
$ELEVATION
 40
0.0
  9
$PELEVATION
 40
0.0
  9
$THICKNESS
 40
0.0
  9
$LIMCHECK
 70
     0
  9
$CHAMFERA
 40
0.0
  9
$CHAMFERB
 40
0.0
  9
$CHAMFERC
 40
0.0
  9
$CHAMFERD
 40
0.0
  9
$SKPOLY
 70
     0
  9
$TDCREATE
 40
2458268.769087709
  9
$TDUCREATE
 40
2458268.394087709
  9
$TDUPDATE
 40
2458268.779732396
  9
$TDUUPDATE
 40
2458268.404732396
  9
$TDINDWG
 40
0.0021857639
  9
$TDUSRTIMER
 40
0.0021857523
  9
$USRTIMER
 70
     1
  9
$ANGBASE
 50
0.0
  9
$ANGDIR
 70
     0
  9
$PDMODE
 70
     0
  9
$PDSIZE
 40
-1.0
  9
$PLINEWID
 40
0.0
  9
$SPLFRAME
 70
     0
  9
$SPLINETYPE
 70
     6
  9
$SPLINESEGS
 70
     8
  9
$HANDSEED
  5
143
  9
$SURFTAB1
 70
     6
  9
$SURFTAB2
 70
     6
  9
$SURFTYPE
 70
     6
  9
$SURFU
 70
     6
  9
$SURFV
 70
     6
  9
$UCSBASE
  2

  9
$UCSNAME
  2

  9
$UCSORG
 10
0.0
 20
0.0
 30
0.0
  9
$UCSXDIR
 10
1.0
 20
0.0
 30
0.0
  9
$UCSYDIR
 10
0.0
 20
1.0
 30
0.0
  9
$UCSORTHOREF
  2

  9
$UCSORTHOVIEW
 70
     0
  9
$UCSORGTOP
 10
0.0
 20
0.0
 30
0.0
  9
$UCSORGBOTTOM
 10
0.0
 20
0.0
 30
0.0
  9
$UCSORGLEFT
 10
0.0
 20
0.0
 30
0.0
  9
$UCSORGRIGHT
 10
0.0
 20
0.0
 30
0.0
  9
$UCSORGFRONT
 10
0.0
 20
0.0
 30
0.0
  9
$UCSORGBACK
 10
0.0
 20
0.0
 30
0.0
  9
$PUCSBASE
  2

  9
$PUCSNAME
  2

  9
$PUCSORG
 10
0.0
 20
0.0
 30
0.0
  9
$PUCSXDIR
 10
1.0
 20
0.0
 30
0.0
  9
$PUCSYDIR
 10
0.0
 20
1.0
 30
0.0
  9
$PUCSORTHOREF
  2

  9
$PUCSORTHOVIEW
 70
     0
  9
$PUCSORGTOP
 10
0.0
 20
0.0
 30
0.0
  9
$PUCSORGBOTTOM
 10
0.0
 20
0.0
 30
0.0
  9
$PUCSORGLEFT
 10
0.0
 20
0.0
 30
0.0
  9
$PUCSORGRIGHT
 10
0.0
 20
0.0
 30
0.0
  9
$PUCSORGFRONT
 10
0.0
 20
0.0
 30
0.0
  9
$PUCSORGBACK
 10
0.0
 20
0.0
 30
0.0
  9
$USERI1
 70
     0
  9
$USERI2
 70
     0
  9
$USERI3
 70
     0
  9
$USERI4
 70
     0
  9
$USERI5
 70
     0
  9
$USERR1
 40
0.0
  9
$USERR2
 40
0.0
  9
$USERR3
 40
0.0
  9
$USERR4
 40
0.0
  9
$USERR5
 40
0.0
  9
$WORLDVIEW
 70
     1
  9
$SHADEDGE
 70
     3
  9
$SHADEDIF
 70
    70
  9
$TILEMODE
 70
     1
  9
$MAXACTVP
 70
    64
  9
$PINSBASE
 10
0.0
 20
0.0
 30
0.0
  9
$PLIMCHECK
 70
     0
  9
$PEXTMIN
 10
1.000000000000000E+20
 20
1.000000000000000E+20
 30
1.000000000000000E+20
  9
$PEXTMAX
 10
-1.000000000000000E+20
 20
-1.000000000000000E+20
 30
-1.000000000000000E+20
  9
$PLIMMIN
 10
0.0
 20
0.0
  9
$PLIMMAX
 10
0.0
 20
0.0
  9
$UNITMODE
 70
     0
  9
$VISRETAIN
 70
     1
  9
$PLINEGEN
 70
     0
  9
$PSLTSCALE
 70
     1
  9
$TREEDEPTH
 70
  3020
  9
$CMLSTYLE
  2
Standard
  9
$CMLJUST
 70
     0
  9
$CMLSCALE
 40
20.0
  9
$PROXYGRAPHICS
 70
     1
  9
$MEASUREMENT
 70
     1
  9
$CELWEIGHT
370
    -1
  9
$ENDCAPS
280
     0
  9
$JOINSTYLE
280
     0
  9
$LWDISPLAY
290
     1
  9
$INSUNITS
 70
     4
  9
$HYPERLINKBASE
  1

  9
$STYLESHEET
  1

  9
$XEDIT
290
     1
  9
$CEPSNTYPE
380
     0
  9
$PSTYLEMODE
290
     1
  9
$FINGERPRINTGUID
  2
{571B80E1-3DBB-49B9-91FD-A2C99965398B}
  9
$VERSIONGUID
  2
{FAEB1C32-E019-11D5-929B-00C0DF256EC4}
  9
$EXTNAMES
290
     1
  9
$PSVPSCALE
 40
0.0
  9
$OLESTARTUP
290
     0
  0
ENDSEC
  0
SECTION
  2
CLASSES
  0
CLASS
  1
ACDBDICTIONARYWDFLT
  2
AcDbDictionaryWithDefault
  3
ObjectDBX Classes
 90
        0
280
     0
281
     0
  0
CLASS
  1
VISUALSTYLE
  2
AcDbVisualStyle
  3
ObjectDBX Classes
 90
     4095
280
     0
281
     0
  0
CLASS
  1
MATERIAL
  2
AcDbMaterial
  3
ObjectDBX Classes
 90
     1153
280
     0
281
     0
  0
CLASS
  1
SCALE
  2
AcDbScale
  3
ObjectDBX Classes
 90
     1153
280
     0
281
     0
  0
CLASS
  1
SUN
  2
AcDbSun
  3
SCENEOE
 90
     1153
280
     0
281
     0
  0
CLASS
  1
ACDBPLACEHOLDER
  2
AcDbPlaceHolder
  3
ObjectDBX Classes
 90
        0
280
     0
281
     0
  0
CLASS
  1
LAYOUT
  2
AcDbLayout
  3
ObjectDBX Classes
 90
        0
280
     0
281
     0
  0
CLASS
  1
TABLESTYLE
  2
AcDbTableStyle
  3
ObjectDBX Classes
 90
     4095
280
     0
281
     0
  0
CLASS
  1
MLEADERSTYLE
  2
AcDbMLeaderStyle
  3
ACDB_MLEADERSTYLE_CLASS
 90
     4095
280
     0
281
     0
  0
ENDSEC
  0
SECTION
  2
TABLES
  0
TABLE
  2
VPORT
  5
8
330
0
100
AcDbSymbolTable
 70
     1
  0
VPORT
  5
29
330
8
100
AcDbSymbolTableRecord
100
AcDbViewportTableRecord
  2
*Active
 70
     0
 10
0.0
 20
0.0
 11
1.0
 21
1.0
 12
-11.16740827401522
 22
19.76575829203974
 13
0.0
 23
0.0
 14
10.0
 24
10.0
 15
10.0
 25
10.0
 16
0.0
 26
0.0
 36
1.0
 17
0.0
 27
0.0
 37
0.0
 40
166.4156661103246
 41
2.148876404494382
 42
50.0
 43
0.0
 44
0.0
 50
0.0
 51
0.0
 71
    16
 72
  2000
 73
     1
 74
     3
 75
     0
 76
     0
 77
     0
 78
     0
281
     0
 65
     1
110
0.0
120
0.0
130
0.0
111
1.0
121
0.0
131
0.0
112
0.0
122
1.0
132
0.0
 79
     0
146
0.0
  0
ENDTAB
  0
TABLE
  2
LTYPE
  5
5
330
0
100
AcDbSymbolTable
 70
     6
  0
LTYPE
  5
14
330
5
100
AcDbSymbolTableRecord
100
AcDbLinetypeTableRecord
  2
ByBlock
 70
     0
  3

 72
    65
 73
     0
 40
0.0
  0
LTYPE
  5
15
330
5
100
AcDbSymbolTableRecord
100
AcDbLinetypeTableRecord
  2
ByLayer
 70
     0
  3

 72
    65
 73
     0
 40
0.0
  0
LTYPE
  5
16
330
5
100
AcDbSymbolTableRecord
100
AcDbLinetypeTableRecord
  2
Continuous
 70
     0
  3
Solid line
 72
    65
 73
     0
 40
0.0
  0
LTYPE
  5
6A
330
5
100
AcDbSymbolTableRecord
100
AcDbLinetypeTableRecord
  2
HIDDEN
 70
     0
  3
Hidden __ __ __ __ __ __ __ __ __ __ __ __ __ __
 72
    65
 73
     2
 40
1.905
 49
1.27
 74
     0
 49
-0.635
 74
     0
  0
LTYPE
  5
6B
330
5
100
AcDbSymbolTableRecord
100
AcDbLinetypeTableRecord
  2
PHANTOM
 70
     0
  3
Phantom ______  __  __  ______  __  __  ______
 72
    65
 73
     6
 40
12.7
 49
6.35
 74
     0
 49
-1.27
 74
     0
 49
1.27
 74
     0
 49
-1.27
 74
     0
 49
1.27
 74
     0
 49
-1.27
 74
     0
  0
LTYPE
  5
6C
330
5
100
AcDbSymbolTableRecord
100
AcDbLinetypeTableRecord
  2
CENTER
 70
     0
  3
Center ____ _ ____ _ ____ _ ____ _ ____ _ ____
 72
    65
 73
     4
 40
10.16
 49
6.35
 74
     0
 49
-1.27
 74
     0
 49
1.27
 74
     0
 49
-1.27
 74
     0
  0
LTYPE
  5
6D
330
5
100
AcDbSymbolTableRecord
100
AcDbLinetypeTableRecord
  2
CENTERX2
 70
     0
  3
Center (2x) ________  __  ________  __  _____
 72
    65
 73
     4
 40
20.32
 49
12.7
 74
     0
 49
-2.54
 74
     0
 49
2.54
 74
     0
 49
-2.54
 74
     0
  0
LTYPE
  5
6E
330
5
100
AcDbSymbolTableRecord
100
AcDbLinetypeTableRecord
  2
DOT2
 70
     0
  3
Dot (.5x) ........................................
 72
    65
 73
     2
 40
0.635
 49
0.0
 74
     0
 49
-0.635
 74
     0
  0
ENDTAB
  0
TABLE
  2
LAYER
  5
2
330
0
100
AcDbSymbolTable
 70
    17
  0
LAYER
  5
10
330
2
100
AcDbSymbolTableRecord
100
AcDbLayerTableRecord
  2
0
 70
     0
 62
     7
  6
Continuous
370
    -3
390
F
  0
LAYER
  5
6F
330
2
100
AcDbSymbolTableRecord
100
AcDbLayerTableRecord
  2
FORMAT
 70
     0
 62
     2
  6
Continuous
370
    -3
390
F
  0
LAYER
  5
70
330
2
100
AcDbSymbolTableRecord
100
AcDbLayerTableRecord
  2
외형선
 70
     0
 62
   100
  6
Continuous
370
    30
390
F
  0
LAYER
  5
71
330
2
100
AcDbSymbolTableRecord
100
AcDbLayerTableRecord
  2
숨은선
 70
     0
 62
     2
  6
HIDDEN
370
    15
390
F
  0
LAYER
  5
72
330
2
100
AcDbSymbolTableRecord
100
AcDbLayerTableRecord
  2
중심선
 70
     0
 62
     1
  6
CENTERX2
370
    -3
390
F
  0
LAYER
  5
73
330
2
100
AcDbSymbolTableRecord
100
AcDbLayerTableRecord
  2
파단선
 70
     0
 62
     4
  6
Continuous
370
    -3
390
F
  0
LAYER
  5
74
330
2
100
AcDbSymbolTableRecord
100
AcDbLayerTableRecord
  2
해칭선
 70
     0
 62
     4
  6
Continuous
370
    -3
390
F
  0
LAYER
  5
75
330
2
100
AcDbSymbolTableRecord
100
AcDbLayerTableRecord
  2
가는실선
 70
     0
 62
     4
  6
Continuous
370
    -3
390
F
  0
LAYER
  5
76
330
2
100
AcDbSymbolTableRecord
100
AcDbLayerTableRecord
  2
치수_보조선
 70
     0
 62
     4
  6
Continuous
370
    -3
390
F
  0
LAYER
  5
77
330
2
100
AcDbSymbolTableRecord
100
AcDbLayerTableRecord
  2
치수문자_일반주서
 70
     0
 62
     7
  6
Continuous
370
    15
390
F
  0
LAYER
  5
78
330
2
100
AcDbSymbolTableRecord
100
AcDbLayerTableRecord
  2
개별주서
 70
     0
 62
   100
  6
Continuous
370
    30
390
F
  0
LAYER
  5
79
330
2
100
AcDbSymbolTableRecord
100
AcDbLayerTableRecord
  2
중간선
 70
     0
 62
     2
  6
Continuous
370
    15
390
F
  0
LAYER
  5
7A
330
2
100
AcDbSymbolTableRecord
100
AcDbLayerTableRecord
  2
윤곽선
 70
     0
 62
     3
  6
Continuous
370
    40
390
F
  0
LAYER
  5
7B
330
2
100
AcDbSymbolTableRecord
100
AcDbLayerTableRecord
  2
중심마크
 70
     0
 62
   100
  6
Continuous
370
    30
390
F
  0
LAYER
  5
7C
330
2
100
AcDbSymbolTableRecord
100
AcDbLayerTableRecord
  2
가상선
 70
     0
 62
     4
  6
PHANTOM
370
    -3
390
F
  0
LAYER
  5
7D
330
2
100
AcDbSymbolTableRecord
100
AcDbLayerTableRecord
  2
특수지정선
 70
     0
 62
     5
  6
CENTERX2
370
    60
390
F
  0
LAYER
  5
13D
330
2
100
AcDbSymbolTableRecord
100
AcDbLayerTableRecord
  2
Defpoints
 70
     0
 62
     7
  6
Continuous
290
     0
370
    -3
390
F
  0
ENDTAB
  0
TABLE
  2
STYLE
  5
3
330
0
100
AcDbSymbolTable
 70
     2
  0
STYLE
  5
11
330
3
100
AcDbSymbolTableRecord
100
AcDbTextStyleTableRecord
  2
Standard
 70
     0
 40
0.0
 41
1.0
 50
0.0
 71
     0
 42
3.5
  3
txt
  4

  0
STYLE
  5
93
330
3
100
AcDbSymbolTableRecord
100
AcDbTextStyleTableRecord
  2
SLDTEXTSTYLE0
 70
     0
 40
0.0
 41
0.75
 50
0.0
 71
     0
 42
3.5
  3
TXT
  4

  0
ENDTAB
  0
TABLE
  2
VIEW
  5
6
330
0
100
AcDbSymbolTable
 70
     0
  0
ENDTAB
  0
TABLE
  2
UCS
  5
7
330
0
100
AcDbSymbolTable
 70
     0
  0
ENDTAB
  0
TABLE
  2
APPID
  5
9
330
0
100
AcDbSymbolTable
 70
     3
  0
APPID
  5
12
330
9
100
AcDbSymbolTableRecord
100
AcDbRegAppTableRecord
  2
ACAD
 70
     0
  0
APPID
  5
141
330
9
100
AcDbSymbolTableRecord
100
AcDbRegAppTableRecord
  2
ACAD_DSTYLE_DIMFLIPARROW_SYMBOL
 70
     0
  0
APPID
  5
142
330
9
100
AcDbSymbolTableRecord
100
AcDbRegAppTableRecord
  2
ACAD_DSTYLE_DIMFLIPARROW_WHICH_SYMBOL
 70
     0
  0
ENDTAB
  0
TABLE
  2
DIMSTYLE
  5
A
330
0
100
AcDbSymbolTable
 70
     3
100
AcDbDimStyleTable
  0
DIMSTYLE
105
27
330
A
100
AcDbSymbolTableRecord
100
AcDbDimStyleTableRecord
  2
ISO-25
 70
     0
 41
2.5
 42
0.625
 43
3.75
 44
1.25
 73
     0
 74
     0
 77
     1
 78
     8
140
2.5
141
2.5
143
0.03937007874016
147
0.625
171
     3
172
     1
178
     0
271
     2
272
     2
274
     3
278
    44
283
     0
284
     8
340
11
  0
DIMSTYLE
105
E5
102
{ACAD_REACTORS
330
E4
330
F2
330
FF
102
}
330
A
100
AcDbSymbolTableRecord
100
AcDbDimStyleTableRecord
  2
SLDDIMSTYLE0
 70
     0
 41
3.302
 44
0.0
 45
0.000000001
 73
     0
 74
     0
 77
     1
 78
    12
 79
     3
140
3.5
147
0.875
172
     1
173
     1
178
     0
271
     2
272
     2
276
     2
284
    12
289
     0
340
93
  0
DIMSTYLE
105
10A
102
{ACAD_REACTORS
330
109
102
}
330
A
100
AcDbSymbolTableRecord
100
AcDbDimStyleTableRecord
  2
SLDDIMSTYLE1
 70
     0
 41
3.302
 44
0.0
 45
0.000000001
 73
     0
 74
     0
 77
     1
 78
    12
 79
     3
140
3.5
147
0.875
173
     1
178
     0
271
     2
272
     2
276
     2
284
    12
340
93
  0
ENDTAB
  0
TABLE
  2
BLOCK_RECORD
  5
1
330
0
100
AcDbSymbolTable
 70
     7
  0
BLOCK_RECORD
  5
1F
330
1
100
AcDbSymbolTableRecord
100
AcDbBlockTableRecord
  2
*Model_Space
340
22
  0
BLOCK_RECORD
  5
1B
330
1
100
AcDbSymbolTableRecord
100
AcDbBlockTableRecord
  2
*Paper_Space
340
1E
  0
BLOCK_RECORD
  5
23
330
1
100
AcDbSymbolTableRecord
100
AcDbBlockTableRecord
  2
*Paper_Space0
340
26
  0
BLOCK_RECORD
  5
7E
330
1
100
AcDbSymbolTableRecord
100
AcDbBlockTableRecord
  2
블럭10
340
0
102
{BLKREFS
331
DD
102
}
  0
BLOCK_RECORD
  5
E6
330
1
100
AcDbSymbolTableRecord
100
AcDbBlockTableRecord
  2
_D
340
0
  0
BLOCK_RECORD
  5
F3
330
1
100
AcDbSymbolTableRecord
100
AcDbBlockTableRecord
  2
_D_1
340
0
  0
BLOCK_RECORD
  5
100
330
1
100
AcDbSymbolTableRecord
100
AcDbBlockTableRecord
  2
_D_2
340
0
  0
BLOCK_RECORD
  5
10B
330
1
100
AcDbSymbolTableRecord
100
AcDbBlockTableRecord
  2
_D_3
340
0
  0
BLOCK_RECORD
  5
114
330
1
100
AcDbSymbolTableRecord
100
AcDbBlockTableRecord
  2
SW_DOWELSYMBOL_0
340
0
102
{BLKREFS
331
11A
102
}
  0
ENDTAB
  0
ENDSEC
  0
SECTION
  2
BLOCKS
  0
BLOCK
  5
20
330
1F
100
AcDbEntity
  8
0
100
AcDbBlockBegin
  2
*Model_Space
 70
     0
 10
0.0
 20
0.0
 30
0.0
  3
*Model_Space
  1

  0
ENDBLK
  5
21
330
1F
100
AcDbEntity
  8
0
100
AcDbBlockEnd
  0
BLOCK
  5
1C
330
1B
100
AcDbEntity
 67
     1
  8
0
100
AcDbBlockBegin
  2
*Paper_Space
 70
     0
 10
0.0
 20
0.0
 30
0.0
  3
*Paper_Space
  1

  0
ENDBLK
  5
1D
330
1B
100
AcDbEntity
 67
     1
  8
0
100
AcDbBlockEnd
  0
BLOCK
  5
24
330
23
100
AcDbEntity
  8
0
100
AcDbBlockBegin
  2
*Paper_Space0
 70
     0
 10
0.0
 20
0.0
 30
0.0
  3
*Paper_Space0
  1

  0
ENDBLK
  5
25
330
23
100
AcDbEntity
  8
0
100
AcDbBlockEnd
  0
BLOCK
  5
7F
330
7E
100
AcDbEntity
  8
0
100
AcDbBlockBegin
  2
블럭10
 70
     2
 10
0.0
 20
0.0
 30
0.0
  3
블럭10
  1

  0
ELLIPSE
  5
81
330
7E
100
AcDbEntity
  8
중심선
100
AcDbEllipse
 10
20.54032771741204
 20
12.0471743016438
 30
0.0
 11
6.600054785286829
 21
-1.261213355974178E-13
 31
0.0
210
0.0
220
0.0
230
1.0
 40
0.636358354079598
 41
0.9219305317359503
 42
6.513795318482858
  0
ELLIPSE
  5
82
330
7E
100
AcDbEntity
  8
중심선
100
AcDbEllipse
 10
20.54032771746488
 20
12.04717430159265
 30
0.0
 11
3.960054785062283
 21
1.540847449632565E-10
 31
0.0
210
0.0
220
0.0
230
1.0
 40
0.3939339440162632
 41
1.131841032648279
 42
5.62031148352944
  0
LINE
  5
83
330
7E
100
AcDbEntity
  8
중심선
100
AcDbLine
 10
2.268634060543552
 20
16.24717430164393
 30
0.0
 11
5.714909304380834
 21
16.24717430164393
 31
0.0
  0
LINE
  5
84
330
7E
100
AcDbEntity
  8
중심선
100
AcDbLine
 10
5.245725140726316
 20
7.84717430164391
 30
0.0
 11
8.692000384563599
 21
7.84717430164391
 31
0.0
  0
LINE
  5
85
330
7E
100
AcDbEntity
  8
중심선
100
AcDbLine
 10
15.74043728645272
 20
16.24717430164393
 30
0.0
 11
8.692000384563599
 21
7.84717430164391
 31
0.0
  0
LINE
  5
86
330
7E
100
AcDbEntity
  8
중심선
100
AcDbLine
 10
0.1404042013395286
 20
13.71084872107135
 30
0.0
 11
3.58671253028996
 21
13.71088815037384
 31
0.0
  0
LINE
  5
87
330
7E
100
AcDbEntity
  8
중심선
100
AcDbLine
 10
2.750260043222114
 20
10.84717430164391
 30
0.0
 11
6.196535287059397
 21
10.84717430164391
 31
0.0
  0
LINE
  5
88
330
7E
100
AcDbEntity
  8
중심선
100
AcDbLine
 10
12.29416204261559
 20
16.24717430164393
 30
0.0
 11
5.245725140726316
 21
7.84717430164391
 31
0.0
  0
LINE
  5
89
330
7E
100
AcDbEntity
  8
중심선
100
AcDbLine
 10
10.72767329541681
 20
16.24717430164393
 30
0.0
 11
6.196535287059397
 21
10.84717430164391
 31
0.0
  0
LINE
  5
8A
330
7E
100
AcDbEntity
  8
중심선
100
AcDbLine
 10
7.28139805157953
 20
16.24717430164393
 30
0.0
 11
2.750260043222114
 21
10.84717430164391
 31
0.0
  0
LINE
  5
8B
330
7E
100
AcDbEntity
  8
중심선
100
AcDbLine
 10
5.714909304380834
 20
16.24717430164393
 30
0.0
 11
3.58671253028996
 21
13.71088815037384
 31
0.0
  0
LINE
  5
8C
330
7E
100
AcDbEntity
  8
중심선
100
AcDbLine
 10
2.268634060543552
 20
16.24717430164393
 30
0.0
 11
0.1404042013395286
 21
13.71084872107135
 31
0.0
  0
LINE
  5
8D
330
7E
100
AcDbEntity
  8
중심선
100
AcDbLine
 10
7.28139805157953
 20
16.24717430164393
 30
0.0
 11
10.72767329541681
 21
16.24717430164393
 31
0.0
  0
LINE
  5
8E
330
7E
100
AcDbEntity
  8
중심선
100
AcDbLine
 10
12.29416204261559
 20
16.24717430164393
 30
0.0
 11
15.74043728645272
 21
16.24717430164393
 31
0.0
  0
LINE
  5
8F
330
7E
100
AcDbEntity
  8
중심선
100
AcDbLine
 10
19.22036997980202
 20
11.08717430171403
 30
0.0
 11
23.66174974927406
 21
11.08717430171406
 31
0.0
  0
LINE
  5
90
330
7E
100
AcDbEntity
  8
중심선
100
AcDbLine
 10
19.22039502424796
 20
13.00717430171391
 30
0.0
 11
19.22036997980202
 21
11.08717430171403
 31
0.0
  0
LINE
  5
91
330
7E
100
AcDbEntity
  8
중심선
100
AcDbLine
 10
19.22039502424796
 20
13.00717430171391
 30
0.0
 11
26.96566020931264
 21
13.00717430171391
 31
0.0
  0
LINE
  5
92
330
7E
100
AcDbEntity
  8
중심선
100
AcDbLine
 10
22.22332737316547
 20
13.45928029700563
 30
0.0
 11
24.52862924686651
 21
15.39360700705356
 31
0.0
  0
ATTDEF
  5
94
330
7E
100
AcDbEntity
  8
FORMAT
 62
     2
100
AcDbText
 10
-16.11926103943555
 20
2.075366912832191
 30
0.0
 40
4.233333333333333
  1
SEME7506020E [ 6 FLUTE ]
 41
0.75
  7
SLDTEXTSTYLE0
 11
-16.11926103943555
 21
-0.0412997538344756
 31
0.0
100
AcDbAttributeDefinition
  3

  2
AUTOATTR0
 70
     0
 74
     1
  0
ENDBLK
  5
80
330
7E
100
AcDbEntity
  8
0
100
AcDbBlockEnd
  0
BLOCK
  5
E7
330
E6
100
AcDbEntity
  8
0
100
AcDbBlockBegin
  2
_D
 70
     0
 10
0.0
 20
0.0
 30
0.0
  3
_D
  1

  0
SOLID
  5
E9
330
E6
100
AcDbEntity
  8
치수문자_일반주서
100
AcDbTrace
 10
-62.02756351970788
 20
3.001074928723895
 30
0.0
 11
-61.51956351970787
 21
6.303074928723895
 31
0.0
 12
-62.53556351970788
 22
6.303074928723895
 32
0.0
 13
-62.53556351970788
 23
6.303074928723895
 33
0.0
  0
SOLID
  5
EA
330
E6
100
AcDbEntity
  8
치수문자_일반주서
100
AcDbTrace
 10
-62.02756351970788
 20
-2.998925071276111
 30
0.0
 11
-62.53556351970788
 21
-6.30092507127611
 31
0.0
 12
-61.51956351970787
 22
-6.30092507127611
 32
0.0
 13
-61.51956351970787
 23
-6.30092507127611
 33
0.0
  0
LINE
  5
EB
330
E6
100
AcDbEntity
  8
치수문자_일반주서
100
AcDbLine
 10
-44.39865738838444
 20
3.001074928723896
 30
0.0
 11
-63.02756351970787
 21
3.001074928723895
 31
0.0
  0
LINE
  5
EC
330
E6
100
AcDbEntity
  8
치수문자_일반주서
100
AcDbLine
 10
-44.39865738838444
 20
-2.998925071276109
 30
0.0
 11
-63.02756351970787
 21
-2.998925071276111
 31
0.0
  0
LINE
  5
ED
330
E6
100
AcDbEntity
  8
치수문자_일반주서
100
AcDbLine
 10
-62.02756351970788
 20
3.001074928723895
 30
0.0
 11
-62.02756351970788
 21
9.351074928723893
 31
0.0
  0
LINE
  5
EE
330
E6
100
AcDbEntity
  8
치수문자_일반주서
100
AcDbLine
 10
-62.02756351970788
 20
3.001074928723895
 30
0.0
 11
-62.02756351970788
 21
-2.998925071276111
 31
0.0
  0
LINE
  5
EF
330
E6
100
AcDbEntity
  8
치수문자_일반주서
100
AcDbLine
 10
-62.02756351970788
 20
-2.998925071276111
 30
0.0
 11
-62.02756351970788
 21
-9.348925071276112
 31
0.0
  0
MTEXT
  5
F0
330
E6
100
AcDbEntity
  8
치수문자_일반주서
100
AcDbMText
 10
-66.53930060890973
 20
-3.931199483639909
 30
0.0
 40
3.5
 41
0.0
 71
     1
 72
     1
  1
%%c
  7
SLDTEXTSTYLE0
 11
-7.044195017643634E-15
 21
1.0
 31
0.0
 73
     1
 44
1.0
  0
MTEXT
  5
F1
330
E6
100
AcDbEntity
  8
치수문자_일반주서
100
AcDbMText
 10
-66.59277278556962
 20
1.347237914734172
 30
0.0
 40
3.5
 41
0.0
 71
     1
 72
     1
  1
6
  7
SLDTEXTSTYLE0
 11
-7.044195017643634E-15
 21
1.0
 31
0.0
 73
     1
 44
1.0
  0
ENDBLK
  5
E8
330
E6
100
AcDbEntity
  8
0
100
AcDbBlockEnd
  0
BLOCK
  5
F4
330
F3
100
AcDbEntity
  8
0
100
AcDbBlockBegin
  2
_D_1
 70
     0
 10
0.0
 20
0.0
 30
0.0
  3
_D_1
  1

  0
LINE
  5
F6
330
F3
100
AcDbEntity
  8
치수문자_일반주서
 62
     0
370
    -2
100
AcDbLine
 10
26.06384261161555
 20
3.001074928723892
 30
0.0
 11
36.00134261161552
 21
3.001074928723927
 31
0.0
  0
LINE
  5
F7
330
F3
100
AcDbEntity
  8
치수문자_일반주서
 62
     0
370
    -2
100
AcDbLine
 10
26.06384261161555
 20
-2.998925071276108
 30
0.0
 11
36.00134261161554
 21
-2.998925071276073
 31
0.0
  0
LINE
  5
F8
330
F3
100
AcDbEntity
  8
치수문자_일반주서
 62
     0
370
    -2
100
AcDbLine
 10
36.00134261161552
 20
3.001074928723927
 30
0.0
 11
36.00134261161554
 21
-2.998925071276073
 31
0.0
  0
LINE
  5
F9
330
F3
100
AcDbEntity
  8
치수문자_일반주서
 62
     0
370
    -2
100
AcDbLine
 10
36.00134261161551
 20
6.303074928723927
 30
0.0
 11
36.00134261161549
 21
9.605074928723926
 31
0.0
  0
LINE
  5
FA
330
F3
100
AcDbEntity
  8
치수문자_일반주서
 62
     0
370
    -2
100
AcDbLine
 10
36.00134261161556
 20
-6.300925071276072
 30
0.0
 11
36.00134261161557
 21
-9.602925071276072
 31
0.0
  0
SOLID
  5
FB
330
F3
100
AcDbEntity
  8
치수문자_일반주서
 62
     0
100
AcDbTrace
 10
35.45100927828217
 20
6.303074928723925
 30
0.0
 11
36.55167594494884
 21
6.303074928723928
 31
0.0
 12
36.00134261161552
 22
3.001074928723927
 32
0.0
 13
36.00134261161552
 23
3.001074928723927
 33
0.0
  0
SOLID
  5
FC
330
F3
100
AcDbEntity
  8
치수문자_일반주서
 62
     0
100
AcDbTrace
 10
36.55167594494889
 20
-6.300925071276071
 30
0.0
 11
35.45100927828222
 21
-6.300925071276074
 31
0.0
 12
36.00134261161554
 22
-2.998925071276073
 32
0.0
 13
36.00134261161554
 23
-2.998925071276073
 33
0.0
  0
MTEXT
  5
FD
330
F3
100
AcDbEntity
  8
치수문자_일반주서
 62
     0
100
AcDbMText
 10
31.62634261161553
 20
0.3967333787814721
 30
0.0
 40
3.5
 41
0.0
 71
     2
 72
     1
  1
\A1;%%c6
  7
SLDTEXTSTYLE0
 11
-3.552713678800502E-15
 21
1.0
 31
0.0
 73
     1
 44
1.0
  0
POINT
  5
FE
330
F3
100
AcDbEntity
  8
Defpoints
 62
     0
100
AcDbPoint
 10
26.00134261161555
 20
3.001074928723892
 30
0.0
  0
POINT
  5
13E
330
F3
100
AcDbEntity
  8
Defpoints
 62
     0
100
AcDbPoint
 10
26.00134261161555
 20
-2.998925071276108
 30
0.0
  0
POINT
  5
13F
330
F3
100
AcDbEntity
  8
Defpoints
 62
     0
100
AcDbPoint
 10
36.00134261161554
 20
-2.998925071276072
 30
0.0
  0
ENDBLK
  5
F5
330
F3
100
AcDbEntity
  8
0
100
AcDbBlockEnd
  0
BLOCK
  5
101
330
100
100
AcDbEntity
  8
0
100
AcDbBlockBegin
  2
_D_2
 70
     0
 10
0.0
 20
0.0
 30
0.0
  3
_D_2
  1

  0
SOLID
  5
103
330
100
100
AcDbEntity
  8
치수문자_일반주서
100
AcDbTrace
 10
6.001342611615566
 20
46.39287783522328
 30
0.0
 11
9.303342611615566
 21
45.88487783522328
 31
0.0
 12
9.303342611615566
 22
46.90087783522328
 32
0.0
 13
9.303342611615566
 23
46.90087783522328
 33
0.0
  0
SOLID
  5
104
330
100
100
AcDbEntity
  8
치수문자_일반주서
100
AcDbTrace
 10
26.00134261161555
 20
46.39287783522328
 30
0.0
 11
22.69934261161555
 21
46.90087783522328
 31
0.0
 12
22.69934261161555
 22
45.88487783522328
 32
0.0
 13
22.69934261161555
 23
45.88487783522328
 33
0.0
  0
LINE
  5
105
330
100
100
AcDbEntity
  8
치수문자_일반주서
100
AcDbLine
 10
6.001342611615564
 20
3.898037216581476
 30
0.0
 11
6.001342611615566
 21
47.39287783522328
 31
0.0
  0
LINE
  5
106
330
100
100
AcDbEntity
  8
치수문자_일반주서
100
AcDbLine
 10
26.00134261161555
 20
3.979182581436905
 30
0.0
 11
26.00134261161555
 21
47.39287783522328
 31
0.0
  0
LINE
  5
107
330
100
100
AcDbEntity
  8
치수문자_일반주서
100
AcDbLine
 10
6.001342611615566
 20
46.39287783522328
 30
0.0
 11
26.00134261161555
 21
46.39287783522328
 31
0.0
  0
MTEXT
  5
108
330
100
100
AcDbEntity
  8
치수문자_일반주서
100
AcDbMText
 10
11.60022897091895
 20
50.90461474980217
 30
0.0
 40
3.5
 41
0.0
 71
     1
 72
     1
  1
20
  7
SLDTEXTSTYLE0
 73
     1
 44
1.0
  0
ENDBLK
  5
102
330
100
100
AcDbEntity
  8
0
100
AcDbBlockEnd
  0
BLOCK
  5
10C
330
10B
100
AcDbEntity
  8
0
100
AcDbBlockBegin
  2
_D_3
 70
     0
 10
0.0
 20
0.0
 30
0.0
  3
_D_3
  1

  0
SOLID
  5
10E
330
10B
100
AcDbEntity
  8
치수문자_일반주서
100
AcDbTrace
 10
26.00134261161554
 20
73.92386524230655
 30
0.0
 11
22.69934261161554
 21
74.43186524230654
 31
0.0
 12
22.69934261161554
 22
73.41586524230655
 32
0.0
 13
22.69934261161554
 23
73.41586524230655
 33
0.0
  0
SOLID
  5
10F
330
10B
100
AcDbEntity
  8
치수문자_일반주서
100
AcDbTrace
 10
-43.99865738838447
 20
73.92386524230655
 30
0.0
 11
-40.69665738838447
 21
73.41586524230655
 31
0.0
 12
-40.69665738838447
 22
74.43186524230654
 32
0.0
 13
-40.69665738838447
 23
74.43186524230654
 33
0.0
  0
LINE
  5
110
330
10B
100
AcDbEntity
  8
치수문자_일반주서
100
AcDbLine
 10
26.00134261161555
 20
3.979182581436905
 30
0.0
 11
26.00134261161554
 21
74.92386524230655
 31
0.0
  0
LINE
  5
111
330
10B
100
AcDbEntity
  8
치수문자_일반주서
100
AcDbLine
 10
-43.99865738838446
 20
3.401074928723894
 30
0.0
 11
-43.99865738838447
 21
74.92386524230655
 31
0.0
  0
LINE
  5
112
330
10B
100
AcDbEntity
  8
치수문자_일반주서
100
AcDbLine
 10
26.00134261161554
 20
73.92386524230655
 30
0.0
 11
-43.99865738838447
 21
73.92386524230655
 31
0.0
  0
MTEXT
  5
113
330
10B
100
AcDbEntity
  8
치수문자_일반주서
100
AcDbMText
 10
-9.416054343008257
 20
78.43560215688545
 30
0.0
 40
3.5
 41
0.0
 71
     1
 72
     1
  1
70
  7
SLDTEXTSTYLE0
 73
     1
 44
1.0
  0
ENDBLK
  5
10D
330
10B
100
AcDbEntity
  8
0
100
AcDbBlockEnd
  0
BLOCK
  5
115
330
114
100
AcDbEntity
  8
0
100
AcDbBlockBegin
  2
SW_DOWELSYMBOL_0
 70
     0
 10
0.0
 20
0.0
 30
0.0
  3
SW_DOWELSYMBOL_0
  1

  0
CIRCLE
  5
117
330
114
100
AcDbEntity
  8
외형선
 62
     0
100
AcDbCircle
 10
0.0
 20
0.0
 30
0.0
 40
3.000000000000004
  0
HATCH
  5
118
330
114
100
AcDbEntity
  8
0
  6
Continuous
 62
     0
370
    30
100
AcDbHatch
 10
0.0
 20
0.0
 30
0.0
210
0.0
220
0.0
230
1.0
  2
SOLID
 70
     1
 71
     0
 91
        1
 92
        0
 93
        3
 72
     2
 10
0.0000000000000104
 20
0.0
 40
3.000000000000004
 50
0.0
 51
90.0
 73
     1
 72
     1
 10
0.0000000000000104
 20
3.000000000000004
 11
0.0000000000000104
 21
0.0
 72
     1
 10
0.0000000000000104
 20
0.0
 11
3.000000000000015
 21
0.0
 97
        0
 75
     0
 76
     1
 98
        1
 10
0.0
 20
0.0
  0
HATCH
  5
119
330
114
100
AcDbEntity
  8
0
  6
Continuous
 62
     0
370
    30
100
AcDbHatch
 10
0.0
 20
0.0
 30
0.0
210
0.0
220
0.0
230
1.0
  2
SOLID
 70
     1
 71
     0
 91
        1
 92
        0
 93
        3
 72
     2
 10
0.0000000000000104
 20
0.0
 40
3.000000000000004
 50
180.0
 51
270.0000000000008
 73
     1
 72
     1
 10
0.0000000000000104
 20
-3.000000000000004
 11
0.0000000000000104
 21
0.0
 72
     1
 10
0.0000000000000104
 20
0.0
 11
-2.999999999999994
 21
0.0
 97
        0
 75
     0
 76
     1
 98
        1
 10
0.0
 20
0.0
  0
ENDBLK
  5
116
330
114
100
AcDbEntity
  8
0
100
AcDbBlockEnd
  0
ENDSEC
  0
SECTION
  2
ENTITIES
  0
LINE
  5
95
330
1F
100
AcDbEntity
  8
0
  6
Continuous
 62
   131
370
    15
100
AcDbLine
 10
19.08062770537042
 20
-0.5663754248714995
 30
0.0
 11
19.11470032054899
 21
-0.5989053209549182
 31
0.0
  0
LINE
  5
96
330
1F
100
AcDbEntity
  8
0
  6
Continuous
 62
   131
370
    15
100
AcDbLine
 10
25.63826901116554
 20
-2.998925071276108
 30
0.0
 11
26.00134261161555
 21
-2.998925071276108
 31
0.0
  0
LINE
  5
97
330
1F
100
AcDbEntity
  8
0
  6
Continuous
 62
   131
370
    15
100
AcDbLine
 10
6.789023630746807
 20
-2.998925071276108
 30
0.0
 11
7.51467683957819
 21
-2.998925071276108
 31
0.0
  0
LINE
  5
98
330
1F
100
AcDbEntity
  8
0
  6
Continuous
 62
   131
370
    15
100
AcDbLine
 10
16.93844002306573
 20
3.001074928723894
 30
0.0
 11
16.21387654428327
 21
3.001074928723894
 31
0.0
  0
LINE
  5
99
330
1F
100
AcDbEntity
  8
0
  6
Continuous
 62
   131
370
    15
100
AcDbLine
 10
16.21387654428327
 20
-2.998925071276108
 30
0.0
 11
16.9384400230657
 21
-2.998925071276108
 31
0.0
  0
LINE
  5
9A
330
1F
100
AcDbEntity
  8
0
  6
Continuous
 62
   131
370
    15
100
AcDbLine
 10
7.514676839578155
 20
3.001074928723894
 30
0.0
 11
6.789023630746821
 21
3.001074928723894
 31
0.0
  0
LINE
  5
9B
330
1F
100
AcDbEntity
  8
0
  6
Continuous
 62
   131
370
    15
100
AcDbLine
 10
26.00134261161555
 20
3.001074928723894
 30
0.0
 11
25.63826901116553
 21
3.001074928723894
 31
0.0
  0
LINE
  5
9C
330
1F
100
AcDbEntity
  8
0
  6
Continuous
 62
   131
370
    15
100
AcDbLine
 10
13.07200900717392
 20
-2.998925071276108
 30
0.0
 11
13.79789001205362
 21
-2.998925071276108
 31
0.0
  0
LINE
  5
9D
330
1F
100
AcDbEntity
  8
0
  6
Continuous
 62
   131
370
    15
100
AcDbLine
 10
23.22209189234314
 20
3.001074928723894
 30
0.0
 11
22.4975848422192
 21
3.001074928723894
 31
0.0
  0
LINE
  5
9E
330
1F
100
AcDbEntity
  8
0
  6
Continuous
 62
   131
370
    15
100
AcDbLine
 10
9.93056874654883
 20
-2.998925071276108
 30
0.0
 11
10.65598640517316
 21
-2.998925071276108
 31
0.0
  0
LINE
  5
9F
330
1F
100
AcDbEntity
  8
0
  6
Continuous
 62
   131
370
    15
100
AcDbLine
 10
20.08154835125855
 20
3.001074928723894
 30
0.0
 11
19.35543274159186
 21
3.001074928723894
 31
0.0
  0
LINE
  5
A0
330
1F
100
AcDbEntity
  8
0
  6
Continuous
 62
   131
370
    15
100
AcDbLine
 10
19.35543274159185
 20
-2.998925071276108
 30
0.0
 11
20.08154835125853
 21
-2.998925071276108
 31
0.0
  0
LINE
  5
A1
330
1F
100
AcDbEntity
  8
0
  6
Continuous
 62
   131
370
    15
100
AcDbLine
 10
10.65598640517314
 20
3.001074928723894
 30
0.0
 11
9.930568746548802
 21
3.001074928723894
 31
0.0
  0
LINE
  5
A2
330
1F
100
AcDbEntity
  8
0
  6
Continuous
 62
   131
370
    15
100
AcDbLine
 10
22.49758484221918
 20
-2.998925071276108
 30
0.0
 11
23.22209189234314
 21
-2.998925071276108
 31
0.0
  0
LINE
  5
A3
330
1F
100
AcDbEntity
  8
0
  6
Continuous
 62
   131
370
    15
100
AcDbLine
 10
13.79789001205363
 20
3.001074928723894
 30
0.0
 11
13.07200900717391
 21
3.001074928723894
 31
0.0
  0
LINE
  5
A4
330
1F
100
AcDbEntity
  8
0
  6
Continuous
 62
   131
370
    15
100
AcDbLine
 10
-43.39865738838446
 20
-2.998925071276107
 30
0.0
 11
5.001638515806525
 21
-2.998925071276107
 31
0.0
  0
LINE
  5
A5
330
1F
100
AcDbEntity
  8
0
  6
Continuous
 62
   131
370
    15
100
AcDbLine
 10
5.001638515806525
 20
3.001074928723893
 30
0.0
 11
-43.39865738838446
 21
3.001074928723893
 31
0.0
  0
LINE
  5
A6
330
1F
100
AcDbEntity
  8
0
  6
Continuous
 62
   131
370
    15
100
AcDbLine
 10
-43.39865738838446
 20
3.001074928723893
 30
0.0
 11
-43.99865738838446
 21
2.401074928723894
 31
0.0
  0
LINE
  5
A7
330
1F
100
AcDbEntity
  8
0
  6
Continuous
 62
   131
370
    15
100
AcDbLine
 10
-43.99865738838446
 20
-2.398925071276108
 30
0.0
 11
-43.39865738838446
 21
-2.998925071276107
 31
0.0
  0
SPLINE
  5
A8
330
1F
100
AcDbEntity
  8
0
  6
Continuous
 62
     1
370
    15
100
AcDbSpline
210
0.0
220
0.0
230
1.0
 70
     8
 71
     3
 72
    24
 73
    20
 74
     0
 42
0.000000001
 43
0.00000001
 40
0.0
 40
0.0
 40
0.0
 40
0.0
 40
0.0367357642581928
 40
0.0984025578776015
 40
0.1602546183196037
 40
0.2219325208407093
 40
0.2835657392098622
 40
0.3453879260500952
 40
0.4071254203215672
 40
0.4687462020155995
 40
0.5304962308012316
 40
0.5923082678416454
 40
0.6539377920335718
 40
0.7156245843714248
 40
0.7774749067653458
 40
0.83913432408704
 40
0.9007788439315785
 40
0.9626192061524734
 40
1.0
 40
1.0
 40
1.0
 40
1.0
 10
13.79789001205363
 20
2.983832662582058
 30
0.0
 10
13.92801155695107
 20
2.985676227038657
 30
0.0
 10
14.27656270625884
 20
2.990614506173579
 30
0.0
 10
14.84395512307988
 20
2.838576477095248
 30
0.0
 10
15.50167183267712
 20
2.551961183472883
 30
0.0
 10
16.15746911979168
 20
2.136756777906073
 30
0.0
 10
16.81279815399506
 20
1.621007162297518
 30
0.0
 10
17.47015668864699
 20
1.028964556470451
 30
0.0
 10
18.12659086642626
 20
0.3873652802190165
 30
0.0
 10
18.78177592499548
 20
-0.2734298684876453
 30
0.0
 10
19.43834488724631
 20
-0.9202710902849843
 30
0.0
 10
20.09559296609592
 20
-1.52271032957879
 30
0.0
 10
20.75087850504731
 20
-2.053793625223046
 30
0.0
 10
21.40677898011877
 20
-2.486566353937782
 30
0.0
 10
22.06444128023918
 20
-2.799671927655568
 30
0.0
 10
22.72006047516195
 20
-2.98163469362221
 30
0.0
 10
23.37547630738167
 20
-3.015325646698962
 30
0.0
 10
23.94675944115028
 20
-2.938533786876224
 30
0.0
 10
24.29828967900119
 20
-2.796633938325265
 30
0.0
 10
24.43072594433976
 20
-2.743174281172905
 30
0.0
  0
SPLINE
  5
A9
330
1F
100
AcDbEntity
  8
0
  6
Continuous
 62
     1
370
    15
100
AcDbSpline
210
0.0
220
0.0
230
1.0
 70
     8
 71
     3
 72
    24
 73
    20
 74
     0
 42
0.000000001
 43
0.00000001
 40
0.0
 40
0.0
 40
0.0
 40
0.0
 40
0.0276535880946595
 40
0.0892794854237393
 40
0.1509924008760714
 40
0.2128353203458435
 40
0.2744823893407028
 40
0.3361443564287639
 40
0.3979972364834394
 40
0.4596865797196834
 40
0.5213186524418222
 40
0.5831332455597988
 40
0.6448858278588017
 40
0.7065091577215249
 40
0.7682492049880346
 40
0.8300739483255486
 40
0.8917097153776786
 40
0.9533901684295587
 40
0.9999999999999999
 40
0.9999999999999999
 40
0.9999999999999999
 40
0.9999999999999999
 10
25.63826901116554
 20
-2.981177594363221
 30
0.0
 10
25.54019010165603
 20
-2.985180928701786
 30
0.0
 10
25.22354278117245
 20
-2.998105675700357
 30
0.0
 10
24.68923431589659
 20
-2.867450839097102
 30
0.0
 10
24.03305299793987
 20
-2.600936568944019
 30
0.0
 10
23.37550521562454
 20
-2.203062592188105
 30
0.0
 10
22.7200527383013
 20
-1.701238526000316
 30
0.0
 10
22.06444336076773
 20
-1.117545972447901
 30
0.0
 10
21.40677842392826
 20
-0.4823626942536403
 30
0.0
 10
20.7508786523138
 20
0.1773776169113697
 30
0.0
 10
20.09559293185548
 20
0.8290222100092524
 30
0.0
 10
19.43834487644416
 20
1.439784730660437
 30
0.0
 10
18.78177600227538
 20
1.982604339843198
 30
0.0
 10
18.1265905685449
 20
2.431606141277638
 30
0.0
 10
17.47015780609439
 20
2.763861390914975
 30
0.0
 10
16.81279398217844
 20
2.965504304025821
 30
0.0
 10
16.15748464042476
 20
3.021855723934816
 30
0.0
 10
15.55561047094717
 20
2.956085979249006
 30
0.0
 10
15.17130462291262
 20
2.811177037889378
 30
0.0
 10
15.00589337747267
 20
2.748805963943276
 30
0.0
  0
SPLINE
  5
AA
330
1F
100
AcDbEntity
  8
0
  6
Continuous
 62
     1
370
    15
100
AcDbSpline
210
0.0
220
0.0
230
1.0
 70
     8
 71
     3
 72
     9
 73
     5
 74
     0
 42
0.000000001
 43
0.00000001
 40
0.0
 40
0.0
 40
0.0
 40
0.0
 40
0.3140953551327566
 40
1.0
 40
1.0
 40
1.0
 40
1.0
 10
6.789023630746807
 20
-2.986774134120355
 30
0.0
 10
6.706411095386993
 20
-2.989755727410702
 30
0.0
 10
6.443393721809756
 20
-2.999248364731257
 30
0.0
 10
6.18118962174987
 20
-2.937939437258845
 30
0.0
 10
6.001342611615549
 20
-2.895887359133688
 30
0.0
  0
LINE
  5
AB
330
1F
100
AcDbEntity
  8
0
  6
Continuous
 62
     1
370
    15
100
AcDbLine
 10
26.00134261161555
 20
1.79421094774941
 30
0.0
 11
26.00134261161555
 21
2.979182581436906
 31
0.0
  0
SPLINE
  5
AC
330
1F
100
AcDbEntity
  8
0
  6
Continuous
 62
     1
370
    15
100
AcDbSpline
210
0.0
220
0.0
230
1.0
 70
     8
 71
     3
 72
    22
 73
    18
 74
     0
 42
0.000000001
 43
0.00000001
 40
0.0
 40
0.0
 40
0.0
 40
0.0
 40
0.0600435648813865
 40
0.1203351938128555
 40
0.180471531843142
 40
0.253261223686519
 40
0.326281381311857
 40
0.399129619382519
 40
0.4718899601636081
 40
0.5448513594669694
 40
0.6177801252404619
 40
0.6905361026338037
 40
0.7634096460727113
 40
0.8364157609553845
 40
0.9091923768813867
 40
0.982001449783448
 40
1.0
 40
1.0
 40
1.0
 40
1.0
 10
6.001342611615542
 20
2.570206094206219
 30
0.0
 10
6.181202289399744
 20
2.468903777739874
 30
0.0
 10
6.54166471743902
 20
2.265880624305361
 30
0.0
 10
7.084340599201107
 20
1.866729571040132
 30
0.0
 10
7.663636462531577
 20
1.379790192792466
 30
0.0
 10
8.281234782769715
 20
0.8003840480766661
 30
0.0
 10
8.938837858496328
 20
0.1496833616817403
 30
0.0
 10
9.594878663278795
 20
-0.5096500772930211
 30
0.0
 10
10.25011849359311
 20
-1.144971968216661
 30
0.0
 10
10.90718852842878
 20
-1.724459934570416
 30
0.0
 10
11.56395484801419
 20
-2.222016800874755
 30
0.0
 10
12.21915175149737
 20
-2.614442903349022
 30
0.0
 10
12.87541632560643
 20
-2.880953049779687
 30
0.0
 10
13.53289377723059
 20
-3.012802783827273
 30
0.0
 10
14.18831363139823
 20
-2.990831661801411
 30
0.0
 10
14.67887852208527
 20
-2.896506383214276
 30
0.0
 10
14.95179908193929
 20
-2.7714441093065
 30
0.0
 10
15.00589337747267
 20
-2.74665610649549
 30
0.0
  0
SPLINE
  5
AD
330
1F
100
AcDbEntity
  8
0
  6
Continuous
 62
     1
370
    15
100
AcDbSpline
210
0.0
220
0.0
230
1.0
 70
     8
 71
     3
 72
    12
 73
     8
 74
     0
 42
0.000000001
 43
0.00000001
 40
0.0
 40
0.0
 40
0.0
 40
0.0
 40
0.0551044915871223
 40
0.2917159371642315
 40
0.5278299864547292
 40
0.7636111037926224
 40
1.0
 40
1.0
 40
1.0
 40
1.0
 10
23.22209189234314
 20
2.988262113260128
 30
0.0
 10
23.27309492167623
 20
2.992154998189332
 30
0.0
 10
23.543098256642
 20
3.012763419439348
 30
0.0
 10
24.03311764844528
 20
2.908527618941876
 30
0.0
 10
24.68919182329664
 20
2.672030158772058
 30
0.0
 10
25.34442629937607
 20
2.302237996118643
 30
0.0
 10
25.78218268036141
 20
1.969840289798096
 30
0.0
 10
26.00134261161555
 20
1.803427504900979
 30
0.0
  0
SPLINE
  5
AE
330
1F
100
AcDbEntity
  8
0
  6
Continuous
 62
   131
370
    15
100
AcDbSpline
210
0.0
220
0.0
230
1.0
 70
    24
 71
     3
 72
     9
 73
     5
 74
     0
 42
0.000000001
 43
0.00000001
 40
0.0
 40
0.0
 40
0.0
 40
0.0
 40
0.9284288603776686
 40
1.0
 40
1.0
 40
1.0
 40
1.0
 10
6.001342611615571
 20
2.898037216581476
 30
0.0
 10
6.001342611615557
 20
2.807443147425829
 30
0.0
 10
6.001342611615542
 20
2.709865322110495
 30
0.0
 10
6.001342611615549
 20
2.624492904632207
 30
0.0
 10
6.001342611615549
 20
2.618382703420973
 30
0.0
  0
SPLINE
  5
AF
330
1F
100
AcDbEntity
  8
0
  6
Continuous
 62
     1
370
    15
100
AcDbSpline
210
0.0
220
0.0
230
1.0
 70
     8
 71
     3
 72
    10
 73
     6
 74
     0
 42
0.000000001
 43
0.00000001
 40
0.0
 40
0.0
 40
0.0
 40
0.0
 40
0.4181957466833768
 40
0.8353162713820482
 40
1.0
 40
1.0
 40
1.0
 40
1.0
 10
26.00134261161555
 20
2.979182581436906
 30
0.0
 10
25.78216927610437
 20
2.990281842154905
 30
0.0
 10
25.34438612106868
 20
3.012451826310856
 30
0.0
 10
24.82162435553834
 20
2.915789513271339
 30
0.0
 10
24.51696257429886
 20
2.782930736686706
 30
0.0
 10
24.43072594433976
 20
2.745324138620691
 30
0.0
  0
SPLINE
  5
B0
330
1F
100
AcDbEntity
  8
0
  6
Continuous
 62
     1
370
    15
100
AcDbSpline
210
0.0
220
0.0
230
1.0
 70
     8
 71
     3
 72
    24
 73
    20
 74
     0
 42
0.000000001
 43
0.00000001
 40
0.0
 40
0.0
 40
0.0
 40
0.0
 40
0.0055172807009442
 40
0.0697282265086463
 40
0.1341204827105661
 40
0.1983198633862566
 40
0.2624906251319385
 40
0.3268637475216501
 40
0.3911199750760675
 40
0.4552725388010605
 40
0.5195774586343161
 40
0.5839111530738595
 40
0.6480675642148381
 40
0.7123014787675296
 40
0.7766869833418557
 40
0.8408692747742033
 40
0.8938944748456515
 40
0.9470566026279332
 40
1.0
 40
1.0
 40
1.0
 40
1.0
 10
16.21387654428328
 20
-2.993308645124107
 30
0.0
 10
16.19510659879118
 20
-2.995149397830118
 30
0.0
 10
15.957889193738
 20
-3.018413108449225
 30
0.0
 10
15.50169153272897
 20
-2.928288177354349
 30
0.0
 10
14.84397414979909
 20
-2.71621369993939
 30
0.0
 10
14.18829463751296
 20
-2.358888699478551
 30
0.0
 10
13.53289888386061
 20
-1.892737916490826
 30
0.0
 10
12.87541495817201
 20
-1.336604742051698
 30
0.0
 10
12.21915211693215
 20
-0.7161482923456467
 30
0.0
 10
11.56395474990515
 20
-0.0607914922703996
 30
0.0
 10
10.90718855475881
 20
0.5964630548270011
 30
0.0
 10
10.25011848655858
 20
1.225133013668304
 30
0.0
 10
9.594878665163932
 20
1.796652814598119
 30
0.0
 10
8.938837857989345
 20
2.282101629302267
 30
0.0
 10
8.281234782906086
 20
2.657928599179807
 30
0.0
 10
7.663636462502101
 20
2.894212955021508
 30
0.0
 10
7.08434059920833
 20
3.00176990035402
 30
0.0
 10
6.541664717437203
 20
3.011500946080399
 30
0.0
 10
6.181202289399133
 20
2.935806446468465
 30
0.0
 10
6.001342611615549
 20
2.898037216581474
 30
0.0
  0
LINE
  5
B1
330
1F
100
AcDbEntity
  8
0
  6
Continuous
 62
     1
370
    15
100
AcDbLine
 10
26.00134261161555
 20
-2.977032723989119
 30
0.0
 11
26.00134261161555
 21
-1.78726451640369
 31
0.0
  0
SPLINE
  5
B2
330
1F
100
AcDbEntity
  8
0
  6
Continuous
 62
     1
370
    15
100
AcDbSpline
210
0.0
220
0.0
230
1.0
 70
     8
 71
     3
 72
    12
 73
     8
 74
     0
 42
0.000000001
 43
0.00000001
 40
0.0
 40
0.0
 40
0.0
 40
0.0
 40
0.1986661464100942
 40
0.3981530623562797
 40
0.5971261672892183
 40
0.8379654246762291
 40
0.9999999999999999
 40
0.9999999999999999
 40
0.9999999999999999
 40
0.9999999999999999
 10
6.001342611615522
 20
-2.625009864058828
 30
0.0
 10
6.181202233372894
 20
-2.703947802988143
 30
0.0
 10
6.541664549127052
 20
-2.862149805134607
 30
0.0
 10
7.084341274968868
 20
-2.983780280714031
 30
0.0
 10
7.663633711632471
 20
-3.013040912168139
 30
0.0
 10
8.209130108470582
 20
-2.945225530722725
 30
0.0
 10
8.575123615664072
 20
-2.801952897228284
 30
0.0
 10
8.722325041257605
 20
-2.744329099307272
 30
0.0
  0
SPLINE
  5
B3
330
1F
100
AcDbEntity
  8
0
  6
Continuous
 62
     1
370
    15
100
AcDbSpline
210
0.0
220
0.0
230
1.0
 70
     8
 71
     3
 72
    21
 73
    17
 74
     0
 42
0.000000001
 43
0.00000001
 40
0.0
 40
0.0
 40
0.0
 40
0.0
 40
0.0586404533309682
 40
0.1310744075545243
 40
0.2033714279165539
 40
0.2758200883479924
 40
0.3483415004053486
 40
0.4206487779652079
 40
0.4930232457845596
 40
0.565589576405199
 40
0.6379319262921547
 40
0.7102567976080884
 40
0.7828114423848893
 40
0.8552135653308027
 40
0.9275135978664354
 40
1.0
 40
1.0
 40
1.0
 40
1.0
 10
16.93844002306572
 20
2.989964963216503
 30
0.0
 10
17.11574601737646
 20
2.985377535384627
 30
0.0
 10
17.51206420456673
 20
2.975123617634902
 30
0.0
 10
18.12661060203432
 20
2.78901679140691
 30
0.0
 10
18.78177062640778
 20
2.472612129316452
 30
0.0
 10
19.43834631925558
 20
2.034558260244467
 30
0.0
 10
20.09559254888965
 20
1.501333177876692
 30
0.0
 10
20.75087874555111
 20
0.8950157083191318
 30
0.0
 10
21.40677843382731
 20
0.246392989632764
 30
0.0
 10
22.06444322735572
 20
-0.4123895414385566
 30
0.0
 10
22.72005326002184
 20
-1.05324658091632
 30
0.0
 10
23.37550325937113
 20
-1.643606009949505
 30
0.0
 10
24.03306032005702
 20
-2.154928643015482
 30
0.0
 10
24.68920707192207
 20
-2.561806518188253
 30
0.0
 10
25.34442247800087
 20
-2.856728926662247
 30
0.0
 10
25.78218140547704
 20
-2.936897060647333
 30
0.0
 10
26.00134261161555
 20
-2.977032723989119
 30
0.0
  0
SPLINE
  5
B4
330
1F
100
AcDbEntity
  8
0
  6
Continuous
 62
   131
370
    15
100
AcDbSpline
210
0.0
220
0.0
230
1.0
 70
    24
 71
     3
 72
    15
 73
    11
 74
     0
 42
0.000000001
 43
0.00000001
 40
0.0
 40
0.0
 40
0.0
 40
0.0
 40
0.0379043922151879
 40
0.1867503484494672
 40
0.3355963046837379
 40
0.4844422609180145
 40
0.6332882171522988
 40
0.7821341733865731
 40
0.9309801296208502
 40
1.0
 40
1.0
 40
1.0
 40
1.0
 10
6.001342611615557
 20
-0.6594680782138075
 30
0.0
 10
6.001342611615557
 20
-0.6559696290635233
 30
0.0
 10
6.001342611615536
 20
-0.6387331939258944
 30
0.0
 10
6.001342611615508
 20
-0.7436577134583263
 30
0.0
 10
6.001342611615501
 20
-0.9679235586592912
 30
0.0
 10
6.001342611615536
 20
-1.30178870010047
 30
0.0
 10
6.001342611615571
 20
-1.694549761504397
 30
0.0
 10
6.00134261161548
 20
-2.103948135306905
 30
0.0
 10
6.001342611615542
 20
-2.420002123315138
 30
0.0
 10
6.001342611615542
 20
-2.575688451938321
 30
0.0
 10
6.001342611615536
 20
-2.625009864058837
 30
0.0
  0
SPLINE
  5
B5
330
1F
100
AcDbEntity
  8
0
  6
Continuous
 62
     1
370
    15
100
AcDbSpline
210
0.0
220
0.0
230
1.0
 70
     8
 71
     3
 72
    19
 73
    15
 74
     0
 42
0.000000001
 43
0.00000001
 40
0.0
 40
0.0
 40
0.0
 40
0.0
 40
0.0836456087677028
 40
0.1670761565306384
 40
0.2506245114169247
 40
0.3343488687122061
 40
0.4178080791599804
 40
0.5012874589867062
 40
0.585025301149398
 40
0.6685417434309929
 40
0.7519806515821401
 40
0.8356666600151923
 40
0.9192687167847647
 40
1.0
 40
1.0
 40
1.0
 40
1.0
 10
26.00134261161555
 20
-1.801277647453176
 30
0.0
 10
25.78218140550492
 20
-1.618055246660902
 30
0.0
 10
25.34442247808444
 20
-1.252081527709271
 30
0.0
 10
24.68920707158867
 20
-0.6190834165375455
 30
0.0
 10
24.03306032131054
 20
0.036877715920999
 30
0.0
 10
23.37550325468685
 20
0.6915450645658618
 30
0.0
 10
22.72005327744317
 20
1.31456566889987
 30
0.0
 10
22.06444316222922
 20
1.874837592583441
 30
0.0
 10
21.40677867744786
 20
2.344572030886691
 30
0.0
 10
20.75087783947135
 20
2.703557744665701
 30
0.0
 10
20.09559593143148
 20
2.934316712494771
 30
0.0
 10
19.43833365871715
 20
3.022186970122608
 30
0.0
 10
18.78887689645355
 20
2.977059485305205
 30
0.0
 10
18.35911850643976
 20
2.830848919750667
 30
0.0
 10
18.14799308112112
 20
2.759020728478376
 30
0.0
  0
SPLINE
  5
B6
330
1F
100
AcDbEntity
  8
0
  6
Continuous
 62
     1
370
    15
100
AcDbSpline
210
0.0
220
0.0
230
1.0
 70
     8
 71
     3
 72
    14
 73
    10
 74
     0
 42
0.000000001
 43
0.00000001
 40
0.0
 40
0.0
 40
0.0
 40
0.0
 40
0.0854388960303363
 40
0.2523625263417638
 40
0.4196800911799355
 40
0.586469569327108
 40
0.7242652953941418
 40
0.8624168532790197
 40
1.0
 40
1.0
 40
1.0
 40
1.0
 10
9.930568746548838
 20
-2.9810363352749
 30
0.0
 10
9.818729185297629
 20
-2.984314111801099
 30
0.0
 10
9.488386501418749
 20
-2.993995743977636
 30
0.0
 10
8.938853743921783
 20
-2.854196861112092
 30
0.0
 10
8.281230510150277
 20
-2.57918585270118
 30
0.0
 10
7.663637386407296
 20
-2.196588741656367
 30
0.0
 10
7.084340372247852
 20
-1.755408420888406
 30
0.0
 10
6.541664773965734
 20
-1.288936271606909
 30
0.0
 10
6.181202308216061
 20
-0.9443055338139281
 30
0.0
 10
6.001342611615549
 20
-0.7723453830954754
 30
0.0
  0
SPLINE
  5
B7
330
1F
100
AcDbEntity
  8
0
  6
Continuous
 62
     1
370
    15
100
AcDbSpline
210
0.0
220
0.0
230
1.0
 70
     8
 71
     3
 72
    25
 73
    21
 74
     0
 42
0.000000001
 43
0.00000001
 40
0.0
 40
0.0
 40
0.0
 40
0.0
 40
0.0104504254506274
 40
0.0720987565766139
 40
0.1339422778521908
 40
0.1956401939827905
 40
0.2572636665888275
 40
0.3190574232288099
 40
0.3808235413034374
 40
0.4424433183920753
 40
0.5041626665919882
 40
0.5659942945399826
 40
0.6276315511791334
 40
0.6892962968535691
 40
0.7511463031979148
 40
0.8128221574051223
 40
0.8744533289443311
 40
0.9362734626790057
 40
0.9980089066575465
 40
1.0
 40
1.0
 40
1.0
 40
1.0
 10
7.514676839578162
 20
2.993112750398883
 30
0.0
 10
7.551691731139891
 20
2.995545083340442
 30
0.0
 10
7.807061971234562
 20
3.012326044220473
 30
0.0
 10
8.281197716356429
 20
2.919868759040126
 30
0.0
 10
8.938847777436095
 20
2.692832793172707
 30
0.0
 10
9.594876013884791
 20
2.326531401786715
 30
0.0
 10
10.25011919815658
 20
1.851698629126418
 30
0.0
 10
10.90718836636671
 20
1.288941479175389
 30
0.0
 10
11.56395479121658
 20
0.6648675749714774
 30
0.0
 10
12.21915213945115
 20
0.0080736287570976
 30
0.0
 10
12.87541482638011
 20
-0.6484431343467576
 30
0.0
 10
13.53289938878093
 20
-1.273000835974371
 30
0.0
 10
14.18829275609278
 20
-1.838414458268655
 30
0.0
 10
14.84398118537986
 20
-2.31571599748211
 30
0.0
 10
15.50166521906773
 20
-2.681935377661387
 30
0.0
 10
16.15746956178133
 20
-2.920136877296616
 30
0.0
 10
16.81280298782337
 20
-3.022810056244689
 30
0.0
 10
17.47013684920866
 20
-2.966452822738366
 30
0.0
 10
17.91525770251176
 20
-2.870083688303361
 30
0.0
 10
18.14094173343517
 20
-2.76030095949356
 30
0.0
 10
18.1479930811211
 20
-2.756870871030593
 30
0.0
  0
SPLINE
  5
B8
330
1F
100
AcDbEntity
  8
0
  6
Continuous
 62
     1
370
    15
100
AcDbSpline
210
0.0
220
0.0
230
1.0
 70
     8
 71
     3
 72
    24
 73
    20
 74
     0
 42
0.000000001
 43
0.00000001
 40
0.0
 40
0.0
 40
0.0
 40
0.0
 40
0.0539619742877466
 40
0.1155797720394284
 40
0.1773142767168255
 40
0.2391334698618066
 40
0.3007637036863715
 40
0.3624386194990901
 40
0.4242876847992316
 40
0.4859514922481938
 40
0.5475878110801184
 40
0.6094184982635343
 40
0.6711369074072012
 40
0.7327557469545611
 40
0.7945209252613404
 40
0.8563137417129566
 40
0.9179362767214877
 40
0.9796332541219267
 40
1.0
 40
1.0
 40
1.0
 40
1.0
 10
19.35543274159185
 20
-2.991033239475211
 30
0.0
 10
19.16406441779413
 20
-2.983671998015163
 30
0.0
 10
18.75417750145997
 20
-2.967905143278849
 30
0.0
 10
18.12660276227313
 20
-2.7701278187286
 30
0.0
 10
17.47015361849765
 20
-2.445400177640983
 30
0.0
 10
16.81279850733414
 20
-2.001078493474115
 30
0.0
 10
16.15747076163658
 20
-1.461162492038208
 30
0.0
 10
15.50166489641946
 20
-0.8513475461911558
 30
0.0
 10
14.84398127167118
 20
-0.2025812217542188
 30
0.0
 10
14.18829273292942
 20
0.4575893775712808
 30
0.0
 10
13.53289939532535
 20
1.096097409692019
 30
0.0
 10
12.87541482344148
 20
1.680897656153632
 30
0.0
 10
12.21915214464976
 20
2.186618743700638
 30
0.0
 10
11.56395477336573
 20
2.588588720078866
 30
0.0
 10
10.90718843276555
 20
2.865957681832264
 30
0.0
 10
10.25011895064729
 20
3.009379721987134
 30
0.0
 10
9.59487693519053
 20
3.000430764754884
 30
0.0
 10
9.08579395358631
 20
2.908745417344274
 30
0.0
 10
8.794595324044835
 20
2.778743182376272
 30
0.0
 10
8.722325041257577
 20
2.746478956755057
 30
0.0
  0
LINE
  5
B9
330
1F
100
AcDbEntity
  8
0
  6
Continuous
 62
     1
370
    15
100
AcDbLine
 10
26.00134261161555
 20
-1.174680147812004
 30
0.0
 11
26.00134261161555
 21
1.176830005259847
 31
0.0
  0
SPLINE
  5
BA
330
1F
100
AcDbEntity
  8
0
  6
Continuous
 62
     1
370
    15
100
AcDbSpline
210
0.0
220
0.0
230
1.0
 70
     8
 71
     3
 72
    17
 73
    13
 74
     0
 42
0.000000001
 43
0.00000001
 40
0.0
 40
0.0
 40
0.0
 40
0.0
 40
0.0922134612354847
 40
0.1848078932662825
 40
0.2771638332700863
 40
0.3889524893967127
 40
0.5010950893221953
 40
0.6129736593350291
 40
0.7247172388068993
 40
0.8367695991162537
 40
0.9487718416361749
 40
1.0
 40
1.0
 40
1.0
 40
1.0
 10
6.001342611615522
 20
-0.0558786985764749
 30
0.0
 10
6.181202289622295
 20
-0.2361719800345516
 30
0.0
 10
6.541664718107659
 20
-0.5975034068122979
 30
0.0
 10
7.084340596516498
 20
-1.117486064330814
 30
0.0
 10
7.663636473460002
 20
-1.636929210824566
 30
0.0
 10
8.281234732229374
 20
-2.124910257284778
 30
0.0
 10
8.93883804640331
 20
-2.54041779607404
 30
0.0
 10
9.59487796458447
 20
-2.835241087993262
 30
0.0
 10
10.25012110079461
 20
-2.996709818288888
 30
0.0
 10
10.90717876970825
 20
-3.007720565701118
 30
0.0
 10
11.44563537859832
 20
-2.921942485783109
 30
0.0
 10
11.76437564772015
 20
-2.785418668287679
 30
0.0
 10
11.8644089558239
 20
-2.742572092495276
 30
0.0
  0
SPLINE
  5
BB
330
1F
100
AcDbEntity
  8
0
  6
Continuous
 62
     1
370
    15
100
AcDbSpline
210
0.0
220
0.0
230
1.0
 70
     8
 71
     3
 72
    17
 73
    13
 74
     0
 42
0.000000001
 43
0.00000001
 40
0.0
 40
0.0
 40
0.0
 40
0.0
 40
0.0024308918122354
 40
0.113120012625885
 40
0.2239119893483926
 40
0.3349976726728917
 40
0.44574048275797
 40
0.5564565363708813
 40
0.6675243308213406
 40
0.778358642447725
 40
0.8890366724640305
 40
1.0
 40
1.0
 40
1.0
 40
1.0
 10
20.08154835125855
 20
2.999541044896165
 30
0.0
 10
20.08634902588574
 20
3.000050988002382
 30
0.0
 10
20.30974538260848
 20
3.023780867844614
 30
0.0
 10
20.75080935776792
 20
2.939282834875844
 30
0.0
 10
21.40679709034218
 20
2.736821702002713
 30
0.0
 10
22.06443823995335
 20
2.387847788220094
 30
0.0
 10
22.72005459415045
 20
1.928723543476846
 30
0.0
 10
23.37550290064719
 20
1.376265653897027
 30
0.0
 10
24.03306041605134
 20
0.7598864618185511
 30
0.0
 10
24.68920704638877
 20
0.107190402786714
 30
0.0
 10
25.34442248439965
 20
-0.5550750980649564
 30
0.0
 10
25.78218140761181
 20
-0.9679679721859119
 30
0.0
 10
26.00134261161555
 20
-1.174680147812004
 30
0.0
  0
SPLINE
  5
BC
330
1F
100
AcDbEntity
  8
0
  6
Continuous
 62
   131
370
    15
100
AcDbSpline
210
0.0
220
0.0
230
1.0
 70
    24
 71
     3
 72
    15
 73
    11
 74
     0
 42
0.000000001
 43
0.00000001
 40
0.0
 40
0.0
 40
0.0
 40
0.0
 40
0.0896707923372316
 40
0.2259184132727111
 40
0.3621660342081128
 40
0.4984136551435066
 40
0.6346612760789058
 40
0.7709088970143122
 40
0.9071565179497092
 40
1.0
 40
1.0
 40
1.0
 40
1.0
 10
6.001342611615564
 20
2.12461690476209
 30
0.0
 10
6.001342611615557
 20
2.070867558942428
 30
0.0
 10
6.001342611615522
 20
1.935450366727181
 30
0.0
 10
6.001342611615571
 20
1.629469798063113
 30
0.0
 10
6.001342611615515
 20
1.2338149587417
 30
0.0
 10
6.001342611615494
 20
0.8243610437989213
 30
0.0
 10
6.001342611615549
 20
0.4478469382928396
 30
0.0
 10
6.001342611615549
 20
0.1525004141037108
 30
0.0
 10
6.001342611615508
 20
-0.0303478386787971
 30
0.0
 10
6.001342611615522
 20
-0.0494349014123214
 30
0.0
 10
6.001342611615529
 20
-0.0571702928928166
 30
0.0
  0
SPLINE
  5
BD
330
1F
100
AcDbEntity
  8
0
  6
Continuous
 62
     1
370
    15
100
AcDbSpline
210
0.0
220
0.0
230
1.0
 70
     8
 71
     3
 72
    15
 73
    11
 74
     0
 42
0.000000001
 43
0.00000001
 40
0.0
 40
0.0
 40
0.0
 40
0.0
 40
0.1393792745701544
 40
0.2784001914539416
 40
0.4176174111877375
 40
0.557127904991144
 40
0.6961965827111413
 40
0.8352988688111623
 40
0.9748318325453279
 40
1.0
 40
1.0
 40
1.0
 40
1.0
 10
26.00134261161555
 20
1.176830005259847
 30
0.0
 10
25.78218137635274
 20
1.372685907314976
 30
0.0
 10
25.34442239070284
 20
1.763894146830439
 30
0.0
 10
24.68920742027185
 20
2.252822379623708
 30
0.0
 10
24.03305901040912
 20
2.638110916312902
 30
0.0
 10
23.37550815343241
 20
2.895404269191263
 30
0.0
 10
22.72003505853865
 20
3.018761357267817
 30
0.0
 10
22.06451127036183
 20
2.986194192331454
 30
0.0
 10
21.58605471533433
 20
2.89097412371513
 30
0.0
 10
21.32741034410738
 20
2.769830707116623
 30
0.0
 10
21.28788660313936
 20
2.75131864364156
 30
0.0
  0
SPLINE
  5
BE
330
1F
100
AcDbEntity
  8
0
  6
Continuous
 62
     1
370
    15
100
AcDbSpline
210
0.0
220
0.0
230
1.0
 70
     8
 71
     3
 72
    19
 73
    15
 74
     0
 42
0.000000001
 43
0.00000001
 40
0.0
 40
0.0
 40
0.0
 40
0.0
 40
0.0278042569092612
 40
0.120608099616401
 40
0.2132622229564622
 40
0.3061363908407615
 40
0.399052117250009
 40
0.4917117973275497
 40
0.5844834138617364
 40
0.6774739684982547
 40
0.7701710269059718
 40
0.8467541459939679
 40
0.9235350267343682
 40
1.0
 40
1.0
 40
1.0
 40
1.0
 10
13.07200900717392
 20
-2.983872824560267
 30
0.0
 10
13.00640414789582
 20
-2.988194712992066
 30
0.0
 10
12.72182623491812
 20
-3.006942013170402
 30
0.0
 10
12.21914692799077
 20
-2.895122815766769
 30
0.0
 10
11.56395614299115
 20
-2.649967085731269
 30
0.0
 10
10.90718818088905
 20
-2.268355110800591
 30
0.0
 10
10.250118586444
 20
-1.781766593692292
 30
0.0
 10
9.594878638396018
 20
-1.208372518515843
 30
0.0
 10
8.938837865188315
 20
-0.5777748157091108
 30
0.0
 10
8.281234780969815
 20
0.0789063076713753
 30
0.0
 10
7.663636462920772
 20
0.6962814838750188
 30
0.0
 10
7.084340599105496
 20
1.245352336913713
 30
0.0
 10
6.541664717462807
 20
1.721473360537268
 30
0.0
 10
6.181202289407668
 20
1.990420529704398
 30
0.0
 10
6.001342611615549
 20
2.124616904762104
 30
0.0
  0
SPLINE
  5
BF
330
1F
100
AcDbEntity
  8
0
  6
Continuous
 62
     1
370
    15
100
AcDbSpline
210
0.0
220
0.0
230
1.0
 70
     8
 71
     3
 72
    24
 73
    20
 74
     0
 42
0.000000001
 43
0.00000001
 40
0.0
 40
0.0
 40
0.0
 40
0.0
 40
0.0236172336745227
 40
0.085389564848265
 40
0.1470155403154706
 40
0.2087410969098822
 40
0.2705789445466776
 40
0.3322224013226768
 40
0.3938933498991031
 40
0.4557495777809461
 40
0.5174316360075598
 40
0.5790690070715123
 40
0.6408953593387764
 40
0.7026370133309021
 40
0.7642619468817817
 40
0.8260161362326124
 40
0.8878323380161884
 40
0.9494660146540099
 40
1.0
 40
1.0
 40
1.0
 40
1.0
 10
10.65598640517314
 20
2.984125531561438
 30
0.0
 10
10.73973532300279
 20
2.98848288422997
 30
0.0
 10
11.04253470029407
 20
3.004237161525272
 30
0.0
 10
11.56397672689243
 20
2.882262373363191
 30
0.0
 10
12.2191462579397
 20
2.625002405075815
 30
0.0
 10
12.8754164049108
 20
2.233642398801362
 30
0.0
 10
13.53289897388295
 20
1.739230286420516
 30
0.0
 10
14.18829284149797
 20
1.159997396122564
 30
0.0
 10
14.84398125837303
 20
0.525708756103418
 30
0.0
 10
15.50166484048916
 20
-0.1319316089724964
 30
0.0
 10
16.15747099772133
 20
-0.7848390510140127
 30
0.0
 10
16.81279761820638
 20
-1.400459642125289
 30
0.0
 10
17.47015694830128
 20
-1.947879065918815
 30
0.0
 10
18.12659036483519
 20
-2.403269625383946
 30
0.0
 10
18.78177767034065
 20
-2.744085257323583
 30
0.0
 10
19.43833838864374
 20
-2.954586899610935
 30
0.0
 10
20.09561720546467
 20
-3.020523075147996
 30
0.0
 10
20.71130636512648
 20
-2.960507019849304
 30
0.0
 10
21.1088048435093
 20
-2.81480895258341
 30
0.0
 10
21.28788660313936
 20
-2.749168786193774
 30
0.0
  0
SPLINE
  5
C0
330
1F
100
AcDbEntity
  8
0
  6
Continuous
 62
     1
370
    15
100
AcDbSpline
210
0.0
220
0.0
230
1.0
 70
     8
 71
     3
 72
    24
 73
    20
 74
     0
 42
0.000000001
 43
0.00000001
 40
0.0
 40
0.0
 40
0.0
 40
0.0
 40
0.0407219604566195
 40
0.1025706407941731
 40
0.1642557954171982
 40
0.2258836834146993
 40
0.2876940794151792
 40
0.3494424688071263
 40
0.4110616145388389
 40
0.4727974697494026
 40
0.5346180152802353
 40
0.5962495973568883
 40
0.6579258623991795
 40
0.71977628073867
 40
0.7814414371741929
 40
0.8430791043913244
 40
0.9049111442120408
 40
0.9666309035367608
 40
1.0
 40
1.0
 40
1.0
 40
1.0
 10
22.4975848422192
 20
-2.982864594853971
 30
0.0
 10
22.35338133006838
 20
-2.983159741372205
 30
0.0
 10
21.99016093300924
 20
-2.983903157631246
 30
0.0
 10
21.40675773137553
 20
-2.822299820529
 30
0.0
 10
20.7508841856628
 20
-2.526171576258748
 30
0.0
 10
20.09559144014923
 20
-2.103505120865774
 30
0.0
 10
19.43834529377909
 20
-1.583120953323225
 30
0.0
 10
18.78177582539793
 20
-0.9864445377198361
 30
0.0
 10
18.12659085952084
 20
-0.3419566000406153
 30
0.0
 10
17.47015681636461
 20
0.3182034548393614
 30
0.0
 10
16.81279764996393
 20
0.96244828720563
 30
0.0
 10
16.15747100220913
 20
1.562404565994257
 30
0.0
 10
15.5016647906882
 20
2.087496616586726
 30
0.0
 10
14.84398145345765
 20
2.512244357737885
 30
0.0
 10
14.18829211370492
 20
2.817944280699983
 30
0.0
 10
13.53290169320115
 20
2.990804131765772
 30
0.0
 10
12.8754062280708
 20
3.014597380881069
 30
0.0
 10
12.31930181465812
 20
2.933434686294872
 30
0.0
 10
11.98257496595298
 20
2.793743231948642
 30
0.0
 10
11.86440895582388
 20
2.744721949943063
 30
0.0
  0
LINE
  5
C1
330
1F
100
AcDbEntity
  8
0
  6
Continuous
 62
   131
370
    15
100
AcDbLine
 10
26.00134261161555
 20
-2.998925071276107
 30
0.0
 11
26.00134261161555
 21
-2.977032723989119
 31
0.0
  0
LINE
  5
C2
330
1F
100
AcDbEntity
  8
0
  6
Continuous
 62
   131
370
    15
100
AcDbLine
 10
6.001342611615564
 20
-2.89588735913369
 30
0.0
 11
6.001342611615529
 21
-2.625009864058836
 31
0.0
  0
LINE
  5
C3
330
1F
100
AcDbEntity
  8
0
  6
Continuous
 62
   131
370
    15
100
AcDbLine
 10
26.00134261161555
 20
2.979182581436906
 30
0.0
 11
26.00134261161555
 21
3.001074928723892
 31
0.0
  0
LINE
  5
C4
330
1F
100
AcDbEntity
  8
0
  6
Continuous
 62
   131
370
    15
100
AcDbLine
 10
6.001342611615564
 20
2.12461690476209
 30
0.0
 11
6.001342611615549
 21
2.570206094206214
 31
0.0
  0
LINE
  5
C5
330
1F
100
AcDbEntity
  8
0
  6
Continuous
 62
   131
370
    15
100
AcDbLine
 10
26.00134261161555
 20
1.176830005259847
 30
0.0
 11
26.00134261161555
 21
1.803427504900979
 31
0.0
  0
LINE
  5
C6
330
1F
100
AcDbEntity
  8
0
  6
Continuous
 62
   131
370
    15
100
AcDbLine
 10
26.00134261161555
 20
-1.801277647453175
 30
0.0
 11
26.00134261161555
 21
-1.174680147812004
 31
0.0
  0
LINE
  5
C7
330
1F
100
AcDbEntity
  8
0
  6
Continuous
 62
   131
370
    15
100
AcDbLine
 10
6.001342611615564
 20
-0.7723453830954902
 30
0.0
 11
6.001342611615529
 21
-0.055878698576496
 31
0.0
  0
SPLINE
  5
C8
330
1F
100
AcDbEntity
  8
0
  6
Continuous
 62
   131
370
    15
100
AcDbSpline
210
0.0
220
0.0
230
1.0
 70
    24
 71
     3
 72
    15
 73
    11
 74
     0
 42
0.000000001
 43
0.00000001
 40
0.0
 40
0.0
 40
0.0
 40
0.0
 40
0.1208212645789412
 40
0.2605417292202718
 40
0.400262193862209
 40
0.5399826585038414
 40
0.6797031231454739
 40
0.8194235877870399
 40
0.9591440524287359
 40
0.9999999999999999
 40
0.9999999999999999
 40
0.9999999999999999
 40
0.9999999999999999
 10
6.001342611615557
 20
-0.0558786985765098
 30
0.0
 10
6.001342611615577
 20
-0.0326669855251003
 30
0.0
 10
6.001342611615613
 20
0.0173872816409882
 30
0.0
 10
6.001342611615508
 20
0.249657209406369
 30
0.0
 10
6.001342611615564
 20
0.5785230922658234
 30
0.0
 10
6.001342611615508
 20
0.9723100046149286
 30
0.0
 10
6.001342611615542
 20
1.382604233219411
 30
0.0
 10
6.001342611615529
 20
1.762847811546644
 30
0.0
 10
6.001342611615571
 20
2.001672975242179
 30
0.0
 10
6.001342611615529
 20
2.101932818549551
 30
0.0
 10
6.001342611615529
 20
2.124616904756992
 30
0.0
  0
SPLINE
  5
C9
330
1F
100
AcDbEntity
  8
0
  6
Continuous
 62
   131
370
    15
100
AcDbSpline
210
0.0
220
0.0
230
1.0
 70
     8
 71
     3
 72
    10
 73
     6
 74
     0
 42
0.000000001
 43
0.00000001
 40
0.0
 40
0.0
 40
0.0
 40
0.0
 40
0.5
 40
0.5
 40
1.0
 40
1.0
 40
1.0
 40
1.0
 10
6.001342611615522
 20
-0.0558786985764835
 30
0.0
 10
5.834669405183651
 20
0.1107174934476985
 30
0.0
 10
5.666164933805416
 20
0.2781833102318067
 30
0.0
 10
5.332476975327801
 20
0.6079117934979199
 30
0.0
 10
5.168684214917348
 20
0.7697392741509045
 30
0.0
 10
5.001638515806511
 20
0.9283244860105307
 30
0.0
  0
SPLINE
  5
CA
330
1F
100
AcDbEntity
  8
0
  6
Continuous
 62
   131
370
    15
100
AcDbSpline
210
0.0
220
0.0
230
1.0
 70
     8
 71
     3
 72
    10
 73
     6
 74
     0
 42
0.000000001
 43
0.00000001
 40
0.0
 40
0.0
 40
0.0
 40
0.0
 40
0.5
 40
0.5
 40
1.0
 40
1.0
 40
1.0
 40
1.0
 10
6.001342611615542
 20
2.124616904762104
 30
0.0
 10
5.834669405183665
 20
2.24231591271291
 30
0.0
 10
5.666164933805465
 20
2.350546990787083
 30
0.0
 10
5.332476975327814
 20
2.543566112884185
 30
0.0
 10
5.168684214917355
 20
2.628231368736149
 30
0.0
 10
5.001638515806518
 20
2.700932418612169
 30
0.0
  0
LINE
  5
CB
330
1F
100
AcDbEntity
  8
0
  6
Continuous
 62
   131
370
    15
100
AcDbLine
 10
5.001638515806525
 20
0.9283239889999046
 30
0.0
 11
5.001638515806525
 21
2.700932942611982
 31
0.0
  0
SPLINE
  5
CC
330
1F
100
AcDbEntity
  8
0
  6
Continuous
 62
   131
370
    15
100
AcDbSpline
210
0.0
220
0.0
230
1.0
 70
     8
 71
     3
 72
    10
 73
     6
 74
     0
 42
0.000000001
 43
0.00000001
 40
0.0
 40
0.0
 40
0.0
 40
0.0
 40
0.5
 40
0.5
 40
1.0
 40
1.0
 40
1.0
 40
1.0
 10
6.001342611615542
 20
-0.772345383095475
 30
0.0
 10
5.834669405183665
 20
-0.6113517113934178
 30
0.0
 10
5.666164933805465
 20
-0.4461702978886713
 30
0.0
 10
5.332476975327814
 20
-0.1142729170179179
 30
0.0
 10
5.168684214917355
 20
0.0519611893090619
 30
0.0
 10
5.001638515806518
 20
0.2182737187711679
 30
0.0
  0
SPLINE
  5
CD
330
1F
100
AcDbEntity
  8
0
  6
Continuous
 62
   131
370
    15
100
AcDbSpline
210
0.0
220
0.0
230
1.0
 70
     8
 71
     3
 72
    10
 73
     6
 74
     0
 42
0.000000001
 43
0.00000001
 40
0.0
 40
0.0
 40
0.0
 40
0.0
 40
0.4999999999999999
 40
0.4999999999999999
 40
1.0
 40
1.0
 40
1.0
 40
1.0
 10
6.001342611615522
 20
-2.625009864058829
 30
0.0
 10
5.834669405183658
 20
-2.54445128576066
 30
0.0
 10
5.666164933805423
 20
-2.451364056243396
 30
0.0
 10
5.332476975327786
 20
-2.243966799971456
 30
0.0
 10
5.168684214917341
 20
-2.130088982372253
 30
0.0
 10
5.001638515806511
 20
-2.006161720128029
 30
0.0
  0
SPLINE
  5
CE
330
1F
100
AcDbEntity
  8
0
  6
Continuous
 62
   131
370
    15
100
AcDbSpline
210
0.0
220
0.0
230
1.0
 70
     8
 71
     3
 72
    10
 73
     6
 74
     0
 42
0.000000001
 43
0.00000001
 40
0.0
 40
0.0
 40
0.0
 40
0.0
 40
0.5
 40
0.5
 40
1.0
 40
1.0
 40
1.0
 40
1.0
 10
6.001342611615542
 20
-2.895887359133687
 30
0.0
 10
5.834669405183665
 20
-2.852592695382439
 30
0.0
 10
5.666164933805465
 20
-2.795642359951867
 30
0.0
 10
5.332476975327814
 20
-2.656764101178219
 30
0.0
 10
5.168684214917355
 20
-2.575195250703205
 30
0.0
 10
5.001638515806518
 20
-2.481583771117121
 30
0.0
  0
LINE
  5
CF
330
1F
100
AcDbEntity
  8
0
  6
Continuous
 62
   131
370
    15
100
AcDbLine
 10
5.001638515806525
 20
-2.998925071276107
 30
0.0
 11
5.001638515806525
 21
-2.481583096402894
 31
0.0
  0
SPLINE
  5
D0
330
1F
100
AcDbEntity
  8
0
  6
Continuous
 62
   131
370
    15
100
AcDbSpline
210
0.0
220
0.0
230
1.0
 70
     8
 71
     3
 72
     9
 73
     5
 74
     0
 42
0.000000001
 43
0.00000001
 40
0.0
 40
0.0
 40
0.0
 40
0.0
 40
0.8597950084496997
 40
1.0
 40
1.0
 40
1.0
 40
1.0
 10
5.001638515806511
 20
-2.933411277414654
 30
0.0
 10
5.167325904238275
 20
-2.896453580956842
 30
0.0
 10
5.360031591993442
 20
-2.853469269470257
 30
0.0
 10
5.553576340416748
 20
-2.765980054380545
 30
0.0
 10
5.580712280234032
 20
-2.753713629718149
 30
0.0
  0
LINE
  5
D1
330
1F
100
AcDbEntity
  8
0
  6
Continuous
 62
   131
370
    15
100
AcDbLine
 10
6.001342611615542
 20
2.898037216581473
 30
0.0
 11
5.580712280234039
 21
2.755863487165935
 31
0.0
  0
LINE
  5
D2
330
1F
100
AcDbEntity
  8
0
  6
Continuous
 62
   131
370
    15
100
AcDbLine
 10
5.001638515806525
 20
2.935561026243386
 30
0.0
 11
5.001638515806525
 21
3.001074928723893
 31
0.0
  0
SPLINE
  5
D3
330
1F
100
AcDbEntity
  8
0
  6
Continuous
 62
   131
370
    15
100
AcDbSpline
210
0.0
220
0.0
230
1.0
 70
     8
 71
     3
 72
    10
 73
     6
 74
     0
 42
0.000000001
 43
0.00000001
 40
0.0
 40
0.0
 40
0.0
 40
0.0
 40
0.5
 40
0.5
 40
1.0
 40
1.0
 40
1.0
 40
1.0
 10
6.001342611615522
 20
2.570206094206219
 30
0.0
 10
5.834669405183651
 20
2.656243707932232
 30
0.0
 10
5.666164933805416
 20
2.730622295199077
 30
0.0
 10
5.332476975327801
 20
2.852953522193252
 30
0.0
 10
5.168684214917348
 20
2.900903185247037
 30
0.0
 10
5.001638515806511
 20
2.93556113486244
 30
0.0
  0
LINE
  5
D4
330
1F
100
AcDbEntity
  8
0
  6
Continuous
 62
   131
370
    15
100
AcDbLine
 10
-43.39865738838446
 20
0.0010749287238931
 30
0.0
 11
-43.39865738838446
 21
3.001074928723893
 31
0.0
  0
LINE
  5
D5
330
1F
100
AcDbEntity
  8
0
  6
Continuous
 62
   131
370
    15
100
AcDbLine
 10
-43.39865738838446
 20
-2.998925071276107
 30
0.0
 11
-43.39865738838446
 21
0.0010749287238931
 31
0.0
  0
LINE
  5
D6
330
1F
100
AcDbEntity
  8
0
  6
Continuous
 62
   131
370
    15
100
AcDbLine
 10
5.001638515806525
 20
-2.006162108519602
 30
0.0
 11
5.001638515806525
 21
0.2182749174852077
 31
0.0
  0
SPLINE
  5
D7
330
1F
100
AcDbEntity
  8
0
  6
Continuous
 62
   131
370
    15
100
AcDbSpline
210
0.0
220
0.0
230
1.0
 70
    24
 71
     3
 72
    14
 73
    10
 74
     0
 42
0.000000001
 43
0.00000001
 40
0.0
 40
0.0
 40
0.0
 40
0.0
 40
0.1227531785018292
 40
0.2709274345166041
 40
0.4191016905310611
 40
0.5672759465461613
 40
0.7154502025609384
 40
0.8636244585757158
 40
0.9999999999999999
 40
0.9999999999999999
 40
0.9999999999999999
 40
0.9999999999999999
 10
6.001342611615542
 20
-2.625009864058836
 30
0.0
 10
6.001342611615536
 20
-2.534159134352927
 30
0.0
 10
6.001342611615536
 20
-2.333643307198062
 30
0.0
 10
6.001342611615619
 20
-1.9547872027024
 30
0.0
 10
6.001342611615501
 20
-1.546887159412839
 30
0.0
 10
6.001342611615549
 20
-1.170338769357872
 30
0.0
 10
6.001342611615508
 20
-0.8735755117104518
 30
0.0
 10
6.001342611615549
 20
-0.6799836572980043
 30
0.0
 10
6.001342611615549
 20
-0.660694612312326
 30
0.0
 10
6.001342611615542
 20
-0.6514499951059383
 30
0.0
  0
LINE
  5
D8
330
1F
100
AcDbEntity
  8
0
  6
Continuous
 62
   131
370
    15
100
AcDbLine
 10
-43.99865738838446
 20
0.0010749287238931
 30
0.0
 11
-43.99865738838446
 21
2.401074928723895
 31
0.0
  0
LINE
  5
D9
330
1F
100
AcDbEntity
  8
0
  6
Continuous
 62
   131
370
    15
100
AcDbLine
 10
-43.99865738838446
 20
-2.398925071276109
 30
0.0
 11
-43.99865738838446
 21
0.0010749287238931
 31
0.0
  0
SPLINE
  5
DA
330
1F
100
AcDbEntity
  8
0
  6
Continuous
 62
   131
370
    15
100
AcDbSpline
210
0.0
220
0.0
230
1.0
 70
    24
 71
     3
 72
     9
 73
     5
 74
     0
 42
0.000000001
 43
0.00000001
 40
0.0
 40
0.0
 40
0.0
 40
0.0
 40
0.593093917298432
 40
1.0
 40
1.0
 40
1.0
 40
1.0
 10
6.001342611615542
 20
2.618382703420973
 30
0.0
 10
6.001342611615536
 20
2.671763960752935
 30
0.0
 10
6.001342611615542
 20
2.76176868981021
 30
0.0
 10
6.001342611615542
 20
2.858625564933218
 30
0.0
 10
6.001342611615529
 20
2.898037216572236
 30
0.0
  0
LINE
  5
DB
330
1F
100
AcDbEntity
  8
중심선
 62
     1
100
AcDbLine
 10
-46.7149116670853
 20
0.001074928723888
 30
0.0
 11
27.48352917616538
 21
0.0010749287238898
 31
0.0
  0
CIRCLE
  5
DC
330
1F
100
AcDbEntity
  8
외형선
100
AcDbCircle
 10
0.0000000000000104
 20
0.0
 30
0.0
 40
3.000000000000005
  0
INSERT
  5
DD
330
1F
100
AcDbEntity
  8
0
  6
Continuous
 62
     7
100
AcDbBlockReference
 66
     1
  2
블럭10
 10
-22.93944368806589
 20
-52.04609937292004
 30
0.0
  0
ATTRIB
  5
DE
330
DD
100
AcDbEntity
  8
FORMAT
 62
     2
100
AcDbText
 10
-39.05870472750145
 20
-49.97073246008785
 30
0.0
 40
4.233333333333333
  1
SEME7506020E [ 6 FLUTE ]
 41
0.75
  7
SLDTEXTSTYLE0
 11
-39.05870472750145
 21
-52.08739912675452
 31
0.0
100
AcDbAttribute
  2
AUTOATTR0
 70
     0
 74
     1
  0
SEQEND
  5
DF
330
DD
100
AcDbEntity
  8
0
  6
Continuous
 62
     7
  0
HATCH
  5
E0
330
1F
100
AcDbEntity
  8
중심선
100
AcDbHatch
 10
0.0
 20
0.0
 30
0.0
210
0.0
220
0.0
230
1.0
  2
SOLID
 70
     1
 71
     0
 91
        1
 92
        0
 93
        4
 72
     1
 10
-17.22453438368504
 20
-35.7989250712761
 11
-20.67080962752232
 21
-35.7989250712761
 72
     1
 10
-20.67080962752232
 20
-35.7989250712761
 11
-22.79903948672635
 21
-38.3352506518487
 72
     1
 10
-22.79903948672635
 20
-38.3352506518487
 11
-19.35273115777591
 21
-38.33521122254621
 72
     1
 10
-19.35273115777591
 20
-38.33521122254621
 11
-17.22453438368504
 21
-35.7989250712761
 97
        0
 75
     0
 76
     1
 98
        1
 10
0.0
 20
0.0
  0
HATCH
  5
E1
330
1F
100
AcDbEntity
  8
중심선
100
AcDbHatch
 10
0.0
 20
0.0
 30
0.0
210
0.0
220
0.0
230
1.0
  2
SOLID
 70
     1
 71
     0
 91
        1
 92
        0
 93
        4
 72
     1
 10
-12.21177039264909
 20
-35.7989250712761
 11
-15.65804563648637
 21
-35.7989250712761
 72
     1
 10
-15.65804563648637
 20
-35.7989250712761
 11
-20.18918364484376
 21
-41.19892507127612
 72
     1
 10
-20.18918364484376
 20
-41.19892507127612
 11
-16.74290840100648
 21
-41.19892507127612
 72
     1
 10
-16.74290840100648
 20
-41.19892507127612
 11
-12.21177039264909
 21
-35.7989250712761
 97
        0
 75
     0
 76
     1
 98
        1
 10
0.0
 20
0.0
  0
HATCH
  5
E2
330
1F
100
AcDbEntity
  8
중심선
100
AcDbHatch
 10
0.0
 20
0.0
 30
0.0
210
0.0
220
0.0
230
1.0
  2
SOLID
 70
     1
 71
     0
 91
        1
 92
        0
 93
        4
 72
     1
 10
-7.199006401613195
 20
-35.79892507127613
 11
-10.64528164545031
 21
-35.7989250712761
 72
     1
 10
-10.64528164545031
 20
-35.7989250712761
 11
-17.69371854733956
 21
-44.19892507127612
 72
     1
 10
-17.69371854733956
 20
-44.19892507127612
 11
-14.24744330350228
 21
-44.19892507127612
 72
     1
 10
-14.24744330350228
 20
-44.19892507127612
 11
-7.199006401613195
 21
-35.79892507127613
 97
        0
 75
     0
 76
     1
 98
        1
 10
0.0
 20
0.0
  0
HATCH
  5
E3
330
1F
100
AcDbEntity
  8
중심선
100
AcDbHatch
 10
0.0
 20
0.0
 30
0.0
210
0.0
220
0.0
230
1.0
  2
SOLID
 70
     1
 71
     0
 91
        1
 92
        0
 93
        6
 72
     3
 10
-2.399115970600996
 20
-39.99892507132738
 11
3.960054785062284
 21
1.540850780301639E-10
 40
0.3939339440162633
 50
17.09539180608433
 51
320.0019657685079
 73
     0
 72
     1
 10
-0.7161163149004002
 20
-38.58681907591441
 11
1.589185558800638
 21
-36.65249236586649
 72
     3
 10
-2.399115970653842
 20
-39.99892507127625
 11
6.600054785286829
 21
-1.249000902703301E-13
 40
0.6363583540795982
 50
39.99873849337408
 51
368.4976242363725
 73
     1
 72
     1
 10
4.026216521246767
 20
-39.03892507120613
 11
-3.71904866381792
 21
-39.0389250712061
 72
     1
 10
-3.71904866381792
 20
-39.0389250712061
 11
-3.719073708263854
 21
-40.95892507120602
 72
     1
 10
-3.719073708263854
 20
-40.95892507120602
 11
0.7223060612081831
 21
-40.95892507120599
 97
        0
 75
     0
 76
     1
 98
        1
 10
0.0
 20
0.0
  0
DIMENSION
  5
E4
330
1F
100
AcDbEntity
  8
치수문자_일반주서
100
AcDbDimension
  2
_D
 10
-62.02756351970788
 20
-2.998925071276111
 30
0.0
 11
-62.02756351970788
 21
0.0010749287238946
 31
0.0
 70
   160
  1
%%c<>
 71
     2
 42
-1.0
  3
SLDDIMSTYLE0
100
AcDbAlignedDimension
 13
-43.39865738838444
 23
3.001074928723896
 33
0.0
 14
-43.39865738838444
 24
-2.998925071276109
 34
0.0
 50
90.0000000000002
100
AcDbRotatedDimension
  0
DIMENSION
  5
F2
330
1F
100
AcDbEntity
  8
치수문자_일반주서
100
AcDbDimension
  2
_D_1
 10
36.00134261161554
 20
-2.998925071276073
 30
0.0
 11
36.00134261161553
 21
0.3967333787814876
 31
0.0
 70
   160
  1
%%c<>
 71
     2
 42
6.0
  3
SLDDIMSTYLE0
100
AcDbAlignedDimension
 13
26.00134261161555
 23
3.001074928723892
 33
0.0
 14
26.00134261161555
 24
-2.998925071276108
 34
0.0
 50
90.0000000000002
100
AcDbRotatedDimension
1001
ACAD_DSTYLE_DIMFLIPARROW_SYMBOL
1070
   385
1070
     0
1001
ACAD_DSTYLE_DIMFLIPARROW_WHICH_SYMBOL
1070
   386
1070
     3
  0
DIMENSION
  5
FF
330
1F
100
AcDbEntity
  8
치수문자_일반주서
100
AcDbDimension
  2
_D_2
 10
26.00134261161555
 20
46.39287783522327
 30
0.0
 11
14.18634016444176
 21
46.39287783522328
 31
0.0
 70
   160
  1
<>
 71
     2
 42
-1.0
  3
SLDDIMSTYLE0
100
AcDbAlignedDimension
 13
6.001342611615564
 23
2.898037216581476
 33
0.0
 14
26.00134261161555
 24
2.979182581436906
 34
0.0
 50
-0.0000000000000204
100
AcDbRotatedDimension
  0
DIMENSION
  5
109
330
1F
100
AcDbEntity
  8
치수문자_일반주서
100
AcDbDimension
  2
_D_3
 10
-43.99865738838447
 20
73.92386524230655
 30
0.0
 11
-6.829943149485436
 21
73.92386524230655
 31
0.0
 70
   160
  1
<>
 71
     2
 42
-1.0
  3
SLDDIMSTYLE1
100
AcDbAlignedDimension
 13
26.00134261161555
 23
2.979182581436906
 33
0.0
 14
-43.99865738838446
 24
2.401074928723894
 34
0.0
100
AcDbRotatedDimension
  0
INSERT
  5
11A
330
1F
100
AcDbEntity
  8
외형선
100
AcDbBlockReference
  2
SW_DOWELSYMBOL_0
 10
0.0000000000000104
 20
0.0
 30
0.0
  0
ENDSEC
  0
SECTION
  2
OBJECTS
  0
DICTIONARY
  5
C
330
0
100
AcDbDictionary
281
     1
  3
ACAD_GROUP
350
D
  3
ACAD_LAYOUT
350
1A
  3
ACAD_MLINESTYLE
350
17
  3
ACAD_PLOTSETTINGS
350
19
  3
ACAD_PLOTSTYLENAME
350
E
  3
ACAD_SCALELIST
350
47
  3
APPDATA
350
13C
  3
DWGPROPS
350
140
  0
DICTIONARY
  5
D
102
{ACAD_REACTORS
330
C
102
}
330
C
100
AcDbDictionary
281
     1
  0
DICTIONARY
  5
1A
102
{ACAD_REACTORS
330
C
102
}
330
C
100
AcDbDictionary
281
     1
  3
Layout1
350
1E
  3
Layout2
350
26
  3
Model
350
22
  0
DICTIONARY
  5
17
102
{ACAD_REACTORS
330
C
102
}
330
C
100
AcDbDictionary
281
     1
  3
Standard
350
18
  0
DICTIONARY
  5
19
102
{ACAD_REACTORS
330
C
102
}
330
C
100
AcDbDictionary
281
     1
  0
ACDBDICTIONARYWDFLT
  5
E
102
{ACAD_REACTORS
330
C
102
}
330
C
100
AcDbDictionary
281
     1
  3
Normal
350
F
100
AcDbDictionaryWithDefault
340
F
  0
DICTIONARY
  5
47
102
{ACAD_REACTORS
330
C
102
}
330
C
100
AcDbDictionary
281
     1
  3
A0
350
48
  3
A1
350
49
  3
A2
350
4A
  3
A3
350
4B
  3
A4
350
4C
  3
A5
350
4D
  3
A6
350
4E
  3
A7
350
4F
  3
A8
350
50
  3
A9
350
51
  3
B0
350
52
  3
B1
350
53
  3
B2
350
54
  3
B3
350
55
  3
B4
350
56
  3
B5
350
57
  3
B6
350
58
  3
B7
350
59
  3
B8
350
5A
  3
B9
350
5B
  3
C0
350
5C
  3
C1
350
5D
  3
C2
350
5E
  3
C3
350
5F
  3
C4
350
60
  3
C5
350
61
  3
C6
350
62
  3
C7
350
63
  3
C8
350
64
  3
C9
350
65
  3
D0
350
66
  3
D1
350
67
  3
D2
350
68
  0
DICTIONARY
  5
13C
102
{ACAD_REACTORS
330
C
102
}
330
C
100
AcDbDictionary
281
     1
  0
XRECORD
  5
140
102
{ACAD_REACTORS
330
C
102
}
330
C
100
AcDbXrecord
280
     1
  1
DWGPROPS COOKIE
  2

  3

  4

  6

  7

  8
12017103
  9

300
=
301
=
302
=
303
=
304
=
305
=
306
=
307
=
308
=
309
=
 40
0.0
 41
2458268.394087709
 42
2458268.404732396
  1

 90
        0
  0
LAYOUT
  5
1E
102
{ACAD_REACTORS
330
1A
102
}
330
1A
100
AcDbPlotSettings
  1

  2
none_device
  4

  6

 40
0.0
 41
0.0
 42
0.0
 43
0.0
 44
0.0
 45
0.0
 46
0.0
 47
0.0
 48
0.0
 49
0.0
140
0.0
141
0.0
142
1.0
143
1.0
 70
   688
 72
     1
 73
     0
 74
     5
  7

 75
    16
147
1.0
148
0.0
149
0.0
100
AcDbLayout
  1
Layout1
 70
     1
 71
     1
 10
0.0
 20
0.0
 11
420.0
 21
297.0
 12
0.0
 22
0.0
 32
0.0
 14
1.000000000000000E+20
 24
1.000000000000000E+20
 34
1.000000000000000E+20
 15
-1.000000000000000E+20
 25
-1.000000000000000E+20
 35
-1.000000000000000E+20
146
0.0
 13
0.0
 23
0.0
 33
0.0
 16
1.0
 26
0.0
 36
0.0
 17
0.0
 27
1.0
 37
0.0
 76
     0
330
1B
  0
LAYOUT
  5
26
102
{ACAD_REACTORS
330
1A
102
}
330
1A
100
AcDbPlotSettings
  1

  2
none_device
  4

  6

 40
0.0
 41
0.0
 42
0.0
 43
0.0
 44
0.0
 45
0.0
 46
0.0
 47
0.0
 48
0.0
 49
0.0
140
0.0
141
0.0
142
1.0
143
1.0
 70
   688
 72
     1
 73
     0
 74
     5
  7

 75
    16
147
1.0
148
0.0
149
0.0
100
AcDbLayout
  1
Layout2
 70
     1
 71
     2
 10
0.0
 20
0.0
 11
0.0
 21
0.0
 12
0.0
 22
0.0
 32
0.0
 14
0.0
 24
0.0
 34
0.0
 15
0.0
 25
0.0
 35
0.0
146
0.0
 13
0.0
 23
0.0
 33
0.0
 16
1.0
 26
0.0
 36
0.0
 17
0.0
 27
1.0
 37
0.0
 76
     0
330
23
  0
LAYOUT
  5
22
102
{ACAD_REACTORS
330
1A
102
}
330
1A
100
AcDbPlotSettings
  1

  2
none_device
  4
ANSI_A_(11.00_x_8.50_Inches)
  6

 40
6.35
 41
19.05
 42
6.35000508
 43
19.05000254
 44
279.4
 45
215.9
 46
157.8365912171694
 47
65.9612455222848
 48
0.0
 49
0.0
140
0.0
141
0.0
142
0.0651566428949785
143
1.0
 70
  1696
 72
     0
 73
     0
 74
     0
  7

 75
     0
147
0.0235690232323232
148
0.0
149
0.0
100
AcDbLayout
  1
Model
 70
     1
 71
     0
 10
0.0
 20
0.0
 11
420.0
 21
297.0
 12
0.0
 22
0.0
 32
0.0
 14
-66.59277278556965
 24
-49.97073246008785
 34
0.0
 15
36.55167594494887
 25
78.43560215688544
 35
0.0
146
0.0
 13
0.0
 23
0.0
 33
0.0
 16
1.0
 26
0.0
 36
0.0
 17
0.0
 27
1.0
 37
0.0
 76
     0
330
1F
331
29
  0
MLINESTYLE
  5
18
102
{ACAD_REACTORS
330
17
102
}
330
17
100
AcDbMlineStyle
  2
Standard
 70
     0
  3

 62
   256
 51
90.0
 52
90.0
 71
     2
 49
0.5
 62
   256
  6
BYLAYER
 49
-0.5
 62
   256
  6
BYLAYER
  0
ACDBPLACEHOLDER
  5
F
102
{ACAD_REACTORS
330
E
102
}
330
E
  0
SCALE
  5
48
102
{ACAD_REACTORS
330
47
102
}
330
47
100
AcDbScale
 70
     0
300
1:1
140
1.0
141
1.0
290
     1
  0
SCALE
  5
49
102
{ACAD_REACTORS
330
47
102
}
330
47
100
AcDbScale
 70
     0
300
1:2
140
1.0
141
2.0
290
     0
  0
SCALE
  5
4A
102
{ACAD_REACTORS
330
47
102
}
330
47
100
AcDbScale
 70
     0
300
1:4
140
1.0
141
4.0
290
     0
  0
SCALE
  5
4B
102
{ACAD_REACTORS
330
47
102
}
330
47
100
AcDbScale
 70
     0
300
1:5
140
1.0
141
5.0
290
     0
  0
SCALE
  5
4C
102
{ACAD_REACTORS
330
47
102
}
330
47
100
AcDbScale
 70
     0
300
1:8
140
1.0
141
8.0
290
     0
  0
SCALE
  5
4D
102
{ACAD_REACTORS
330
47
102
}
330
47
100
AcDbScale
 70
     0
300
1:10
140
1.0
141
10.0
290
     0
  0
SCALE
  5
4E
102
{ACAD_REACTORS
330
47
102
}
330
47
100
AcDbScale
 70
     0
300
1:16
140
1.0
141
16.0
290
     0
  0
SCALE
  5
4F
102
{ACAD_REACTORS
330
47
102
}
330
47
100
AcDbScale
 70
     0
300
1:20
140
1.0
141
20.0
290
     0
  0
SCALE
  5
50
102
{ACAD_REACTORS
330
47
102
}
330
47
100
AcDbScale
 70
     0
300
1:30
140
1.0
141
30.0
290
     0
  0
SCALE
  5
51
102
{ACAD_REACTORS
330
47
102
}
330
47
100
AcDbScale
 70
     0
300
1:40
140
1.0
141
40.0
290
     0
  0
SCALE
  5
52
102
{ACAD_REACTORS
330
47
102
}
330
47
100
AcDbScale
 70
     0
300
1:50
140
1.0
141
50.0
290
     0
  0
SCALE
  5
53
102
{ACAD_REACTORS
330
47
102
}
330
47
100
AcDbScale
 70
     0
300
1:100
140
1.0
141
100.0
290
     0
  0
SCALE
  5
54
102
{ACAD_REACTORS
330
47
102
}
330
47
100
AcDbScale
 70
     0
300
2:1
140
2.0
141
1.0
290
     0
  0
SCALE
  5
55
102
{ACAD_REACTORS
330
47
102
}
330
47
100
AcDbScale
 70
     0
300
4:1
140
4.0
141
1.0
290
     0
  0
SCALE
  5
56
102
{ACAD_REACTORS
330
47
102
}
330
47
100
AcDbScale
 70
     0
300
8:1
140
8.0
141
1.0
290
     0
  0
SCALE
  5
57
102
{ACAD_REACTORS
330
47
102
}
330
47
100
AcDbScale
 70
     0
300
10:1
140
10.0
141
1.0
290
     0
  0
SCALE
  5
58
102
{ACAD_REACTORS
330
47
102
}
330
47
100
AcDbScale
 70
     0
300
100:1
140
100.0
141
1.0
290
     0
  0
SCALE
  5
59
102
{ACAD_REACTORS
330
47
102
}
330
47
100
AcDbScale
 70
     0
300
1/128" = 1'-0"
140
0.0078125
141
12.0
290
     0
  0
SCALE
  5
5A
102
{ACAD_REACTORS
330
47
102
}
330
47
100
AcDbScale
 70
     0
300
1/64" = 1'-0"
140
0.015625
141
12.0
290
     0
  0
SCALE
  5
5B
102
{ACAD_REACTORS
330
47
102
}
330
47
100
AcDbScale
 70
     0
300
1/32" = 1'-0"
140
0.03125
141
12.0
290
     0
  0
SCALE
  5
5C
102
{ACAD_REACTORS
330
47
102
}
330
47
100
AcDbScale
 70
     0
300
1/16" = 1'-0"
140
0.0625
141
12.0
290
     0
  0
SCALE
  5
5D
102
{ACAD_REACTORS
330
47
102
}
330
47
100
AcDbScale
 70
     0
300
3/32" = 1'-0"
140
0.09375
141
12.0
290
     0
  0
SCALE
  5
5E
102
{ACAD_REACTORS
330
47
102
}
330
47
100
AcDbScale
 70
     0
300
1/8" = 1'-0"
140
0.125
141
12.0
290
     0
  0
SCALE
  5
5F
102
{ACAD_REACTORS
330
47
102
}
330
47
100
AcDbScale
 70
     0
300
3/16" = 1'-0"
140
0.1875
141
12.0
290
     0
  0
SCALE
  5
60
102
{ACAD_REACTORS
330
47
102
}
330
47
100
AcDbScale
 70
     0
300
1/4" = 1'-0"
140
0.25
141
12.0
290
     0
  0
SCALE
  5
61
102
{ACAD_REACTORS
330
47
102
}
330
47
100
AcDbScale
 70
     0
300
3/8" = 1'-0"
140
0.375
141
12.0
290
     0
  0
SCALE
  5
62
102
{ACAD_REACTORS
330
47
102
}
330
47
100
AcDbScale
 70
     0
300
1/2" = 1'-0"
140
0.5
141
12.0
290
     0
  0
SCALE
  5
63
102
{ACAD_REACTORS
330
47
102
}
330
47
100
AcDbScale
 70
     0
300
3/4" = 1'-0"
140
0.75
141
12.0
290
     0
  0
SCALE
  5
64
102
{ACAD_REACTORS
330
47
102
}
330
47
100
AcDbScale
 70
     0
300
1" = 1'-0"
140
1.0
141
12.0
290
     0
  0
SCALE
  5
65
102
{ACAD_REACTORS
330
47
102
}
330
47
100
AcDbScale
 70
     0
300
1-1/2" = 1'-0"
140
1.5
141
12.0
290
     0
  0
SCALE
  5
66
102
{ACAD_REACTORS
330
47
102
}
330
47
100
AcDbScale
 70
     0
300
3" = 1'-0"
140
3.0
141
12.0
290
     0
  0
SCALE
  5
67
102
{ACAD_REACTORS
330
47
102
}
330
47
100
AcDbScale
 70
     0
300
6" = 1'-0"
140
6.0
141
12.0
290
     0
  0
SCALE
  5
68
102
{ACAD_REACTORS
330
47
102
}
330
47
100
AcDbScale
 70
     0
300
1'-0" = 1'-0"
140
12.0
141
12.0
290
     0
  0
ENDSEC
  0
EOF
