  0
SECTION
  2
HEADER
  9
$ACADVER
  1
AC1015
  9
$ACADMAINTVER
 70
     6
  9
$DWGCODEPAGE
  3
ANSI_949
  9
$INSBASE
 10
0.0
 20
0.0
 30
0.0
  9
$EXTMIN
 10
-67.71763956161988
 20
-49.97180738881175
 30
0.0
  9
$EXTMAX
 10
53.70033333333335
 20
44.37500000000001
 30
0.0
  9
$LIMMIN
 10
0.0
 20
0.0
  9
$LIMMAX
 10
420.0
 20
297.0
  9
$ORTHOMODE
 70
     0
  9
$REGENMODE
 70
     1
  9
$FILLMODE
 70
     1
  9
$QTEXTMODE
 70
     0
  9
$MIRRTEXT
 70
     1
  9
$LTSCALE
 40
1.0
  9
$ATTMODE
 70
     1
  9
$TEXTSIZE
 40
3.5
  9
$TRACEWID
 40
1.0
  9
$TEXTSTYLE
  7
Standard
  9
$CLAYER
  8
0
  9
$CELTYPE
  6
ByLayer
  9
$CECOLOR
 62
   256
  9
$CELTSCALE
 40
1.0
  9
$DISPSILH
 70
     0
  9
$DIMSCALE
 40
1.0
  9
$DIMASZ
 40
3.302
  9
$DIMEXO
 40
1.0
  9
$DIMDLI
 40
3.75
  9
$DIMRND
 40
0.0
  9
$DIMDLE
 40
0.0
  9
$DIMEXE
 40
1.0
  9
$DIMTP
 40
0.0
  9
$DIMTM
 40
0.0
  9
$DIMTXT
 40
3.5
  9
$DIMCEN
 40
2.5
  9
$DIMTSZ
 40
0.0
  9
$DIMTOL
 70
     0
  9
$DIMLIM
 70
     0
  9
$DIMTIH
 70
     1
  9
$DIMTOH
 70
     1
  9
$DIMSE1
 70
     0
  9
$DIMSE2
 70
     0
  9
$DIMTAD
 70
     1
  9
$DIMZIN
 70
     0
  9
$DIMBLK
  1

  9
$DIMASO
 70
     1
  9
$DIMSHO
 70
     1
  9
$DIMPOST
  1

  9
$DIMAPOST
  1

  9
$DIMALT
 70
     0
  9
$DIMALTD
 70
     3
  9
$DIMALTF
 40
0.0393700787401575
  9
$DIMLFAC
 40
1.0
  9
$DIMTOFL
 70
     1
  9
$DIMTVP
 40
0.0
  9
$DIMTIX
 70
     0
  9
$DIMSOXD
 70
     0
  9
$DIMSAH
 70
     0
  9
$DIMBLK1
  1

  9
$DIMBLK2
  1

  9
$DIMSTYLE
  2
ISO-25
  9
$DIMCLRD
 70
     0
  9
$DIMCLRE
 70
     0
  9
$DIMCLRT
 70
     0
  9
$DIMTFAC
 40
1.0
  9
$DIMGAP
 40
1.524
  9
$DIMJUST
 70
     0
  9
$DIMSD1
 70
     0
  9
$DIMSD2
 70
     0
  9
$DIMTOLJ
 70
     0
  9
$DIMTZIN
 70
     0
  9
$DIMALTZ
 70
     0
  9
$DIMALTTZ
 70
     0
  9
$DIMUPT
 70
     0
  9
$DIMDEC
 70
     2
  9
$DIMTDEC
 70
     2
  9
$DIMALTU
 70
     2
  9
$DIMALTTD
 70
     3
  9
$DIMTXSTY
  7
Standard
  9
$DIMAUNIT
 70
     0
  9
$DIMADEC
 70
     2
  9
$DIMALTRND
 40
0.0
  9
$DIMAZIN
 70
     0
  9
$DIMDSEP
 70
    44
  9
$DIMATFIT
 70
     3
  9
$DIMFRAC
 70
     0
  9
$DIMLDRBLK
  1

  9
$DIMLUNIT
 70
     2
  9
$DIMLWD
 70
    -2
  9
$DIMLWE
 70
    -2
  9
$DIMTMOVE
 70
     0
  9
$LUNITS
 70
     2
  9
$LUPREC
 70
     2
  9
$SKETCHINC
 40
1.0
  9
$FILLETRAD
 40
10.0
  9
$AUNITS
 70
     0
  9
$AUPREC
 70
     2
  9
$MENU
  1
.
  9
$ELEVATION
 40
0.0
  9
$PELEVATION
 40
0.0
  9
$THICKNESS
 40
0.0
  9
$LIMCHECK
 70
     0
  9
$CHAMFERA
 40
0.0
  9
$CHAMFERB
 40
0.0
  9
$CHAMFERC
 40
0.0
  9
$CHAMFERD
 40
0.0
  9
$SKPOLY
 70
     0
  9
$TDCREATE
 40
2458260.793116331
  9
$TDUCREATE
 40
2458260.418116331
  9
$TDUPDATE
 40
2458268.746425509
  9
$TDUUPDATE
 40
2458268.371425509
  9
$TDINDWG
 40
0.0002839236
  9
$TDUSRTIMER
 40
0.0004551736
  9
$USRTIMER
 70
     1
  9
$ANGBASE
 50
0.0
  9
$ANGDIR
 70
     0
  9
$PDMODE
 70
     0
  9
$PDSIZE
 40
-1.0
  9
$PLINEWID
 40
0.0
  9
$SPLFRAME
 70
     0
  9
$SPLINETYPE
 70
     6
  9
$SPLINESEGS
 70
     8
  9
$HANDSEED
  5
152
  9
$SURFTAB1
 70
     6
  9
$SURFTAB2
 70
     6
  9
$SURFTYPE
 70
     6
  9
$SURFU
 70
     6
  9
$SURFV
 70
     6
  9
$UCSBASE
  2

  9
$UCSNAME
  2

  9
$UCSORG
 10
0.0
 20
0.0
 30
0.0
  9
$UCSXDIR
 10
1.0
 20
0.0
 30
0.0
  9
$UCSYDIR
 10
0.0
 20
1.0
 30
0.0
  9
$UCSORTHOREF
  2

  9
$UCSORTHOVIEW
 70
     0
  9
$UCSORGTOP
 10
0.0
 20
0.0
 30
0.0
  9
$UCSORGBOTTOM
 10
0.0
 20
0.0
 30
0.0
  9
$UCSORGLEFT
 10
0.0
 20
0.0
 30
0.0
  9
$UCSORGRIGHT
 10
0.0
 20
0.0
 30
0.0
  9
$UCSORGFRONT
 10
0.0
 20
0.0
 30
0.0
  9
$UCSORGBACK
 10
0.0
 20
0.0
 30
0.0
  9
$PUCSBASE
  2

  9
$PUCSNAME
  2

  9
$PUCSORG
 10
0.0
 20
0.0
 30
0.0
  9
$PUCSXDIR
 10
1.0
 20
0.0
 30
0.0
  9
$PUCSYDIR
 10
0.0
 20
1.0
 30
0.0
  9
$PUCSORTHOREF
  2

  9
$PUCSORTHOVIEW
 70
     0
  9
$PUCSORGTOP
 10
0.0
 20
0.0
 30
0.0
  9
$PUCSORGBOTTOM
 10
0.0
 20
0.0
 30
0.0
  9
$PUCSORGLEFT
 10
0.0
 20
0.0
 30
0.0
  9
$PUCSORGRIGHT
 10
0.0
 20
0.0
 30
0.0
  9
$PUCSORGFRONT
 10
0.0
 20
0.0
 30
0.0
  9
$PUCSORGBACK
 10
0.0
 20
0.0
 30
0.0
  9
$USERI1
 70
     0
  9
$USERI2
 70
     0
  9
$USERI3
 70
     0
  9
$USERI4
 70
     0
  9
$USERI5
 70
     0
  9
$USERR1
 40
0.0
  9
$USERR2
 40
0.0
  9
$USERR3
 40
0.0
  9
$USERR4
 40
0.0
  9
$USERR5
 40
0.0
  9
$WORLDVIEW
 70
     1
  9
$SHADEDGE
 70
     3
  9
$SHADEDIF
 70
    70
  9
$TILEMODE
 70
     1
  9
$MAXACTVP
 70
    64
  9
$PINSBASE
 10
0.0
 20
0.0
 30
0.0
  9
$PLIMCHECK
 70
     0
  9
$PEXTMIN
 10
1.000000000000000E+20
 20
1.000000000000000E+20
 30
1.000000000000000E+20
  9
$PEXTMAX
 10
-1.000000000000000E+20
 20
-1.000000000000000E+20
 30
-1.000000000000000E+20
  9
$PLIMMIN
 10
0.0
 20
0.0
  9
$PLIMMAX
 10
0.0
 20
0.0
  9
$UNITMODE
 70
     0
  9
$VISRETAIN
 70
     1
  9
$PLINEGEN
 70
     0
  9
$PSLTSCALE
 70
     1
  9
$TREEDEPTH
 70
  3020
  9
$CMLSTYLE
  2
Standard
  9
$CMLJUST
 70
     0
  9
$CMLSCALE
 40
20.0
  9
$PROXYGRAPHICS
 70
     1
  9
$MEASUREMENT
 70
     1
  9
$CELWEIGHT
370
    -1
  9
$ENDCAPS
280
     0
  9
$JOINSTYLE
280
     0
  9
$LWDISPLAY
290
     1
  9
$INSUNITS
 70
     4
  9
$HYPERLINKBASE
  1

  9
$STYLESHEET
  1

  9
$XEDIT
290
     1
  9
$CEPSNTYPE
380
     0
  9
$PSTYLEMODE
290
     1
  9
$FINGERPRINTGUID
  2
{86F479DD-F522-42DF-A3B5-A779B07B2951}
  9
$VERSIONGUID
  2
{FAEB1C32-E019-11D5-929B-00C0DF256EC4}
  9
$EXTNAMES
290
     1
  9
$PSVPSCALE
 40
0.0
  9
$OLESTARTUP
290
     0
  0
ENDSEC
  0
SECTION
  2
CLASSES
  0
CLASS
  1
ACDBDICTIONARYWDFLT
  2
AcDbDictionaryWithDefault
  3
ObjectDBX Classes
 90
        0
280
     0
281
     0
  0
CLASS
  1
VISUALSTYLE
  2
AcDbVisualStyle
  3
ObjectDBX Classes
 90
     4095
280
     0
281
     0
  0
CLASS
  1
MATERIAL
  2
AcDbMaterial
  3
ObjectDBX Classes
 90
     1153
280
     0
281
     0
  0
CLASS
  1
SCALE
  2
AcDbScale
  3
ObjectDBX Classes
 90
     1153
280
     0
281
     0
  0
CLASS
  1
TABLESTYLE
  2
AcDbTableStyle
  3
ObjectDBX Classes
 90
     4095
280
     0
281
     0
  0
CLASS
  1
MLEADERSTYLE
  2
AcDbMLeaderStyle
  3
ACDB_MLEADERSTYLE_CLASS
 90
     4095
280
     0
281
     0
  0
CLASS
  1
SUN
  2
AcDbSun
  3
SCENEOE
 90
     1153
280
     0
281
     0
  0
CLASS
  1
ACDBPLACEHOLDER
  2
AcDbPlaceHolder
  3
ObjectDBX Classes
 90
        0
280
     0
281
     0
  0
CLASS
  1
LAYOUT
  2
AcDbLayout
  3
ObjectDBX Classes
 90
        0
280
     0
281
     0
  0
CLASS
  1
DICTIONARYVAR
  2
AcDbDictionaryVar
  3
ObjectDBX Classes
 90
        0
280
     0
281
     0
  0
ENDSEC
  0
SECTION
  2
TABLES
  0
TABLE
  2
VPORT
  5
8
330
0
100
AcDbSymbolTable
 70
     1
  0
VPORT
  5
29
330
8
100
AcDbSymbolTableRecord
100
AcDbViewportTableRecord
  2
*Active
 70
     0
 10
0.0
 20
0.0
 11
1.0
 21
1.0
 12
41.93124155797139
 22
-2.574357441215348
 13
0.0
 23
0.0
 14
10.0
 24
10.0
 15
10.0
 25
10.0
 16
0.0
 26
0.0
 36
1.0
 17
0.0
 27
0.0
 37
0.0
 40
153.955135575634
 41
2.727272727272727
 42
50.0
 43
0.0
 44
0.0
 50
0.0
 51
0.0
 71
    16
 72
  2000
 73
     1
 74
     3
 75
     0
 76
     0
 77
     0
 78
     0
281
     0
 65
     1
110
0.0
120
0.0
130
0.0
111
1.0
121
0.0
131
0.0
112
0.0
122
1.0
132
0.0
 79
     0
146
0.0
  0
ENDTAB
  0
TABLE
  2
LTYPE
  5
5
330
0
100
AcDbSymbolTable
 70
     6
  0
LTYPE
  5
14
330
5
100
AcDbSymbolTableRecord
100
AcDbLinetypeTableRecord
  2
ByBlock
 70
     0
  3

 72
    65
 73
     0
 40
0.0
  0
LTYPE
  5
15
330
5
100
AcDbSymbolTableRecord
100
AcDbLinetypeTableRecord
  2
ByLayer
 70
     0
  3

 72
    65
 73
     0
 40
0.0
  0
LTYPE
  5
16
330
5
100
AcDbSymbolTableRecord
100
AcDbLinetypeTableRecord
  2
Continuous
 70
     0
  3
Solid line
 72
    65
 73
     0
 40
0.0
  0
LTYPE
  5
6E
330
5
100
AcDbSymbolTableRecord
100
AcDbLinetypeTableRecord
  2
HIDDEN
 70
     0
  3
Hidden __ __ __ __ __ __ __ __ __ __ __ __ __ __
 72
    65
 73
     2
 40
1.905
 49
1.27
 74
     0
 49
-0.635
 74
     0
  0
LTYPE
  5
6F
330
5
100
AcDbSymbolTableRecord
100
AcDbLinetypeTableRecord
  2
PHANTOM
 70
     0
  3
Phantom ______  __  __  ______  __  __  ______
 72
    65
 73
     6
 40
12.7
 49
6.35
 74
     0
 49
-1.27
 74
     0
 49
1.27
 74
     0
 49
-1.27
 74
     0
 49
1.27
 74
     0
 49
-1.27
 74
     0
  0
LTYPE
  5
70
330
5
100
AcDbSymbolTableRecord
100
AcDbLinetypeTableRecord
  2
CENTER
 70
     0
  3
Center ____ _ ____ _ ____ _ ____ _ ____ _ ____
 72
    65
 73
     4
 40
10.16
 49
6.35
 74
     0
 49
-1.27
 74
     0
 49
1.27
 74
     0
 49
-1.27
 74
     0
  0
LTYPE
  5
71
330
5
100
AcDbSymbolTableRecord
100
AcDbLinetypeTableRecord
  2
CENTERX2
 70
     0
  3
Center (2x) ________  __  ________  __  _____
 72
    65
 73
     4
 40
20.32
 49
12.7
 74
     0
 49
-2.54
 74
     0
 49
2.54
 74
     0
 49
-2.54
 74
     0
  0
LTYPE
  5
72
330
5
100
AcDbSymbolTableRecord
100
AcDbLinetypeTableRecord
  2
DOT2
 70
     0
  3
Dot (.5x) ........................................
 72
    65
 73
     2
 40
0.635
 49
0.0
 74
     0
 49
-0.635
 74
     0
  0
ENDTAB
  0
TABLE
  2
LAYER
  5
2
330
0
100
AcDbSymbolTable
 70
    17
  0
LAYER
  5
10
330
2
100
AcDbSymbolTableRecord
100
AcDbLayerTableRecord
  2
0
 70
     0
 62
     7
  6
Continuous
370
    -3
390
F
  0
LAYER
  5
73
330
2
100
AcDbSymbolTableRecord
100
AcDbLayerTableRecord
  2
FORMAT
 70
     0
 62
     2
  6
Continuous
370
    -3
390
F
  0
LAYER
  5
74
330
2
100
AcDbSymbolTableRecord
100
AcDbLayerTableRecord
  2
외형선
 70
     0
 62
   100
  6
Continuous
370
    35
390
F
  0
LAYER
  5
75
330
2
100
AcDbSymbolTableRecord
100
AcDbLayerTableRecord
  2
숨은선
 70
     0
 62
     2
  6
HIDDEN
370
    25
390
F
  0
LAYER
  5
76
330
2
100
AcDbSymbolTableRecord
100
AcDbLayerTableRecord
  2
중심선
 70
     0
 62
     1
  6
CENTERX2
370
    -3
390
F
  0
LAYER
  5
77
330
2
100
AcDbSymbolTableRecord
100
AcDbLayerTableRecord
  2
파단선
 70
     0
 62
     4
  6
Continuous
370
    -3
390
F
  0
LAYER
  5
78
330
2
100
AcDbSymbolTableRecord
100
AcDbLayerTableRecord
  2
해칭선
 70
     0
 62
   100
  6
Continuous
370
    -3
390
F
  0
LAYER
  5
79
330
2
100
AcDbSymbolTableRecord
100
AcDbLayerTableRecord
  2
가는실선
 70
     0
 62
     4
  6
Continuous
370
    -3
390
F
  0
LAYER
  5
7A
330
2
100
AcDbSymbolTableRecord
100
AcDbLayerTableRecord
  2
치수_보조선
 70
     0
 62
     4
  6
Continuous
370
    -3
390
F
  0
LAYER
  5
7B
330
2
100
AcDbSymbolTableRecord
100
AcDbLayerTableRecord
  2
치수문자_일반주서
 70
     0
 62
     7
  6
Continuous
370
    25
390
F
  0
LAYER
  5
7C
330
2
100
AcDbSymbolTableRecord
100
AcDbLayerTableRecord
  2
개별주서
 70
     0
 62
   100
  6
Continuous
370
    35
390
F
  0
LAYER
  5
7D
330
2
100
AcDbSymbolTableRecord
100
AcDbLayerTableRecord
  2
중간선
 70
     0
 62
     2
  6
Continuous
370
    25
390
F
  0
LAYER
  5
7E
330
2
100
AcDbSymbolTableRecord
100
AcDbLayerTableRecord
  2
윤곽선
 70
     0
 62
     3
  6
Continuous
370
    50
390
F
  0
LAYER
  5
7F
330
2
100
AcDbSymbolTableRecord
100
AcDbLayerTableRecord
  2
중심마크
 70
     0
 62
   100
  6
Continuous
370
    35
390
F
  0
LAYER
  5
80
330
2
100
AcDbSymbolTableRecord
100
AcDbLayerTableRecord
  2
가상선
 70
     0
 62
     4
  6
PHANTOM
370
    -3
390
F
  0
LAYER
  5
81
330
2
100
AcDbSymbolTableRecord
100
AcDbLayerTableRecord
  2
특수지정선
 70
     0
 62
     5
  6
CENTERX2
370
    70
390
F
  0
LAYER
  5
13F
330
2
100
AcDbSymbolTableRecord
100
AcDbLayerTableRecord
  2
Defpoints
 70
     0
 62
     7
  6
Continuous
290
     0
370
    -3
390
F
  0
ENDTAB
  0
TABLE
  2
STYLE
  5
3
330
0
100
AcDbSymbolTable
 70
     2
  0
STYLE
  5
11
330
3
100
AcDbSymbolTableRecord
100
AcDbTextStyleTableRecord
  2
Standard
 70
     0
 40
0.0
 41
1.0
 50
0.0
 71
     0
 42
3.5
  3
txt
  4

  0
STYLE
  5
97
330
3
100
AcDbSymbolTableRecord
100
AcDbTextStyleTableRecord
  2
SLDTEXTSTYLE0
 70
     0
 40
0.0
 41
0.75
 50
0.0
 71
     0
 42
3.5
  3
TXT
  4

  0
ENDTAB
  0
TABLE
  2
VIEW
  5
6
330
0
100
AcDbSymbolTable
 70
     0
  0
ENDTAB
  0
TABLE
  2
UCS
  5
7
330
0
100
AcDbSymbolTable
 70
     0
  0
ENDTAB
  0
TABLE
  2
APPID
  5
9
330
0
100
AcDbSymbolTable
 70
     2
  0
APPID
  5
12
330
9
100
AcDbSymbolTableRecord
100
AcDbRegAppTableRecord
  2
ACAD
 70
     0
  0
APPID
  5
147
330
9
100
AcDbSymbolTableRecord
100
AcDbRegAppTableRecord
  2
PE_URL
 70
     0
  0
ENDTAB
  0
TABLE
  2
DIMSTYLE
  5
A
330
0
100
AcDbSymbolTable
 70
     4
100
AcDbDimStyleTable
  0
DIMSTYLE
105
27
330
A
100
AcDbSymbolTableRecord
100
AcDbDimStyleTableRecord
  2
ISO-25
 70
     0
 41
2.5
 42
0.625
 43
3.75
 44
1.25
 73
     0
 74
     0
 77
     1
 78
     8
140
2.5
141
2.5
143
0.03937007874016
147
0.625
171
     3
172
     1
178
     0
271
     2
272
     2
274
     3
278
    44
283
     0
284
     8
340
11
  0
DIMSTYLE
105
DC
102
{ACAD_REACTORS
330
DB
102
}
330
A
100
AcDbSymbolTableRecord
100
AcDbDimStyleTableRecord
  2
SLDDIMSTYLE0
 70
     0
 41
3.302
 44
0.0
 45
0.000000001
 73
     0
 74
     0
 77
     1
 78
    12
 79
     3
140
3.5
147
0.875
172
     1
173
     1
178
     0
271
     1
272
     1
276
     2
284
    12
289
     0
340
97
  0
DIMSTYLE
105
EA
102
{ACAD_REACTORS
330
E9
330
10C
102
}
330
A
100
AcDbSymbolTableRecord
100
AcDbDimStyleTableRecord
  2
SLDDIMSTYLE1
 70
     0
 41
3.302
 44
0.0
 45
0.000000001
 73
     0
 74
     0
 77
     1
 78
    12
 79
     3
140
3.5
147
0.875
173
     1
178
     0
271
     2
272
     2
276
     2
284
    12
340
97
  0
DIMSTYLE
105
F5
102
{ACAD_REACTORS
330
F4
330
102
102
}
330
A
100
AcDbSymbolTableRecord
100
AcDbDimStyleTableRecord
  2
SLDDIMSTYLE2
 70
     0
 41
3.302
 44
0.0
 45
0.000000001
 73
     0
 74
     0
 77
     1
 78
    12
 79
     3
140
3.5
147
0.875
172
     1
173
     1
178
     0
271
     2
272
     2
276
     2
284
    12
289
     0
340
97
  0
ENDTAB
  0
TABLE
  2
BLOCK_RECORD
  5
1
330
0
100
AcDbSymbolTable
 70
     8
  0
BLOCK_RECORD
  5
1F
330
1
100
AcDbSymbolTableRecord
100
AcDbBlockTableRecord
  2
*Model_Space
340
22
  0
BLOCK_RECORD
  5
1B
330
1
100
AcDbSymbolTableRecord
100
AcDbBlockTableRecord
  2
*Paper_Space
340
1E
  0
BLOCK_RECORD
  5
23
330
1
100
AcDbSymbolTableRecord
100
AcDbBlockTableRecord
  2
*Paper_Space0
340
26
  0
BLOCK_RECORD
  5
82
330
1
100
AcDbSymbolTableRecord
100
AcDbBlockTableRecord
  2
블럭10
340
0
102
{BLKREFS
331
D4
102
}
  0
BLOCK_RECORD
  5
DD
330
1
100
AcDbSymbolTableRecord
100
AcDbBlockTableRecord
  2
_D
340
0
  0
BLOCK_RECORD
  5
EB
330
1
100
AcDbSymbolTableRecord
100
AcDbBlockTableRecord
  2
_D_1
340
0
  0
BLOCK_RECORD
  5
F6
330
1
100
AcDbSymbolTableRecord
100
AcDbBlockTableRecord
  2
_D_2
340
0
  0
BLOCK_RECORD
  5
103
330
1
100
AcDbSymbolTableRecord
100
AcDbBlockTableRecord
  2
_D_3
340
0
  0
BLOCK_RECORD
  5
10D
330
1
100
AcDbSymbolTableRecord
100
AcDbBlockTableRecord
  2
_D_4
340
0
  0
BLOCK_RECORD
  5
116
330
1
100
AcDbSymbolTableRecord
100
AcDbBlockTableRecord
  2
SW_DOWELSYMBOL_0
340
0
102
{BLKREFS
331
11C
102
}
  0
ENDTAB
  0
ENDSEC
  0
SECTION
  2
BLOCKS
  0
BLOCK
  5
20
330
1F
100
AcDbEntity
  8
0
100
AcDbBlockBegin
  2
*Model_Space
 70
     0
 10
0.0
 20
0.0
 30
0.0
  3
*Model_Space
  1

  0
ENDBLK
  5
21
330
1F
100
AcDbEntity
  8
0
100
AcDbBlockEnd
  0
BLOCK
  5
1C
330
1B
100
AcDbEntity
 67
     1
  8
0
100
AcDbBlockBegin
  2
*Paper_Space
 70
     0
 10
0.0
 20
0.0
 30
0.0
  3
*Paper_Space
  1

  0
ENDBLK
  5
1D
330
1B
100
AcDbEntity
 67
     1
  8
0
100
AcDbBlockEnd
  0
BLOCK
  5
24
330
23
100
AcDbEntity
  8
0
100
AcDbBlockBegin
  2
*Paper_Space0
 70
     0
 10
0.0
 20
0.0
 30
0.0
  3
*Paper_Space0
  1

  0
ENDBLK
  5
25
330
23
100
AcDbEntity
  8
0
100
AcDbBlockEnd
  0
BLOCK
  5
83
330
82
100
AcDbEntity
  8
0
100
AcDbBlockBegin
  2
블럭10
 70
     2
 10
0.0
 20
0.0
 30
0.0
  3
블럭10
  1

  0
ELLIPSE
  5
85
330
82
100
AcDbEntity
  8
중심선
100
AcDbEllipse
 10
20.54032771741204
 20
12.0471743016438
 30
0.0
 11
6.600054785286829
 21
-1.261213355974178E-13
 31
0.0
210
0.0
220
0.0
230
1.0
 40
0.636358354079598
 41
0.9219305317359503
 42
6.513795318482858
  0
ELLIPSE
  5
86
330
82
100
AcDbEntity
  8
중심선
100
AcDbEllipse
 10
20.54032771746488
 20
12.04717430159265
 30
0.0
 11
3.960054785062283
 21
1.540847449632565E-10
 31
0.0
210
0.0
220
0.0
230
1.0
 40
0.3939339440162632
 41
1.131841032648279
 42
5.62031148352944
  0
LINE
  5
87
330
82
100
AcDbEntity
  8
중심선
100
AcDbLine
 10
2.268634060543552
 20
16.24717430164393
 30
0.0
 11
5.714909304380834
 21
16.24717430164393
 31
0.0
  0
LINE
  5
88
330
82
100
AcDbEntity
  8
중심선
100
AcDbLine
 10
5.245725140726316
 20
7.84717430164391
 30
0.0
 11
8.692000384563599
 21
7.84717430164391
 31
0.0
  0
LINE
  5
89
330
82
100
AcDbEntity
  8
중심선
100
AcDbLine
 10
15.74043728645272
 20
16.24717430164393
 30
0.0
 11
8.692000384563599
 21
7.84717430164391
 31
0.0
  0
LINE
  5
8A
330
82
100
AcDbEntity
  8
중심선
100
AcDbLine
 10
0.1404042013395286
 20
13.71084872107135
 30
0.0
 11
3.58671253028996
 21
13.71088815037384
 31
0.0
  0
LINE
  5
8B
330
82
100
AcDbEntity
  8
중심선
100
AcDbLine
 10
2.750260043222114
 20
10.84717430164391
 30
0.0
 11
6.196535287059397
 21
10.84717430164391
 31
0.0
  0
LINE
  5
8C
330
82
100
AcDbEntity
  8
중심선
100
AcDbLine
 10
12.29416204261559
 20
16.24717430164393
 30
0.0
 11
5.245725140726316
 21
7.84717430164391
 31
0.0
  0
LINE
  5
8D
330
82
100
AcDbEntity
  8
중심선
100
AcDbLine
 10
10.72767329541681
 20
16.24717430164393
 30
0.0
 11
6.196535287059397
 21
10.84717430164391
 31
0.0
  0
LINE
  5
8E
330
82
100
AcDbEntity
  8
중심선
100
AcDbLine
 10
7.28139805157953
 20
16.24717430164393
 30
0.0
 11
2.750260043222114
 21
10.84717430164391
 31
0.0
  0
LINE
  5
8F
330
82
100
AcDbEntity
  8
중심선
100
AcDbLine
 10
5.714909304380834
 20
16.24717430164393
 30
0.0
 11
3.58671253028996
 21
13.71088815037384
 31
0.0
  0
LINE
  5
90
330
82
100
AcDbEntity
  8
중심선
100
AcDbLine
 10
2.268634060543552
 20
16.24717430164393
 30
0.0
 11
0.1404042013395286
 21
13.71084872107135
 31
0.0
  0
LINE
  5
91
330
82
100
AcDbEntity
  8
중심선
100
AcDbLine
 10
7.28139805157953
 20
16.24717430164393
 30
0.0
 11
10.72767329541681
 21
16.24717430164393
 31
0.0
  0
LINE
  5
92
330
82
100
AcDbEntity
  8
중심선
100
AcDbLine
 10
12.29416204261559
 20
16.24717430164393
 30
0.0
 11
15.74043728645272
 21
16.24717430164393
 31
0.0
  0
LINE
  5
93
330
82
100
AcDbEntity
  8
중심선
100
AcDbLine
 10
19.22036997980202
 20
11.08717430171403
 30
0.0
 11
23.66174974927406
 21
11.08717430171406
 31
0.0
  0
LINE
  5
94
330
82
100
AcDbEntity
  8
중심선
100
AcDbLine
 10
19.22039502424796
 20
13.00717430171391
 30
0.0
 11
19.22036997980202
 21
11.08717430171403
 31
0.0
  0
LINE
  5
95
330
82
100
AcDbEntity
  8
중심선
100
AcDbLine
 10
19.22039502424796
 20
13.00717430171391
 30
0.0
 11
26.96566020931264
 21
13.00717430171391
 31
0.0
  0
LINE
  5
96
330
82
100
AcDbEntity
  8
중심선
100
AcDbLine
 10
22.22332737316547
 20
13.45928029700563
 30
0.0
 11
24.52862924686651
 21
15.39360700705356
 31
0.0
  0
ATTDEF
  5
98
330
82
100
AcDbEntity
  8
FORMAT
 62
     2
100
AcDbText
 10
-16.11926103943555
 20
2.075366912832191
 30
0.0
 40
4.233333333333333
  1
SEME7312040E [ 4 FLUTE ]
 41
0.75
  7
SLDTEXTSTYLE0
 11
-16.11926103943555
 21
-0.0412997538344756
 31
0.0
100
AcDbAttributeDefinition
  3

  2
AUTOATTR0
 70
     0
 74
     1
  0
ENDBLK
  5
84
330
82
100
AcDbEntity
  8
0
100
AcDbBlockEnd
  0
BLOCK
  5
DE
330
DD
100
AcDbEntity
  8
0
100
AcDbBlockBegin
  2
_D
 70
     0
 10
0.0
 20
0.0
 30
0.0
  3
_D
  1

  0
LINE
  5
E0
330
DD
100
AcDbEntity
  8
치수문자_일반주서
 62
     0
370
    -2
100
AcDbLine
 10
40.2125
 20
-6.000000000000008
 30
0.0
 11
53.15000000000003
 21
-5.999999999999959
 31
0.0
  0
LINE
  5
E1
330
DD
100
AcDbEntity
  8
치수문자_일반주서
 62
     0
370
    -2
100
AcDbLine
 10
40.2125
 20
5.999999999999997
 30
0.0
 11
53.14999999999999
 21
6.000000000000046
 31
0.0
  0
LINE
  5
E2
330
DD
100
AcDbEntity
  8
치수문자_일반주서
 62
     0
370
    -2
100
AcDbLine
 10
53.15000000000002
 20
-2.69799999999996
 30
0.0
 11
53.15000000000001
 21
2.698000000000047
 31
0.0
  0
SOLID
  5
E3
330
DD
100
AcDbEntity
  8
치수문자_일반주서
 62
     0
100
AcDbTrace
 10
52.59966666666669
 20
-2.697999999999961
 30
0.0
 11
53.70033333333335
 21
-2.697999999999958
 31
0.0
 12
53.15000000000003
 22
-5.999999999999959
 32
0.0
 13
53.15000000000003
 23
-5.999999999999959
 33
0.0
  0
SOLID
  5
E4
330
DD
100
AcDbEntity
  8
치수문자_일반주서
 62
     0
100
AcDbTrace
 10
53.70033333333334
 20
2.698000000000048
 30
0.0
 11
52.59966666666667
 21
2.698000000000045
 31
0.0
 12
53.14999999999999
 22
6.000000000000046
 32
0.0
 13
53.14999999999999
 23
6.000000000000046
 33
0.0
  0
MTEXT
  5
E5
330
DD
100
AcDbEntity
  8
치수문자_일반주서
 62
     0
100
AcDbMText
 10
48.77500000000001
 20
-0.0000000000000202
 30
0.0
 40
3.5
 41
0.0
 71
     2
 72
     1
  1
\A1;%%c12
  7
SLDTEXTSTYLE0
 11
-3.552713678800499E-15
 21
1.0
 31
0.0
 73
     1
 44
1.0
  0
POINT
  5
E6
330
DD
100
AcDbEntity
  8
Defpoints
 62
     0
100
AcDbPoint
 10
40.15
 20
-6.000000000000008
 30
0.0
  0
POINT
  5
E7
330
DD
100
AcDbEntity
  8
Defpoints
 62
     0
100
AcDbPoint
 10
40.15
 20
5.999999999999997
 30
0.0
  0
POINT
  5
E8
330
DD
100
AcDbEntity
  8
Defpoints
 62
     0
100
AcDbPoint
 10
53.14999999999999
 20
6.000000000000046
 30
0.0
  0
ENDBLK
  5
DF
330
DD
100
AcDbEntity
  8
0
100
AcDbBlockEnd
  0
BLOCK
  5
EC
330
EB
100
AcDbEntity
  8
0
100
AcDbBlockBegin
  2
_D_1
 70
     0
 10
0.0
 20
0.0
 30
0.0
  3
_D_1
  1

  0
LINE
  5
EE
330
EB
100
AcDbEntity
  8
치수문자_일반주서
 62
     0
370
    -2
100
AcDbLine
 10
-49.85
 20
5.562499999999987
 30
0.0
 11
-49.85
 21
40.00000000000001
 31
0.0
  0
LINE
  5
EF
330
EB
100
AcDbEntity
  8
치수문자_일반주서
 62
     0
370
    -2
100
AcDbLine
 10
40.15
 20
-0.5375000000000041
 30
0.0
 11
40.15
 21
40.00000000000001
 31
0.0
  0
LINE
  5
F0
330
EB
100
AcDbEntity
  8
치수문자_일반주서
 62
     0
370
    -2
100
AcDbLine
 10
-46.548
 20
40.00000000000001
 30
0.0
 11
36.848
 21
40.00000000000001
 31
0.0
  0
SOLID
  5
F1
330
EB
100
AcDbEntity
  8
치수문자_일반주서
 62
     0
100
AcDbTrace
 10
-46.548
 20
40.55033333333335
 30
0.0
 11
-46.548
 21
39.44966666666668
 31
0.0
 12
-49.85
 22
40.00000000000001
 32
0.0
 13
-49.85
 23
40.00000000000001
 33
0.0
  0
SOLID
  5
F2
330
EB
100
AcDbEntity
  8
치수문자_일반주서
 62
     0
100
AcDbTrace
 10
36.848
 20
39.44966666666668
 30
0.0
 11
36.848
 21
40.55033333333335
 31
0.0
 12
40.15
 22
40.00000000000001
 32
0.0
 13
40.15
 23
40.00000000000001
 33
0.0
  0
MTEXT
  5
F3
330
EB
100
AcDbEntity
  8
치수문자_일반주서
 62
     0
100
AcDbMText
 10
-4.849999999999994
 20
44.37500000000001
 30
0.0
 40
3.5
 41
0.0
 71
     2
 72
     1
  1
\A1;90
  7
SLDTEXTSTYLE0
 73
     1
 44
1.0
  0
POINT
  5
148
330
EB
100
AcDbEntity
  8
Defpoints
 62
     0
100
AcDbPoint
 10
-49.85
 20
5.499999999999987
 30
0.0
  0
POINT
  5
149
330
EB
100
AcDbEntity
  8
Defpoints
 62
     0
100
AcDbPoint
 10
40.15
 20
-0.6000000000000041
 30
0.0
  0
POINT
  5
14A
330
EB
100
AcDbEntity
  8
Defpoints
 62
     0
100
AcDbPoint
 10
40.15
 20
40.00000000000002
 30
0.0
  0
ENDBLK
  5
ED
330
EB
100
AcDbEntity
  8
0
100
AcDbBlockEnd
  0
BLOCK
  5
F7
330
F6
100
AcDbEntity
  8
0
100
AcDbBlockBegin
  2
_D_2
 70
     0
 10
0.0
 20
0.0
 30
0.0
  3
_D_2
  1

  0
LINE
  5
F9
330
F6
100
AcDbEntity
  8
치수문자_일반주서
 62
     0
370
    -2
100
AcDbLine
 10
-49.4125
 20
5.999999999999972
 30
0.0
 11
-63.34263956161991
 21
5.99999999999992
 31
0.0
  0
LINE
  5
FA
330
F6
100
AcDbEntity
  8
치수문자_일반주서
 62
     0
370
    -2
100
AcDbLine
 10
-49.4125
 20
-6.000000000000011
 30
0.0
 11
-63.34263956161987
 21
-6.000000000000062
 31
0.0
  0
LINE
  5
FB
330
F6
100
AcDbEntity
  8
치수문자_일반주서
 62
     0
370
    -2
100
AcDbLine
 10
-63.3426395616199
 20
2.69799999999992
 30
0.0
 11
-63.34263956161988
 21
-2.698000000000063
 31
0.0
  0
SOLID
  5
FC
330
F6
100
AcDbEntity
  8
치수문자_일반주서
 62
     0
100
AcDbTrace
 10
-62.79230622828656
 20
2.697999999999922
 30
0.0
 11
-63.89297289495323
 21
2.697999999999919
 31
0.0
 12
-63.34263956161991
 22
5.99999999999992
 32
0.0
 13
-63.34263956161991
 23
5.99999999999992
 33
0.0
  0
SOLID
  5
FD
330
F6
100
AcDbEntity
  8
치수문자_일반주서
 62
     0
100
AcDbTrace
 10
-63.89297289495322
 20
-2.698000000000064
 30
0.0
 11
-62.79230622828655
 21
-2.698000000000061
 31
0.0
 12
-63.34263956161987
 22
-6.000000000000062
 32
0.0
 13
-63.34263956161987
 23
-6.000000000000062
 33
0.0
  0
MTEXT
  5
FE
330
F6
100
AcDbEntity
  8
치수문자_일반주서
 62
     0
100
AcDbMText
 10
-67.71763956161988
 20
-2.179391697609292
 30
0.0
 40
3.5
 41
0.0
 71
     2
 72
     1
  1
\A1;%%c12
  7
SLDTEXTSTYLE0
 11
-3.552713678800506E-15
 21
1.0
 31
0.0
 73
     1
 44
1.0
  0
POINT
  5
FF
330
F6
100
AcDbEntity
  8
Defpoints
 62
     0
100
AcDbPoint
 10
-49.35
 20
5.999999999999972
 30
0.0
  0
POINT
  5
100
330
F6
100
AcDbEntity
  8
Defpoints
 62
     0
100
AcDbPoint
 10
-49.35
 20
-6.000000000000011
 30
0.0
  0
POINT
  5
101
330
F6
100
AcDbEntity
  8
Defpoints
 62
     0
100
AcDbPoint
 10
-63.34263956161988
 20
-6.000000000000063
 30
0.0
  0
ENDBLK
  5
F8
330
F6
100
AcDbEntity
  8
0
100
AcDbBlockEnd
  0
BLOCK
  5
104
330
103
100
AcDbEntity
  8
0
100
AcDbBlockBegin
  2
_D_3
 70
     0
 10
0.0
 20
0.0
 30
0.0
  3
_D_3
  1

  0
LINE
  5
106
330
103
100
AcDbEntity
  8
치수문자_일반주서
 62
     0
370
    -2
100
AcDbLine
 10
20.15000000000001
 20
5.573898828935199
 30
0.0
 11
20.15000000000001
 21
16.35731713152285
 31
0.0
  0
LINE
  5
107
330
103
100
AcDbEntity
  8
치수문자_일반주서
 62
     0
370
    -2
100
AcDbLine
 10
40.15
 20
-0.5375000000000041
 30
0.0
 11
40.15
 21
16.35731713152285
 31
0.0
  0
LINE
  5
108
330
103
100
AcDbEntity
  8
치수문자_일반주서
 62
     0
370
    -2
100
AcDbLine
 10
23.45200000000001
 20
16.35731713152285
 30
0.0
 11
36.848
 21
16.35731713152285
 31
0.0
  0
SOLID
  5
109
330
103
100
AcDbEntity
  8
치수문자_일반주서
 62
     0
100
AcDbTrace
 10
23.45200000000001
 20
16.90765046485619
 30
0.0
 11
23.45200000000001
 21
15.80698379818952
 31
0.0
 12
20.15000000000001
 22
16.35731713152285
 32
0.0
 13
20.15000000000001
 23
16.35731713152285
 33
0.0
  0
SOLID
  5
10A
330
103
100
AcDbEntity
  8
치수문자_일반주서
 62
     0
100
AcDbTrace
 10
36.848
 20
15.80698379818952
 30
0.0
 11
36.848
 21
16.90765046485619
 31
0.0
 12
40.15
 22
16.35731713152285
 32
0.0
 13
40.15
 23
16.35731713152285
 33
0.0
  0
MTEXT
  5
10B
330
103
100
AcDbEntity
  8
치수문자_일반주서
 62
     0
100
AcDbMText
 10
30.15
 20
20.73231713152285
 30
0.0
 40
3.5
 41
0.0
 71
     2
 72
     1
  1
\A1;20
  7
SLDTEXTSTYLE0
 73
     1
 44
1.0
  0
POINT
  5
14B
330
103
100
AcDbEntity
  8
Defpoints
 62
     0
100
AcDbPoint
 10
20.15000000000001
 20
5.511398828935199
 30
0.0
  0
POINT
  5
14C
330
103
100
AcDbEntity
  8
Defpoints
 62
     0
100
AcDbPoint
 10
40.15
 20
-0.6000000000000041
 30
0.0
  0
POINT
  5
14D
330
103
100
AcDbEntity
  8
Defpoints
 62
     0
100
AcDbPoint
 10
40.15
 20
16.35731713152285
 30
0.0
  0
ENDBLK
  5
105
330
103
100
AcDbEntity
  8
0
100
AcDbBlockEnd
  0
BLOCK
  5
10E
330
10D
100
AcDbEntity
  8
0
100
AcDbBlockBegin
  2
_D_4
 70
     0
 10
0.0
 20
0.0
 30
0.0
  3
_D_4
  1

  0
LINE
  5
110
330
10D
100
AcDbEntity
  8
치수문자_일반주서
 62
     0
370
    -2
100
AcDbLine
 10
40.15
 20
6.032424622639718
 30
0.0
 11
40.15
 21
30.6697141489939
 31
0.0
  0
LINE
  5
111
330
10D
100
AcDbEntity
  8
치수문자_일반주서
 62
     0
370
    -2
100
AcDbLine
 10
0.1500000000000004
 20
5.91249999999999
 30
0.0
 11
0.1499999999999986
 21
30.6697141489939
 31
0.0
  0
LINE
  5
112
330
10D
100
AcDbEntity
  8
치수문자_일반주서
 62
     0
370
    -2
100
AcDbLine
 10
36.848
 20
30.6697141489939
 30
0.0
 11
3.451999999999998
 21
30.6697141489939
 31
0.0
  0
SOLID
  5
113
330
10D
100
AcDbEntity
  8
치수문자_일반주서
 62
     0
100
AcDbTrace
 10
36.848
 20
30.11938081566057
 30
0.0
 11
36.848
 21
31.22004748232724
 31
0.0
 12
40.15
 22
30.6697141489939
 32
0.0
 13
40.15
 23
30.6697141489939
 33
0.0
  0
SOLID
  5
114
330
10D
100
AcDbEntity
  8
치수문자_일반주서
 62
     0
100
AcDbTrace
 10
3.451999999999998
 20
31.22004748232724
 30
0.0
 11
3.451999999999998
 21
30.11938081566057
 31
0.0
 12
0.1499999999999986
 22
30.6697141489939
 32
0.0
 13
0.1499999999999986
 23
30.6697141489939
 33
0.0
  0
MTEXT
  5
115
330
10D
100
AcDbEntity
  8
치수문자_일반주서
 62
     0
100
AcDbMText
 10
21.04862250795345
 20
35.0447141489939
 30
0.0
 40
3.5
 41
0.0
 71
     2
 72
     1
  1
\A1;40
  7
SLDTEXTSTYLE0
 73
     1
 44
1.0
  0
POINT
  5
14E
330
10D
100
AcDbEntity
  8
Defpoints
 62
     0
100
AcDbPoint
 10
40.15
 20
5.969924622639718
 30
0.0
  0
POINT
  5
14F
330
10D
100
AcDbEntity
  8
Defpoints
 62
     0
100
AcDbPoint
 10
0.1500000000000004
 20
5.84999999999999
 30
0.0
  0
POINT
  5
150
330
10D
100
AcDbEntity
  8
Defpoints
 62
     0
100
AcDbPoint
 10
0.1500000000000004
 20
30.6697141489939
 30
0.0
  0
ENDBLK
  5
10F
330
10D
100
AcDbEntity
  8
0
100
AcDbBlockEnd
  0
BLOCK
  5
117
330
116
100
AcDbEntity
  8
0
100
AcDbBlockBegin
  2
SW_DOWELSYMBOL_0
 70
     0
 10
0.0
 20
0.0
 30
0.0
  3
SW_DOWELSYMBOL_0
  1

  0
CIRCLE
  5
119
330
116
100
AcDbEntity
  8
해칭선
 62
     0
100
AcDbCircle
 10
0.0
 20
0.0
 30
0.0
 40
3.000000000000003
  0
HATCH
  5
11A
330
116
100
AcDbEntity
  8
0
  6
Continuous
 62
     0
370
    18
100
AcDbHatch
 10
0.0
 20
0.0
 30
0.0
210
0.0
220
0.0
230
1.0
  2
SOLID
 70
     1
 71
     0
 91
        1
 92
        0
 93
        3
 72
     2
 10
-0.0000000000000017
 20
-0.0000000000000035
 40
3.000000000000003
 50
0.0
 51
90.0
 73
     1
 72
     1
 10
-0.0000000000000017
 20
2.999999999999999
 11
-0.0000000000000017
 21
-0.0000000000000036
 72
     1
 10
-0.0000000000000017
 20
-0.0000000000000035
 11
3.000000000000001
 21
-0.0000000000000035
 97
        0
 75
     0
 76
     1
 98
        1
 10
0.0
 20
0.0
  0
HATCH
  5
11B
330
116
100
AcDbEntity
  8
0
  6
Continuous
 62
     0
370
    18
100
AcDbHatch
 10
0.0
 20
0.0
 30
0.0
210
0.0
220
0.0
230
1.0
  2
SOLID
 70
     1
 71
     0
 91
        1
 92
        0
 93
        3
 72
     2
 10
-0.0000000000000017
 20
-0.0000000000000035
 40
3.000000000000003
 50
180.0
 51
270.0000000000008
 73
     1
 72
     1
 10
-0.0000000000000017
 20
-3.000000000000006
 11
-0.0000000000000017
 21
-0.0000000000000036
 72
     1
 10
-0.0000000000000017
 20
-0.0000000000000035
 11
-3.000000000000004
 21
-0.0000000000000035
 97
        0
 75
     0
 76
     1
 98
        1
 10
0.0
 20
0.0
  0
ENDBLK
  5
118
330
116
100
AcDbEntity
  8
0
100
AcDbBlockEnd
  0
ENDSEC
  0
SECTION
  2
ENTITIES
  0
LINE
  5
99
330
1F
100
AcDbEntity
  8
0
  6
Continuous
 62
     4
370
    25
100
AcDbLine
 10
-0.0000000000000036
 20
5.999999999999996
 30
0.0
 11
-49.35
 21
5.99999999999998
 31
0.0
  0
LINE
  5
9A
330
1F
100
AcDbEntity
  8
0
  6
Continuous
 62
     4
370
    25
100
AcDbLine
 10
-49.35
 20
-6.000000000000009
 30
0.0
 11
0.0000000000000036
 21
-5.999999999999994
 31
0.0
  0
LINE
  5
9B
330
1F
100
AcDbEntity
  8
0
  6
Continuous
 62
     4
370
    25
100
AcDbLine
 10
-49.35
 20
5.999999999999984
 30
0.0
 11
-49.85
 21
5.499999999999984
 31
0.0
  0
LINE
  5
9C
330
1F
100
AcDbEntity
  8
0
  6
Continuous
 62
     4
370
    25
100
AcDbLine
 10
-49.85
 20
-5.500000000000015
 30
0.0
 11
-49.35
 21
-6.000000000000016
 31
0.0
  0
LINE
  5
9D
330
1F
100
AcDbEntity
  8
0
  6
Continuous
 62
     4
370
    25
100
AcDbLine
 10
0.0000000000000036
 20
-5.999999999999992
 30
0.0
 11
0.1500000000000075
 21
-5.84999999999999
 31
0.0
  0
LINE
  5
9E
330
1F
100
AcDbEntity
  8
0
  6
Continuous
 62
     4
370
    25
100
AcDbLine
 10
0.1500000000000004
 20
5.849999999999988
 30
0.0
 11
-0.0000000000000036
 21
5.999999999999989
 31
0.0
  0
LINE
  5
9F
330
1F
100
AcDbEntity
  8
0
  6
Continuous
 62
     4
370
    25
100
AcDbLine
 10
18.12162128258224
 20
5.849999999999994
 30
0.0
 11
0.1500000000000004
 21
5.849999999999989
 31
0.0
  0
LINE
  5
A0
330
1F
100
AcDbEntity
  8
0
  6
Continuous
 62
     4
370
    25
100
AcDbLine
 10
0.1500000000000075
 20
-5.849999999999987
 30
0.0
 11
18.12162128258225
 21
-5.849999999999982
 31
0.0
  0
LINE
  5
A1
330
1F
100
AcDbEntity
  8
0
  6
Continuous
 62
     1
370
    25
100
AcDbLine
 10
38.37165251689954
 20
-6.000000000000007
 30
0.0
 11
40.15
 21
-6.000000000000007
 31
0.0
1001
PE_URL
1000

  0
LINE
  5
A2
330
1F
100
AcDbEntity
  8
0
  6
Continuous
 62
     1
370
    25
100
AcDbLine
 10
27.22077637852637
 20
-1.011667425230883
 30
0.0
 11
27.00511081693176
 21
-0.8570786976560582
 31
0.0
1001
PE_URL
1000

  0
LINE
  5
A3
330
1F
100
AcDbEntity
  8
0
  6
Continuous
 62
     1
370
    25
100
AcDbLine
 10
29.4204643593397
 20
5.999999999999996
 30
0.0
 11
25.86552022200512
 21
5.999999999999996
 31
0.0
1001
PE_URL
1000

  0
LINE
  5
A4
330
1F
100
AcDbEntity
  8
0
  6
Continuous
 62
     1
370
    25
100
AcDbLine
 10
25.86552022200507
 20
-6.000000000000007
 30
0.0
 11
29.4204643593397
 21
-6.000000000000007
 31
0.0
1001
PE_URL
1000

  0
LINE
  5
A5
330
1F
100
AcDbEntity
  8
0
  6
Continuous
 62
     1
370
    25
100
AcDbLine
 10
40.15
 20
5.999999999999996
 30
0.0
 11
38.37165251689954
 21
5.999999999999996
 31
0.0
1001
PE_URL
1000

  0
LINE
  5
A6
330
1F
100
AcDbEntity
  8
0
  6
Continuous
 62
     4
370
    25
100
AcDbLine
 10
-0.0000000000000036
 20
5.999999999999991
 30
0.0
 11
0.0000000000000036
 21
-5.99999999999999
 31
0.0
  0
LINE
  5
A7
330
1F
100
AcDbEntity
  8
0
  6
Continuous
 62
     4
370
    25
100
AcDbLine
 10
-49.35
 20
5.999999999999986
 30
0.0
 11
-49.35
 21
-6.000000000000014
 31
0.0
  0
LINE
  5
A8
330
1F
100
AcDbEntity
  8
0
  6
Continuous
 62
     4
370
    25
100
AcDbLine
 10
-49.85
 20
5.499999999999987
 30
0.0
 11
-49.85
 21
-5.500000000000018
 31
0.0
  0
LINE
  5
A9
330
1F
100
AcDbEntity
  8
0
  6
Continuous
 62
     4
370
    25
100
AcDbLine
 10
0.1500000000000004
 20
5.84999999999999
 30
0.0
 11
0.1500000000000075
 21
-5.849999999999985
 31
0.0
  0
SPLINE
  5
AA
330
1F
100
AcDbEntity
  8
0
  6
Continuous
 62
     4
370
    25
100
AcDbSpline
210
0.0
220
0.0
230
1.0
 70
    24
 71
     3
 72
    12
 73
     8
 74
     0
 42
0.000000001
 43
0.00000001
 40
0.0
 40
0.0
 40
0.0
 40
0.0
 40
0.5000000000000002
 40
0.5000000000000002
 40
0.7500000000000001
 40
0.7500000000000001
 40
1.0
 40
1.0
 40
1.0
 40
1.0
 10
20.15
 20
3.753227364109473
 30
0.0
 10
20.15000000000001
 20
3.496880482590292
 30
0.0
 10
20.15
 20
3.216993200901786
 30
0.0
 10
20.15000000000001
 20
2.759216138246
 30
0.0
 10
20.15
 20
2.599048733192737
 30
0.0
 10
20.15000000000001
 20
2.272156850490666
 30
0.0
 10
20.15000000000001
 20
2.105099312095752
 30
0.0
 10
20.15000000000001
 20
1.934087734635925
 30
0.0
  0
SPLINE
  5
AB
330
1F
100
AcDbEntity
  8
0
  6
Continuous
 62
     4
370
    25
100
AcDbSpline
210
0.0
220
0.0
230
1.0
 70
     8
 71
     3
 72
    14
 73
    10
 74
     0
 42
0.000000001
 43
0.00000001
 40
0.0
 40
0.0
 40
0.0
 40
0.0
 40
0.25
 40
0.25
 40
0.5
 40
0.5
 40
0.75
 40
0.75
 40
1.0
 40
1.0
 40
1.0
 40
1.0
 10
18.76545419108389
 20
-1.323754549425411
 30
0.0
 10
18.65957542796422
 20
-1.247835813515876
 30
0.0
 10
18.56587924842167
 20
-1.160155876696023
 30
0.0
 10
18.40188407368983
 20
-0.9615691084445106
 30
0.0
 10
18.33216435813059
 20
-0.8503367148091889
 30
0.0
 10
18.22353441824694
 20
-0.6167348249134155
 30
0.0
 10
18.18317359339591
 20
-0.4912979884952788
 30
0.0
 10
18.13168287524697
 20
-0.2365545992719177
 30
0.0
 10
18.12007925488917
 20
-0.10712110938066
 30
0.0
 10
18.12007925488917
 20
0.0240484159538436
 30
0.0
  0
SPLINE
  5
AC
330
1F
100
AcDbEntity
  8
0
  6
Continuous
 62
     4
370
    25
100
AcDbSpline
210
0.0
220
0.0
230
1.0
 70
     8
 71
     3
 72
    22
 73
    18
 74
     0
 42
0.000000001
 43
0.00000001
 40
0.0
 40
0.0
 40
0.0
 40
0.0
 40
0.125
 40
0.125
 40
0.2500000000000001
 40
0.2500000000000001
 40
0.3750000000000001
 40
0.3750000000000001
 40
0.5000000000000001
 40
0.5000000000000001
 40
0.6250000000000001
 40
0.6250000000000001
 40
0.7500000000000002
 40
0.7500000000000002
 40
0.8750000000000001
 40
0.8750000000000001
 40
1.0
 40
1.0
 40
1.0
 40
1.0
 10
18.12007925488917
 20
2.414237241725396
 30
0.0
 10
18.12007925488917
 20
2.529630716730824
 30
0.0
 10
18.1309035084921
 20
2.641664868961879
 30
0.0
 10
18.17851277307339
 20
2.858760600955087
 30
0.0
 10
18.21607459153716
 20
2.965012160236413
 30
0.0
 10
18.31701781040293
 20
3.160153359392877
 30
0.0
 10
18.38020869302655
 20
3.25008344071952
 30
0.0
 10
18.53405843495424
 20
3.415008894675039
 30
0.0
 10
18.62284201983834
 20
3.487652540447064
 30
0.0
 10
18.8191207375644
 20
3.611534342294966
 30
0.0
 10
18.9286757959086
 20
3.663708877056358
 30
0.0
 10
19.15716699297382
 20
3.743738167128889
 30
0.0
 10
19.27814452286347
 20
3.772635156457661
 30
0.0
 10
19.52682936398454
 20
3.807166620534783
 30
0.0
 10
19.65187589860142
 20
3.812669560133532
 30
0.0
 10
19.90336256317563
 20
3.800616841155206
 30
0.0
 10
20.02896977150274
 20
3.782828386956828
 30
0.0
 10
20.14999999999991
 20
3.753227364108813
 30
0.0
  0
SPLINE
  5
AD
330
1F
100
AcDbEntity
  8
0
  6
Continuous
 62
     4
370
    25
100
AcDbSpline
210
0.0
220
0.0
230
1.0
 70
     8
 71
     3
 72
    14
 73
    10
 74
     0
 42
0.000000001
 43
0.00000001
 40
0.0
 40
0.0
 40
0.0
 40
0.0
 40
0.25
 40
0.25
 40
0.5
 40
0.5
 40
0.75
 40
0.75
 40
1.0
 40
1.0
 40
1.0
 40
1.0
 10
18.76545419108389
 20
-5.698260602400995
 30
0.0
 10
18.65957542796422
 20
-5.715897172410541
 30
0.0
 10
18.56587924842167
 20
-5.734695525332507
 30
0.0
 10
18.40188407368983
 20
-5.771315211993382
 30
0.0
 10
18.33216435813059
 20
-5.78906623357696
 30
0.0
 10
18.22353441824694
 20
-5.818590769338607
 30
0.0
 10
18.18317359339591
 20
-5.830730045607656
 30
0.0
 10
18.13168287524697
 20
-5.846608290266649
 30
0.0
 10
18.12007925488917
 20
-5.850489791723525
 30
0.0
 10
18.12007925488917
 20
-5.849950570192018
 30
0.0
  0
SPLINE
  5
AE
330
1F
100
AcDbEntity
  8
0
  6
Continuous
 62
     4
370
    25
100
AcDbSpline
210
0.0
220
0.0
230
1.0
 70
     8
 71
     3
 72
    10
 73
     6
 74
     0
 42
0.000000001
 43
0.00000001
 40
0.0
 40
0.0
 40
0.0
 40
0.0
 40
0.5
 40
0.5
 40
1.0
 40
1.0
 40
1.0
 40
1.0
 10
20.15000000000001
 20
-5.383226497552641
 30
0.0
 10
19.91844657860952
 20
-5.449677878151691
 30
0.0
 10
19.68650748186231
 20
-5.509352711164904
 30
0.0
 10
19.22448804337995
 20
-5.614504807571387
 30
0.0
 10
18.99561252259506
 20
-5.659922380387685
 30
0.0
 10
18.76545419108389
 20
-5.698260602400996
 30
0.0
  0
SPLINE
  5
AF
330
1F
100
AcDbEntity
  8
0
  6
Continuous
 62
     4
370
    25
100
AcDbSpline
210
0.0
220
0.0
230
1.0
 70
     8
 71
     3
 72
    14
 73
    10
 74
     0
 42
0.000000001
 43
0.00000001
 40
0.0
 40
0.0
 40
0.0
 40
0.0
 40
0.25
 40
0.25
 40
0.5
 40
0.5
 40
0.75
 40
0.75
 40
1.0
 40
1.0
 40
1.0
 40
1.0
 10
18.76545419108389
 20
5.698260602400994
 30
0.0
 10
18.65957542796422
 20
5.715897172410539
 30
0.0
 10
18.56587924842167
 20
5.734695525332525
 30
0.0
 10
18.40188407368983
 20
5.7713152119934
 30
0.0
 10
18.33216435813059
 20
5.789066233576976
 30
0.0
 10
18.22353441824694
 20
5.818590769338623
 30
0.0
 10
18.18317359339591
 20
5.830730045607673
 30
0.0
 10
18.13168287524697
 20
5.846608290266663
 30
0.0
 10
18.12007925488917
 20
5.850489791723538
 30
0.0
 10
18.12007925488917
 20
5.849950570192029
 30
0.0
  0
SPLINE
  5
B0
330
1F
100
AcDbEntity
  8
0
  6
Continuous
 62
     4
370
    25
100
AcDbSpline
210
0.0
220
0.0
230
1.0
 70
     8
 71
     3
 72
    10
 73
     6
 74
     0
 42
0.000000001
 43
0.00000001
 40
0.0
 40
0.0
 40
0.0
 40
0.0
 40
0.5
 40
0.5
 40
1.0
 40
1.0
 40
1.0
 40
1.0
 10
20.15000000000001
 20
5.383226497552648
 30
0.0
 10
19.91844657860952
 20
5.449677878151697
 30
0.0
 10
19.68650748186231
 20
5.509352711164907
 30
0.0
 10
19.22448804337995
 20
5.614504807571389
 30
0.0
 10
18.99561252259506
 20
5.659922380387682
 30
0.0
 10
18.76545419108389
 20
5.698260602400993
 30
0.0
  0
LINE
  5
B1
330
1F
100
AcDbEntity
  8
0
  6
Continuous
 62
     4
370
    25
100
AcDbLine
 10
20.15000000000001
 20
3.947516945129457
 30
0.0
 11
20.15000000000001
 21
3.753227364109376
 31
0.0
  0
SPLINE
  5
B2
330
1F
100
AcDbEntity
  8
0
  6
Continuous
 62
     4
370
    25
100
AcDbSpline
210
0.0
220
0.0
230
1.0
 70
     8
 71
     3
 72
    10
 73
     6
 74
     0
 42
0.000000001
 43
0.00000001
 40
0.0
 40
0.0
 40
0.0
 40
0.0
 40
0.5
 40
0.5
 40
1.0
 40
1.0
 40
1.0
 40
1.0
 10
20.15000000000001
 20
-2.289841146465589
 30
0.0
 10
19.91844657860952
 20
-2.133619465589645
 30
0.0
 10
19.68650748186231
 20
-1.974413479202956
 30
0.0
 10
19.22448804337995
 20
-1.651850976521856
 30
0.0
 10
18.99561252259507
 20
-1.488786035178847
 30
0.0
 10
18.76545419108389
 20
-1.323754549425411
 30
0.0
  0
LINE
  5
B3
330
1F
100
AcDbEntity
  8
0
  6
Continuous
 62
     4
370
    25
100
AcDbLine
 10
20.15000000000001
 20
-2.289841146465589
 30
0.0
 11
20.15000000000001
 21
-2.375691932234002
 31
0.0
  0
SPLINE
  5
B4
330
1F
100
AcDbEntity
  8
0
  6
Continuous
 62
     4
370
    25
100
AcDbSpline
210
0.0
220
0.0
230
1.0
 70
     8
 71
     3
 72
    22
 73
    18
 74
     0
 42
0.000000001
 43
0.00000001
 40
0.0
 40
0.0
 40
0.0
 40
0.0
 40
0.125
 40
0.125
 40
0.2500000000000001
 40
0.2500000000000001
 40
0.3750000000000001
 40
0.3750000000000001
 40
0.5000000000000001
 40
0.5000000000000001
 40
0.625
 40
0.625
 40
0.7499999999999999
 40
0.7499999999999999
 40
0.875
 40
0.875
 40
1.0
 40
1.0
 40
1.0
 40
1.0
 10
18.12007925488917
 20
-5.328598177819966
 30
0.0
 10
18.12007925488917
 20
-5.276316655454513
 30
0.0
 10
18.13090350849211
 20
-5.221037477511165
 30
0.0
 10
18.1785127730734
 20
-5.105400419938721
 30
0.0
 10
18.21607459153716
 20
-5.044236033305198
 30
0.0
 10
18.31701781040293
 20
-4.924331935924132
 30
0.0
 10
18.38020869302655
 20
-4.865133573120027
 30
0.0
 10
18.53405843495425
 20
-4.750819014152112
 30
0.0
 10
18.62284201983834
 20
-4.697323924902043
 30
0.0
 10
18.8191207375644
 20
-4.60275917171082
 30
0.0
 10
18.92867579590861
 20
-4.560965862824967
 30
0.0
 10
19.15716699297382
 20
-4.495508522254037
 30
0.0
 10
19.27814452286348
 20
-4.471044362320098
 30
0.0
 10
19.52682936398454
 20
-4.44167716488495
 30
0.0
 10
19.65187589860142
 20
-4.436903628917899
 30
0.0
 10
19.90336256317563
 20
-4.447232241945667
 30
0.0
 10
20.02896977150274
 20
-4.462532756982538
 30
0.0
 10
20.14999999999991
 20
-4.487291427276038
 30
0.0
  0
LINE
  5
B5
330
1F
100
AcDbEntity
  8
0
  6
Continuous
 62
     4
370
    25
100
AcDbLine
 10
18.12007925488917
 20
-5.328598177819966
 30
0.0
 11
18.12007925488917
 21
-5.849950570192027
 31
0.0
  0
LINE
  5
B6
330
1F
100
AcDbEntity
  8
0
  6
Continuous
 62
     4
370
    25
100
AcDbLine
 10
18.12007925488917
 20
2.414237241725395
 30
0.0
 11
18.12007925488917
 21
0.0240484159538438
 31
0.0
  0
SPLINE
  5
B7
330
1F
100
AcDbEntity
  8
0
  6
Continuous
 62
     4
370
    25
100
AcDbSpline
210
0.0
220
0.0
230
1.0
 70
    24
 71
     3
 72
    14
 73
    10
 74
     0
 42
0.000000001
 43
0.00000001
 40
0.0
 40
0.0
 40
0.0
 40
0.0
 40
0.25
 40
0.25
 40
0.5
 40
0.5
 40
0.75
 40
0.75
 40
1.0
 40
1.0
 40
1.0
 40
1.0
 10
20.15000000000001
 20
1.934087734635925
 30
0.0
 10
20.15000000000001
 20
1.613736522237776
 30
0.0
 10
20.15000000000001
 20
1.262730897584777
 30
0.0
 10
20.15000000000001
 20
0.5206270948558777
 30
0.0
 10
20.15000000000001
 20
0.1294944267748183
 30
0.0
 10
20.15000000000001
 20
-0.646420133342104
 30
0.0
 10
20.15000000000001
 20
-1.03056172039192
 30
0.0
 10
20.15000000000001
 20
-1.728048856575617
 30
0.0
 10
20.15000000000001
 20
-2.0403049304489
 30
0.0
 10
20.15000000000001
 20
-2.289841146465588
 30
0.0
  0
SPLINE
  5
B8
330
1F
100
AcDbEntity
  8
0
  6
Continuous
 62
     4
370
    25
100
AcDbSpline
210
0.0
220
0.0
230
1.0
 70
    24
 71
     3
 72
    10
 73
     6
 74
     0
 42
0.000000001
 43
0.00000001
 40
0.0
 40
0.0
 40
0.0
 40
0.0
 40
0.6352825883021637
 40
0.817446614575736
 40
0.9999999999999999
 40
0.9999999999999999
 40
0.9999999999999999
 40
0.9999999999999999
 10
20.15000000000001
 20
-4.582122882315681
 30
0.0
 10
20.15000000000001
 20
-4.73907449228342
 30
0.0
 10
20.15000000000002
 20
-4.941031172007995
 30
0.0
 10
20.15
 20
-5.223064268707346
 30
0.0
 10
20.15000000000001
 20
-5.329801105138944
 30
0.0
 10
20.15000000000001
 20
-5.383226497552641
 30
0.0
  0
SPLINE
  5
B9
330
1F
100
AcDbEntity
  8
0
  6
Continuous
 62
     1
370
    25
100
AcDbSpline
210
0.0
220
0.0
230
1.0
 70
     8
 71
     3
 72
    20
 73
    16
 74
     0
 42
0.000000001
 43
0.00000001
 40
0.0
 40
0.0
 40
0.0
 40
0.0
 40
0.0855274078447512
 40
0.171076080799882
 40
0.2566937982263795
 40
0.3423465075496603
 40
0.4279164554446191
 40
0.5134464514723645
 40
0.5989844527850765
 40
0.6774810084754135
 40
0.7560050920680135
 40
0.8344079333922647
 40
0.9128072007151358
 40
0.9913221374122496
 40
1.0
 40
1.0
 40
1.0
 40
1.0
 10
20.15
 20
3.946291487119724
 30
0.0
 10
20.6693993171908
 20
3.636695086620474
 30
0.0
 10
21.70832709244187
 20
3.017425309108883
 30
0.0
 10
23.26726521902857
 20
1.932482771231856
 30
0.0
 10
24.82745585130652
 20
0.7845350011717387
 30
0.0
 10
26.38815012356584
 20
-0.3959212540226437
 30
0.0
 10
27.94753748418456
 20
-1.561069457551002
 30
0.0
 10
29.50607374311474
 20
-2.66642007027041
 30
0.0
 10
31.02165299817736
 20
-3.642097706524434
 30
0.0
 10
32.49508270919841
 20
-4.462929963253151
 30
0.0
 10
33.92560516715496
 20
-5.114556406285188
 30
0.0
 10
35.354383048124
 20
-5.607601880642281
 30
0.0
 10
36.78306711193743
 20
-5.900587065976839
 30
0.0
 10
37.78926045582403
 20
-6.024615082651072
 30
0.0
 10
38.31893651202909
 20
-5.993592543566869
 30
0.0
 10
38.37165251689954
 20
-5.990505025635299
 30
0.0
  0
LINE
  5
BA
330
1F
100
AcDbEntity
  8
0
  6
Continuous
 62
     4
370
    25
100
AcDbLine
 10
20.15
 20
3.946291487119738
 30
0.0
 11
20.15000000000001
 21
5.511398828935199
 31
0.0
  0
SPLINE
  5
BB
330
1F
100
AcDbEntity
  8
0
  6
Continuous
 62
     1
370
    25
100
AcDbSpline
210
0.0
220
0.0
230
1.0
 70
     8
 71
     3
 72
    50
 73
    46
 74
     0
 42
0.000000001
 43
0.00000001
 40
0.0
 40
0.0
 40
0.0
 40
0.0
 40
0.0625000000000001
 40
0.0625000000000001
 40
0.1250000000000001
 40
0.1250000000000001
 40
0.1875000000000002
 40
0.1875000000000002
 40
0.2500000000000002
 40
0.2500000000000002
 40
0.3125000000000003
 40
0.3125000000000003
 40
0.3750000000000003
 40
0.3750000000000003
 40
0.4062500000000003
 40
0.4062500000000003
 40
0.4375000000000003
 40
0.4375000000000003
 40
0.4687500000000003
 40
0.4687500000000003
 40
0.5000000000000002
 40
0.5000000000000002
 40
0.5625000000000003
 40
0.5625000000000003
 40
0.5937500000000003
 40
0.5937500000000003
 40
0.6250000000000003
 40
0.6250000000000003
 40
0.6562500000000004
 40
0.6562500000000004
 40
0.6875000000000003
 40
0.6875000000000003
 40
0.7500000000000002
 40
0.7500000000000002
 40
0.7812500000000003
 40
0.7812500000000003
 40
0.8125000000000003
 40
0.8125000000000003
 40
0.8437500000000002
 40
0.8437500000000002
 40
0.8750000000000002
 40
0.8750000000000002
 40
0.9375000000000001
 40
0.9375000000000001
 40
1.0
 40
1.0
 40
1.0
 40
1.0
 10
40.15000000000001
 20
-5.850994190130126
 30
0.0
 10
39.73635662277505
 20
-5.78162142196991
 30
0.0
 10
39.31679175676906
 20
-5.687852429388123
 30
0.0
 10
38.48120169229897
 20
-5.454500187924856
 30
0.0
 10
38.06856308111792
 20
-5.31545197598879
 30
0.0
 10
37.23362868082039
 20
-4.993851995106136
 30
0.0
 10
36.81377933899675
 20
-4.811420023357785
 30
0.0
 10
35.98473336543106
 20
-4.410279482866073
 30
0.0
 10
35.56718288487913
 20
-4.190281528968295
 30
0.0
 10
34.73112784360293
 20
-3.717426172857873
 30
0.0
 10
34.31814428291897
 20
-3.465719189533643
 30
0.0
 10
33.48405573513185
 20
-2.934352190080352
 30
0.0
 10
33.06401881783702
 20
-2.654807649125568
 30
0.0
 10
32.44105421939813
 20
-2.22247938653536
 30
0.0
 10
32.2344605225038
 20
-2.076195616185892
 30
0.0
 10
31.81766327437099
 20
-1.778819323345459
 30
0.0
 10
31.60843978876186
 20
-1.627952261985321
 30
0.0
 10
31.19027530049683
 20
-1.32324321336952
 30
0.0
 10
30.98133628488842
 20
-1.169402682872245
 30
0.0
 10
30.56566819219699
 20
-0.8601848168400549
 30
0.0
 10
30.3592565711985
 20
-0.7048904099391513
 30
0.0
 10
29.73446670868871
 20
-0.2359327782418221
 30
0.0
 10
29.31433926154031
 20
0.079864128345768
 30
0.0
 10
28.69033473196383
 20
0.549586064776593
 30
0.0
 10
28.48400753403632
 20
0.7053385952339317
 30
0.0
 10
28.06777522816
 20
1.015972146644079
 30
0.0
 10
27.85868365436497
 20
1.170646709549878
 30
0.0
 10
27.44047782363759
 20
1.477272157356792
 30
0.0
 10
27.23136555512549
 20
1.629221583809204
 30
0.0
 10
26.81505110515411
 20
1.929004670142322
 30
0.0
 10
26.60871066152675
 20
2.07664007822634
 30
0.0
 10
25.98483891672433
 20
2.513860459347766
 30
0.0
 10
25.56471805548132
 20
2.797140862609238
 30
0.0
 10
24.93981456881468
 20
3.201921354626854
 30
0.0
 10
24.73336321321855
 20
3.333308447250756
 30
0.0
 10
24.31779000603446
 20
3.589553481368175
 30
0.0
 10
24.10887816289563
 20
3.714352983477583
 30
0.0
 10
23.69072664638741
 20
3.956107945854002
 30
0.0
 10
23.48148895963487
 20
4.073062232003951
 30
0.0
 10
23.06462237109104
 20
4.298068776047727
 30
0.0
 10
22.85796245820606
 20
4.405963188441159
 30
0.0
 10
22.23514970459019
 20
4.716287532052008
 30
0.0
 10
21.81513253990821
 20
4.905368817968569
 30
0.0
 10
20.98091815568131
 20
5.240797408733982
 30
0.0
 10
20.56800158701267
 20
5.387157329603183
 30
0.0
 10
20.15000000000009
 20
5.511398828933944
 30
0.0
  0
LINE
  5
BC
330
1F
100
AcDbEntity
  8
0
  6
Continuous
 62
     1
370
    25
100
AcDbLine
 10
40.15
 20
-6.000000000000009
 30
0.0
 11
40.15
 21
-5.850994190131571
 31
0.0
1001
PE_URL
1000

  0
SPLINE
  5
BD
330
1F
100
AcDbEntity
  8
0
  6
Continuous
 62
     1
370
    25
100
AcDbSpline
210
0.0
220
0.0
230
1.0
 70
     8
 71
     3
 72
    17
 73
    13
 74
     0
 42
0.000000001
 43
0.00000001
 40
0.0
 40
0.0
 40
0.0
 40
0.0
 40
0.0529395107559042
 40
0.1548452611321353
 40
0.2568441500731221
 40
0.3589747320693205
 40
0.4657891677171441
 40
0.5725596406290239
 40
0.6794117720311467
 40
0.7863916398066193
 40
0.8932307483567076
 40
1.0
 40
1.0
 40
1.0
 40
1.0
 10
33.87546791104332
 20
-5.065447456601172
 30
0.0
 10
33.63324782240158
 20
-5.165824389378423
 30
0.0
 10
32.92476691009934
 20
-5.459421593916298
 30
0.0
 10
31.75025579264595
 20
-5.770036881009386
 30
0.0
 10
30.35018447755544
 20
-5.991397454867659
 30
0.0
 10
28.92662976519394
 20
-6.02056326956829
 30
0.0
 10
27.4825112953144
 20
-5.856270296565002
 30
0.0
 10
26.01682212616893
 20
-5.490528935013422
 30
0.0
 10
24.55009613484538
 20
-4.93943237732687
 30
0.0
 10
23.08200533460584
 20
-4.220351251755286
 30
0.0
 10
21.61543404858598
 20
-3.363452493761075
 30
0.0
 10
20.63837150574651
 20
-2.702144900579979
 30
0.0
 10
20.1500000000001
 20
-2.37159923857475
 30
0.0
  0
SPLINE
  5
BE
330
1F
100
AcDbEntity
  8
0
  6
Continuous
 62
     4
370
    25
100
AcDbSpline
210
0.0
220
0.0
230
1.0
 70
    24
 71
     3
 72
    24
 73
    20
 74
     0
 42
0.000000001
 43
0.00000001
 40
0.0
 40
0.0
 40
0.0
 40
0.0
 40
0.0625000000000003
 40
0.0625000000000003
 40
0.1250000000000006
 40
0.1250000000000006
 40
0.2500000000000006
 40
0.2500000000000006
 40
0.3750000000000006
 40
0.3750000000000006
 40
0.5000000000000004
 40
0.5000000000000004
 40
0.6250000000000003
 40
0.6250000000000003
 40
0.7500000000000002
 40
0.7500000000000002
 40
0.8750000000000001
 40
0.8750000000000001
 40
1.0
 40
1.0
 40
1.0
 40
1.0
 10
20.15
 20
3.946291487119745
 30
0.0
 10
20.15
 20
3.866229427750463
 30
0.0
 10
20.15
 20
3.786374108194857
 30
0.0
 10
20.15
 20
3.628097985720459
 30
0.0
 10
20.15
 20
3.546299158397912
 30
0.0
 10
20.15
 20
3.282660176844447
 30
0.0
 10
20.15
 20
3.086259791979684
 30
0.0
 10
20.15
 20
2.647203899611999
 30
0.0
 10
20.15000000000001
 20
2.404413794695439
 30
0.0
 10
20.15000000000001
 20
1.872331656708736
 30
0.0
 10
20.15000000000001
 20
1.582876538319266
 30
0.0
 10
20.15000000000001
 20
0.9667267698911307
 30
0.0
 10
20.15000000000001
 20
0.6399386833173396
 30
0.0
 10
20.15000000000001
 20
-0.0277871890364515
 30
0.0
 10
20.15000000000001
 20
-0.3685880114347973
 30
0.0
 10
20.15000000000001
 20
-1.027446502336778
 30
0.0
 10
20.15000000000001
 20
-1.345066225888429
 30
0.0
 10
20.15000000000001
 20
-1.915447282898649
 30
0.0
 10
20.15000000000001
 20
-2.167687213428874
 30
0.0
 10
20.15000000000001
 20
-2.371599238575434
 30
0.0
  0
SPLINE
  5
BF
330
1F
100
AcDbEntity
  8
0
  6
Continuous
 62
     1
370
    25
100
AcDbSpline
210
0.0
220
0.0
230
1.0
 70
     8
 71
     3
 72
    20
 73
    16
 74
     0
 42
0.000000001
 43
0.00000001
 40
0.0
 40
0.0
 40
0.0
 40
0.0
 40
0.0172218323653872
 40
0.1026381361429511
 40
0.1881233775596004
 40
0.2736435567301873
 40
0.3590811025289354
 40
0.4444787582778615
 40
0.5298844069252037
 40
0.6082595051555982
 40
0.6866620886944242
 40
0.7649436175626607
 40
0.8432215779595573
 40
0.921615028755858
 40
1.0
 40
1.0
 40
1.0
 40
1.0
 10
21.3939606938301
 20
5.063593925919121
 30
0.0
 10
21.49870967484888
 20
5.110375619716003
 30
0.0
 10
22.12298936510114
 20
5.38918369048626
 30
0.0
 10
23.26726731018136
 20
5.70997502556301
 30
0.0
 10
24.82745529091623
 20
5.99013466537842
 30
0.0
 10
26.38815027210636
 20
6.024762647598966
 30
0.0
 10
27.94753744994466
 20
5.833397587405621
 30
0.0
 10
29.50607373168052
 20
5.417843654980096
 30
0.0
 10
31.02165307565444
 20
4.812522561607037
 30
0.0
 10
32.49508243813386
 20
4.058694491200749
 30
0.0
 10
33.92560618377956
 20
3.197080569846146
 30
0.0
 10
35.35437925926173
 20
2.231650892820918
 30
0.0
 10
36.78308126135713
 20
1.195004842292815
 30
0.0
 10
38.21350961784761
 20
0.1187009295041511
 30
0.0
 10
39.16734759616729
 20
-0.596536858970316
 30
0.0
 10
39.64424079058197
 20
-0.9541364109535131
 30
0.0
  0
SPLINE
  5
C0
330
1F
100
AcDbEntity
  8
0
  6
Continuous
 62
     1
370
    25
100
AcDbSpline
210
0.0
220
0.0
230
1.0
 70
    24
 71
     3
 72
    12
 73
     8
 74
     0
 42
0.000000001
 43
0.00000001
 40
0.0
 40
0.0
 40
0.0
 40
0.0
 40
0.1730284620840874
 40
0.4132514359464401
 40
0.6588722796741509
 40
0.906986808074424
 40
1.0
 40
1.0
 40
1.0
 40
1.0
 10
39.64254446138025
 20
-0.9553241934478492
 30
0.0
 10
39.64197302257023
 20
-0.9557243192102498
 30
0.0
 10
39.64060823029299
 20
-0.9566799570508662
 30
0.0
 10
39.61346802836245
 20
-0.9756837310311537
 30
0.0
 10
39.56023495973021
 20
-1.012957926969498
 30
0.0
 10
39.49500175710891
 20
-1.058634707186483
 30
0.0
 10
39.44535395148396
 20
-1.093398474940642
 30
0.0
 10
39.43181679047909
 20
-1.102877297122214
 30
0.0
1001
PE_URL
1000

  0
SPLINE
  5
C1
330
1F
100
AcDbEntity
  8
0
  6
Continuous
 62
     1
370
    25
100
AcDbSpline
210
0.0
220
0.0
230
1.0
 70
     8
 71
     3
 72
     8
 73
     4
 74
     0
 42
0.000000001
 43
0.00000001
 40
0.0
 40
0.0
 40
0.0
 40
0.0
 40
1.0
 40
1.0
 40
1.0
 40
1.0
 10
40.15
 20
-1.552305149818773
 30
0.0
 10
39.91204295630033
 20
-1.406496089138966
 30
0.0
 10
39.67260217098853
 20
-1.256557721733901
 30
0.0
 10
39.43181679047908
 20
-1.10287729712221
 30
0.0
1001
PE_URL
1000

  0
LINE
  5
C2
330
1F
100
AcDbEntity
  8
0
  6
Continuous
 62
     1
370
    25
100
AcDbLine
 10
40.15
 20
-5.850994190131571
 30
0.0
 11
40.15
 21
-1.55230514981877
 31
0.0
1001
PE_URL
1000

  0
SPLINE
  5
C3
330
1F
100
AcDbEntity
  8
0
  6
Continuous
 62
     1
370
    25
100
AcDbSpline
210
0.0
220
0.0
230
1.0
 70
     8
 71
     3
 72
    15
 73
    11
 74
     0
 42
0.000000001
 43
0.00000001
 40
0.0
 40
0.0
 40
0.0
 40
0.0
 40
0.1305769531484642
 40
0.260952310236552
 40
0.3913674104344311
 40
0.5220153095147877
 40
0.652499500884793
 40
0.7828612371601127
 40
0.9133421198523022
 40
1.0
 40
1.0
 40
1.0
 40
1.0
 10
40.15
 20
1.32885928037789
 30
0.0
 10
39.68283460443396
 20
1.667864362579151
 30
0.0
 10
38.7492250638826
 20
2.34535114144256
 30
0.0
 10
37.35008981713987
 20
3.279407942070226
 30
0.0
 10
35.95058938659583
 20
4.115301265246204
 30
0.0
 10
34.54926793490542
 20
4.821898316968924
 30
0.0
 10
33.14921036223672
 20
5.382845028380415
 30
0.0
 10
31.75023860784083
 20
5.770461540822376
 30
0.0
 10
30.50748771429726
 20
5.980401029752566
 30
0.0
 10
29.73053736964452
 20
5.979599384031793
 30
0.0
 10
29.4204643593397
 20
5.979279455347099
 30
0.0
1001
PE_URL
1000

  0
LINE
  5
C4
330
1F
100
AcDbEntity
  8
0
  6
Continuous
 62
     1
370
    25
100
AcDbLine
 10
40.15
 20
-0.600000000000025
 30
0.0
 11
40.15
 21
1.328859280378005
 31
0.0
1001
PE_URL
1000

  0
LINE
  5
C5
330
1F
100
AcDbEntity
  8
0
  6
Continuous
 62
     1
370
    25
100
AcDbLine
 10
40.15
 20
-0.6000000000000238
 30
0.0
 11
39.64424079058197
 21
-0.954136410953521
 31
0.0
1001
PE_URL
1000

  0
SPLINE
  5
C6
330
1F
100
AcDbEntity
  8
0
  6
Continuous
 62
     1
370
    25
100
AcDbSpline
210
0.0
220
0.0
230
1.0
 70
     8
 71
     3
 72
    12
 73
     8
 74
     0
 42
0.000000001
 43
0.00000001
 40
0.0
 40
0.0
 40
0.0
 40
0.0
 40
0.008783064160812
 40
0.2564197987463963
 40
0.5040452447866138
 40
0.7520360345522017
 40
1.0
 40
1.0
 40
1.0
 40
1.0
 10
33.87546791104332
 20
5.06544745660117
 30
0.0
 10
33.89236185660106
 20
5.07314696056835
 30
0.0
 10
34.38557721295445
 20
5.297932436521066
 30
0.0
 10
35.35433467965255
 20
5.593606760796445
 30
0.0
 10
36.78309316865376
 20
5.913572615250976
 30
0.0
 10
38.2135066395709
 20
6.038929661092729
 30
0.0
 10
39.16734660344418
 20
5.962074852237972
 30
0.0
 10
39.64424079058196
 20
5.923649526203629
 30
0.0
1001
PE_URL
1000

  0
SPLINE
  5
C7
330
1F
100
AcDbEntity
  8
0
  6
Continuous
 62
     1
370
    25
100
AcDbSpline
210
0.0
220
0.0
230
1.0
 70
     8
 71
     3
 72
    12
 73
     8
 74
     0
 42
0.000000001
 43
0.00000001
 40
0.0
 40
0.0
 40
0.0
 40
0.0
 40
0.5000000000000013
 40
0.5000000000000013
 40
0.7500000000000007
 40
0.7500000000000007
 40
1.0
 40
1.0
 40
1.0
 40
1.0
 10
39.64424079058197
 20
5.923649526203638
 30
0.0
 10
39.64717061816015
 20
5.66469023137767
 30
0.0
 10
39.63397219832621
 20
5.408728988505112
 30
0.0
 10
39.58383793497653
 20
5.030426348427961
 30
0.0
 10
39.5620301675614
 20
4.905272819381256
 30
0.0
 10
39.50641917851435
 20
4.657195575478313
 30
0.0
 10
39.47228098284294
 20
4.533349668456567
 30
0.0
 10
39.43181679047908
 20
4.413697391168558
 30
0.0
1001
PE_URL
1000

  0
SPLINE
  5
C8
330
1F
100
AcDbEntity
  8
0
  6
Continuous
 62
     1
370
    25
100
AcDbSpline
210
0.0
220
0.0
230
1.0
 70
     8
 71
     3
 72
     8
 73
     4
 74
     0
 42
0.000000001
 43
0.00000001
 40
0.0
 40
0.0
 40
0.0
 40
0.0
 40
1.0
 40
1.0
 40
1.0
 40
1.0
 10
40.15
 20
4.124886781396341
 30
0.0
 10
39.91204295630033
 20
4.234009772348067
 30
0.0
 10
39.67260217098854
 20
4.329865229130895
 30
0.0
 10
39.43181679047908
 20
4.413697391168571
 30
0.0
1001
PE_URL
1000

  0
LINE
  5
C9
330
1F
100
AcDbEntity
  8
0
  6
Continuous
 62
     1
370
    25
100
AcDbLine
 10
40.15
 20
1.33376585533996
 30
0.0
 11
40.15
 21
4.124886781396343
 31
0.0
1001
PE_URL
1000

  0
SPLINE
  5
CA
330
1F
100
AcDbEntity
  8
0
  6
Continuous
 62
     1
370
    25
100
AcDbSpline
210
0.0
220
0.0
230
1.0
 70
     8
 71
     3
 72
    11
 73
     7
 74
     0
 42
0.000000001
 43
0.00000001
 40
0.0
 40
0.0
 40
0.0
 40
0.0
 40
0.272681537487156
 40
0.5454308731590025
 40
0.8184003388813407
 40
1.0
 40
1.0
 40
1.0
 40
1.0
 10
20.15
 20
-4.519599926839382
 30
0.0
 10
20.66939994919282
 20
-4.76090818438766
 30
0.0
 10
21.70832898860503
 20
-5.243584697172225
 30
0.0
 10
23.26725762962435
 20
-5.712635211472633
 30
0.0
 10
24.65316619068786
 20
-5.975793094415208
 30
0.0
 10
25.51944370047505
 20
-5.974776644966801
 30
0.0
 10
25.86552022200507
 20
-5.974370574988717
 30
0.0
  0
LINE
  5
CB
330
1F
100
AcDbEntity
  8
0
  6
Continuous
 62
     4
370
    25
100
AcDbLine
 10
20.15000000000001
 20
-4.519599926839395
 30
0.0
 11
20.15000000000001
 21
-2.371599238575435
 31
0.0
  0
LINE
  5
CC
330
1F
100
AcDbEntity
  8
0
  6
Continuous
 62
     1
370
    25
100
AcDbLine
 10
40.15
 20
-0.6000000000000041
 30
0.0
 11
40.15
 21
-1.552305149818773
 31
0.0
1001
PE_URL
1000

  0
LINE
  5
CD
330
1F
100
AcDbEntity
  8
0
  6
Continuous
 62
     1
370
    25
100
AcDbLine
 10
21.39396069383005
 20
-5.063593925919128
 30
0.0
 11
20.15000000000011
 21
-5.511398828933936
 31
0.0
  0
SPLINE
  5
CE
330
1F
100
AcDbEntity
  8
0
  6
Continuous
 62
     4
370
    25
100
AcDbSpline
210
0.0
220
0.0
230
1.0
 70
    24
 71
     3
 72
    10
 73
     6
 74
     0
 42
0.000000001
 43
0.00000001
 40
0.0
 40
0.0
 40
0.0
 40
0.0
 40
0.4239619951047586
 40
0.7109616089742928
 40
1.0
 40
1.0
 40
1.0
 40
1.0
 10
20.15000000000001
 20
-4.582132882315679
 30
0.0
 10
20.15000000000001
 20
-4.698403380351653
 30
0.0
 10
20.15000000000001
 20
-4.893382791983757
 30
0.0
 10
20.15000000000001
 20
-5.215027730081278
 30
0.0
 10
20.15000000000001
 20
-5.412375637500104
 30
0.0
 10
20.15000000000001
 20
-5.511398828935192
 30
0.0
  0
ELLIPSE
  5
CF
330
1F
100
AcDbEntity
  8
0
  6
Continuous
 62
     1
370
    25
100
AcDbEllipse
 10
41.00688880404527
 20
-0.0000000000000053
 30
0.0
 11
8.568888040452656
 21
0.0
 31
0.0
210
0.0
220
0.0
230
1.0
 40
0.7002075382097125
 41
1.670963747956457
 42
1.730497039761978
1001
PE_URL
1000

  0
LINE
  5
D0
330
1F
100
AcDbEntity
  8
0
  6
Continuous
 62
     1
370
    25
100
AcDbLine
 10
40.15
 20
4.124886781396343
 30
0.0
 11
40.15
 21
5.969924622639718
 31
0.0
1001
PE_URL
1000

  0
LINE
  5
D1
330
1F
100
AcDbEntity
  8
0
  6
Continuous
 62
     1
370
    25
100
AcDbLine
 10
40.15
 20
5.969924622639718
 30
0.0
 11
40.15
 21
5.999999999999998
 31
0.0
1001
PE_URL
1000

  0
LINE
  5
D2
330
1F
100
AcDbEntity
  8
중심선
100
AcDbLine
 10
-52.85
 20
-0.0000000000000106
 30
0.0
 11
43.15000000000002
 21
0.0
 31
0.0
  0
CIRCLE
  5
D3
330
1F
100
AcDbEntity
  8
해칭선
100
AcDbCircle
 10
0.0
 20
0.0
 30
0.0
 40
3.000000000000003
  0
INSERT
  5
D4
330
1F
100
AcDbEntity
  8
0
  6
Continuous
 62
     7
100
AcDbBlockReference
 66
     1
  2
블럭10
 10
-18.7902729321252
 20
-52.04717430164394
 30
0.0
  0
ATTRIB
  5
D5
330
D4
100
AcDbEntity
  8
FORMAT
 62
     2
100
AcDbText
 10
-34.90953397156076
 20
-49.97180738881175
 30
0.0
 40
4.233333333333333
  1
SEME7312040E [ 4 FLUTE ]
 41
0.75
  7
SLDTEXTSTYLE0
 11
-34.90953397156076
 21
-52.08847405547841
 31
0.0
100
AcDbAttribute
  2
AUTOATTR0
 70
     0
 74
     1
  0
SEQEND
  5
D6
330
D4
100
AcDbEntity
  8
0
  6
Continuous
 62
     7
  0
HATCH
  5
D7
330
1F
100
AcDbEntity
  8
중심선
100
AcDbHatch
 10
0.0
 20
0.0
 30
0.0
210
0.0
220
0.0
230
1.0
  2
SOLID
 70
     1
 71
     0
 91
        1
 92
        0
 93
        4
 72
     1
 10
-13.07536362774435
 20
-35.8
 11
-16.52163887158164
 21
-35.8
 72
     1
 10
-16.52163887158164
 20
-35.8
 11
-18.64986873078566
 21
-38.3363255805726
 72
     1
 10
-18.64986873078566
 20
-38.3363255805726
 11
-15.20356040183523
 21
-38.33628615127011
 72
     1
 10
-15.20356040183523
 20
-38.33628615127011
 11
-13.07536362774435
 21
-35.8
 97
        0
 75
     0
 76
     1
 98
        1
 10
8.64994507901019
 20
-0.0000000000000062
  0
HATCH
  5
D8
330
1F
100
AcDbEntity
  8
중심선
100
AcDbHatch
 10
0.0
 20
0.0
 30
0.0
210
0.0
220
0.0
230
1.0
  2
SOLID
 70
     1
 71
     0
 91
        1
 92
        0
 93
        4
 72
     1
 10
-8.062599636708404
 20
-35.8
 11
-11.50887488054566
 21
-35.8
 72
     1
 10
-11.50887488054566
 20
-35.8
 11
-16.04001288890307
 21
-41.20000000000002
 72
     1
 10
-16.04001288890307
 20
-41.20000000000002
 11
-12.59373764506579
 21
-41.20000000000002
 72
     1
 10
-12.59373764506579
 20
-41.20000000000002
 11
-8.062599636708404
 21
-35.8
 97
        0
 75
     0
 76
     1
 98
        1
 10
8.64994507901019
 20
-0.0000000000000062
  0
HATCH
  5
D9
330
1F
100
AcDbEntity
  8
중심선
100
AcDbHatch
 10
0.0
 20
0.0
 30
0.0
210
0.0
220
0.0
230
1.0
  2
SOLID
 70
     1
 71
     0
 91
        1
 92
        0
 93
        4
 72
     1
 10
-3.049835645672507
 20
-35.8
 11
-6.496110889509621
 21
-35.8
 72
     1
 10
-6.496110889509621
 20
-35.8
 11
-13.54454779139887
 21
-44.20000000000002
 72
     1
 10
-13.54454779139887
 20
-44.20000000000002
 11
-10.09827254756159
 21
-44.20000000000002
 72
     1
 10
-10.09827254756159
 20
-44.20000000000002
 11
-3.049835645672507
 21
-35.8
 97
        0
 75
     0
 76
     1
 98
        1
 10
8.64994507901019
 20
-0.0000000000000062
  0
HATCH
  5
DA
330
1F
100
AcDbEntity
  8
중심선
100
AcDbHatch
 10
0.0
 20
0.0
 30
0.0
210
0.0
220
0.0
230
1.0
  2
SOLID
 70
     1
 71
     0
 91
        1
 92
        0
 93
        6
 72
     3
 10
1.750054785339692
 20
-40.00000000005128
 11
3.960054785062283
 21
1.540882976769353E-10
 40
0.3939339440162628
 50
17.09539180608437
 51
320.0019657685086
 73
     0
 72
     1
 10
3.433054441040288
 20
-38.58789400463834
 11
5.738356314741326
 21
-36.65356729459039
 72
     3
 10
1.750054785286846
 20
-40.00000000000016
 11
6.600054785286829
 21
-1.278976924368180E-13
 40
0.636358354079598
 50
39.9987384933741
 51
368.4976242363725
 73
     1
 72
     1
 10
8.175387277187456
 20
-39.03999999993002
 11
0.4301220921227689
 21
-39.03999999993002
 72
     1
 10
0.4301220921227689
 20
-39.03999999993002
 11
0.4300970476768349
 21
-40.95999999992992
 72
     1
 10
0.4300970476768349
 20
-40.95999999992992
 11
4.871476817148872
 21
-40.95999999992989
 97
        0
 75
     0
 76
     1
 98
        1
 10
8.64994507901019
 20
-0.0000000000000062
  0
DIMENSION
  5
DB
330
1F
100
AcDbEntity
  8
치수문자_일반주서
100
AcDbDimension
  2
_D
 10
53.14999999999999
 20
6.000000000000046
 30
0.0
 11
53.15000000000001
 21
-0.0000000000000048
 31
0.0
 70
   160
  1
%%c<>
 71
     2
 42
12.00000000000001
 52
-270.0
  3
SLDDIMSTYLE0
100
AcDbAlignedDimension
 13
40.15
 23
-6.000000000000008
 33
0.0
 14
40.15
 24
5.999999999999997
 34
0.0
 50
90.0000000000002
100
AcDbRotatedDimension
  0
DIMENSION
  5
E9
330
1F
100
AcDbEntity
  8
치수문자_일반주서
100
AcDbDimension
  2
_D_1
 10
40.15
 20
40.00000000000001
 30
0.0
 11
-4.849999999999994
 21
40.00000000000001
 31
0.0
 70
   160
  1
<>
 71
     2
 42
90.0
  3
SLDDIMSTYLE1
100
AcDbAlignedDimension
 13
-49.85
 23
5.499999999999987
 33
0.0
 14
40.15
 24
-0.6000000000000041
 34
0.0
 50
0.0000000000000045
100
AcDbRotatedDimension
  0
DIMENSION
  5
F4
330
1F
100
AcDbEntity
  8
치수문자_일반주서
100
AcDbDimension
  2
_D_2
 10
-63.34263956161987
 20
-6.000000000000062
 30
0.0
 11
-63.34263956161988
 21
-2.179391697609276
 31
0.0
 70
   160
  1
%%c<>
 71
     2
 42
11.99999999999998
 52
-270.0
  3
SLDDIMSTYLE2
100
AcDbAlignedDimension
 13
-49.35
 23
5.999999999999972
 33
0.0
 14
-49.35
 24
-6.000000000000011
 34
0.0
 50
90.0000000000002
100
AcDbRotatedDimension
  0
DIMENSION
  5
102
330
1F
100
AcDbEntity
  8
치수문자_일반주서
100
AcDbDimension
  2
_D_3
 10
40.15
 20
16.35731713152285
 30
0.0
 11
30.15
 21
16.35731713152285
 31
0.0
 70
   160
  1
<>
 71
     2
 42
19.99999999999999
  3
SLDDIMSTYLE2
100
AcDbAlignedDimension
 13
20.15000000000001
 23
5.511398828935199
 33
0.0
 14
40.15
 24
-0.6000000000000041
 34
0.0
 50
0.0000000000000204
100
AcDbRotatedDimension
  0
DIMENSION
  5
10C
330
1F
100
AcDbEntity
  8
치수문자_일반주서
100
AcDbDimension
  2
_D_4
 10
0.1499999999999986
 20
30.6697141489939
 30
0.0
 11
21.04862250795345
 21
30.6697141489939
 31
0.0
 70
   160
  1
<>
 71
     2
 42
40.0
  3
SLDDIMSTYLE1
100
AcDbAlignedDimension
 13
40.15
 23
5.969924622639718
 33
0.0
 14
0.1500000000000004
 24
5.84999999999999
 34
0.0
 50
-0.0000000000000102
100
AcDbRotatedDimension
  0
INSERT
  5
11C
330
1F
100
AcDbEntity
  8
해칭선
100
AcDbBlockReference
  2
SW_DOWELSYMBOL_0
 10
0.0
 20
0.0
 30
0.0
  0
ENDSEC
  0
SECTION
  2
OBJECTS
  0
DICTIONARY
  5
C
330
0
100
AcDbDictionary
281
     1
  3
ACAD_DETAILVIEWSTYLE
350
145
  3
ACAD_GROUP
350
D
  3
ACAD_LAYOUT
350
1A
  3
ACAD_MLINESTYLE
350
17
  3
ACAD_PLOTSETTINGS
350
19
  3
ACAD_PLOTSTYLENAME
350
E
  3
ACAD_SCALELIST
350
47
  3
ACAD_SECTIONVIEWSTYLE
350
146
  3
AcDbVariableDictionary
350
140
  3
APPDATA
350
13E
  3
DWGPROPS
350
151
  0
DICTIONARY
  5
145
102
{ACAD_REACTORS
330
C
102
}
330
C
100
AcDbDictionary
281
     1
  0
DICTIONARY
  5
D
102
{ACAD_REACTORS
330
C
102
}
330
C
100
AcDbDictionary
281
     1
  0
DICTIONARY
  5
1A
102
{ACAD_REACTORS
330
C
102
}
330
C
100
AcDbDictionary
281
     1
  3
Layout1
350
1E
  3
Layout2
350
26
  3
Model
350
22
  0
DICTIONARY
  5
17
102
{ACAD_REACTORS
330
C
102
}
330
C
100
AcDbDictionary
281
     1
  3
Standard
350
18
  0
DICTIONARY
  5
19
102
{ACAD_REACTORS
330
C
102
}
330
C
100
AcDbDictionary
281
     1
  0
ACDBDICTIONARYWDFLT
  5
E
102
{ACAD_REACTORS
330
C
102
}
330
C
100
AcDbDictionary
281
     1
  3
Normal
350
F
100
AcDbDictionaryWithDefault
340
F
  0
DICTIONARY
  5
47
102
{ACAD_REACTORS
330
C
102
}
330
C
100
AcDbDictionary
281
     1
  3
A0
350
48
  3
A1
350
49
  3
A2
350
4A
  3
A3
350
4B
  3
A4
350
4C
  3
A5
350
4D
  3
A6
350
4E
  3
A7
350
4F
  3
A8
350
50
  3
A9
350
51
  3
B0
350
52
  3
B1
350
53
  3
B2
350
54
  3
B3
350
55
  3
B4
350
56
  3
B5
350
57
  3
B6
350
58
  3
B7
350
59
  3
B8
350
5A
  3
B9
350
5B
  3
C0
350
5C
  3
C1
350
5D
  3
C2
350
5E
  3
C3
350
5F
  3
C4
350
60
  3
C5
350
61
  3
C6
350
62
  3
C7
350
63
  3
C8
350
64
  3
C9
350
65
  3
D0
350
66
  3
D1
350
67
  3
D2
350
68
  0
DICTIONARY
  5
146
102
{ACAD_REACTORS
330
C
102
}
330
C
100
AcDbDictionary
281
     1
  0
DICTIONARY
  5
140
102
{ACAD_REACTORS
330
C
102
}
330
C
100
AcDbDictionary
281
     1
  0
DICTIONARY
  5
13E
102
{ACAD_REACTORS
330
C
102
}
330
C
100
AcDbDictionary
281
     1
  0
XRECORD
  5
151
102
{ACAD_REACTORS
330
C
102
}
330
C
100
AcDbXrecord
280
     1
  1
DWGPROPS COOKIE
  2

  3

  4

  6

  7

  8
12011908
  9

300
=
301
=
302
=
303
=
304
=
305
=
306
=
307
=
308
=
309
=
 40
0.0
 41
2458260.418116331
 42
2458268.371425509
  1

 90
        0
  0
LAYOUT
  5
1E
102
{ACAD_REACTORS
330
1A
102
}
330
1A
100
AcDbPlotSettings
  1

  2
none_device
  4

  6

 40
0.0
 41
0.0
 42
0.0
 43
0.0
 44
0.0
 45
0.0
 46
0.0
 47
0.0
 48
0.0
 49
0.0
140
0.0
141
0.0
142
1.0
143
1.0
 70
   688
 72
     1
 73
     0
 74
     5
  7

 75
    16
147
1.0
148
0.0
149
0.0
100
AcDbLayout
  1
Layout1
 70
     1
 71
     1
 10
0.0
 20
0.0
 11
420.0
 21
297.0
 12
0.0
 22
0.0
 32
0.0
 14
1.000000000000000E+20
 24
1.000000000000000E+20
 34
1.000000000000000E+20
 15
-1.000000000000000E+20
 25
-1.000000000000000E+20
 35
-1.000000000000000E+20
146
0.0
 13
0.0
 23
0.0
 33
0.0
 16
1.0
 26
0.0
 36
0.0
 17
0.0
 27
1.0
 37
0.0
 76
     0
330
1B
  0
LAYOUT
  5
26
102
{ACAD_REACTORS
330
1A
102
}
330
1A
100
AcDbPlotSettings
  1

  2
none_device
  4

  6

 40
0.0
 41
0.0
 42
0.0
 43
0.0
 44
0.0
 45
0.0
 46
0.0
 47
0.0
 48
0.0
 49
0.0
140
0.0
141
0.0
142
1.0
143
1.0
 70
   688
 72
     1
 73
     0
 74
     5
  7

 75
    16
147
1.0
148
0.0
149
0.0
100
AcDbLayout
  1
Layout2
 70
     1
 71
     2
 10
0.0
 20
0.0
 11
0.0
 21
0.0
 12
0.0
 22
0.0
 32
0.0
 14
0.0
 24
0.0
 34
0.0
 15
0.0
 25
0.0
 35
0.0
146
0.0
 13
0.0
 23
0.0
 33
0.0
 16
1.0
 26
0.0
 36
0.0
 17
0.0
 27
1.0
 37
0.0
 76
     0
330
23
  0
LAYOUT
  5
22
102
{ACAD_REACTORS
330
1A
102
}
330
1A
100
AcDbPlotSettings
  1

  2
none_device
  4
ANSI_A_(11.00_x_8.50_Inches)
  6

 40
6.35
 41
19.05
 42
6.35000508
 43
19.05000254
 44
279.4
 45
215.9
 46
164.6440304054452
 47
95.77184077357154
 48
0.0
 49
0.0
140
0.0
141
0.0
142
0.0872157908483445
143
1.0
 70
  1696
 72
     0
 73
     0
 74
     0
  7

 75
     0
147
0.0235690232323232
148
0.0
149
0.0
100
AcDbLayout
  1
Model
 70
     1
 71
     0
 10
0.0
 20
0.0
 11
420.0
 21
297.0
 12
0.0
 22
0.0
 32
0.0
 14
-67.71763956161988
 24
-49.97180738881175
 34
0.0
 15
53.70033333333335
 25
44.37500000000001
 35
0.0
146
0.0
 13
0.0
 23
0.0
 33
0.0
 16
1.0
 26
0.0
 36
0.0
 17
0.0
 27
1.0
 37
0.0
 76
     0
330
1F
331
29
  0
MLINESTYLE
  5
18
102
{ACAD_REACTORS
330
17
102
}
330
17
100
AcDbMlineStyle
  2
Standard
 70
     0
  3

 62
   256
 51
90.0
 52
90.0
 71
     2
 49
0.5
 62
   256
  6
BYLAYER
 49
-0.5
 62
   256
  6
BYLAYER
  0
ACDBPLACEHOLDER
  5
F
102
{ACAD_REACTORS
330
E
102
}
330
E
  0
SCALE
  5
48
102
{ACAD_REACTORS
330
47
102
}
330
47
100
AcDbScale
 70
     0
300
1:1
140
1.0
141
1.0
290
     1
  0
SCALE
  5
49
102
{ACAD_REACTORS
330
47
102
}
330
47
100
AcDbScale
 70
     0
300
1:2
140
1.0
141
2.0
290
     0
  0
SCALE
  5
4A
102
{ACAD_REACTORS
330
47
102
}
330
47
100
AcDbScale
 70
     0
300
1:4
140
1.0
141
4.0
290
     0
  0
SCALE
  5
4B
102
{ACAD_REACTORS
330
47
102
}
330
47
100
AcDbScale
 70
     0
300
1:5
140
1.0
141
5.0
290
     0
  0
SCALE
  5
4C
102
{ACAD_REACTORS
330
47
102
}
330
47
100
AcDbScale
 70
     0
300
1:8
140
1.0
141
8.0
290
     0
  0
SCALE
  5
4D
102
{ACAD_REACTORS
330
47
102
}
330
47
100
AcDbScale
 70
     0
300
1:10
140
1.0
141
10.0
290
     0
  0
SCALE
  5
4E
102
{ACAD_REACTORS
330
47
102
}
330
47
100
AcDbScale
 70
     0
300
1:16
140
1.0
141
16.0
290
     0
  0
SCALE
  5
4F
102
{ACAD_REACTORS
330
47
102
}
330
47
100
AcDbScale
 70
     0
300
1:20
140
1.0
141
20.0
290
     0
  0
SCALE
  5
50
102
{ACAD_REACTORS
330
47
102
}
330
47
100
AcDbScale
 70
     0
300
1:30
140
1.0
141
30.0
290
     0
  0
SCALE
  5
51
102
{ACAD_REACTORS
330
47
102
}
330
47
100
AcDbScale
 70
     0
300
1:40
140
1.0
141
40.0
290
     0
  0
SCALE
  5
52
102
{ACAD_REACTORS
330
47
102
}
330
47
100
AcDbScale
 70
     0
300
1:50
140
1.0
141
50.0
290
     0
  0
SCALE
  5
53
102
{ACAD_REACTORS
330
47
102
}
330
47
100
AcDbScale
 70
     0
300
1:100
140
1.0
141
100.0
290
     0
  0
SCALE
  5
54
102
{ACAD_REACTORS
330
47
102
}
330
47
100
AcDbScale
 70
     0
300
2:1
140
2.0
141
1.0
290
     0
  0
SCALE
  5
55
102
{ACAD_REACTORS
330
47
102
}
330
47
100
AcDbScale
 70
     0
300
4:1
140
4.0
141
1.0
290
     0
  0
SCALE
  5
56
102
{ACAD_REACTORS
330
47
102
}
330
47
100
AcDbScale
 70
     0
300
8:1
140
8.0
141
1.0
290
     0
  0
SCALE
  5
57
102
{ACAD_REACTORS
330
47
102
}
330
47
100
AcDbScale
 70
     0
300
10:1
140
10.0
141
1.0
290
     0
  0
SCALE
  5
58
102
{ACAD_REACTORS
330
47
102
}
330
47
100
AcDbScale
 70
     0
300
100:1
140
100.0
141
1.0
290
     0
  0
SCALE
  5
59
102
{ACAD_REACTORS
330
47
102
}
330
47
100
AcDbScale
 70
     0
300
1/128" = 1'-0"
140
0.0078125
141
12.0
290
     0
  0
SCALE
  5
5A
102
{ACAD_REACTORS
330
47
102
}
330
47
100
AcDbScale
 70
     0
300
1/64" = 1'-0"
140
0.015625
141
12.0
290
     0
  0
SCALE
  5
5B
102
{ACAD_REACTORS
330
47
102
}
330
47
100
AcDbScale
 70
     0
300
1/32" = 1'-0"
140
0.03125
141
12.0
290
     0
  0
SCALE
  5
5C
102
{ACAD_REACTORS
330
47
102
}
330
47
100
AcDbScale
 70
     0
300
1/16" = 1'-0"
140
0.0625
141
12.0
290
     0
  0
SCALE
  5
5D
102
{ACAD_REACTORS
330
47
102
}
330
47
100
AcDbScale
 70
     0
300
3/32" = 1'-0"
140
0.09375
141
12.0
290
     0
  0
SCALE
  5
5E
102
{ACAD_REACTORS
330
47
102
}
330
47
100
AcDbScale
 70
     0
300
1/8" = 1'-0"
140
0.125
141
12.0
290
     0
  0
SCALE
  5
5F
102
{ACAD_REACTORS
330
47
102
}
330
47
100
AcDbScale
 70
     0
300
3/16" = 1'-0"
140
0.1875
141
12.0
290
     0
  0
SCALE
  5
60
102
{ACAD_REACTORS
330
47
102
}
330
47
100
AcDbScale
 70
     0
300
1/4" = 1'-0"
140
0.25
141
12.0
290
     0
  0
SCALE
  5
61
102
{ACAD_REACTORS
330
47
102
}
330
47
100
AcDbScale
 70
     0
300
3/8" = 1'-0"
140
0.375
141
12.0
290
     0
  0
SCALE
  5
62
102
{ACAD_REACTORS
330
47
102
}
330
47
100
AcDbScale
 70
     0
300
1/2" = 1'-0"
140
0.5
141
12.0
290
     0
  0
SCALE
  5
63
102
{ACAD_REACTORS
330
47
102
}
330
47
100
AcDbScale
 70
     0
300
3/4" = 1'-0"
140
0.75
141
12.0
290
     0
  0
SCALE
  5
64
102
{ACAD_REACTORS
330
47
102
}
330
47
100
AcDbScale
 70
     0
300
1" = 1'-0"
140
1.0
141
12.0
290
     0
  0
SCALE
  5
65
102
{ACAD_REACTORS
330
47
102
}
330
47
100
AcDbScale
 70
     0
300
1-1/2" = 1'-0"
140
1.5
141
12.0
290
     0
  0
SCALE
  5
66
102
{ACAD_REACTORS
330
47
102
}
330
47
100
AcDbScale
 70
     0
300
3" = 1'-0"
140
3.0
141
12.0
290
     0
  0
SCALE
  5
67
102
{ACAD_REACTORS
330
47
102
}
330
47
100
AcDbScale
 70
     0
300
6" = 1'-0"
140
6.0
141
12.0
290
     0
  0
SCALE
  5
68
102
{ACAD_REACTORS
330
47
102
}
330
47
100
AcDbScale
 70
     0
300
1'-0" = 1'-0"
140
12.0
141
12.0
290
     0
  0
ENDSEC
  0
EOF
