  0
SECTION
  2
HEADER
  9
$ACADVER
  1
AC1015
  9
$ACADMAINTVER
 70
     6
  9
$DWGCODEPAGE
  3
ANSI_949
  9
$INSBASE
 10
0.0
 20
0.0
 30
0.0
  9
$EXTMIN
 10
-62.71763956161989
 20
-49.97180738881175
 30
0.0
  9
$EXTMAX
 10
48.70033333333335
 20
43.37500000000001
 30
0.0
  9
$LIMMIN
 10
0.0
 20
0.0
  9
$LIMMAX
 10
420.0
 20
297.0
  9
$ORTHOMODE
 70
     0
  9
$REGENMODE
 70
     1
  9
$FILLMODE
 70
     1
  9
$QTEXTMODE
 70
     0
  9
$MIRRTEXT
 70
     1
  9
$LTSCALE
 40
1.0
  9
$ATTMODE
 70
     1
  9
$TEXTSIZE
 40
3.5
  9
$TRACEWID
 40
1.0
  9
$TEXTSTYLE
  7
Standard
  9
$CLAYER
  8
0
  9
$CELTYPE
  6
ByLayer
  9
$CECOLOR
 62
   256
  9
$CELTSCALE
 40
1.0
  9
$DISPSILH
 70
     0
  9
$DIMSCALE
 40
1.0
  9
$DIMASZ
 40
3.302
  9
$DIMEXO
 40
1.0
  9
$DIMDLI
 40
3.75
  9
$DIMRND
 40
0.0
  9
$DIMDLE
 40
0.0
  9
$DIMEXE
 40
1.0
  9
$DIMTP
 40
0.0
  9
$DIMTM
 40
0.0
  9
$DIMTXT
 40
3.5
  9
$DIMCEN
 40
2.5
  9
$DIMTSZ
 40
0.0
  9
$DIMTOL
 70
     0
  9
$DIMLIM
 70
     0
  9
$DIMTIH
 70
     1
  9
$DIMTOH
 70
     1
  9
$DIMSE1
 70
     0
  9
$DIMSE2
 70
     0
  9
$DIMTAD
 70
     1
  9
$DIMZIN
 70
     0
  9
$DIMBLK
  1

  9
$DIMASO
 70
     1
  9
$DIMSHO
 70
     1
  9
$DIMPOST
  1

  9
$DIMAPOST
  1

  9
$DIMALT
 70
     0
  9
$DIMALTD
 70
     3
  9
$DIMALTF
 40
0.0393700787401575
  9
$DIMLFAC
 40
1.0
  9
$DIMTOFL
 70
     1
  9
$DIMTVP
 40
0.0
  9
$DIMTIX
 70
     0
  9
$DIMSOXD
 70
     0
  9
$DIMSAH
 70
     0
  9
$DIMBLK1
  1

  9
$DIMBLK2
  1

  9
$DIMSTYLE
  2
ISO-25
  9
$DIMCLRD
 70
     0
  9
$DIMCLRE
 70
     0
  9
$DIMCLRT
 70
     0
  9
$DIMTFAC
 40
1.0
  9
$DIMGAP
 40
1.524
  9
$DIMJUST
 70
     0
  9
$DIMSD1
 70
     0
  9
$DIMSD2
 70
     0
  9
$DIMTOLJ
 70
     0
  9
$DIMTZIN
 70
     0
  9
$DIMALTZ
 70
     0
  9
$DIMALTTZ
 70
     0
  9
$DIMUPT
 70
     0
  9
$DIMDEC
 70
     2
  9
$DIMTDEC
 70
     2
  9
$DIMALTU
 70
     2
  9
$DIMALTTD
 70
     3
  9
$DIMTXSTY
  7
Standard
  9
$DIMAUNIT
 70
     0
  9
$DIMADEC
 70
     2
  9
$DIMALTRND
 40
0.0
  9
$DIMAZIN
 70
     0
  9
$DIMDSEP
 70
    44
  9
$DIMATFIT
 70
     3
  9
$DIMFRAC
 70
     0
  9
$DIMLDRBLK
  1

  9
$DIMLUNIT
 70
     2
  9
$DIMLWD
 70
    -2
  9
$DIMLWE
 70
    -2
  9
$DIMTMOVE
 70
     0
  9
$LUNITS
 70
     2
  9
$LUPREC
 70
     2
  9
$SKETCHINC
 40
1.0
  9
$FILLETRAD
 40
10.0
  9
$AUNITS
 70
     0
  9
$AUPREC
 70
     2
  9
$MENU
  1
.
  9
$ELEVATION
 40
0.0
  9
$PELEVATION
 40
0.0
  9
$THICKNESS
 40
0.0
  9
$LIMCHECK
 70
     0
  9
$CHAMFERA
 40
0.0
  9
$CHAMFERB
 40
0.0
  9
$CHAMFERC
 40
0.0
  9
$CHAMFERD
 40
0.0
  9
$SKPOLY
 70
     0
  9
$TDCREATE
 40
2458260.792549387
  9
$TDUCREATE
 40
2458260.417549387
  9
$TDUPDATE
 40
2458268.744557083
  9
$TDUUPDATE
 40
2458268.369557083
  9
$TDINDWG
 40
0.0004883449
  9
$TDUSRTIMER
 40
0.0004883333
  9
$USRTIMER
 70
     1
  9
$ANGBASE
 50
0.0
  9
$ANGDIR
 70
     0
  9
$PDMODE
 70
     0
  9
$PDSIZE
 40
-1.0
  9
$PLINEWID
 40
0.0
  9
$SPLFRAME
 70
     0
  9
$SPLINETYPE
 70
     6
  9
$SPLINESEGS
 70
     8
  9
$HANDSEED
  5
149
  9
$SURFTAB1
 70
     6
  9
$SURFTAB2
 70
     6
  9
$SURFTYPE
 70
     6
  9
$SURFU
 70
     6
  9
$SURFV
 70
     6
  9
$UCSBASE
  2

  9
$UCSNAME
  2

  9
$UCSORG
 10
0.0
 20
0.0
 30
0.0
  9
$UCSXDIR
 10
1.0
 20
0.0
 30
0.0
  9
$UCSYDIR
 10
0.0
 20
1.0
 30
0.0
  9
$UCSORTHOREF
  2

  9
$UCSORTHOVIEW
 70
     0
  9
$UCSORGTOP
 10
0.0
 20
0.0
 30
0.0
  9
$UCSORGBOTTOM
 10
0.0
 20
0.0
 30
0.0
  9
$UCSORGLEFT
 10
0.0
 20
0.0
 30
0.0
  9
$UCSORGRIGHT
 10
0.0
 20
0.0
 30
0.0
  9
$UCSORGFRONT
 10
0.0
 20
0.0
 30
0.0
  9
$UCSORGBACK
 10
0.0
 20
0.0
 30
0.0
  9
$PUCSBASE
  2

  9
$PUCSNAME
  2

  9
$PUCSORG
 10
0.0
 20
0.0
 30
0.0
  9
$PUCSXDIR
 10
1.0
 20
0.0
 30
0.0
  9
$PUCSYDIR
 10
0.0
 20
1.0
 30
0.0
  9
$PUCSORTHOREF
  2

  9
$PUCSORTHOVIEW
 70
     0
  9
$PUCSORGTOP
 10
0.0
 20
0.0
 30
0.0
  9
$PUCSORGBOTTOM
 10
0.0
 20
0.0
 30
0.0
  9
$PUCSORGLEFT
 10
0.0
 20
0.0
 30
0.0
  9
$PUCSORGRIGHT
 10
0.0
 20
0.0
 30
0.0
  9
$PUCSORGFRONT
 10
0.0
 20
0.0
 30
0.0
  9
$PUCSORGBACK
 10
0.0
 20
0.0
 30
0.0
  9
$USERI1
 70
     0
  9
$USERI2
 70
     0
  9
$USERI3
 70
     0
  9
$USERI4
 70
     0
  9
$USERI5
 70
     0
  9
$USERR1
 40
0.0
  9
$USERR2
 40
0.0
  9
$USERR3
 40
0.0
  9
$USERR4
 40
0.0
  9
$USERR5
 40
0.0
  9
$WORLDVIEW
 70
     1
  9
$SHADEDGE
 70
     3
  9
$SHADEDIF
 70
    70
  9
$TILEMODE
 70
     1
  9
$MAXACTVP
 70
    64
  9
$PINSBASE
 10
0.0
 20
0.0
 30
0.0
  9
$PLIMCHECK
 70
     0
  9
$PEXTMIN
 10
1.000000000000000E+20
 20
1.000000000000000E+20
 30
1.000000000000000E+20
  9
$PEXTMAX
 10
-1.000000000000000E+20
 20
-1.000000000000000E+20
 30
-1.000000000000000E+20
  9
$PLIMMIN
 10
0.0
 20
0.0
  9
$PLIMMAX
 10
0.0
 20
0.0
  9
$UNITMODE
 70
     0
  9
$VISRETAIN
 70
     1
  9
$PLINEGEN
 70
     0
  9
$PSLTSCALE
 70
     1
  9
$TREEDEPTH
 70
  3020
  9
$CMLSTYLE
  2
Standard
  9
$CMLJUST
 70
     0
  9
$CMLSCALE
 40
20.0
  9
$PROXYGRAPHICS
 70
     1
  9
$MEASUREMENT
 70
     1
  9
$CELWEIGHT
370
    -1
  9
$ENDCAPS
280
     0
  9
$JOINSTYLE
280
     0
  9
$LWDISPLAY
290
     1
  9
$INSUNITS
 70
     4
  9
$HYPERLINKBASE
  1

  9
$STYLESHEET
  1

  9
$XEDIT
290
     1
  9
$CEPSNTYPE
380
     0
  9
$PSTYLEMODE
290
     1
  9
$FINGERPRINTGUID
  2
{D702D75E-4D60-43B9-860E-5761D0213F96}
  9
$VERSIONGUID
  2
{FAEB1C32-E019-11D5-929B-00C0DF256EC4}
  9
$EXTNAMES
290
     1
  9
$PSVPSCALE
 40
0.0
  9
$OLESTARTUP
290
     0
  0
ENDSEC
  0
SECTION
  2
CLASSES
  0
CLASS
  1
ACDBDICTIONARYWDFLT
  2
AcDbDictionaryWithDefault
  3
ObjectDBX Classes
 90
        0
280
     0
281
     0
  0
CLASS
  1
VISUALSTYLE
  2
AcDbVisualStyle
  3
ObjectDBX Classes
 90
     4095
280
     0
281
     0
  0
CLASS
  1
MATERIAL
  2
AcDbMaterial
  3
ObjectDBX Classes
 90
     1153
280
     0
281
     0
  0
CLASS
  1
SCALE
  2
AcDbScale
  3
ObjectDBX Classes
 90
     1153
280
     0
281
     0
  0
CLASS
  1
TABLESTYLE
  2
AcDbTableStyle
  3
ObjectDBX Classes
 90
     4095
280
     0
281
     0
  0
CLASS
  1
MLEADERSTYLE
  2
AcDbMLeaderStyle
  3
ACDB_MLEADERSTYLE_CLASS
 90
     4095
280
     0
281
     0
  0
CLASS
  1
SUN
  2
AcDbSun
  3
SCENEOE
 90
     1153
280
     0
281
     0
  0
CLASS
  1
ACDBPLACEHOLDER
  2
AcDbPlaceHolder
  3
ObjectDBX Classes
 90
        0
280
     0
281
     0
  0
CLASS
  1
LAYOUT
  2
AcDbLayout
  3
ObjectDBX Classes
 90
        0
280
     0
281
     0
  0
ENDSEC
  0
SECTION
  2
TABLES
  0
TABLE
  2
VPORT
  5
8
330
0
100
AcDbSymbolTable
 70
     1
  0
VPORT
  5
29
330
8
100
AcDbSymbolTableRecord
100
AcDbViewportTableRecord
  2
*Active
 70
     0
 10
0.0
 20
0.0
 11
1.0
 21
1.0
 12
-4.71829443612836
 22
-16.40453389141002
 13
0.0
 23
0.0
 14
10.0
 24
10.0
 15
10.0
 25
10.0
 16
0.0
 26
0.0
 36
1.0
 17
0.0
 27
0.0
 37
0.0
 40
121.8891084605072
 41
2.727272727272728
 42
50.0
 43
0.0
 44
0.0
 50
0.0
 51
0.0
 71
    16
 72
  2000
 73
     1
 74
     3
 75
     0
 76
     0
 77
     0
 78
     0
281
     0
 65
     1
110
0.0
120
0.0
130
0.0
111
1.0
121
0.0
131
0.0
112
0.0
122
1.0
132
0.0
 79
     0
146
0.0
  0
ENDTAB
  0
TABLE
  2
LTYPE
  5
5
330
0
100
AcDbSymbolTable
 70
     6
  0
LTYPE
  5
14
330
5
100
AcDbSymbolTableRecord
100
AcDbLinetypeTableRecord
  2
ByBlock
 70
     0
  3

 72
    65
 73
     0
 40
0.0
  0
LTYPE
  5
15
330
5
100
AcDbSymbolTableRecord
100
AcDbLinetypeTableRecord
  2
ByLayer
 70
     0
  3

 72
    65
 73
     0
 40
0.0
  0
LTYPE
  5
16
330
5
100
AcDbSymbolTableRecord
100
AcDbLinetypeTableRecord
  2
Continuous
 70
     0
  3
Solid line
 72
    65
 73
     0
 40
0.0
  0
LTYPE
  5
6E
330
5
100
AcDbSymbolTableRecord
100
AcDbLinetypeTableRecord
  2
HIDDEN
 70
     0
  3
Hidden __ __ __ __ __ __ __ __ __ __ __ __ __ __
 72
    65
 73
     2
 40
1.905
 49
1.27
 74
     0
 49
-0.635
 74
     0
  0
LTYPE
  5
6F
330
5
100
AcDbSymbolTableRecord
100
AcDbLinetypeTableRecord
  2
PHANTOM
 70
     0
  3
Phantom ______  __  __  ______  __  __  ______
 72
    65
 73
     6
 40
12.7
 49
6.35
 74
     0
 49
-1.27
 74
     0
 49
1.27
 74
     0
 49
-1.27
 74
     0
 49
1.27
 74
     0
 49
-1.27
 74
     0
  0
LTYPE
  5
70
330
5
100
AcDbSymbolTableRecord
100
AcDbLinetypeTableRecord
  2
CENTER
 70
     0
  3
Center ____ _ ____ _ ____ _ ____ _ ____ _ ____
 72
    65
 73
     4
 40
10.16
 49
6.35
 74
     0
 49
-1.27
 74
     0
 49
1.27
 74
     0
 49
-1.27
 74
     0
  0
LTYPE
  5
71
330
5
100
AcDbSymbolTableRecord
100
AcDbLinetypeTableRecord
  2
CENTERX2
 70
     0
  3
Center (2x) ________  __  ________  __  _____
 72
    65
 73
     4
 40
20.32
 49
12.7
 74
     0
 49
-2.54
 74
     0
 49
2.54
 74
     0
 49
-2.54
 74
     0
  0
LTYPE
  5
72
330
5
100
AcDbSymbolTableRecord
100
AcDbLinetypeTableRecord
  2
DOT2
 70
     0
  3
Dot (.5x) ........................................
 72
    65
 73
     2
 40
0.635
 49
0.0
 74
     0
 49
-0.635
 74
     0
  0
ENDTAB
  0
TABLE
  2
LAYER
  5
2
330
0
100
AcDbSymbolTable
 70
    17
  0
LAYER
  5
10
330
2
100
AcDbSymbolTableRecord
100
AcDbLayerTableRecord
  2
0
 70
     0
 62
     7
  6
Continuous
370
    -3
390
F
  0
LAYER
  5
73
330
2
100
AcDbSymbolTableRecord
100
AcDbLayerTableRecord
  2
FORMAT
 70
     0
 62
     2
  6
Continuous
370
    -3
390
F
  0
LAYER
  5
74
330
2
100
AcDbSymbolTableRecord
100
AcDbLayerTableRecord
  2
외형선
 70
     0
 62
   100
  6
Continuous
370
    35
390
F
  0
LAYER
  5
75
330
2
100
AcDbSymbolTableRecord
100
AcDbLayerTableRecord
  2
숨은선
 70
     0
 62
     2
  6
HIDDEN
370
    25
390
F
  0
LAYER
  5
76
330
2
100
AcDbSymbolTableRecord
100
AcDbLayerTableRecord
  2
중심선
 70
     0
 62
     1
  6
CENTERX2
370
    -3
390
F
  0
LAYER
  5
77
330
2
100
AcDbSymbolTableRecord
100
AcDbLayerTableRecord
  2
파단선
 70
     0
 62
     4
  6
Continuous
370
    -3
390
F
  0
LAYER
  5
78
330
2
100
AcDbSymbolTableRecord
100
AcDbLayerTableRecord
  2
해칭선
 70
     0
 62
   100
  6
Continuous
370
    -3
390
F
  0
LAYER
  5
79
330
2
100
AcDbSymbolTableRecord
100
AcDbLayerTableRecord
  2
가는실선
 70
     0
 62
     4
  6
Continuous
370
    -3
390
F
  0
LAYER
  5
7A
330
2
100
AcDbSymbolTableRecord
100
AcDbLayerTableRecord
  2
치수_보조선
 70
     0
 62
     4
  6
Continuous
370
    -3
390
F
  0
LAYER
  5
7B
330
2
100
AcDbSymbolTableRecord
100
AcDbLayerTableRecord
  2
치수문자_일반주서
 70
     0
 62
     7
  6
Continuous
370
    25
390
F
  0
LAYER
  5
7C
330
2
100
AcDbSymbolTableRecord
100
AcDbLayerTableRecord
  2
개별주서
 70
     0
 62
   100
  6
Continuous
370
    35
390
F
  0
LAYER
  5
7D
330
2
100
AcDbSymbolTableRecord
100
AcDbLayerTableRecord
  2
중간선
 70
     0
 62
     2
  6
Continuous
370
    25
390
F
  0
LAYER
  5
7E
330
2
100
AcDbSymbolTableRecord
100
AcDbLayerTableRecord
  2
윤곽선
 70
     0
 62
     3
  6
Continuous
370
    50
390
F
  0
LAYER
  5
7F
330
2
100
AcDbSymbolTableRecord
100
AcDbLayerTableRecord
  2
중심마크
 70
     0
 62
   100
  6
Continuous
370
    35
390
F
  0
LAYER
  5
80
330
2
100
AcDbSymbolTableRecord
100
AcDbLayerTableRecord
  2
가상선
 70
     0
 62
     4
  6
PHANTOM
370
    -3
390
F
  0
LAYER
  5
81
330
2
100
AcDbSymbolTableRecord
100
AcDbLayerTableRecord
  2
특수지정선
 70
     0
 62
     5
  6
CENTERX2
370
    70
390
F
  0
LAYER
  5
13F
330
2
100
AcDbSymbolTableRecord
100
AcDbLayerTableRecord
  2
Defpoints
 70
     0
 62
     7
  6
Continuous
290
     0
370
    -3
390
F
  0
ENDTAB
  0
TABLE
  2
STYLE
  5
3
330
0
100
AcDbSymbolTable
 70
     2
  0
STYLE
  5
11
330
3
100
AcDbSymbolTableRecord
100
AcDbTextStyleTableRecord
  2
Standard
 70
     0
 40
0.0
 41
1.0
 50
0.0
 71
     0
 42
3.5
  3
txt
  4

  0
STYLE
  5
97
330
3
100
AcDbSymbolTableRecord
100
AcDbTextStyleTableRecord
  2
SLDTEXTSTYLE0
 70
     0
 40
0.0
 41
0.75
 50
0.0
 71
     0
 42
3.5
  3
TXT
  4

  0
ENDTAB
  0
TABLE
  2
VIEW
  5
6
330
0
100
AcDbSymbolTable
 70
     0
  0
ENDTAB
  0
TABLE
  2
UCS
  5
7
330
0
100
AcDbSymbolTable
 70
     0
  0
ENDTAB
  0
TABLE
  2
APPID
  5
9
330
0
100
AcDbSymbolTable
 70
     2
  0
APPID
  5
12
330
9
100
AcDbSymbolTableRecord
100
AcDbRegAppTableRecord
  2
ACAD
 70
     0
  0
APPID
  5
140
330
9
100
AcDbSymbolTableRecord
100
AcDbRegAppTableRecord
  2
PE_URL
 70
     0
  0
ENDTAB
  0
TABLE
  2
DIMSTYLE
  5
A
330
0
100
AcDbSymbolTable
 70
     4
100
AcDbDimStyleTable
  0
DIMSTYLE
105
27
330
A
100
AcDbSymbolTableRecord
100
AcDbDimStyleTableRecord
  2
ISO-25
 70
     0
 41
2.5
 42
0.625
 43
3.75
 44
1.25
 73
     0
 74
     0
 77
     1
 78
     8
140
2.5
141
2.5
143
0.03937007874016
147
0.625
171
     3
172
     1
178
     0
271
     2
272
     2
274
     3
278
    44
283
     0
284
     8
340
11
  0
DIMSTYLE
105
DA
102
{ACAD_REACTORS
330
D9
102
}
330
A
100
AcDbSymbolTableRecord
100
AcDbDimStyleTableRecord
  2
SLDDIMSTYLE0
 70
     0
 41
3.302
 44
0.0
 45
0.000000001
 73
     0
 74
     0
 77
     1
 78
    12
 79
     3
140
3.5
147
0.875
172
     1
173
     1
178
     0
271
     1
272
     1
276
     2
284
    12
289
     0
340
97
  0
DIMSTYLE
105
E8
102
{ACAD_REACTORS
330
E7
330
10C
102
}
330
A
100
AcDbSymbolTableRecord
100
AcDbDimStyleTableRecord
  2
SLDDIMSTYLE1
 70
     0
 41
3.302
 44
0.0
 45
0.000000001
 73
     0
 74
     0
 77
     1
 78
    12
 79
     3
140
3.5
147
0.875
173
     1
178
     0
271
     2
272
     2
276
     2
284
    12
340
97
  0
DIMSTYLE
105
F3
102
{ACAD_REACTORS
330
F2
330
100
102
}
330
A
100
AcDbSymbolTableRecord
100
AcDbDimStyleTableRecord
  2
SLDDIMSTYLE2
 70
     0
 41
3.302
 44
0.0
 45
0.000000001
 73
     0
 74
     0
 77
     1
 78
    12
 79
     3
140
3.5
147
0.875
172
     1
173
     1
178
     0
271
     2
272
     2
276
     2
284
    12
289
     0
340
97
  0
ENDTAB
  0
TABLE
  2
BLOCK_RECORD
  5
1
330
0
100
AcDbSymbolTable
 70
     8
  0
BLOCK_RECORD
  5
1F
330
1
100
AcDbSymbolTableRecord
100
AcDbBlockTableRecord
  2
*Model_Space
340
22
  0
BLOCK_RECORD
  5
1B
330
1
100
AcDbSymbolTableRecord
100
AcDbBlockTableRecord
  2
*Paper_Space
340
1E
  0
BLOCK_RECORD
  5
23
330
1
100
AcDbSymbolTableRecord
100
AcDbBlockTableRecord
  2
*Paper_Space0
340
26
  0
BLOCK_RECORD
  5
82
330
1
100
AcDbSymbolTableRecord
100
AcDbBlockTableRecord
  2
블럭10
340
0
102
{BLKREFS
331
D2
102
}
  0
BLOCK_RECORD
  5
DB
330
1
100
AcDbSymbolTableRecord
100
AcDbBlockTableRecord
  2
_D
340
0
  0
BLOCK_RECORD
  5
E9
330
1
100
AcDbSymbolTableRecord
100
AcDbBlockTableRecord
  2
_D_1
340
0
  0
BLOCK_RECORD
  5
F4
330
1
100
AcDbSymbolTableRecord
100
AcDbBlockTableRecord
  2
_D_2
340
0
  0
BLOCK_RECORD
  5
101
330
1
100
AcDbSymbolTableRecord
100
AcDbBlockTableRecord
  2
_D_3
340
0
  0
BLOCK_RECORD
  5
10D
330
1
100
AcDbSymbolTableRecord
100
AcDbBlockTableRecord
  2
_D_4
340
0
  0
BLOCK_RECORD
  5
116
330
1
100
AcDbSymbolTableRecord
100
AcDbBlockTableRecord
  2
SW_DOWELSYMBOL_0
340
0
102
{BLKREFS
331
11C
102
}
  0
ENDTAB
  0
ENDSEC
  0
SECTION
  2
BLOCKS
  0
BLOCK
  5
20
330
1F
100
AcDbEntity
  8
0
100
AcDbBlockBegin
  2
*Model_Space
 70
     0
 10
0.0
 20
0.0
 30
0.0
  3
*Model_Space
  1

  0
ENDBLK
  5
21
330
1F
100
AcDbEntity
  8
0
100
AcDbBlockEnd
  0
BLOCK
  5
1C
330
1B
100
AcDbEntity
 67
     1
  8
0
100
AcDbBlockBegin
  2
*Paper_Space
 70
     0
 10
0.0
 20
0.0
 30
0.0
  3
*Paper_Space
  1

  0
ENDBLK
  5
1D
330
1B
100
AcDbEntity
 67
     1
  8
0
100
AcDbBlockEnd
  0
BLOCK
  5
24
330
23
100
AcDbEntity
  8
0
100
AcDbBlockBegin
  2
*Paper_Space0
 70
     0
 10
0.0
 20
0.0
 30
0.0
  3
*Paper_Space0
  1

  0
ENDBLK
  5
25
330
23
100
AcDbEntity
  8
0
100
AcDbBlockEnd
  0
BLOCK
  5
83
330
82
100
AcDbEntity
  8
0
100
AcDbBlockBegin
  2
블럭10
 70
     2
 10
0.0
 20
0.0
 30
0.0
  3
블럭10
  1

  0
ELLIPSE
  5
85
330
82
100
AcDbEntity
  8
중심선
100
AcDbEllipse
 10
20.54032771741204
 20
12.0471743016438
 30
0.0
 11
6.600054785286829
 21
-1.261213355974178E-13
 31
0.0
210
0.0
220
0.0
230
1.0
 40
0.636358354079598
 41
0.9219305317359503
 42
6.513795318482858
  0
ELLIPSE
  5
86
330
82
100
AcDbEntity
  8
중심선
100
AcDbEllipse
 10
20.54032771746488
 20
12.04717430159265
 30
0.0
 11
3.960054785062283
 21
1.540847449632565E-10
 31
0.0
210
0.0
220
0.0
230
1.0
 40
0.3939339440162632
 41
1.131841032648279
 42
5.62031148352944
  0
LINE
  5
87
330
82
100
AcDbEntity
  8
중심선
100
AcDbLine
 10
2.268634060543552
 20
16.24717430164393
 30
0.0
 11
5.714909304380834
 21
16.24717430164393
 31
0.0
  0
LINE
  5
88
330
82
100
AcDbEntity
  8
중심선
100
AcDbLine
 10
5.245725140726316
 20
7.84717430164391
 30
0.0
 11
8.692000384563599
 21
7.84717430164391
 31
0.0
  0
LINE
  5
89
330
82
100
AcDbEntity
  8
중심선
100
AcDbLine
 10
15.74043728645272
 20
16.24717430164393
 30
0.0
 11
8.692000384563599
 21
7.84717430164391
 31
0.0
  0
LINE
  5
8A
330
82
100
AcDbEntity
  8
중심선
100
AcDbLine
 10
0.1404042013395286
 20
13.71084872107135
 30
0.0
 11
3.58671253028996
 21
13.71088815037384
 31
0.0
  0
LINE
  5
8B
330
82
100
AcDbEntity
  8
중심선
100
AcDbLine
 10
2.750260043222114
 20
10.84717430164391
 30
0.0
 11
6.196535287059397
 21
10.84717430164391
 31
0.0
  0
LINE
  5
8C
330
82
100
AcDbEntity
  8
중심선
100
AcDbLine
 10
12.29416204261559
 20
16.24717430164393
 30
0.0
 11
5.245725140726316
 21
7.84717430164391
 31
0.0
  0
LINE
  5
8D
330
82
100
AcDbEntity
  8
중심선
100
AcDbLine
 10
10.72767329541681
 20
16.24717430164393
 30
0.0
 11
6.196535287059397
 21
10.84717430164391
 31
0.0
  0
LINE
  5
8E
330
82
100
AcDbEntity
  8
중심선
100
AcDbLine
 10
7.28139805157953
 20
16.24717430164393
 30
0.0
 11
2.750260043222114
 21
10.84717430164391
 31
0.0
  0
LINE
  5
8F
330
82
100
AcDbEntity
  8
중심선
100
AcDbLine
 10
5.714909304380834
 20
16.24717430164393
 30
0.0
 11
3.58671253028996
 21
13.71088815037384
 31
0.0
  0
LINE
  5
90
330
82
100
AcDbEntity
  8
중심선
100
AcDbLine
 10
2.268634060543552
 20
16.24717430164393
 30
0.0
 11
0.1404042013395286
 21
13.71084872107135
 31
0.0
  0
LINE
  5
91
330
82
100
AcDbEntity
  8
중심선
100
AcDbLine
 10
7.28139805157953
 20
16.24717430164393
 30
0.0
 11
10.72767329541681
 21
16.24717430164393
 31
0.0
  0
LINE
  5
92
330
82
100
AcDbEntity
  8
중심선
100
AcDbLine
 10
12.29416204261559
 20
16.24717430164393
 30
0.0
 11
15.74043728645272
 21
16.24717430164393
 31
0.0
  0
LINE
  5
93
330
82
100
AcDbEntity
  8
중심선
100
AcDbLine
 10
19.22036997980202
 20
11.08717430171403
 30
0.0
 11
23.66174974927406
 21
11.08717430171406
 31
0.0
  0
LINE
  5
94
330
82
100
AcDbEntity
  8
중심선
100
AcDbLine
 10
19.22039502424796
 20
13.00717430171391
 30
0.0
 11
19.22036997980202
 21
11.08717430171403
 31
0.0
  0
LINE
  5
95
330
82
100
AcDbEntity
  8
중심선
100
AcDbLine
 10
19.22039502424796
 20
13.00717430171391
 30
0.0
 11
26.96566020931264
 21
13.00717430171391
 31
0.0
  0
LINE
  5
96
330
82
100
AcDbEntity
  8
중심선
100
AcDbLine
 10
22.22332737316547
 20
13.45928029700563
 30
0.0
 11
24.52862924686651
 21
15.39360700705356
 31
0.0
  0
ATTDEF
  5
98
330
82
100
AcDbEntity
  8
FORMAT
 62
     2
100
AcDbText
 10
-16.11926103943555
 20
2.075366912832191
 30
0.0
 40
4.233333333333333
  1
SEME7310035E [ 4 FLUTE ]
 41
0.75
  7
SLDTEXTSTYLE0
 11
-16.11926103943555
 21
-0.0412997538344756
 31
0.0
100
AcDbAttributeDefinition
  3

  2
AUTOATTR0
 70
     0
 74
     1
  0
ENDBLK
  5
84
330
82
100
AcDbEntity
  8
0
100
AcDbBlockEnd
  0
BLOCK
  5
DC
330
DB
100
AcDbEntity
  8
0
100
AcDbBlockBegin
  2
_D
 70
     0
 10
0.0
 20
0.0
 30
0.0
  3
_D
  1

  0
LINE
  5
DE
330
DB
100
AcDbEntity
  8
치수문자_일반주서
 62
     0
370
    -2
100
AcDbLine
 10
35.21250000000001
 20
-5.000000000000007
 30
0.0
 11
48.15000000000003
 21
-4.999999999999958
 31
0.0
  0
LINE
  5
DF
330
DB
100
AcDbEntity
  8
치수문자_일반주서
 62
     0
370
    -2
100
AcDbLine
 10
35.21250000000001
 20
4.999999999999995
 30
0.0
 11
48.14999999999999
 21
5.000000000000044
 31
0.0
  0
LINE
  5
E0
330
DB
100
AcDbEntity
  8
치수문자_일반주서
 62
     0
370
    -2
100
AcDbLine
 10
48.15000000000001
 20
-1.697999999999959
 30
0.0
 11
48.15000000000001
 21
1.698000000000044
 31
0.0
  0
SOLID
  5
E1
330
DB
100
AcDbEntity
  8
치수문자_일반주서
 62
     0
100
AcDbTrace
 10
47.59966666666668
 20
-1.697999999999961
 30
0.0
 11
48.70033333333335
 21
-1.697999999999957
 31
0.0
 12
48.15000000000003
 22
-4.999999999999958
 32
0.0
 13
48.15000000000003
 23
-4.999999999999958
 33
0.0
  0
SOLID
  5
E2
330
DB
100
AcDbEntity
  8
치수문자_일반주서
 62
     0
100
AcDbTrace
 10
48.70033333333334
 20
1.698000000000046
 30
0.0
 11
47.59966666666667
 21
1.698000000000042
 31
0.0
 12
48.14999999999999
 22
5.000000000000044
 32
0.0
 13
48.14999999999999
 23
5.000000000000044
 33
0.0
  0
MTEXT
  5
E3
330
DB
100
AcDbEntity
  8
치수문자_일반주서
 62
     0
100
AcDbMText
 10
43.77500000000001
 20
-0.0000000000000211
 30
0.0
 40
3.5
 41
0.0
 71
     2
 72
     1
  1
\A1;%%c10
  7
SLDTEXTSTYLE0
 11
-3.552713678800500E-15
 21
1.0
 31
0.0
 73
     1
 44
1.0
  0
POINT
  5
E4
330
DB
100
AcDbEntity
  8
Defpoints
 62
     0
100
AcDbPoint
 10
35.15000000000001
 20
-5.000000000000007
 30
0.0
  0
POINT
  5
E5
330
DB
100
AcDbEntity
  8
Defpoints
 62
     0
100
AcDbPoint
 10
35.15000000000001
 20
4.999999999999995
 30
0.0
  0
POINT
  5
E6
330
DB
100
AcDbEntity
  8
Defpoints
 62
     0
100
AcDbPoint
 10
48.14999999999999
 20
5.000000000000044
 30
0.0
  0
ENDBLK
  5
DD
330
DB
100
AcDbEntity
  8
0
100
AcDbBlockEnd
  0
BLOCK
  5
EA
330
E9
100
AcDbEntity
  8
0
100
AcDbBlockBegin
  2
_D_1
 70
     0
 10
0.0
 20
0.0
 30
0.0
  3
_D_1
  1

  0
LINE
  5
EC
330
E9
100
AcDbEntity
  8
치수문자_일반주서
 62
     0
370
    -2
100
AcDbLine
 10
-44.84999999999999
 20
4.562499999999986
 30
0.0
 11
-44.84999999999999
 21
39.00000000000001
 31
0.0
  0
LINE
  5
ED
330
E9
100
AcDbEntity
  8
치수문자_일반주서
 62
     0
370
    -2
100
AcDbLine
 10
35.15000000000001
 20
-0.4375000000000053
 30
0.0
 11
35.15000000000001
 21
39.00000000000001
 31
0.0
  0
LINE
  5
EE
330
E9
100
AcDbEntity
  8
치수문자_일반주서
 62
     0
370
    -2
100
AcDbLine
 10
-41.54799999999999
 20
39.00000000000001
 30
0.0
 11
31.84800000000001
 21
39.00000000000001
 31
0.0
  0
SOLID
  5
EF
330
E9
100
AcDbEntity
  8
치수문자_일반주서
 62
     0
100
AcDbTrace
 10
-41.54799999999999
 20
39.55033333333335
 30
0.0
 11
-41.54799999999999
 21
38.44966666666668
 31
0.0
 12
-44.84999999999999
 22
39.00000000000001
 32
0.0
 13
-44.84999999999999
 23
39.00000000000001
 33
0.0
  0
SOLID
  5
F0
330
E9
100
AcDbEntity
  8
치수문자_일반주서
 62
     0
100
AcDbTrace
 10
31.84800000000001
 20
38.44966666666668
 30
0.0
 11
31.84800000000001
 21
39.55033333333335
 31
0.0
 12
35.15000000000001
 22
39.00000000000001
 32
0.0
 13
35.15000000000001
 23
39.00000000000001
 33
0.0
  0
MTEXT
  5
F1
330
E9
100
AcDbEntity
  8
치수문자_일반주서
 62
     0
100
AcDbMText
 10
-4.849999999999991
 20
43.37500000000001
 30
0.0
 40
3.5
 41
0.0
 71
     2
 72
     1
  1
\A1;80
  7
SLDTEXTSTYLE0
 73
     1
 44
1.0
  0
POINT
  5
141
330
E9
100
AcDbEntity
  8
Defpoints
 62
     0
100
AcDbPoint
 10
-44.84999999999999
 20
4.499999999999986
 30
0.0
  0
POINT
  5
142
330
E9
100
AcDbEntity
  8
Defpoints
 62
     0
100
AcDbPoint
 10
35.15000000000001
 20
-0.5000000000000053
 30
0.0
  0
POINT
  5
143
330
E9
100
AcDbEntity
  8
Defpoints
 62
     0
100
AcDbPoint
 10
35.15000000000001
 20
39.00000000000001
 30
0.0
  0
ENDBLK
  5
EB
330
E9
100
AcDbEntity
  8
0
100
AcDbBlockEnd
  0
BLOCK
  5
F5
330
F4
100
AcDbEntity
  8
0
100
AcDbBlockBegin
  2
_D_2
 70
     0
 10
0.0
 20
0.0
 30
0.0
  3
_D_2
  1

  0
LINE
  5
F7
330
F4
100
AcDbEntity
  8
치수문자_일반주서
 62
     0
370
    -2
100
AcDbLine
 10
-44.41249999999999
 20
4.999999999999971
 30
0.0
 11
-58.3426395616199
 21
4.99999999999992
 31
0.0
  0
LINE
  5
F8
330
F4
100
AcDbEntity
  8
치수문자_일반주서
 62
     0
370
    -2
100
AcDbLine
 10
-44.41249999999999
 20
-5.000000000000011
 30
0.0
 11
-58.34263956161986
 21
-5.000000000000062
 31
0.0
  0
LINE
  5
F9
330
F4
100
AcDbEntity
  8
치수문자_일반주서
 62
     0
370
    -2
100
AcDbLine
 10
-58.34263956161988
 20
1.69799999999992
 30
0.0
 11
-58.34263956161988
 21
-1.698000000000063
 31
0.0
  0
SOLID
  5
FA
330
F4
100
AcDbEntity
  8
치수문자_일반주서
 62
     0
100
AcDbTrace
 10
-57.79230622828655
 20
1.697999999999922
 30
0.0
 11
-58.89297289495322
 21
1.697999999999918
 31
0.0
 12
-58.3426395616199
 22
4.99999999999992
 32
0.0
 13
-58.3426395616199
 23
4.99999999999992
 33
0.0
  0
SOLID
  5
FB
330
F4
100
AcDbEntity
  8
치수문자_일반주서
 62
     0
100
AcDbTrace
 10
-58.89297289495321
 20
-1.698000000000065
 30
0.0
 11
-57.79230622828654
 21
-1.698000000000061
 31
0.0
 12
-58.34263956161986
 22
-5.000000000000062
 32
0.0
 13
-58.34263956161986
 23
-5.000000000000062
 33
0.0
  0
MTEXT
  5
FC
330
F4
100
AcDbEntity
  8
치수문자_일반주서
 62
     0
100
AcDbMText
 10
-62.71763956161988
 20
-1.816159748007752
 30
0.0
 40
3.5
 41
0.0
 71
     2
 72
     1
  1
\A1;%%c10
  7
SLDTEXTSTYLE0
 11
-3.552713678800507E-15
 21
1.0
 31
0.0
 73
     1
 44
1.0
  0
POINT
  5
FD
330
F4
100
AcDbEntity
  8
Defpoints
 62
     0
100
AcDbPoint
 10
-44.34999999999999
 20
4.999999999999971
 30
0.0
  0
POINT
  5
FE
330
F4
100
AcDbEntity
  8
Defpoints
 62
     0
100
AcDbPoint
 10
-44.34999999999999
 20
-5.000000000000011
 30
0.0
  0
POINT
  5
FF
330
F4
100
AcDbEntity
  8
Defpoints
 62
     0
100
AcDbPoint
 10
-58.34263956161988
 20
-5.000000000000063
 30
0.0
  0
ENDBLK
  5
F6
330
F4
100
AcDbEntity
  8
0
100
AcDbBlockEnd
  0
BLOCK
  5
102
330
101
100
AcDbEntity
  8
0
100
AcDbBlockBegin
  2
_D_3
 70
     0
 10
0.0
 20
0.0
 30
0.0
  3
_D_3
  1

  0
LINE
  5
104
330
101
100
AcDbEntity
  8
치수문자_일반주서
 62
     0
370
    -2
100
AcDbLine
 10
20.15000000000001
 20
4.527979450588996
 30
0.0
 11
20.15000000000001
 21
15.31139775317665
 31
0.0
  0
LINE
  5
105
330
101
100
AcDbEntity
  8
치수문자_일반주서
 62
     0
370
    -2
100
AcDbLine
 10
35.15000000000001
 20
-0.4375000000000053
 30
0.0
 11
35.15000000000001
 21
15.31139775317665
 31
0.0
  0
LINE
  5
106
330
101
100
AcDbEntity
  8
치수문자_일반주서
 62
     0
370
    -2
100
AcDbLine
 10
23.45200000000001
 20
15.31139775317665
 30
0.0
 11
31.84800000000001
 21
15.31139775317665
 31
0.0
  0
SOLID
  5
107
330
101
100
AcDbEntity
  8
치수문자_일반주서
 62
     0
100
AcDbTrace
 10
23.45200000000001
 20
15.86173108650998
 30
0.0
 11
23.45200000000001
 21
14.76106441984331
 31
0.0
 12
20.15000000000001
 22
15.31139775317665
 32
0.0
 13
20.15000000000001
 23
15.31139775317665
 33
0.0
  0
SOLID
  5
108
330
101
100
AcDbEntity
  8
치수문자_일반주서
 62
     0
100
AcDbTrace
 10
31.84800000000001
 20
14.76106441984331
 30
0.0
 11
31.84800000000001
 21
15.86173108650998
 31
0.0
 12
35.15000000000001
 22
15.31139775317665
 32
0.0
 13
35.15000000000001
 23
15.31139775317665
 33
0.0
  0
MTEXT
  5
109
330
101
100
AcDbEntity
  8
치수문자_일반주서
 62
     0
100
AcDbMText
 10
27.65000000000001
 20
19.68639775317665
 30
0.0
 40
3.5
 41
0.0
 71
     2
 72
     1
  1
\A1;15
  7
SLDTEXTSTYLE0
 73
     1
 44
1.0
  0
POINT
  5
10A
330
101
100
AcDbEntity
  8
Defpoints
 62
     0
100
AcDbPoint
 10
20.15000000000001
 20
4.465479450588996
 30
0.0
  0
POINT
  5
10B
330
101
100
AcDbEntity
  8
Defpoints
 62
     0
100
AcDbPoint
 10
35.15000000000001
 20
-0.5000000000000053
 30
0.0
  0
POINT
  5
144
330
101
100
AcDbEntity
  8
Defpoints
 62
     0
100
AcDbPoint
 10
35.15000000000001
 20
15.31139775317665
 30
0.0
  0
ENDBLK
  5
103
330
101
100
AcDbEntity
  8
0
100
AcDbBlockEnd
  0
BLOCK
  5
10E
330
10D
100
AcDbEntity
  8
0
100
AcDbBlockBegin
  2
_D_4
 70
     0
 10
0.0
 20
0.0
 30
0.0
  3
_D_4
  1

  0
LINE
  5
110
330
10D
100
AcDbEntity
  8
치수문자_일반주서
 62
     0
370
    -2
100
AcDbLine
 10
35.15000000000001
 20
5.037437185533096
 30
0.0
 11
35.15000000000001
 21
29.67472671188727
 31
0.0
  0
LINE
  5
111
330
10D
100
AcDbEntity
  8
치수문자_일반주서
 62
     0
370
    -2
100
AcDbLine
 10
0.1500000000000039
 20
4.912499999999988
 30
0.0
 11
0.1500000000000021
 21
29.67472671188727
 31
0.0
  0
LINE
  5
112
330
10D
100
AcDbEntity
  8
치수문자_일반주서
 62
     0
370
    -2
100
AcDbLine
 10
31.84800000000001
 20
29.67472671188727
 30
0.0
 11
3.452000000000002
 21
29.67472671188727
 31
0.0
  0
SOLID
  5
113
330
10D
100
AcDbEntity
  8
치수문자_일반주서
 62
     0
100
AcDbTrace
 10
31.84800000000001
 20
29.12439337855394
 30
0.0
 11
31.84800000000001
 21
30.22506004522061
 31
0.0
 12
35.15000000000001
 22
29.67472671188727
 32
0.0
 13
35.15000000000001
 23
29.67472671188727
 33
0.0
  0
SOLID
  5
114
330
10D
100
AcDbEntity
  8
치수문자_일반주서
 62
     0
100
AcDbTrace
 10
3.452000000000002
 20
30.22506004522061
 30
0.0
 11
3.452000000000002
 21
29.12439337855394
 31
0.0
 12
0.1500000000000021
 22
29.67472671188727
 32
0.0
 13
0.1500000000000021
 23
29.67472671188727
 33
0.0
  0
MTEXT
  5
115
330
10D
100
AcDbEntity
  8
치수문자_일반주서
 62
     0
100
AcDbMText
 10
18.43629469445927
 20
34.04972671188727
 30
0.0
 40
3.5
 41
0.0
 71
     2
 72
     1
  1
\A1;35
  7
SLDTEXTSTYLE0
 73
     1
 44
1.0
  0
POINT
  5
145
330
10D
100
AcDbEntity
  8
Defpoints
 62
     0
100
AcDbPoint
 10
35.15000000000001
 20
4.974937185533096
 30
0.0
  0
POINT
  5
146
330
10D
100
AcDbEntity
  8
Defpoints
 62
     0
100
AcDbPoint
 10
0.1500000000000039
 20
4.849999999999988
 30
0.0
  0
POINT
  5
147
330
10D
100
AcDbEntity
  8
Defpoints
 62
     0
100
AcDbPoint
 10
0.1500000000000039
 20
29.67472671188727
 30
0.0
  0
ENDBLK
  5
10F
330
10D
100
AcDbEntity
  8
0
100
AcDbBlockEnd
  0
BLOCK
  5
117
330
116
100
AcDbEntity
  8
0
100
AcDbBlockBegin
  2
SW_DOWELSYMBOL_0
 70
     0
 10
0.0
 20
0.0
 30
0.0
  3
SW_DOWELSYMBOL_0
  1

  0
CIRCLE
  5
119
330
116
100
AcDbEntity
  8
해칭선
 62
     0
100
AcDbCircle
 10
0.0
 20
0.0
 30
0.0
 40
3.000000000000003
  0
HATCH
  5
11A
330
116
100
AcDbEntity
  8
0
  6
Continuous
 62
     0
370
    18
100
AcDbHatch
 10
0.0
 20
0.0
 30
0.0
210
0.0
220
0.0
230
1.0
  2
SOLID
 70
     1
 71
     0
 91
        1
 92
        0
 93
        3
 72
     2
 10
-0.0000000000000017
 20
-0.0000000000000035
 40
3.000000000000003
 50
0.0
 51
90.0
 73
     1
 72
     1
 10
-0.0000000000000017
 20
2.999999999999999
 11
-0.0000000000000017
 21
-0.0000000000000036
 72
     1
 10
-0.0000000000000017
 20
-0.0000000000000035
 11
3.000000000000001
 21
-0.0000000000000035
 97
        0
 75
     0
 76
     1
 98
        1
 10
0.0
 20
0.0
  0
HATCH
  5
11B
330
116
100
AcDbEntity
  8
0
  6
Continuous
 62
     0
370
    18
100
AcDbHatch
 10
0.0
 20
0.0
 30
0.0
210
0.0
220
0.0
230
1.0
  2
SOLID
 70
     1
 71
     0
 91
        1
 92
        0
 93
        3
 72
     2
 10
-0.0000000000000017
 20
-0.0000000000000035
 40
3.000000000000003
 50
180.0
 51
270.0000000000008
 73
     1
 72
     1
 10
-0.0000000000000017
 20
-3.000000000000006
 11
-0.0000000000000017
 21
-0.0000000000000036
 72
     1
 10
-0.0000000000000017
 20
-0.0000000000000035
 11
-3.000000000000004
 21
-0.0000000000000035
 97
        0
 75
     0
 76
     1
 98
        1
 10
0.0
 20
0.0
  0
ENDBLK
  5
118
330
116
100
AcDbEntity
  8
0
100
AcDbBlockEnd
  0
ENDSEC
  0
SECTION
  2
ENTITIES
  0
LINE
  5
99
330
1F
100
AcDbEntity
  8
0
  6
Continuous
 62
     4
370
    25
100
AcDbLine
 10
0.0
 20
4.999999999999996
 30
0.0
 11
-44.34999999999999
 21
4.999999999999981
 31
0.0
  0
LINE
  5
9A
330
1F
100
AcDbEntity
  8
0
  6
Continuous
 62
     4
370
    25
100
AcDbLine
 10
-44.34999999999999
 20
-5.00000000000001
 30
0.0
 11
0.0
 21
-4.999999999999996
 31
0.0
  0
LINE
  5
9B
330
1F
100
AcDbEntity
  8
0
  6
Continuous
 62
     4
370
    25
100
AcDbLine
 10
-44.34999999999999
 20
4.999999999999984
 30
0.0
 11
-44.84999999999999
 21
4.499999999999984
 31
0.0
  0
LINE
  5
9C
330
1F
100
AcDbEntity
  8
0
  6
Continuous
 62
     4
370
    25
100
AcDbLine
 10
-44.84999999999999
 20
-4.500000000000015
 30
0.0
 11
-44.34999999999999
 21
-5.000000000000016
 31
0.0
  0
LINE
  5
9D
330
1F
100
AcDbEntity
  8
0
  6
Continuous
 62
     4
370
    25
100
AcDbLine
 10
0.0
 20
-4.99999999999999
 30
0.0
 11
0.1500000000000039
 21
-4.849999999999986
 31
0.0
  0
LINE
  5
9E
330
1F
100
AcDbEntity
  8
0
  6
Continuous
 62
     4
370
    25
100
AcDbLine
 10
0.1500000000000039
 20
4.84999999999999
 30
0.0
 11
0.0
 21
4.999999999999993
 31
0.0
  0
LINE
  5
9F
330
1F
100
AcDbEntity
  8
0
  6
Continuous
 62
     4
370
    25
100
AcDbLine
 10
18.63021872184868
 20
4.849999999999994
 30
0.0
 11
0.1500000000000039
 21
4.849999999999988
 31
0.0
  0
LINE
  5
A0
330
1F
100
AcDbEntity
  8
0
  6
Continuous
 62
     4
370
    25
100
AcDbLine
 10
0.1500000000000039
 20
-4.849999999999988
 30
0.0
 11
18.63021872184868
 21
-4.849999999999982
 31
0.0
  0
LINE
  5
A1
330
1F
100
AcDbEntity
  8
0
  6
Continuous
 62
     1
370
    25
100
AcDbLine
 10
33.66825090687085
 20
-5.000000000000007
 30
0.0
 11
35.15000000000001
 21
-5.000000000000007
 31
0.0
1001
PE_URL
1000

  0
LINE
  5
A2
330
1F
100
AcDbEntity
  8
0
  6
Continuous
 62
     1
370
    25
100
AcDbLine
 10
26.21004021408949
 20
4.999999999999995
 30
0.0
 11
23.2445446483671
 21
4.999999999999995
 31
0.0
  0
LINE
  5
A3
330
1F
100
AcDbEntity
  8
0
  6
Continuous
 62
     1
370
    25
100
AcDbLine
 10
23.24454464836706
 20
-5.000000000000007
 30
0.0
 11
26.21004021408949
 21
-5.000000000000007
 31
0.0
  0
LINE
  5
A4
330
1F
100
AcDbEntity
  8
0
  6
Continuous
 62
     1
370
    25
100
AcDbLine
 10
35.15000000000001
 20
4.999999999999995
 30
0.0
 11
33.66825090687085
 21
4.999999999999995
 31
0.0
1001
PE_URL
1000

  0
LINE
  5
A5
330
1F
100
AcDbEntity
  8
0
  6
Continuous
 62
     4
370
    25
100
AcDbLine
 10
0.0
 20
4.999999999999991
 30
0.0
 11
0.0
 21
-4.999999999999992
 31
0.0
  0
LINE
  5
A6
330
1F
100
AcDbEntity
  8
0
  6
Continuous
 62
     4
370
    25
100
AcDbLine
 10
-44.34999999999999
 20
4.999999999999986
 30
0.0
 11
-44.34999999999999
 21
-5.000000000000014
 31
0.0
  0
LINE
  5
A7
330
1F
100
AcDbEntity
  8
0
  6
Continuous
 62
     4
370
    25
100
AcDbLine
 10
-44.84999999999999
 20
4.499999999999986
 30
0.0
 11
-44.84999999999999
 21
-4.50000000000002
 31
0.0
  0
LINE
  5
A8
330
1F
100
AcDbEntity
  8
0
  6
Continuous
 62
     4
370
    25
100
AcDbLine
 10
0.1500000000000039
 20
4.849999999999988
 30
0.0
 11
0.1500000000000039
 21
-4.849999999999992
 31
0.0
  0
SPLINE
  5
A9
330
1F
100
AcDbEntity
  8
0
  6
Continuous
 62
     4
370
    25
100
AcDbSpline
210
0.0
220
0.0
230
1.0
 70
    24
 71
     3
 72
    10
 73
     6
 74
     0
 42
0.000000001
 43
0.00000001
 40
0.0
 40
0.0
 40
0.0
 40
0.0
 40
0.5
 40
0.5
 40
1.0
 40
1.0
 40
1.0
 40
1.0
 10
20.15000000000001
 20
2.010058151701057
 30
0.0
 10
20.15000000000001
 20
1.813985601039828
 30
0.0
 10
20.15000000000001
 20
1.574785989734659
 30
0.0
 10
20.15000000000001
 20
0.9975514691195078
 30
0.0
 10
20.15000000000001
 20
0.6765273518139515
 30
0.0
 10
20.15000000000001
 20
0.320072052178821
 30
0.0
  0
SPLINE
  5
AA
330
1F
100
AcDbEntity
  8
0
  6
Continuous
 62
     4
370
    25
100
AcDbSpline
210
0.0
220
0.0
230
1.0
 70
     8
 71
     3
 72
    14
 73
    10
 74
     0
 42
0.000000001
 43
0.00000001
 40
0.0
 40
0.0
 40
0.0
 40
0.0
 40
0.2499999999999998
 40
0.2499999999999998
 40
0.4999999999999996
 40
0.4999999999999996
 40
0.7499999999999998
 40
0.7499999999999998
 40
1.0
 40
1.0
 40
1.0
 40
1.0
 10
19.17039522536576
 20
-2.345816169889647
 30
0.0
 10
19.08147553805998
 20
-2.288706264975736
 30
0.0
 10
19.00284000300182
 20
-2.222288507032904
 30
0.0
 10
18.86531004934772
 20
-2.070310514749797
 30
0.0
 10
18.80695799484313
 20
-1.984532594616209
 30
0.0
 10
18.71617115582858
 20
-1.802527224174469
 30
0.0
 10
18.68254092456092
 20
-1.703898849850153
 30
0.0
 10
18.63978027507935
 20
-1.501830299505249
 30
0.0
 10
18.63021872184868
 20
-1.398194240124688
 30
0.0
 10
18.63021872184868
 20
-1.292153575966516
 30
0.0
  0
SPLINE
  5
AB
330
1F
100
AcDbEntity
  8
0
  6
Continuous
 62
     4
370
    25
100
AcDbSpline
210
0.0
220
0.0
230
1.0
 70
     8
 71
     3
 72
    18
 73
    14
 74
     0
 42
0.000000001
 43
0.00000001
 40
0.0
 40
0.0
 40
0.0
 40
0.0
 40
0.1249999999999999
 40
0.1249999999999999
 40
0.2499999999999999
 40
0.2499999999999999
 40
0.3749999999999999
 40
0.3749999999999999
 40
0.5
 40
0.5
 40
0.7499999999999999
 40
0.7499999999999999
 40
1.0
 40
1.0
 40
1.0
 40
1.0
 10
18.63021872184868
 20
0.7000765017272945
 30
0.0
 10
18.63021872184868
 20
0.7974592488954798
 30
0.0
 10
18.63787687909151
 20
0.8931337252529798
 30
0.0
 10
18.67157181232326
 20
1.080709295703643
 30
0.0
 10
18.69810445719527
 20
1.173777733432014
 30
0.0
 10
18.77031466070493
 20
1.348822560997248
 30
0.0
 10
18.81560768666206
 20
1.430837490969303
 30
0.0
 10
18.92554414309213
 20
1.583809651327744
 30
0.0
 10
18.99069300605121
 20
1.654750708746001
 30
0.0
 10
19.20569738100227
 20
1.839345017737173
 30
0.0
 10
19.38077471361134
 20
1.929880942392499
 30
0.0
 10
19.75604302400544
 20
2.030148473348588
 30
0.0
 10
19.95548334627679
 20
2.040695814863623
 30
0.0
 10
20.15000000000001
 20
2.010058151701057
 30
0.0
  0
SPLINE
  5
AC
330
1F
100
AcDbEntity
  8
0
  6
Continuous
 62
     4
370
    25
100
AcDbSpline
210
0.0
220
0.0
230
1.0
 70
     8
 71
     3
 72
    18
 73
    14
 74
     0
 42
0.000000001
 43
0.00000001
 40
0.0
 40
0.0
 40
0.0
 40
0.0
 40
0.1249999999999998
 40
0.1249999999999998
 40
0.2499999999999997
 40
0.2499999999999997
 40
0.3749999999999996
 40
0.3749999999999996
 40
0.4999999999999994
 40
0.4999999999999994
 40
0.7499999999999998
 40
0.7499999999999998
 40
1.0
 40
1.0
 40
1.0
 40
1.0
 10
18.63021872184868
 20
4.799207527470457
 30
0.0
 10
18.63021872184868
 20
4.785001979455318
 30
0.0
 10
18.63787687909151
 20
4.768017225187283
 30
0.0
 10
18.67157181232326
 20
4.729031986468968
 30
0.0
 10
18.69810445719526
 20
4.70669328294958
 30
0.0
 10
18.77031466070493
 20
4.659548639751314
 30
0.0
 10
18.81560768666205
 20
4.634833294598113
 30
0.0
 10
18.92554414309213
 20
4.584814345493134
 30
0.0
 10
18.9906930060512
 20
4.559454813957622
 30
0.0
 10
19.20569738100227
 20
4.489612716058309
 30
0.0
 10
19.38077471361134
 20
4.449839955315379
 30
0.0
 10
19.75604302400544
 20
4.404998666956815
 30
0.0
 10
19.95548334627679
 20
4.399908399515363
 30
0.0
 10
20.15000000000001
 20
4.413860694084045
 30
0.0
  0
LINE
  5
AD
330
1F
100
AcDbEntity
  8
0
  6
Continuous
 62
     4
370
    25
100
AcDbLine
 10
18.63021872184868
 20
4.849999999999982
 30
0.0
 11
18.63021872184868
 21
4.674702037148119
 31
0.0
  0
SPLINE
  5
AE
330
1F
100
AcDbEntity
  8
0
  6
Continuous
 62
     4
370
    25
100
AcDbSpline
210
0.0
220
0.0
230
1.0
 70
     8
 71
     3
 72
    14
 73
    10
 74
     0
 42
0.000000001
 43
0.00000001
 40
0.0
 40
0.0
 40
0.0
 40
0.0
 40
0.25
 40
0.25
 40
0.5
 40
0.5
 40
0.75
 40
0.75
 40
1.0
 40
1.0
 40
1.0
 40
1.0
 10
19.17039522536576
 20
4.244955417561424
 30
0.0
 10
19.08147553805998
 20
4.276515074902861
 30
0.0
 10
19.00284000300182
 20
4.311741451543225
 30
0.0
 10
18.86531004934772
 20
4.386740809070333
 30
0.0
 10
18.80695799484312
 20
4.426499881755593
 30
0.0
 10
18.71617115582858
 20
4.50368365101128
 30
0.0
 10
18.68254092456091
 20
4.542101745953433
 30
0.0
 10
18.63978027507935
 20
4.612858692026226
 30
0.0
 10
18.63021872184868
 20
4.645390901956836
 30
0.0
 10
18.63021872184868
 20
4.674702037148126
 30
0.0
  0
SPLINE
  5
AF
330
1F
100
AcDbEntity
  8
0
  6
Continuous
 62
     4
370
    25
100
AcDbSpline
210
0.0
220
0.0
230
1.0
 70
     8
 71
     3
 72
     8
 73
     4
 74
     0
 42
0.000000001
 43
0.00000001
 40
0.0
 40
0.0
 40
0.0
 40
0.0
 40
1.0
 40
1.0
 40
1.0
 40
1.0
 10
20.14999999999998
 20
3.854041772931502
 30
0.0
 10
19.82295370281644
 20
3.998900291077579
 30
0.0
 10
19.49464633251633
 20
4.129871186562468
 30
0.0
 10
19.17039522536577
 20
4.244955417561423
 30
0.0
  0
LINE
  5
B0
330
1F
100
AcDbEntity
  8
0
  6
Continuous
 62
     4
370
    25
100
AcDbLine
 10
20.15000000000001
 20
2.249819263977717
 30
0.0
 11
20.15000000000001
 21
2.010058151701057
 31
0.0
  0
SPLINE
  5
B1
330
1F
100
AcDbEntity
  8
0
  6
Continuous
 62
     4
370
    25
100
AcDbSpline
210
0.0
220
0.0
230
1.0
 70
     8
 71
     3
 72
     8
 73
     4
 74
     0
 42
0.000000001
 43
0.00000001
 40
0.0
 40
0.0
 40
0.0
 40
0.0
 40
1.0
 40
1.0
 40
1.0
 40
1.0
 10
20.14999999999999
 20
-2.944293126116832
 30
0.0
 10
19.82295370281644
 20
-2.754675191968999
 30
0.0
 10
19.49464633251633
 20
-2.554070949665462
 30
0.0
 10
19.17039522536577
 20
-2.345816169889654
 30
0.0
  0
LINE
  5
B2
330
1F
100
AcDbEntity
  8
0
  6
Continuous
 62
     4
370
    25
100
AcDbLine
 10
20.15000000000001
 20
-2.944293126116841
 30
0.0
 11
20.15000000000001
 21
-3.065186666101785
 31
0.0
  0
SPLINE
  5
B3
330
1F
100
AcDbEntity
  8
0
  6
Continuous
 62
     4
370
    25
100
AcDbSpline
210
0.0
220
0.0
230
1.0
 70
     8
 71
     3
 72
    18
 73
    14
 74
     0
 42
0.000000001
 43
0.00000001
 40
0.0
 40
0.0
 40
0.0
 40
0.0
 40
0.1250000000000002
 40
0.1250000000000002
 40
0.2500000000000002
 40
0.2500000000000002
 40
0.3750000000000002
 40
0.3750000000000002
 40
0.5000000000000002
 40
0.5000000000000002
 40
0.7500000000000001
 40
0.7500000000000001
 40
1.0
 40
1.0
 40
1.0
 40
1.0
 10
18.63021872184868
 20
-4.799207527470473
 30
0.0
 10
18.63021872184868
 20
-4.785001979455333
 30
0.0
 10
18.63787687909151
 20
-4.768017225187279
 30
0.0
 10
18.67157181232326
 20
-4.729031986468967
 30
0.0
 10
18.69810445719527
 20
-4.706693282949577
 30
0.0
 10
18.77031466070493
 20
-4.659548639751313
 30
0.0
 10
18.81560768666206
 20
-4.634833294598114
 30
0.0
 10
18.92554414309214
 20
-4.584814345493134
 30
0.0
 10
18.99069300605121
 20
-4.559454813957625
 30
0.0
 10
19.20569738100227
 20
-4.489612716058313
 30
0.0
 10
19.38077471361134
 20
-4.449839955315386
 30
0.0
 10
19.75604302400544
 20
-4.404998666956823
 30
0.0
 10
19.9554833462768
 20
-4.399908399515373
 30
0.0
 10
20.15000000000001
 20
-4.413860694084053
 30
0.0
  0
LINE
  5
B4
330
1F
100
AcDbEntity
  8
0
  6
Continuous
 62
     4
370
    25
100
AcDbLine
 10
18.63021872184868
 20
-4.799207527470474
 30
0.0
 11
18.63021872184868
 21
-4.849999999999993
 31
0.0
  0
LINE
  5
B5
330
1F
100
AcDbEntity
  8
0
  6
Continuous
 62
     4
370
    25
100
AcDbLine
 10
18.63021872184868
 20
0.7000765017272949
 30
0.0
 11
18.63021872184868
 21
-1.292153575966518
 31
0.0
  0
SPLINE
  5
B6
330
1F
100
AcDbEntity
  8
0
  6
Continuous
 62
     4
370
    25
100
AcDbSpline
210
0.0
220
0.0
230
1.0
 70
    24
 71
     3
 72
    14
 73
    10
 74
     0
 42
0.000000001
 43
0.00000001
 40
0.0
 40
0.0
 40
0.0
 40
0.0
 40
0.25
 40
0.25
 40
0.5
 40
0.5
 40
0.75
 40
0.75
 40
1.0
 40
1.0
 40
1.0
 40
1.0
 10
20.15000000000001
 20
0.3200720521788051
 30
0.0
 10
20.15000000000001
 20
0.0815689222159022
 30
0.0
 10
20.15000000000001
 20
-0.1776585376745891
 30
0.0
 10
20.15000000000001
 20
-0.7250331780599647
 30
0.0
 10
20.15000000000001
 20
-1.013162132917457
 30
0.0
 10
20.15000000000001
 20
-1.594157075006389
 30
0.0
 10
20.15000000000001
 20
-1.886781516590984
 30
0.0
 10
20.15000000000001
 20
-2.44435317107797
 30
0.0
 10
20.15000000000001
 20
-2.70891234855611
 30
0.0
 10
20.15000000000001
 20
-2.944293126116842
 30
0.0
  0
LINE
  5
B7
330
1F
100
AcDbEntity
  8
0
  6
Continuous
 62
     4
370
    25
100
AcDbLine
 10
20.15000000000001
 20
4.413860694084044
 30
0.0
 11
20.15000000000001
 21
4.01299836447709
 31
0.0
  0
SPLINE
  5
B8
330
1F
100
AcDbEntity
  8
0
  6
Continuous
 62
     1
370
    25
100
AcDbSpline
210
0.0
220
0.0
230
1.0
 70
     8
 71
     3
 72
    18
 73
    14
 74
     0
 42
0.000000001
 43
0.00000001
 40
0.0
 40
0.0
 40
0.0
 40
0.0
 40
0.1006029234609281
 40
0.2012070491025983
 40
0.3018398661226755
 40
0.402528687991853
 40
0.5032509817124434
 40
0.6039092852066922
 40
0.6987648749223161
 40
0.7936089974573802
 40
0.888504890783178
 40
0.9834994006528245
 40
1.0
 40
1.0
 40
1.0
 40
1.0
 10
20.14999999999998
 20
2.249331739954724
 30
0.0
 10
20.60327407213081
 20
1.935033752338998
 30
0.0
 10
21.50982763290861
 20
1.306434021322178
 30
0.0
 10
22.86976688637537
 20
0.2834338134235562
 30
0.0
 10
24.23021656759059
 20
-0.7448002048421946
 30
0.0
 10
25.5914700108266
 20
-1.743703065243212
 30
0.0
 10
26.953075044144
 20
-2.66873197529467
 30
0.0
 10
28.28803704270973
 20
-3.467149075223093
 30
0.0
 10
29.59607857743649
 20
-4.112294058950089
 30
0.0
 10
30.87816022010707
 20
-4.596031516796582
 30
0.0
 10
32.16098370781168
 20
-4.891562529721239
 30
0.0
 10
33.09147831526084
 20
-5.01945545731111
 30
0.0
 10
33.59389612142247
 20
-4.990835403193437
 30
0.0
 10
33.66825090687085
 20
-4.98659980891843
 30
0.0
  0
LINE
  5
B9
330
1F
100
AcDbEntity
  8
0
  6
Continuous
 62
     4
370
    25
100
AcDbLine
 10
20.15000000000001
 20
2.24933173995475
 30
0.0
 11
20.15000000000001
 21
3.957539664383037
 31
0.0
  0
SPLINE
  5
BA
330
1F
100
AcDbEntity
  8
0
  6
Continuous
 62
     1
370
    25
100
AcDbSpline
210
0.0
220
0.0
230
1.0
 70
     8
 71
     3
 72
    38
 73
    34
 74
     0
 42
0.000000001
 43
0.00000001
 40
0.0
 40
0.0
 40
0.0
 40
0.0
 40
0.0625000000000001
 40
0.0625000000000001
 40
0.1250000000000001
 40
0.1250000000000001
 40
0.1875000000000002
 40
0.1875000000000002
 40
0.2500000000000002
 40
0.2500000000000002
 40
0.3125000000000002
 40
0.3125000000000002
 40
0.3750000000000003
 40
0.3750000000000003
 40
0.4375000000000003
 40
0.4375000000000003
 40
0.5000000000000003
 40
0.5000000000000003
 40
0.5625000000000003
 40
0.5625000000000003
 40
0.6250000000000003
 40
0.6250000000000003
 40
0.6875000000000002
 40
0.6875000000000002
 40
0.7500000000000002
 40
0.7500000000000002
 40
0.8125000000000001
 40
0.8125000000000001
 40
0.8750000000000001
 40
0.8750000000000001
 40
0.9375
 40
0.9375
 40
1.0
 40
1.0
 40
1.0
 40
1.0
 10
35.15000000000001
 20
-4.875828491775107
 30
0.0
 10
34.8397623829615
 20
-4.823798062989381
 30
0.0
 10
34.52552965321063
 20
-4.755318450552247
 30
0.0
 10
33.89840785369684
 20
-4.587163285811832
 30
0.0
 10
33.58815106150745
 20
-4.487835264775061
 30
0.0
 10
32.96383418072086
 20
-4.259691932892031
 30
0.0
 10
32.64902128733544
 20
-4.13068332859963
 30
0.0
 10
32.02347745692065
 20
-3.846586449731717
 30
0.0
 10
31.71395461847663
 20
-3.691793320916842
 30
0.0
 10
31.08735060823828
 20
-3.357444145523734
 30
0.0
 10
30.77275700239393
 20
-3.178237451335383
 30
0.0
 10
30.15035590103685
 20
-2.801247670457127
 30
0.0
 10
29.83831890758237
 20
-2.602651247664809
 30
0.0
 10
29.21100139811374
 20
-2.188736552325124
 30
0.0
 10
28.89934893290138
 20
-1.974229906410293
 30
0.0
 10
28.27657629139477
 20
-1.533695665158164
 30
0.0
 10
27.96192657531262
 20
-1.30681103018029
 30
0.0
 10
27.33547517682646
 20
-0.8465165606011527
 30
0.0
 10
27.02602332193157
 20
-0.6137179781037064
 30
0.0
 10
26.40025829413881
 20
-0.1438922386092523
 30
0.0
 10
26.08546660904431
 20
0.0927613070646012
 30
0.0
 10
25.46145367376779
 20
0.5624897713373357
 30
0.0
 10
25.15095372784387
 20
0.7958913954314064
 30
0.0
 10
24.52376292291419
 20
1.257381901376633
 30
0.0
 10
24.21005544174424
 20
1.484710621131218
 30
0.0
 10
23.58914170343579
 20
1.926483218298624
 30
0.0
 10
23.27481805881925
 20
2.142604346213882
 30
0.0
 10
22.64778002442102
 20
2.558746835839012
 30
0.0
 10
22.33773606185204
 20
2.758227621739478
 30
0.0
 10
21.71312977572962
 20
3.138536328414128
 30
0.0
 10
21.39830315187792
 20
3.319343927961672
 30
0.0
 10
20.77299515489379
 20
3.656847475808477
 30
0.0
 10
20.46337095145305
 20
3.813481912614709
 30
0.0
 10
20.15000000000009
 20
3.957539664382164
 30
0.0
  0
LINE
  5
BB
330
1F
100
AcDbEntity
  8
0
  6
Continuous
 62
     1
370
    25
100
AcDbLine
 10
35.15000000000001
 20
-5.00000000000001
 30
0.0
 11
35.15000000000001
 21
-4.875828491776312
 31
0.0
1001
PE_URL
1000

  0
SPLINE
  5
BC
330
1F
100
AcDbEntity
  8
0
  6
Continuous
 62
     4
370
    25
100
AcDbSpline
210
0.0
220
0.0
230
1.0
 70
    24
 71
     3
 72
     9
 73
     5
 74
     0
 42
0.000000001
 43
0.00000001
 40
0.0
 40
0.0
 40
0.0
 40
0.0
 40
0.7777134712595074
 40
1.0
 40
1.0
 40
1.0
 40
1.0
 10
20.15000000000001
 20
4.34742945248781
 30
0.0
 10
20.15000000000001
 20
4.253284738890422
 30
0.0
 10
20.15000000000001
 20
4.132231527037319
 30
0.0
 10
20.15000000000001
 20
4.034690435192772
 30
0.0
 10
20.15000000000001
 20
4.01300836447709
 30
0.0
  0
SPLINE
  5
BD
330
1F
100
AcDbEntity
  8
0
  6
Continuous
 62
     1
370
    25
100
AcDbSpline
210
0.0
220
0.0
230
1.0
 70
     8
 71
     3
 72
    38
 73
    34
 74
     0
 42
0.000000001
 43
0.00000001
 40
0.0
 40
0.0
 40
0.0
 40
0.0
 40
0.0625
 40
0.0625
 40
0.1249999999999999
 40
0.1249999999999999
 40
0.1874999999999999
 40
0.1874999999999999
 40
0.2499999999999999
 40
0.2499999999999999
 40
0.3124999999999999
 40
0.3124999999999999
 40
0.3749999999999999
 40
0.3749999999999999
 40
0.4374999999999999
 40
0.4374999999999999
 40
0.5
 40
0.5
 40
0.5625
 40
0.5625
 40
0.6249999999999999
 40
0.6249999999999999
 40
0.6874999999999999
 40
0.6874999999999999
 40
0.7499999999999999
 40
0.7499999999999999
 40
0.8124999999999999
 40
0.8124999999999999
 40
0.8749999999999998
 40
0.8749999999999998
 40
0.9374999999999999
 40
0.9374999999999999
 40
1.0
 40
1.0
 40
1.0
 40
1.0
 10
34.72853399215164
 20
-0.7951136757945936
 30
0.0
 10
34.42445695090792
 20
-0.5690713458306541
 30
0.0
 10
34.11858577787807
 20
-0.3400759913265955
 30
0.0
 10
33.5118747906054
 20
0.1173599504586259
 30
0.0
 10
33.21043221627603
 20
0.3459486761365537
 30
0.0
 10
32.60105095859639
 20
0.8011433398686968
 30
0.0
 10
32.29560756535822
 20
1.027107703571022
 30
0.0
 10
31.69179514706155
 20
1.469462954417299
 30
0.0
 10
31.38749295729899
 20
1.687305832122661
 30
0.0
 10
30.77787946751097
 20
2.111233827970981
 30
0.0
 10
30.47536707102743
 20
2.316680961487065
 30
0.0
 10
29.86988582775704
 20
2.71190531698314
 30
0.0
 10
29.56415140938826
 20
2.902243912328444
 30
0.0
 10
28.95530189474812
 20
3.2629145092952
 30
0.0
 10
28.65451911416218
 20
3.432860402498561
 30
0.0
 10
28.04666118738881
 20
3.751336578770659
 30
0.0
 10
27.74076791438872
 20
3.899567282230703
 30
0.0
 10
27.13367442561261
 20
4.16986591607639
 30
0.0
 10
26.83249910434529
 20
4.292023279383883
 30
0.0
 10
26.22325115936798
 20
4.509518586803017
 30
0.0
 10
25.91770303342279
 20
4.604450553686659
 30
0.0
 10
25.31334809138539
 20
4.764239604336774
 30
0.0
 10
25.00966019940941
 20
4.82956808576504
 30
0.0
 10
24.40001645388016
 20
4.92955003094499
 30
0.0
 10
24.09701779978233
 20
4.964058879744736
 30
0.0
 10
23.49202020407717
 20
5.001799847810208
 30
0.0
 10
23.18636000611038
 20
5.005043619208159
 30
0.0
 10
22.5773168320281
 20
4.97997821958021
 30
0.0
 10
22.27639559311683
 20
4.951826357169962
 30
0.0
 10
21.66886042525309
 20
4.864493684413235
 30
0.0
 10
21.36295864168726
 20
4.80522610789119
 30
0.0
 10
20.75550914280399
 20
4.657163312231013
 30
0.0
 10
20.45454391267395
 20
4.568531632481545
 30
0.0
 10
20.14999999999998
 20
4.465479450588937
 30
0.0
  0
LINE
  5
BE
330
1F
100
AcDbEntity
  8
0
  6
Continuous
 62
     1
370
    25
100
AcDbLine
 10
34.67884231207895
 20
-0.8299081647678033
 30
0.0
 11
34.64657050745176
 21
-0.8525051256393942
 31
0.0
1001
PE_URL
1000

  0
SPLINE
  5
BF
330
1F
100
AcDbEntity
  8
0
  6
Continuous
 62
     1
370
    25
100
AcDbSpline
210
0.0
220
0.0
230
1.0
 70
     8
 71
     3
 72
     8
 73
     4
 74
     0
 42
0.000000001
 43
0.00000001
 40
0.0
 40
0.0
 40
0.0
 40
0.0
 40
1.0
 40
1.0
 40
1.0
 40
1.0
 10
35.15000000000001
 20
-1.177879512971683
 30
0.0
 10
34.98313907780145
 20
-1.071714534609484
 30
0.0
 10
34.81528036384393
 20
-0.9631382736436063
 30
0.0
 10
34.646570507456
 20
-0.8525051256396929
 30
0.0
1001
PE_URL
1000

  0
LINE
  5
C0
330
1F
100
AcDbEntity
  8
0
  6
Continuous
 62
     1
370
    25
100
AcDbLine
 10
35.15000000000001
 20
-4.875828491776312
 30
0.0
 11
35.15000000000001
 21
-1.177879512971681
 31
0.0
1001
PE_URL
1000

  0
SPLINE
  5
C1
330
1F
100
AcDbEntity
  8
0
  6
Continuous
 62
     1
370
    25
100
AcDbSpline
210
0.0
220
0.0
230
1.0
 70
     8
 71
     3
 72
    15
 73
    11
 74
     0
 42
0.000000001
 43
0.00000001
 40
0.0
 40
0.0
 40
0.0
 40
0.0
 40
0.0806854104122932
 40
0.2032007461520517
 40
0.3257226681266493
 40
0.4606129059041932
 40
0.5955804412209076
 40
0.7304380417402514
 40
0.8652244738058507
 40
1.0
 40
1.0
 40
1.0
 40
1.0
 10
29.93852244130071
 20
-4.214970817281807
 30
0.0
 10
29.67519216841379
 20
-4.321094026158481
 30
0.0
 10
29.01201269567365
 20
-4.588358146370535
 30
0.0
 10
27.94968144770073
 20
-4.851973929713568
 30
0.0
 10
26.71043540111705
 20
-5.016908429483491
 30
0.0
 10
25.42989273105752
 20
-4.997977918729778
 30
0.0
 10
24.10878005778149
 20
-4.783674886385562
 30
0.0
 10
22.78854777749852
 20
-4.377751170186317
 30
0.0
 10
21.46913910080774
 20
-3.807954860149633
 30
0.0
 10
20.5897011735748
 20
-3.306507833425483
 30
0.0
 10
20.15000000000008
 20
-3.055794463773684
 30
0.0
  0
SPLINE
  5
C2
330
1F
100
AcDbEntity
  8
0
  6
Continuous
 62
     4
370
    25
100
AcDbSpline
210
0.0
220
0.0
230
1.0
 70
    24
 71
     3
 72
    24
 73
    20
 74
     0
 42
0.000000001
 43
0.00000001
 40
0.0
 40
0.0
 40
0.0
 40
0.0
 40
0.0624999999999997
 40
0.0624999999999997
 40
0.1249999999999994
 40
0.1249999999999994
 40
0.2499999999999996
 40
0.2499999999999996
 40
0.3749999999999996
 40
0.3749999999999996
 40
0.4999999999999997
 40
0.4999999999999997
 40
0.6249999999999998
 40
0.6249999999999998
 40
0.7499999999999998
 40
0.7499999999999998
 40
0.8749999999999999
 40
0.8749999999999999
 40
1.0
 40
1.0
 40
1.0
 40
1.0
 10
20.15000000000001
 20
2.249331739954751
 30
0.0
 10
20.15000000000001
 20
2.198949655474268
 30
0.0
 10
20.15000000000001
 20
2.147613943182221
 30
0.0
 10
20.15000000000001
 20
2.044102086546407
 30
0.0
 10
20.15000000000001
 20
1.98973919966228
 30
0.0
 10
20.15000000000001
 20
1.811548572898953
 30
0.0
 10
20.15000000000001
 20
1.67504227743874
 30
0.0
 10
20.15000000000001
 20
1.359687031577201
 30
0.0
 10
20.15000000000001
 20
1.180727598294737
 30
0.0
 10
20.15000000000001
 20
0.7762247791386063
 30
0.0
 10
20.15000000000001
 20
0.550525877265217
 30
0.0
 10
20.15000000000001
 20
0.0551581416579048
 30
0.0
 10
20.15000000000001
 20
-0.2146420489867246
 30
0.0
 10
20.15000000000001
 20
-0.7840864795374161
 30
0.0
 10
20.15000000000001
 20
-1.083695213466295
 30
0.0
 10
20.15000000000001
 20
-1.685086603285646
 30
0.0
 10
20.15000000000001
 20
-1.986559722762448
 30
0.0
 10
20.15000000000001
 20
-2.555382278748896
 30
0.0
 10
20.15000000000001
 20
-2.822271071781865
 30
0.0
 10
20.15000000000001
 20
-3.055794463774499
 30
0.0
  0
SPLINE
  5
C3
330
1F
100
AcDbEntity
  8
0
  6
Continuous
 62
     1
370
    25
100
AcDbSpline
210
0.0
220
0.0
230
1.0
 70
     8
 71
     3
 72
    15
 73
    11
 74
     0
 42
0.000000001
 43
0.00000001
 40
0.0
 40
0.0
 40
0.0
 40
0.0
 40
0.1343263803550437
 40
0.26846507435436
 40
0.4026061720174141
 40
0.5369394850070923
 40
0.6712588132025596
 40
0.80539522463666
 40
0.9395388470366434
 40
1.0
 40
1.0
 40
1.0
 40
1.0
 10
35.15000000000001
 20
1.107382733648238
 30
0.0
 10
34.74956911099668
 20
1.397874730752515
 30
0.0
 10
33.9492668315344
 20
1.978452837568283
 30
0.0
 10
32.74988701258188
 20
2.775852216069022
 30
0.0
 10
31.55048613360435
 20
3.485422235750464
 30
0.0
 10
30.34970617929203
 20
4.079332255727826
 30
0.0
 10
29.14902237797514
 20
4.543366195839211
 30
0.0
 10
27.94965416072014
 20
4.848755139959291
 30
0.0
 10
26.97034660438266
 20
5.001238665250832
 30
0.0
 10
26.39026421054444
 20
4.982051247947376
 30
0.0
 10
26.21004021408949
 20
4.976089968886315
 30
0.0
1001
PE_URL
1000

  0
LINE
  5
C4
330
1F
100
AcDbEntity
  8
0
  6
Continuous
 62
     1
370
    25
100
AcDbLine
 10
35.15000000000001
 20
-0.5000000000000226
 30
0.0
 11
35.15000000000001
 21
1.107382733648334
 31
0.0
1001
PE_URL
1000

  0
LINE
  5
C5
330
1F
100
AcDbEntity
  8
0
  6
Continuous
 62
     1
370
    25
100
AcDbLine
 10
35.15000000000001
 20
-0.500000000000023
 30
0.0
 11
34.72853399215165
 21
-0.7951136757946005
 31
0.0
1001
PE_URL
1000

  0
SPLINE
  5
C6
330
1F
100
AcDbEntity
  8
0
  6
Continuous
 62
     1
370
    25
100
AcDbSpline
210
0.0
220
0.0
230
1.0
 70
     8
 71
     3
 72
    11
 73
     7
 74
     0
 42
0.000000001
 43
0.00000001
 40
0.0
 40
0.0
 40
0.0
 40
0.0
 40
0.1961722714100887
 40
0.4639896628064618
 40
0.7320853721004427
 40
1.0
 40
1.0
 40
1.0
 40
1.0
 10
29.93852244130071
 20
4.214970817281802
 30
0.0
 10
30.25165859775452
 20
4.339007545846383
 30
0.0
 10
30.9922930340138
 20
4.632381117190657
 30
0.0
 10
32.16100597199188
 20
4.896547323247785
 30
0.0
 10
33.44499177861728
 20
5.03752368306941
 30
0.0
 10
34.300782958829
 20
4.970083369973068
 30
0.0
 10
34.72853399215164
 20
4.936374605169689
 30
0.0
1001
PE_URL
1000

  0
SPLINE
  5
C7
330
1F
100
AcDbEntity
  8
0
  6
Continuous
 62
     1
370
    25
100
AcDbSpline
210
0.0
220
0.0
230
1.0
 70
     8
 71
     3
 72
     8
 73
     4
 74
     0
 42
0.000000001
 43
0.00000001
 40
0.0
 40
0.0
 40
0.0
 40
0.0
 40
1.0
 40
1.0
 40
1.0
 40
1.0
 10
34.72853399215165
 20
4.936374605169696
 30
0.0
 10
34.73202017799903
 20
4.628240353381508
 30
0.0
 10
34.70865539914739
 20
4.325097380875557
 30
0.0
 10
34.64657050745168
 20
4.029152023025583
 30
0.0
1001
PE_URL
1000

  0
SPLINE
  5
C8
330
1F
100
AcDbEntity
  8
0
  6
Continuous
 62
     1
370
    25
100
AcDbSpline
210
0.0
220
0.0
230
1.0
 70
     8
 71
     3
 72
     8
 73
     4
 74
     0
 42
0.000000001
 43
0.00000001
 40
0.0
 40
0.0
 40
0.0
 40
0.0
 40
1.0
 40
1.0
 40
1.0
 40
1.0
 10
35.15000000000001
 20
3.844445757807339
 30
0.0
 10
34.98313907780136
 20
3.91519329994485
 30
0.0
 10
34.81528036384373
 20
3.976289209026759
 30
0.0
 10
34.64657050745573
 20
4.029152023034013
 30
0.0
1001
PE_URL
1000

  0
LINE
  5
C9
330
1F
100
AcDbEntity
  8
0
  6
Continuous
 62
     1
370
    25
100
AcDbLine
 10
35.15000000000001
 20
1.111516034732591
 30
0.0
 11
35.15000000000001
 21
3.844445757807338
 31
0.0
1001
PE_URL
1000

  0
LINE
  5
CA
330
1F
100
AcDbEntity
  8
0
  6
Continuous
 62
     1
370
    25
100
AcDbLine
 10
35.15000000000001
 20
-0.5000000000000053
 30
0.0
 11
35.15000000000001
 21
-1.177879512971683
 31
0.0
1001
PE_URL
1000

  0
SPLINE
  5
CB
330
1F
100
AcDbEntity
  8
0
  6
Continuous
 62
     1
370
    25
100
AcDbSpline
210
0.0
220
0.0
230
1.0
 70
     8
 71
     3
 72
    10
 73
     6
 74
     0
 42
0.000000001
 43
0.00000001
 40
0.0
 40
0.0
 40
0.0
 40
0.0
 40
0.4394301584874582
 40
0.8788655680596351
 40
1.0
 40
1.0
 40
1.0
 40
1.0
 10
20.14999999999999
 20
-4.465479450588965
 30
0.0
 10
20.60327678663491
 20
-4.598069849691877
 30
0.0
 10
21.50983577645336
 20
-4.863252232321085
 30
0.0
 10
22.54129163469841
 20
-5.013168528372871
 30
0.0
 10
23.11958114492646
 20
-4.985108781553528
 30
0.0
 10
23.24454464836706
 20
-4.979045306069045
 30
0.0
  0
LINE
  5
CC
330
1F
100
AcDbEntity
  8
0
  6
Continuous
 62
     4
370
    25
100
AcDbLine
 10
20.15000000000001
 20
-4.465479450589023
 30
0.0
 11
20.15000000000001
 21
-3.055794463774502
 31
0.0
  0
ELLIPSE
  5
CD
330
1F
100
AcDbEntity
  8
0
  6
Continuous
 62
     1
370
    25
100
AcDbEllipse
 10
35.86407400337107
 20
-0.0000000000000062
 30
0.0
 11
7.14074003371055
 21
0.0
 31
0.0
210
0.0
220
0.0
230
1.0
 40
0.7002075382097122
 41
1.670963747956457
 42
1.730497039761978
1001
PE_URL
1000

  0
LINE
  5
CE
330
1F
100
AcDbEntity
  8
0
  6
Continuous
 62
     1
370
    25
100
AcDbLine
 10
35.15000000000001
 20
3.844445757807338
 30
0.0
 11
35.15000000000001
 21
4.974937185533096
 31
0.0
1001
PE_URL
1000

  0
LINE
  5
CF
330
1F
100
AcDbEntity
  8
0
  6
Continuous
 62
     1
370
    25
100
AcDbLine
 10
35.15000000000001
 20
4.974937185533096
 30
0.0
 11
35.15000000000001
 21
4.999999999999997
 31
0.0
1001
PE_URL
1000

  0
LINE
  5
D0
330
1F
100
AcDbEntity
  8
중심선
100
AcDbLine
 10
-47.84999999999999
 20
-0.0000000000000114
 30
0.0
 11
38.15000000000002
 21
-0.0000000000000015
 31
0.0
  0
CIRCLE
  5
D1
330
1F
100
AcDbEntity
  8
해칭선
100
AcDbCircle
 10
0.0
 20
0.0
 30
0.0
 40
3.000000000000003
  0
INSERT
  5
D2
330
1F
100
AcDbEntity
  8
0
  6
Continuous
 62
     7
100
AcDbBlockReference
 66
     1
  2
블럭10
 10
-18.79027293212519
 20
-52.04717430164394
 30
0.0
  0
ATTRIB
  5
D3
330
D2
100
AcDbEntity
  8
FORMAT
 62
     2
100
AcDbText
 10
-34.90953397156075
 20
-49.97180738881175
 30
0.0
 40
4.233333333333333
  1
SEME7310035E [ 4 FLUTE ]
 41
0.75
  7
SLDTEXTSTYLE0
 11
-34.90953397156075
 21
-52.08847405547841
 31
0.0
100
AcDbAttribute
  2
AUTOATTR0
 70
     0
 74
     1
  0
SEQEND
  5
D4
330
D2
100
AcDbEntity
  8
0
  6
Continuous
 62
     7
  0
HATCH
  5
D5
330
1F
100
AcDbEntity
  8
중심선
100
AcDbHatch
 10
0.0
 20
0.0
 30
0.0
210
0.0
220
0.0
230
1.0
  2
SOLID
 70
     1
 71
     0
 91
        1
 92
        0
 93
        4
 72
     1
 10
-13.07536362774435
 20
-35.8
 11
-16.52163887158163
 21
-35.8
 72
     1
 10
-16.52163887158163
 20
-35.8
 11
-18.64986873078565
 21
-38.3363255805726
 72
     1
 10
-18.64986873078566
 20
-38.3363255805726
 11
-15.20356040183523
 21
-38.33628615127011
 72
     1
 10
-15.20356040183522
 20
-38.33628615127011
 11
-13.07536362774435
 21
-35.8
 97
        0
 75
     0
 76
     1
 98
        1
 10
8.649945079010193
 20
-0.0000000000000071
  0
HATCH
  5
D6
330
1F
100
AcDbEntity
  8
중심선
100
AcDbHatch
 10
0.0
 20
0.0
 30
0.0
210
0.0
220
0.0
230
1.0
  2
SOLID
 70
     1
 71
     0
 91
        1
 92
        0
 93
        4
 72
     1
 10
-8.0625996367084
 20
-35.8
 11
-11.50887488054565
 21
-35.8
 72
     1
 10
-11.50887488054565
 20
-35.8
 11
-16.04001288890307
 21
-41.20000000000002
 72
     1
 10
-16.04001288890307
 20
-41.20000000000002
 11
-12.59373764506579
 21
-41.20000000000002
 72
     1
 10
-12.59373764506579
 20
-41.20000000000002
 11
-8.0625996367084
 21
-35.8
 97
        0
 75
     0
 76
     1
 98
        1
 10
8.649945079010193
 20
-0.0000000000000071
  0
HATCH
  5
D7
330
1F
100
AcDbEntity
  8
중심선
100
AcDbHatch
 10
0.0
 20
0.0
 30
0.0
210
0.0
220
0.0
230
1.0
  2
SOLID
 70
     1
 71
     0
 91
        1
 92
        0
 93
        4
 72
     1
 10
-3.049835645672504
 20
-35.8
 11
-6.496110889509618
 21
-35.8
 72
     1
 10
-6.496110889509618
 20
-35.8
 11
-13.54454779139887
 21
-44.20000000000002
 72
     1
 10
-13.54454779139887
 20
-44.20000000000002
 11
-10.09827254756159
 21
-44.20000000000002
 72
     1
 10
-10.09827254756159
 20
-44.20000000000002
 11
-3.049835645672504
 21
-35.8
 97
        0
 75
     0
 76
     1
 98
        1
 10
8.649945079010193
 20
-0.0000000000000071
  0
HATCH
  5
D8
330
1F
100
AcDbEntity
  8
중심선
100
AcDbHatch
 10
0.0
 20
0.0
 30
0.0
210
0.0
220
0.0
230
1.0
  2
SOLID
 70
     1
 71
     0
 91
        1
 92
        0
 93
        6
 72
     3
 10
1.750054785339696
 20
-40.00000000005128
 11
3.960054785062283
 21
1.540882976769353E-10
 40
0.3939339440162628
 50
17.09539180608437
 51
320.0019657685086
 73
     0
 72
     1
 10
3.433054441040292
 20
-38.58789400463834
 11
5.738356314741329
 21
-36.65356729459039
 72
     3
 10
1.750054785286849
 20
-40.00000000000016
 11
6.600054785286829
 21
-1.278976924368180E-13
 40
0.636358354079598
 50
39.9987384933741
 51
368.4976242363725
 73
     1
 72
     1
 10
8.17538727718746
 20
-39.03999999993002
 11
0.4301220921227724
 21
-39.03999999993002
 72
     1
 10
0.4301220921227724
 20
-39.03999999993002
 11
0.4300970476768384
 21
-40.95999999992992
 72
     1
 10
0.4300970476768384
 20
-40.95999999992992
 11
4.871476817148875
 21
-40.95999999992989
 97
        0
 75
     0
 76
     1
 98
        1
 10
8.649945079010193
 20
-0.0000000000000071
  0
DIMENSION
  5
D9
330
1F
100
AcDbEntity
  8
치수문자_일반주서
100
AcDbDimension
  2
_D
 10
48.14999999999999
 20
5.000000000000044
 30
0.0
 11
48.15000000000001
 21
-0.0000000000000057
 31
0.0
 70
   160
  1
%%c<>
 71
     2
 42
10.0
 52
-270.0
  3
SLDDIMSTYLE0
100
AcDbAlignedDimension
 13
35.15000000000001
 23
-5.000000000000007
 33
0.0
 14
35.15000000000001
 24
4.999999999999995
 34
0.0
 50
90.0000000000002
100
AcDbRotatedDimension
  0
DIMENSION
  5
E7
330
1F
100
AcDbEntity
  8
치수문자_일반주서
100
AcDbDimension
  2
_D_1
 10
35.15000000000001
 20
39.00000000000001
 30
0.0
 11
-4.849999999999991
 21
39.00000000000001
 31
0.0
 70
   160
  1
<>
 71
     2
 42
80.0
  3
SLDDIMSTYLE1
100
AcDbAlignedDimension
 13
-44.84999999999999
 23
4.499999999999986
 33
0.0
 14
35.15000000000001
 24
-0.5000000000000053
 34
0.0
100
AcDbRotatedDimension
  0
DIMENSION
  5
F2
330
1F
100
AcDbEntity
  8
치수문자_일반주서
100
AcDbDimension
  2
_D_2
 10
-58.34263956161986
 20
-5.000000000000062
 30
0.0
 11
-58.34263956161988
 21
-1.816159748007737
 31
0.0
 70
   160
  1
%%c<>
 71
     2
 42
9.999999999999982
 52
-270.0
  3
SLDDIMSTYLE2
100
AcDbAlignedDimension
 13
-44.34999999999999
 23
4.999999999999971
 33
0.0
 14
-44.34999999999999
 24
-5.000000000000011
 34
0.0
 50
90.0000000000002
100
AcDbRotatedDimension
  0
DIMENSION
  5
100
330
1F
100
AcDbEntity
  8
치수문자_일반주서
100
AcDbDimension
  2
_D_3
 10
35.15000000000001
 20
15.31139775317665
 30
0.0
 11
27.65000000000001
 21
15.31139775317665
 31
0.0
 70
   160
  1
<>
 71
     2
 42
15.0
  3
SLDDIMSTYLE2
100
AcDbAlignedDimension
 13
20.15000000000001
 23
4.465479450588996
 33
0.0
 14
35.15000000000001
 24
-0.5000000000000053
 34
0.0
100
AcDbRotatedDimension
  0
DIMENSION
  5
10C
330
1F
100
AcDbEntity
  8
치수문자_일반주서
100
AcDbDimension
  2
_D_4
 10
0.1500000000000021
 20
29.67472671188727
 30
0.0
 11
18.43629469445927
 21
29.67472671188727
 31
0.0
 70
   160
  1
<>
 71
     2
 42
35.0
  3
SLDDIMSTYLE1
100
AcDbAlignedDimension
 13
35.15000000000001
 23
4.974937185533096
 33
0.0
 14
0.1500000000000039
 24
4.849999999999988
 34
0.0
100
AcDbRotatedDimension
  0
INSERT
  5
11C
330
1F
100
AcDbEntity
  8
해칭선
100
AcDbBlockReference
  2
SW_DOWELSYMBOL_0
 10
0.0
 20
0.0
 30
0.0
  0
ENDSEC
  0
SECTION
  2
OBJECTS
  0
DICTIONARY
  5
C
330
0
100
AcDbDictionary
281
     1
  3
ACAD_GROUP
350
D
  3
ACAD_LAYOUT
350
1A
  3
ACAD_MLINESTYLE
350
17
  3
ACAD_PLOTSETTINGS
350
19
  3
ACAD_PLOTSTYLENAME
350
E
  3
ACAD_SCALELIST
350
47
  3
APPDATA
350
13E
  3
DWGPROPS
350
148
  0
DICTIONARY
  5
D
102
{ACAD_REACTORS
330
C
102
}
330
C
100
AcDbDictionary
281
     1
  0
DICTIONARY
  5
1A
102
{ACAD_REACTORS
330
C
102
}
330
C
100
AcDbDictionary
281
     1
  3
Layout1
350
1E
  3
Layout2
350
26
  3
Model
350
22
  0
DICTIONARY
  5
17
102
{ACAD_REACTORS
330
C
102
}
330
C
100
AcDbDictionary
281
     1
  3
Standard
350
18
  0
DICTIONARY
  5
19
102
{ACAD_REACTORS
330
C
102
}
330
C
100
AcDbDictionary
281
     1
  0
ACDBDICTIONARYWDFLT
  5
E
102
{ACAD_REACTORS
330
C
102
}
330
C
100
AcDbDictionary
281
     1
  3
Normal
350
F
100
AcDbDictionaryWithDefault
340
F
  0
DICTIONARY
  5
47
102
{ACAD_REACTORS
330
C
102
}
330
C
100
AcDbDictionary
281
     1
  3
A0
350
48
  3
A1
350
49
  3
A2
350
4A
  3
A3
350
4B
  3
A4
350
4C
  3
A5
350
4D
  3
A6
350
4E
  3
A7
350
4F
  3
A8
350
50
  3
A9
350
51
  3
B0
350
52
  3
B1
350
53
  3
B2
350
54
  3
B3
350
55
  3
B4
350
56
  3
B5
350
57
  3
B6
350
58
  3
B7
350
59
  3
B8
350
5A
  3
B9
350
5B
  3
C0
350
5C
  3
C1
350
5D
  3
C2
350
5E
  3
C3
350
5F
  3
C4
350
60
  3
C5
350
61
  3
C6
350
62
  3
C7
350
63
  3
C8
350
64
  3
C9
350
65
  3
D0
350
66
  3
D1
350
67
  3
D2
350
68
  0
DICTIONARY
  5
13E
102
{ACAD_REACTORS
330
C
102
}
330
C
100
AcDbDictionary
281
     1
  0
XRECORD
  5
148
102
{ACAD_REACTORS
330
C
102
}
330
C
100
AcDbXrecord
280
     1
  1
DWGPROPS COOKIE
  2

  3

  4

  6

  7

  8
12011908
  9

300
=
301
=
302
=
303
=
304
=
305
=
306
=
307
=
308
=
309
=
 40
0.0
 41
2458260.417549387
 42
2458268.369557083
  1

 90
        0
  0
LAYOUT
  5
1E
102
{ACAD_REACTORS
330
1A
102
}
330
1A
100
AcDbPlotSettings
  1

  2
none_device
  4

  6

 40
0.0
 41
0.0
 42
0.0
 43
0.0
 44
0.0
 45
0.0
 46
0.0
 47
0.0
 48
0.0
 49
0.0
140
0.0
141
0.0
142
1.0
143
1.0
 70
   688
 72
     1
 73
     0
 74
     5
  7

 75
    16
147
1.0
148
0.0
149
0.0
100
AcDbLayout
  1
Layout1
 70
     1
 71
     1
 10
0.0
 20
0.0
 11
420.0
 21
297.0
 12
0.0
 22
0.0
 32
0.0
 14
1.000000000000000E+20
 24
1.000000000000000E+20
 34
1.000000000000000E+20
 15
-1.000000000000000E+20
 25
-1.000000000000000E+20
 35
-1.000000000000000E+20
146
0.0
 13
0.0
 23
0.0
 33
0.0
 16
1.0
 26
0.0
 36
0.0
 17
0.0
 27
1.0
 37
0.0
 76
     0
330
1B
  0
LAYOUT
  5
26
102
{ACAD_REACTORS
330
1A
102
}
330
1A
100
AcDbPlotSettings
  1

  2
none_device
  4

  6

 40
0.0
 41
0.0
 42
0.0
 43
0.0
 44
0.0
 45
0.0
 46
0.0
 47
0.0
 48
0.0
 49
0.0
140
0.0
141
0.0
142
1.0
143
1.0
 70
   688
 72
     1
 73
     0
 74
     5
  7

 75
    16
147
1.0
148
0.0
149
0.0
100
AcDbLayout
  1
Layout2
 70
     1
 71
     2
 10
0.0
 20
0.0
 11
0.0
 21
0.0
 12
0.0
 22
0.0
 32
0.0
 14
0.0
 24
0.0
 34
0.0
 15
0.0
 25
0.0
 35
0.0
146
0.0
 13
0.0
 23
0.0
 33
0.0
 16
1.0
 26
0.0
 36
0.0
 17
0.0
 27
1.0
 37
0.0
 76
     0
330
23
  0
LAYOUT
  5
22
102
{ACAD_REACTORS
330
1A
102
}
330
1A
100
AcDbPlotSettings
  1

  2
none_device
  4
ANSI_A_(11.00_x_8.50_Inches)
  6

 40
6.35
 41
19.05
 42
6.35000508
 43
19.05000254
 44
279.4
 45
215.9
 46
165.3937092925018
 47
97.07063755584619
 48
0.0
 49
0.0
140
0.0
141
0.0
142
0.0893051296411722
143
1.0
 70
  1696
 72
     0
 73
     0
 74
     0
  7

 75
     0
147
0.0235690232323232
148
0.0
149
0.0
100
AcDbLayout
  1
Model
 70
     1
 71
     0
 10
0.0
 20
0.0
 11
420.0
 21
297.0
 12
0.0
 22
0.0
 32
0.0
 14
-62.71763956161989
 24
-49.97180738881175
 34
0.0
 15
48.70033333333335
 25
43.37500000000001
 35
0.0
146
0.0
 13
0.0
 23
0.0
 33
0.0
 16
1.0
 26
0.0
 36
0.0
 17
0.0
 27
1.0
 37
0.0
 76
     0
330
1F
331
29
  0
MLINESTYLE
  5
18
102
{ACAD_REACTORS
330
17
102
}
330
17
100
AcDbMlineStyle
  2
Standard
 70
     0
  3

 62
   256
 51
90.0
 52
90.0
 71
     2
 49
0.5
 62
   256
  6
BYLAYER
 49
-0.5
 62
   256
  6
BYLAYER
  0
ACDBPLACEHOLDER
  5
F
102
{ACAD_REACTORS
330
E
102
}
330
E
  0
SCALE
  5
48
102
{ACAD_REACTORS
330
47
102
}
330
47
100
AcDbScale
 70
     0
300
1:1
140
1.0
141
1.0
290
     1
  0
SCALE
  5
49
102
{ACAD_REACTORS
330
47
102
}
330
47
100
AcDbScale
 70
     0
300
1:2
140
1.0
141
2.0
290
     0
  0
SCALE
  5
4A
102
{ACAD_REACTORS
330
47
102
}
330
47
100
AcDbScale
 70
     0
300
1:4
140
1.0
141
4.0
290
     0
  0
SCALE
  5
4B
102
{ACAD_REACTORS
330
47
102
}
330
47
100
AcDbScale
 70
     0
300
1:5
140
1.0
141
5.0
290
     0
  0
SCALE
  5
4C
102
{ACAD_REACTORS
330
47
102
}
330
47
100
AcDbScale
 70
     0
300
1:8
140
1.0
141
8.0
290
     0
  0
SCALE
  5
4D
102
{ACAD_REACTORS
330
47
102
}
330
47
100
AcDbScale
 70
     0
300
1:10
140
1.0
141
10.0
290
     0
  0
SCALE
  5
4E
102
{ACAD_REACTORS
330
47
102
}
330
47
100
AcDbScale
 70
     0
300
1:16
140
1.0
141
16.0
290
     0
  0
SCALE
  5
4F
102
{ACAD_REACTORS
330
47
102
}
330
47
100
AcDbScale
 70
     0
300
1:20
140
1.0
141
20.0
290
     0
  0
SCALE
  5
50
102
{ACAD_REACTORS
330
47
102
}
330
47
100
AcDbScale
 70
     0
300
1:30
140
1.0
141
30.0
290
     0
  0
SCALE
  5
51
102
{ACAD_REACTORS
330
47
102
}
330
47
100
AcDbScale
 70
     0
300
1:40
140
1.0
141
40.0
290
     0
  0
SCALE
  5
52
102
{ACAD_REACTORS
330
47
102
}
330
47
100
AcDbScale
 70
     0
300
1:50
140
1.0
141
50.0
290
     0
  0
SCALE
  5
53
102
{ACAD_REACTORS
330
47
102
}
330
47
100
AcDbScale
 70
     0
300
1:100
140
1.0
141
100.0
290
     0
  0
SCALE
  5
54
102
{ACAD_REACTORS
330
47
102
}
330
47
100
AcDbScale
 70
     0
300
2:1
140
2.0
141
1.0
290
     0
  0
SCALE
  5
55
102
{ACAD_REACTORS
330
47
102
}
330
47
100
AcDbScale
 70
     0
300
4:1
140
4.0
141
1.0
290
     0
  0
SCALE
  5
56
102
{ACAD_REACTORS
330
47
102
}
330
47
100
AcDbScale
 70
     0
300
8:1
140
8.0
141
1.0
290
     0
  0
SCALE
  5
57
102
{ACAD_REACTORS
330
47
102
}
330
47
100
AcDbScale
 70
     0
300
10:1
140
10.0
141
1.0
290
     0
  0
SCALE
  5
58
102
{ACAD_REACTORS
330
47
102
}
330
47
100
AcDbScale
 70
     0
300
100:1
140
100.0
141
1.0
290
     0
  0
SCALE
  5
59
102
{ACAD_REACTORS
330
47
102
}
330
47
100
AcDbScale
 70
     0
300
1/128" = 1'-0"
140
0.0078125
141
12.0
290
     0
  0
SCALE
  5
5A
102
{ACAD_REACTORS
330
47
102
}
330
47
100
AcDbScale
 70
     0
300
1/64" = 1'-0"
140
0.015625
141
12.0
290
     0
  0
SCALE
  5
5B
102
{ACAD_REACTORS
330
47
102
}
330
47
100
AcDbScale
 70
     0
300
1/32" = 1'-0"
140
0.03125
141
12.0
290
     0
  0
SCALE
  5
5C
102
{ACAD_REACTORS
330
47
102
}
330
47
100
AcDbScale
 70
     0
300
1/16" = 1'-0"
140
0.0625
141
12.0
290
     0
  0
SCALE
  5
5D
102
{ACAD_REACTORS
330
47
102
}
330
47
100
AcDbScale
 70
     0
300
3/32" = 1'-0"
140
0.09375
141
12.0
290
     0
  0
SCALE
  5
5E
102
{ACAD_REACTORS
330
47
102
}
330
47
100
AcDbScale
 70
     0
300
1/8" = 1'-0"
140
0.125
141
12.0
290
     0
  0
SCALE
  5
5F
102
{ACAD_REACTORS
330
47
102
}
330
47
100
AcDbScale
 70
     0
300
3/16" = 1'-0"
140
0.1875
141
12.0
290
     0
  0
SCALE
  5
60
102
{ACAD_REACTORS
330
47
102
}
330
47
100
AcDbScale
 70
     0
300
1/4" = 1'-0"
140
0.25
141
12.0
290
     0
  0
SCALE
  5
61
102
{ACAD_REACTORS
330
47
102
}
330
47
100
AcDbScale
 70
     0
300
3/8" = 1'-0"
140
0.375
141
12.0
290
     0
  0
SCALE
  5
62
102
{ACAD_REACTORS
330
47
102
}
330
47
100
AcDbScale
 70
     0
300
1/2" = 1'-0"
140
0.5
141
12.0
290
     0
  0
SCALE
  5
63
102
{ACAD_REACTORS
330
47
102
}
330
47
100
AcDbScale
 70
     0
300
3/4" = 1'-0"
140
0.75
141
12.0
290
     0
  0
SCALE
  5
64
102
{ACAD_REACTORS
330
47
102
}
330
47
100
AcDbScale
 70
     0
300
1" = 1'-0"
140
1.0
141
12.0
290
     0
  0
SCALE
  5
65
102
{ACAD_REACTORS
330
47
102
}
330
47
100
AcDbScale
 70
     0
300
1-1/2" = 1'-0"
140
1.5
141
12.0
290
     0
  0
SCALE
  5
66
102
{ACAD_REACTORS
330
47
102
}
330
47
100
AcDbScale
 70
     0
300
3" = 1'-0"
140
3.0
141
12.0
290
     0
  0
SCALE
  5
67
102
{ACAD_REACTORS
330
47
102
}
330
47
100
AcDbScale
 70
     0
300
6" = 1'-0"
140
6.0
141
12.0
290
     0
  0
SCALE
  5
68
102
{ACAD_REACTORS
330
47
102
}
330
47
100
AcDbScale
 70
     0
300
1'-0" = 1'-0"
140
12.0
141
12.0
290
     0
  0
ENDSEC
  0
EOF
