  0
SECTION
  2
HEADER
  9
$ACADVER
  1
AC1015
  9
$ACADMAINTVER
 70
     6
  9
$DWGCODEPAGE
  3
ANSI_949
  9
$INSBASE
 10
0.0
 20
0.0
 30
0.0
  9
$EXTMIN
 10
-75.7176395616199
 20
-49.97180738881175
 30
0.0
  9
$EXTMAX
 10
55.70033333333336
 20
42.37500000000001
 30
0.0
  9
$LIMMIN
 10
0.0
 20
0.0
  9
$LIMMAX
 10
420.0
 20
297.0
  9
$ORTHOMODE
 70
     0
  9
$REGENMODE
 70
     1
  9
$FILLMODE
 70
     1
  9
$QTEXTMODE
 70
     0
  9
$MIRRTEXT
 70
     1
  9
$LTSCALE
 40
1.0
  9
$ATTMODE
 70
     1
  9
$TEXTSIZE
 40
3.5
  9
$TRACEWID
 40
1.0
  9
$TEXTSTYLE
  7
Standard
  9
$CLAYER
  8
0
  9
$CELTYPE
  6
ByLayer
  9
$CECOLOR
 62
   256
  9
$CELTSCALE
 40
1.0
  9
$DISPSILH
 70
     0
  9
$DIMSCALE
 40
1.0
  9
$DIMASZ
 40
3.302
  9
$DIMEXO
 40
1.0
  9
$DIMDLI
 40
3.75
  9
$DIMRND
 40
0.0
  9
$DIMDLE
 40
0.0
  9
$DIMEXE
 40
1.0
  9
$DIMTP
 40
0.0
  9
$DIMTM
 40
0.0
  9
$DIMTXT
 40
3.5
  9
$DIMCEN
 40
2.5
  9
$DIMTSZ
 40
0.0
  9
$DIMTOL
 70
     0
  9
$DIMLIM
 70
     0
  9
$DIMTIH
 70
     1
  9
$DIMTOH
 70
     1
  9
$DIMSE1
 70
     0
  9
$DIMSE2
 70
     0
  9
$DIMTAD
 70
     1
  9
$DIMZIN
 70
     0
  9
$DIMBLK
  1

  9
$DIMASO
 70
     1
  9
$DIMSHO
 70
     1
  9
$DIMPOST
  1

  9
$DIMAPOST
  1

  9
$DIMALT
 70
     0
  9
$DIMALTD
 70
     3
  9
$DIMALTF
 40
0.0393700787401575
  9
$DIMLFAC
 40
1.0
  9
$DIMTOFL
 70
     1
  9
$DIMTVP
 40
0.0
  9
$DIMTIX
 70
     0
  9
$DIMSOXD
 70
     0
  9
$DIMSAH
 70
     0
  9
$DIMBLK1
  1

  9
$DIMBLK2
  1

  9
$DIMSTYLE
  2
ISO-25
  9
$DIMCLRD
 70
     0
  9
$DIMCLRE
 70
     0
  9
$DIMCLRT
 70
     0
  9
$DIMTFAC
 40
1.0
  9
$DIMGAP
 40
1.524
  9
$DIMJUST
 70
     0
  9
$DIMSD1
 70
     0
  9
$DIMSD2
 70
     0
  9
$DIMTOLJ
 70
     0
  9
$DIMTZIN
 70
     0
  9
$DIMALTZ
 70
     0
  9
$DIMALTTZ
 70
     0
  9
$DIMUPT
 70
     0
  9
$DIMDEC
 70
     2
  9
$DIMTDEC
 70
     2
  9
$DIMALTU
 70
     2
  9
$DIMALTTD
 70
     3
  9
$DIMTXSTY
  7
Standard
  9
$DIMAUNIT
 70
     0
  9
$DIMADEC
 70
     2
  9
$DIMALTRND
 40
0.0
  9
$DIMAZIN
 70
     0
  9
$DIMDSEP
 70
    44
  9
$DIMATFIT
 70
     3
  9
$DIMFRAC
 70
     0
  9
$DIMLDRBLK
  1

  9
$DIMLUNIT
 70
     2
  9
$DIMLWD
 70
    -2
  9
$DIMLWE
 70
    -2
  9
$DIMTMOVE
 70
     0
  9
$LUNITS
 70
     2
  9
$LUPREC
 70
     2
  9
$SKETCHINC
 40
1.0
  9
$FILLETRAD
 40
10.0
  9
$AUNITS
 70
     0
  9
$AUPREC
 70
     2
  9
$MENU
  1
.
  9
$ELEVATION
 40
0.0
  9
$PELEVATION
 40
0.0
  9
$THICKNESS
 40
0.0
  9
$LIMCHECK
 70
     0
  9
$CHAMFERA
 40
0.0
  9
$CHAMFERB
 40
0.0
  9
$CHAMFERC
 40
0.0
  9
$CHAMFERD
 40
0.0
  9
$SKPOLY
 70
     0
  9
$TDCREATE
 40
2458260.792171308
  9
$TDUCREATE
 40
2458260.417171308
  9
$TDUPDATE
 40
2458268.743231898
  9
$TDUUPDATE
 40
2458268.368231898
  9
$TDINDWG
 40
0.0010388079
  9
$TDUSRTIMER
 40
0.0010387963
  9
$USRTIMER
 70
     1
  9
$ANGBASE
 50
0.0
  9
$ANGDIR
 70
     0
  9
$PDMODE
 70
     0
  9
$PDSIZE
 40
-1.0
  9
$PLINEWID
 40
0.0
  9
$SPLFRAME
 70
     0
  9
$SPLINETYPE
 70
     6
  9
$SPLINESEGS
 70
     8
  9
$HANDSEED
  5
148
  9
$SURFTAB1
 70
     6
  9
$SURFTAB2
 70
     6
  9
$SURFTYPE
 70
     6
  9
$SURFU
 70
     6
  9
$SURFV
 70
     6
  9
$UCSBASE
  2

  9
$UCSNAME
  2

  9
$UCSORG
 10
0.0
 20
0.0
 30
0.0
  9
$UCSXDIR
 10
1.0
 20
0.0
 30
0.0
  9
$UCSYDIR
 10
0.0
 20
1.0
 30
0.0
  9
$UCSORTHOREF
  2

  9
$UCSORTHOVIEW
 70
     0
  9
$UCSORGTOP
 10
0.0
 20
0.0
 30
0.0
  9
$UCSORGBOTTOM
 10
0.0
 20
0.0
 30
0.0
  9
$UCSORGLEFT
 10
0.0
 20
0.0
 30
0.0
  9
$UCSORGRIGHT
 10
0.0
 20
0.0
 30
0.0
  9
$UCSORGFRONT
 10
0.0
 20
0.0
 30
0.0
  9
$UCSORGBACK
 10
0.0
 20
0.0
 30
0.0
  9
$PUCSBASE
  2

  9
$PUCSNAME
  2

  9
$PUCSORG
 10
0.0
 20
0.0
 30
0.0
  9
$PUCSXDIR
 10
1.0
 20
0.0
 30
0.0
  9
$PUCSYDIR
 10
0.0
 20
1.0
 30
0.0
  9
$PUCSORTHOREF
  2

  9
$PUCSORTHOVIEW
 70
     0
  9
$PUCSORGTOP
 10
0.0
 20
0.0
 30
0.0
  9
$PUCSORGBOTTOM
 10
0.0
 20
0.0
 30
0.0
  9
$PUCSORGLEFT
 10
0.0
 20
0.0
 30
0.0
  9
$PUCSORGRIGHT
 10
0.0
 20
0.0
 30
0.0
  9
$PUCSORGFRONT
 10
0.0
 20
0.0
 30
0.0
  9
$PUCSORGBACK
 10
0.0
 20
0.0
 30
0.0
  9
$USERI1
 70
     0
  9
$USERI2
 70
     0
  9
$USERI3
 70
     0
  9
$USERI4
 70
     0
  9
$USERI5
 70
     0
  9
$USERR1
 40
0.0
  9
$USERR2
 40
0.0
  9
$USERR3
 40
0.0
  9
$USERR4
 40
0.0
  9
$USERR5
 40
0.0
  9
$WORLDVIEW
 70
     1
  9
$SHADEDGE
 70
     3
  9
$SHADEDIF
 70
    70
  9
$TILEMODE
 70
     1
  9
$MAXACTVP
 70
    64
  9
$PINSBASE
 10
0.0
 20
0.0
 30
0.0
  9
$PLIMCHECK
 70
     0
  9
$PEXTMIN
 10
1.000000000000000E+20
 20
1.000000000000000E+20
 30
1.000000000000000E+20
  9
$PEXTMAX
 10
-1.000000000000000E+20
 20
-1.000000000000000E+20
 30
-1.000000000000000E+20
  9
$PLIMMIN
 10
0.0
 20
0.0
  9
$PLIMMAX
 10
0.0
 20
0.0
  9
$UNITMODE
 70
     0
  9
$VISRETAIN
 70
     1
  9
$PLINEGEN
 70
     0
  9
$PSLTSCALE
 70
     1
  9
$TREEDEPTH
 70
  3020
  9
$CMLSTYLE
  2
Standard
  9
$CMLJUST
 70
     0
  9
$CMLSCALE
 40
20.0
  9
$PROXYGRAPHICS
 70
     1
  9
$MEASUREMENT
 70
     1
  9
$CELWEIGHT
370
    -1
  9
$ENDCAPS
280
     0
  9
$JOINSTYLE
280
     0
  9
$LWDISPLAY
290
     1
  9
$INSUNITS
 70
     4
  9
$HYPERLINKBASE
  1

  9
$STYLESHEET
  1

  9
$XEDIT
290
     1
  9
$CEPSNTYPE
380
     0
  9
$PSTYLEMODE
290
     1
  9
$FINGERPRINTGUID
  2
{2C757EE5-857C-4147-9A8A-02E36F6DA14C}
  9
$VERSIONGUID
  2
{FAEB1C32-E019-11D5-929B-00C0DF256EC4}
  9
$EXTNAMES
290
     1
  9
$PSVPSCALE
 40
0.0
  9
$OLESTARTUP
290
     0
  0
ENDSEC
  0
SECTION
  2
CLASSES
  0
CLASS
  1
ACDBDICTIONARYWDFLT
  2
AcDbDictionaryWithDefault
  3
ObjectDBX Classes
 90
        0
280
     0
281
     0
  0
CLASS
  1
VISUALSTYLE
  2
AcDbVisualStyle
  3
ObjectDBX Classes
 90
     4095
280
     0
281
     0
  0
CLASS
  1
MATERIAL
  2
AcDbMaterial
  3
ObjectDBX Classes
 90
     1153
280
     0
281
     0
  0
CLASS
  1
SCALE
  2
AcDbScale
  3
ObjectDBX Classes
 90
     1153
280
     0
281
     0
  0
CLASS
  1
TABLESTYLE
  2
AcDbTableStyle
  3
ObjectDBX Classes
 90
     4095
280
     0
281
     0
  0
CLASS
  1
MLEADERSTYLE
  2
AcDbMLeaderStyle
  3
ACDB_MLEADERSTYLE_CLASS
 90
     4095
280
     0
281
     0
  0
CLASS
  1
SUN
  2
AcDbSun
  3
SCENEOE
 90
     1153
280
     0
281
     0
  0
CLASS
  1
ACDBPLACEHOLDER
  2
AcDbPlaceHolder
  3
ObjectDBX Classes
 90
        0
280
     0
281
     0
  0
CLASS
  1
LAYOUT
  2
AcDbLayout
  3
ObjectDBX Classes
 90
        0
280
     0
281
     0
  0
ENDSEC
  0
SECTION
  2
TABLES
  0
TABLE
  2
VPORT
  5
8
330
0
100
AcDbSymbolTable
 70
     1
  0
VPORT
  5
29
330
8
100
AcDbSymbolTableRecord
100
AcDbViewportTableRecord
  2
*Active
 70
     0
 10
0.0
 20
0.0
 11
1.0
 21
1.0
 12
13.57095526232646
 22
-22.43376665076326
 13
0.0
 23
0.0
 14
10.0
 24
10.0
 15
10.0
 25
10.0
 16
0.0
 26
0.0
 36
1.0
 17
0.0
 27
0.0
 37
0.0
 40
150.7676355756339
 41
2.727272727272727
 42
50.0
 43
0.0
 44
0.0
 50
0.0
 51
0.0
 71
    16
 72
  2000
 73
     1
 74
     3
 75
     0
 76
     0
 77
     0
 78
     0
281
     0
 65
     1
110
0.0
120
0.0
130
0.0
111
1.0
121
0.0
131
0.0
112
0.0
122
1.0
132
0.0
 79
     0
146
0.0
  0
ENDTAB
  0
TABLE
  2
LTYPE
  5
5
330
0
100
AcDbSymbolTable
 70
     6
  0
LTYPE
  5
14
330
5
100
AcDbSymbolTableRecord
100
AcDbLinetypeTableRecord
  2
ByBlock
 70
     0
  3

 72
    65
 73
     0
 40
0.0
  0
LTYPE
  5
15
330
5
100
AcDbSymbolTableRecord
100
AcDbLinetypeTableRecord
  2
ByLayer
 70
     0
  3

 72
    65
 73
     0
 40
0.0
  0
LTYPE
  5
16
330
5
100
AcDbSymbolTableRecord
100
AcDbLinetypeTableRecord
  2
Continuous
 70
     0
  3
Solid line
 72
    65
 73
     0
 40
0.0
  0
LTYPE
  5
6E
330
5
100
AcDbSymbolTableRecord
100
AcDbLinetypeTableRecord
  2
HIDDEN
 70
     0
  3
Hidden __ __ __ __ __ __ __ __ __ __ __ __ __ __
 72
    65
 73
     2
 40
1.905
 49
1.27
 74
     0
 49
-0.635
 74
     0
  0
LTYPE
  5
6F
330
5
100
AcDbSymbolTableRecord
100
AcDbLinetypeTableRecord
  2
PHANTOM
 70
     0
  3
Phantom ______  __  __  ______  __  __  ______
 72
    65
 73
     6
 40
12.7
 49
6.35
 74
     0
 49
-1.27
 74
     0
 49
1.27
 74
     0
 49
-1.27
 74
     0
 49
1.27
 74
     0
 49
-1.27
 74
     0
  0
LTYPE
  5
70
330
5
100
AcDbSymbolTableRecord
100
AcDbLinetypeTableRecord
  2
CENTER
 70
     0
  3
Center ____ _ ____ _ ____ _ ____ _ ____ _ ____
 72
    65
 73
     4
 40
10.16
 49
6.35
 74
     0
 49
-1.27
 74
     0
 49
1.27
 74
     0
 49
-1.27
 74
     0
  0
LTYPE
  5
71
330
5
100
AcDbSymbolTableRecord
100
AcDbLinetypeTableRecord
  2
CENTERX2
 70
     0
  3
Center (2x) ________  __  ________  __  _____
 72
    65
 73
     4
 40
20.32
 49
12.7
 74
     0
 49
-2.54
 74
     0
 49
2.54
 74
     0
 49
-2.54
 74
     0
  0
LTYPE
  5
72
330
5
100
AcDbSymbolTableRecord
100
AcDbLinetypeTableRecord
  2
DOT2
 70
     0
  3
Dot (.5x) ........................................
 72
    65
 73
     2
 40
0.635
 49
0.0
 74
     0
 49
-0.635
 74
     0
  0
ENDTAB
  0
TABLE
  2
LAYER
  5
2
330
0
100
AcDbSymbolTable
 70
    17
  0
LAYER
  5
10
330
2
100
AcDbSymbolTableRecord
100
AcDbLayerTableRecord
  2
0
 70
     0
 62
     7
  6
Continuous
370
    -3
390
F
  0
LAYER
  5
73
330
2
100
AcDbSymbolTableRecord
100
AcDbLayerTableRecord
  2
FORMAT
 70
     0
 62
     2
  6
Continuous
370
    -3
390
F
  0
LAYER
  5
74
330
2
100
AcDbSymbolTableRecord
100
AcDbLayerTableRecord
  2
외형선
 70
     0
 62
   100
  6
Continuous
370
    35
390
F
  0
LAYER
  5
75
330
2
100
AcDbSymbolTableRecord
100
AcDbLayerTableRecord
  2
숨은선
 70
     0
 62
     2
  6
HIDDEN
370
    25
390
F
  0
LAYER
  5
76
330
2
100
AcDbSymbolTableRecord
100
AcDbLayerTableRecord
  2
중심선
 70
     0
 62
     1
  6
CENTERX2
370
    -3
390
F
  0
LAYER
  5
77
330
2
100
AcDbSymbolTableRecord
100
AcDbLayerTableRecord
  2
파단선
 70
     0
 62
     4
  6
Continuous
370
    -3
390
F
  0
LAYER
  5
78
330
2
100
AcDbSymbolTableRecord
100
AcDbLayerTableRecord
  2
해칭선
 70
     0
 62
   100
  6
Continuous
370
    -3
390
F
  0
LAYER
  5
79
330
2
100
AcDbSymbolTableRecord
100
AcDbLayerTableRecord
  2
가는실선
 70
     0
 62
     4
  6
Continuous
370
    -3
390
F
  0
LAYER
  5
7A
330
2
100
AcDbSymbolTableRecord
100
AcDbLayerTableRecord
  2
치수_보조선
 70
     0
 62
     4
  6
Continuous
370
    -3
390
F
  0
LAYER
  5
7B
330
2
100
AcDbSymbolTableRecord
100
AcDbLayerTableRecord
  2
치수문자_일반주서
 70
     0
 62
     7
  6
Continuous
370
    25
390
F
  0
LAYER
  5
7C
330
2
100
AcDbSymbolTableRecord
100
AcDbLayerTableRecord
  2
개별주서
 70
     0
 62
   100
  6
Continuous
370
    35
390
F
  0
LAYER
  5
7D
330
2
100
AcDbSymbolTableRecord
100
AcDbLayerTableRecord
  2
중간선
 70
     0
 62
     2
  6
Continuous
370
    25
390
F
  0
LAYER
  5
7E
330
2
100
AcDbSymbolTableRecord
100
AcDbLayerTableRecord
  2
윤곽선
 70
     0
 62
     3
  6
Continuous
370
    50
390
F
  0
LAYER
  5
7F
330
2
100
AcDbSymbolTableRecord
100
AcDbLayerTableRecord
  2
중심마크
 70
     0
 62
   100
  6
Continuous
370
    35
390
F
  0
LAYER
  5
80
330
2
100
AcDbSymbolTableRecord
100
AcDbLayerTableRecord
  2
가상선
 70
     0
 62
     4
  6
PHANTOM
370
    -3
390
F
  0
LAYER
  5
81
330
2
100
AcDbSymbolTableRecord
100
AcDbLayerTableRecord
  2
특수지정선
 70
     0
 62
     5
  6
CENTERX2
370
    70
390
F
  0
LAYER
  5
13E
330
2
100
AcDbSymbolTableRecord
100
AcDbLayerTableRecord
  2
Defpoints
 70
     0
 62
     7
  6
Continuous
290
     0
370
    -3
390
F
  0
ENDTAB
  0
TABLE
  2
STYLE
  5
3
330
0
100
AcDbSymbolTable
 70
     2
  0
STYLE
  5
11
330
3
100
AcDbSymbolTableRecord
100
AcDbTextStyleTableRecord
  2
Standard
 70
     0
 40
0.0
 41
1.0
 50
0.0
 71
     0
 42
3.5
  3
txt
  4

  0
STYLE
  5
97
330
3
100
AcDbSymbolTableRecord
100
AcDbTextStyleTableRecord
  2
SLDTEXTSTYLE0
 70
     0
 40
0.0
 41
0.75
 50
0.0
 71
     0
 42
3.5
  3
TXT
  4

  0
ENDTAB
  0
TABLE
  2
VIEW
  5
6
330
0
100
AcDbSymbolTable
 70
     0
  0
ENDTAB
  0
TABLE
  2
UCS
  5
7
330
0
100
AcDbSymbolTable
 70
     0
  0
ENDTAB
  0
TABLE
  2
APPID
  5
9
330
0
100
AcDbSymbolTable
 70
     2
  0
APPID
  5
12
330
9
100
AcDbSymbolTableRecord
100
AcDbRegAppTableRecord
  2
ACAD
 70
     0
  0
APPID
  5
13F
330
9
100
AcDbSymbolTableRecord
100
AcDbRegAppTableRecord
  2
PE_URL
 70
     0
  0
ENDTAB
  0
TABLE
  2
DIMSTYLE
  5
A
330
0
100
AcDbSymbolTable
 70
     4
100
AcDbDimStyleTable
  0
DIMSTYLE
105
27
330
A
100
AcDbSymbolTableRecord
100
AcDbDimStyleTableRecord
  2
ISO-25
 70
     0
 41
2.5
 42
0.625
 43
3.75
 44
1.25
 73
     0
 74
     0
 77
     1
 78
     8
140
2.5
141
2.5
143
0.03937007874016
147
0.625
171
     3
172
     1
178
     0
271
     2
272
     2
274
     3
278
    44
283
     0
284
     8
340
11
  0
DIMSTYLE
105
D9
102
{ACAD_REACTORS
330
D8
102
}
330
A
100
AcDbSymbolTableRecord
100
AcDbDimStyleTableRecord
  2
SLDDIMSTYLE0
 70
     0
 41
3.302
 44
0.0
 45
0.000000001
 73
     0
 74
     0
 77
     1
 78
    12
 79
     3
140
3.5
147
0.875
172
     1
173
     1
178
     0
271
     1
272
     1
276
     2
284
    12
289
     0
340
97
  0
DIMSTYLE
105
E7
102
{ACAD_REACTORS
330
E6
330
10B
102
}
330
A
100
AcDbSymbolTableRecord
100
AcDbDimStyleTableRecord
  2
SLDDIMSTYLE1
 70
     0
 41
3.302
 44
0.0
 45
0.000000001
 73
     0
 74
     0
 77
     1
 78
    12
 79
     3
140
3.5
147
0.875
173
     1
178
     0
271
     2
272
     2
276
     2
284
    12
340
97
  0
DIMSTYLE
105
F2
102
{ACAD_REACTORS
330
F1
330
FF
102
}
330
A
100
AcDbSymbolTableRecord
100
AcDbDimStyleTableRecord
  2
SLDDIMSTYLE2
 70
     0
 41
3.302
 44
0.0
 45
0.000000001
 73
     0
 74
     0
 77
     1
 78
    12
 79
     3
140
3.5
147
0.875
172
     1
173
     1
178
     0
271
     2
272
     2
276
     2
284
    12
289
     0
340
97
  0
ENDTAB
  0
TABLE
  2
BLOCK_RECORD
  5
1
330
0
100
AcDbSymbolTable
 70
     8
  0
BLOCK_RECORD
  5
1F
330
1
100
AcDbSymbolTableRecord
100
AcDbBlockTableRecord
  2
*Model_Space
340
22
  0
BLOCK_RECORD
  5
1B
330
1
100
AcDbSymbolTableRecord
100
AcDbBlockTableRecord
  2
*Paper_Space
340
1E
  0
BLOCK_RECORD
  5
23
330
1
100
AcDbSymbolTableRecord
100
AcDbBlockTableRecord
  2
*Paper_Space0
340
26
  0
BLOCK_RECORD
  5
82
330
1
100
AcDbSymbolTableRecord
100
AcDbBlockTableRecord
  2
블럭10
340
0
102
{BLKREFS
331
D1
102
}
  0
BLOCK_RECORD
  5
DA
330
1
100
AcDbSymbolTableRecord
100
AcDbBlockTableRecord
  2
_D
340
0
  0
BLOCK_RECORD
  5
E8
330
1
100
AcDbSymbolTableRecord
100
AcDbBlockTableRecord
  2
_D_1
340
0
  0
BLOCK_RECORD
  5
F3
330
1
100
AcDbSymbolTableRecord
100
AcDbBlockTableRecord
  2
_D_2
340
0
  0
BLOCK_RECORD
  5
100
330
1
100
AcDbSymbolTableRecord
100
AcDbBlockTableRecord
  2
_D_3
340
0
  0
BLOCK_RECORD
  5
10C
330
1
100
AcDbSymbolTableRecord
100
AcDbBlockTableRecord
  2
_D_4
340
0
  0
BLOCK_RECORD
  5
115
330
1
100
AcDbSymbolTableRecord
100
AcDbBlockTableRecord
  2
SW_DOWELSYMBOL_0
340
0
102
{BLKREFS
331
11B
102
}
  0
ENDTAB
  0
ENDSEC
  0
SECTION
  2
BLOCKS
  0
BLOCK
  5
20
330
1F
100
AcDbEntity
  8
0
100
AcDbBlockBegin
  2
*Model_Space
 70
     0
 10
0.0
 20
0.0
 30
0.0
  3
*Model_Space
  1

  0
ENDBLK
  5
21
330
1F
100
AcDbEntity
  8
0
100
AcDbBlockEnd
  0
BLOCK
  5
1C
330
1B
100
AcDbEntity
 67
     1
  8
0
100
AcDbBlockBegin
  2
*Paper_Space
 70
     0
 10
0.0
 20
0.0
 30
0.0
  3
*Paper_Space
  1

  0
ENDBLK
  5
1D
330
1B
100
AcDbEntity
 67
     1
  8
0
100
AcDbBlockEnd
  0
BLOCK
  5
24
330
23
100
AcDbEntity
  8
0
100
AcDbBlockBegin
  2
*Paper_Space0
 70
     0
 10
0.0
 20
0.0
 30
0.0
  3
*Paper_Space0
  1

  0
ENDBLK
  5
25
330
23
100
AcDbEntity
  8
0
100
AcDbBlockEnd
  0
BLOCK
  5
83
330
82
100
AcDbEntity
  8
0
100
AcDbBlockBegin
  2
블럭10
 70
     2
 10
0.0
 20
0.0
 30
0.0
  3
블럭10
  1

  0
ELLIPSE
  5
85
330
82
100
AcDbEntity
  8
중심선
100
AcDbEllipse
 10
20.54032771741204
 20
12.0471743016438
 30
0.0
 11
6.600054785286829
 21
-1.261213355974178E-13
 31
0.0
210
0.0
220
0.0
230
1.0
 40
0.636358354079598
 41
0.9219305317359503
 42
6.513795318482858
  0
ELLIPSE
  5
86
330
82
100
AcDbEntity
  8
중심선
100
AcDbEllipse
 10
20.54032771746488
 20
12.04717430159265
 30
0.0
 11
3.960054785062283
 21
1.540847449632565E-10
 31
0.0
210
0.0
220
0.0
230
1.0
 40
0.3939339440162632
 41
1.131841032648279
 42
5.62031148352944
  0
LINE
  5
87
330
82
100
AcDbEntity
  8
중심선
100
AcDbLine
 10
2.268634060543552
 20
16.24717430164393
 30
0.0
 11
5.714909304380834
 21
16.24717430164393
 31
0.0
  0
LINE
  5
88
330
82
100
AcDbEntity
  8
중심선
100
AcDbLine
 10
5.245725140726316
 20
7.84717430164391
 30
0.0
 11
8.692000384563599
 21
7.84717430164391
 31
0.0
  0
LINE
  5
89
330
82
100
AcDbEntity
  8
중심선
100
AcDbLine
 10
15.74043728645272
 20
16.24717430164393
 30
0.0
 11
8.692000384563599
 21
7.84717430164391
 31
0.0
  0
LINE
  5
8A
330
82
100
AcDbEntity
  8
중심선
100
AcDbLine
 10
0.1404042013395286
 20
13.71084872107135
 30
0.0
 11
3.58671253028996
 21
13.71088815037384
 31
0.0
  0
LINE
  5
8B
330
82
100
AcDbEntity
  8
중심선
100
AcDbLine
 10
2.750260043222114
 20
10.84717430164391
 30
0.0
 11
6.196535287059397
 21
10.84717430164391
 31
0.0
  0
LINE
  5
8C
330
82
100
AcDbEntity
  8
중심선
100
AcDbLine
 10
12.29416204261559
 20
16.24717430164393
 30
0.0
 11
5.245725140726316
 21
7.84717430164391
 31
0.0
  0
LINE
  5
8D
330
82
100
AcDbEntity
  8
중심선
100
AcDbLine
 10
10.72767329541681
 20
16.24717430164393
 30
0.0
 11
6.196535287059397
 21
10.84717430164391
 31
0.0
  0
LINE
  5
8E
330
82
100
AcDbEntity
  8
중심선
100
AcDbLine
 10
7.28139805157953
 20
16.24717430164393
 30
0.0
 11
2.750260043222114
 21
10.84717430164391
 31
0.0
  0
LINE
  5
8F
330
82
100
AcDbEntity
  8
중심선
100
AcDbLine
 10
5.714909304380834
 20
16.24717430164393
 30
0.0
 11
3.58671253028996
 21
13.71088815037384
 31
0.0
  0
LINE
  5
90
330
82
100
AcDbEntity
  8
중심선
100
AcDbLine
 10
2.268634060543552
 20
16.24717430164393
 30
0.0
 11
0.1404042013395286
 21
13.71084872107135
 31
0.0
  0
LINE
  5
91
330
82
100
AcDbEntity
  8
중심선
100
AcDbLine
 10
7.28139805157953
 20
16.24717430164393
 30
0.0
 11
10.72767329541681
 21
16.24717430164393
 31
0.0
  0
LINE
  5
92
330
82
100
AcDbEntity
  8
중심선
100
AcDbLine
 10
12.29416204261559
 20
16.24717430164393
 30
0.0
 11
15.74043728645272
 21
16.24717430164393
 31
0.0
  0
LINE
  5
93
330
82
100
AcDbEntity
  8
중심선
100
AcDbLine
 10
19.22036997980202
 20
11.08717430171403
 30
0.0
 11
23.66174974927406
 21
11.08717430171406
 31
0.0
  0
LINE
  5
94
330
82
100
AcDbEntity
  8
중심선
100
AcDbLine
 10
19.22039502424796
 20
13.00717430171391
 30
0.0
 11
19.22036997980202
 21
11.08717430171403
 31
0.0
  0
LINE
  5
95
330
82
100
AcDbEntity
  8
중심선
100
AcDbLine
 10
19.22039502424796
 20
13.00717430171391
 30
0.0
 11
26.96566020931264
 21
13.00717430171391
 31
0.0
  0
LINE
  5
96
330
82
100
AcDbEntity
  8
중심선
100
AcDbLine
 10
22.22332737316547
 20
13.45928029700563
 30
0.0
 11
24.52862924686651
 21
15.39360700705356
 31
0.0
  0
ATTDEF
  5
98
330
82
100
AcDbEntity
  8
FORMAT
 62
     2
100
AcDbText
 10
-16.11926103943555
 20
2.075366912832191
 30
0.0
 40
4.233333333333333
  1
SEME7308042E [ 4 FLUTE ]
 41
0.75
  7
SLDTEXTSTYLE0
 11
-16.11926103943555
 21
-0.0412997538344756
 31
0.0
100
AcDbAttributeDefinition
  3

  2
AUTOATTR0
 70
     0
 74
     1
  0
ENDBLK
  5
84
330
82
100
AcDbEntity
  8
0
100
AcDbBlockEnd
  0
BLOCK
  5
DB
330
DA
100
AcDbEntity
  8
0
100
AcDbBlockBegin
  2
_D
 70
     0
 10
0.0
 20
0.0
 30
0.0
  3
_D
  1

  0
LINE
  5
DD
330
DA
100
AcDbEntity
  8
치수문자_일반주서
 62
     0
370
    -2
100
AcDbLine
 10
42.21250000000001
 20
-4.000000000000011
 30
0.0
 11
55.15000000000002
 21
-3.999999999999962
 31
0.0
  0
LINE
  5
DE
330
DA
100
AcDbEntity
  8
치수문자_일반주서
 62
     0
370
    -2
100
AcDbLine
 10
42.21250000000001
 20
3.999999999999995
 30
0.0
 11
55.14999999999999
 21
4.000000000000044
 31
0.0
  0
LINE
  5
DF
330
DA
100
AcDbEntity
  8
치수문자_일반주서
 62
     0
370
    -2
100
AcDbLine
 10
55.15000000000001
 20
-0.6979999999999627
 30
0.0
 11
55.15000000000001
 21
0.6980000000000439
 31
0.0
  0
SOLID
  5
E0
330
DA
100
AcDbEntity
  8
치수문자_일반주서
 62
     0
100
AcDbTrace
 10
54.59966666666667
 20
-0.6979999999999646
 30
0.0
 11
55.70033333333334
 21
-0.6979999999999607
 31
0.0
 12
55.15000000000002
 22
-3.999999999999962
 32
0.0
 13
55.15000000000002
 23
-3.999999999999962
 33
0.0
  0
SOLID
  5
E1
330
DA
100
AcDbEntity
  8
치수문자_일반주서
 62
     0
100
AcDbTrace
 10
55.70033333333334
 20
0.6980000000000459
 30
0.0
 11
54.59966666666667
 21
0.6980000000000419
 31
0.0
 12
55.14999999999999
 22
4.000000000000044
 32
0.0
 13
55.14999999999999
 23
4.000000000000044
 33
0.0
  0
MTEXT
  5
E2
330
DA
100
AcDbEntity
  8
치수문자_일반주서
 62
     0
100
AcDbMText
 10
50.77500000000001
 20
-0.0000000000000229
 30
0.0
 40
3.5
 41
0.0
 71
     2
 72
     1
  1
\A1;%%c8
  7
SLDTEXTSTYLE0
 11
-3.552713678800499E-15
 21
1.0
 31
0.0
 73
     1
 44
1.0
  0
POINT
  5
E3
330
DA
100
AcDbEntity
  8
Defpoints
 62
     0
100
AcDbPoint
 10
42.15000000000001
 20
-4.000000000000011
 30
0.0
  0
POINT
  5
E4
330
DA
100
AcDbEntity
  8
Defpoints
 62
     0
100
AcDbPoint
 10
42.15000000000001
 20
3.999999999999995
 30
0.0
  0
POINT
  5
E5
330
DA
100
AcDbEntity
  8
Defpoints
 62
     0
100
AcDbPoint
 10
55.14999999999999
 20
4.000000000000044
 30
0.0
  0
ENDBLK
  5
DC
330
DA
100
AcDbEntity
  8
0
100
AcDbBlockEnd
  0
BLOCK
  5
E9
330
E8
100
AcDbEntity
  8
0
100
AcDbBlockBegin
  2
_D_1
 70
     0
 10
0.0
 20
0.0
 30
0.0
  3
_D_1
  1

  0
LINE
  5
EB
330
E8
100
AcDbEntity
  8
치수문자_일반주서
 62
     0
370
    -2
100
AcDbLine
 10
-57.85000000000002
 20
3.562499999999982
 30
0.0
 11
-57.85000000000002
 21
38.00000000000001
 31
0.0
  0
LINE
  5
EC
330
E8
100
AcDbEntity
  8
치수문자_일반주서
 62
     0
370
    -2
100
AcDbLine
 10
42.15000000000001
 20
-0.3375000000000072
 30
0.0
 11
42.15000000000001
 21
38.00000000000001
 31
0.0
  0
LINE
  5
ED
330
E8
100
AcDbEntity
  8
치수문자_일반주서
 62
     0
370
    -2
100
AcDbLine
 10
-54.54800000000002
 20
38.00000000000001
 30
0.0
 11
38.84800000000001
 21
38.00000000000001
 31
0.0
  0
SOLID
  5
EE
330
E8
100
AcDbEntity
  8
치수문자_일반주서
 62
     0
100
AcDbTrace
 10
-54.54800000000002
 20
38.55033333333335
 30
0.0
 11
-54.54800000000002
 21
37.44966666666668
 31
0.0
 12
-57.85000000000002
 22
38.00000000000001
 32
0.0
 13
-57.85000000000002
 23
38.00000000000001
 33
0.0
  0
SOLID
  5
EF
330
E8
100
AcDbEntity
  8
치수문자_일반주서
 62
     0
100
AcDbTrace
 10
38.84800000000001
 20
37.44966666666668
 30
0.0
 11
38.84800000000001
 21
38.55033333333335
 31
0.0
 12
42.15000000000001
 22
38.00000000000001
 32
0.0
 13
42.15000000000001
 23
38.00000000000001
 33
0.0
  0
MTEXT
  5
F0
330
E8
100
AcDbEntity
  8
치수문자_일반주서
 62
     0
100
AcDbMText
 10
-7.850000000000005
 20
42.37500000000001
 30
0.0
 40
3.5
 41
0.0
 71
     2
 72
     1
  1
\A1;100
  7
SLDTEXTSTYLE0
 73
     1
 44
1.0
  0
POINT
  5
140
330
E8
100
AcDbEntity
  8
Defpoints
 62
     0
100
AcDbPoint
 10
-57.85000000000002
 20
3.499999999999982
 30
0.0
  0
POINT
  5
141
330
E8
100
AcDbEntity
  8
Defpoints
 62
     0
100
AcDbPoint
 10
42.15000000000001
 20
-0.4000000000000072
 30
0.0
  0
POINT
  5
142
330
E8
100
AcDbEntity
  8
Defpoints
 62
     0
100
AcDbPoint
 10
42.15000000000001
 20
38.00000000000001
 30
0.0
  0
ENDBLK
  5
EA
330
E8
100
AcDbEntity
  8
0
100
AcDbBlockEnd
  0
BLOCK
  5
F4
330
F3
100
AcDbEntity
  8
0
100
AcDbBlockBegin
  2
_D_2
 70
     0
 10
0.0
 20
0.0
 30
0.0
  3
_D_2
  1

  0
LINE
  5
F6
330
F3
100
AcDbEntity
  8
치수문자_일반주서
 62
     0
370
    -2
100
AcDbLine
 10
-57.41250000000002
 20
3.999999999999967
 30
0.0
 11
-71.34263956161992
 21
3.999999999999917
 31
0.0
  0
LINE
  5
F7
330
F3
100
AcDbEntity
  8
치수문자_일반주서
 62
     0
370
    -2
100
AcDbLine
 10
-57.41250000000002
 20
-4.000000000000012
 30
0.0
 11
-71.34263956161989
 21
-4.000000000000064
 31
0.0
  0
LINE
  5
F8
330
F3
100
AcDbEntity
  8
치수문자_일반주서
 62
     0
370
    -2
100
AcDbLine
 10
-71.3426395616199
 20
0.6979999999999169
 30
0.0
 11
-71.3426395616199
 21
-0.6980000000000643
 31
0.0
  0
SOLID
  5
F9
330
F3
100
AcDbEntity
  8
치수문자_일반주서
 62
     0
100
AcDbTrace
 10
-70.79230622828658
 20
0.6979999999999189
 30
0.0
 11
-71.89297289495323
 21
0.6979999999999149
 31
0.0
 12
-71.34263956161992
 22
3.999999999999917
 32
0.0
 13
-71.34263956161992
 23
3.999999999999917
 33
0.0
  0
SOLID
  5
FA
330
F3
100
AcDbEntity
  8
치수문자_일반주서
 62
     0
100
AcDbTrace
 10
-71.89297289495323
 20
-0.6980000000000663
 30
0.0
 11
-70.79230622828658
 21
-0.6980000000000623
 31
0.0
 12
-71.34263956161989
 22
-4.000000000000064
 32
0.0
 13
-71.34263956161989
 23
-4.000000000000064
 33
0.0
  0
MTEXT
  5
FB
330
F3
100
AcDbEntity
  8
치수문자_일반주서
 62
     0
100
AcDbMText
 10
-75.7176395616199
 20
-1.452927798406213
 30
0.0
 40
3.5
 41
0.0
 71
     2
 72
     1
  1
\A1;%%c8
  7
SLDTEXTSTYLE0
 11
-3.552713678800510E-15
 21
1.0
 31
0.0
 73
     1
 44
1.0
  0
POINT
  5
FC
330
F3
100
AcDbEntity
  8
Defpoints
 62
     0
100
AcDbPoint
 10
-57.35000000000002
 20
3.999999999999968
 30
0.0
  0
POINT
  5
FD
330
F3
100
AcDbEntity
  8
Defpoints
 62
     0
100
AcDbPoint
 10
-57.35000000000002
 20
-4.000000000000012
 30
0.0
  0
POINT
  5
FE
330
F3
100
AcDbEntity
  8
Defpoints
 62
     0
100
AcDbPoint
 10
-71.3426395616199
 20
-4.000000000000064
 30
0.0
  0
ENDBLK
  5
F5
330
F3
100
AcDbEntity
  8
0
100
AcDbBlockEnd
  0
BLOCK
  5
101
330
100
100
AcDbEntity
  8
0
100
AcDbBlockBegin
  2
_D_3
 70
     0
 10
0.0
 20
0.0
 30
0.0
  3
_D_3
  1

  0
LINE
  5
103
330
100
100
AcDbEntity
  8
치수문자_일반주서
 62
     0
370
    -2
100
AcDbLine
 10
30.15
 20
3.63519269343314
 30
0.0
 11
30.15
 21
14.41861099602079
 31
0.0
  0
LINE
  5
104
330
100
100
AcDbEntity
  8
치수문자_일반주서
 62
     0
370
    -2
100
AcDbLine
 10
42.15000000000001
 20
-0.3375000000000072
 30
0.0
 11
42.15000000000001
 21
14.41861099602079
 31
0.0
  0
LINE
  5
105
330
100
100
AcDbEntity
  8
치수문자_일반주서
 62
     0
370
    -2
100
AcDbLine
 10
33.452
 20
14.41861099602079
 30
0.0
 11
38.84800000000001
 21
14.41861099602079
 31
0.0
  0
SOLID
  5
106
330
100
100
AcDbEntity
  8
치수문자_일반주서
 62
     0
100
AcDbTrace
 10
33.452
 20
14.96894432935413
 30
0.0
 11
33.452
 21
13.86827766268746
 31
0.0
 12
30.15
 22
14.41861099602079
 32
0.0
 13
30.15
 23
14.41861099602079
 33
0.0
  0
SOLID
  5
107
330
100
100
AcDbEntity
  8
치수문자_일반주서
 62
     0
100
AcDbTrace
 10
38.84800000000001
 20
13.86827766268746
 30
0.0
 11
38.84800000000001
 21
14.96894432935413
 31
0.0
 12
42.15000000000001
 22
14.41861099602079
 32
0.0
 13
42.15000000000001
 23
14.41861099602079
 33
0.0
  0
MTEXT
  5
108
330
100
100
AcDbEntity
  8
치수문자_일반주서
 62
     0
100
AcDbMText
 10
36.14999999999999
 20
18.7936109960208
 30
0.0
 40
3.5
 41
0.0
 71
     2
 72
     1
  1
\A1;12
  7
SLDTEXTSTYLE0
 73
     1
 44
1.0
  0
POINT
  5
109
330
100
100
AcDbEntity
  8
Defpoints
 62
     0
100
AcDbPoint
 10
30.15
 20
3.57269269343314
 30
0.0
  0
POINT
  5
10A
330
100
100
AcDbEntity
  8
Defpoints
 62
     0
100
AcDbPoint
 10
42.15000000000001
 20
-0.4000000000000072
 30
0.0
  0
POINT
  5
143
330
100
100
AcDbEntity
  8
Defpoints
 62
     0
100
AcDbPoint
 10
42.15000000000001
 20
14.4186109960208
 30
0.0
  0
ENDBLK
  5
102
330
100
100
AcDbEntity
  8
0
100
AcDbBlockEnd
  0
BLOCK
  5
10D
330
10C
100
AcDbEntity
  8
0
100
AcDbBlockBegin
  2
_D_4
 70
     0
 10
0.0
 20
0.0
 30
0.0
  3
_D_4
  1

  0
LINE
  5
10F
330
10C
100
AcDbEntity
  8
치수문자_일반주서
 62
     0
370
    -2
100
AcDbLine
 10
42.15000000000001
 20
4.042449748426475
 30
0.0
 11
42.15000000000001
 21
28.67973927478064
 31
0.0
  0
LINE
  5
110
330
10C
100
AcDbEntity
  8
치수문자_일반주서
 62
     0
370
    -2
100
AcDbLine
 10
0.1500000000000021
 20
3.912499999999985
 30
0.0
 11
0.1500000000000021
 21
28.67973927478064
 31
0.0
  0
LINE
  5
111
330
10C
100
AcDbEntity
  8
치수문자_일반주서
 62
     0
370
    -2
100
AcDbLine
 10
38.84800000000001
 20
28.67973927478064
 30
0.0
 11
3.452000000000002
 21
28.67973927478064
 31
0.0
  0
SOLID
  5
112
330
10C
100
AcDbEntity
  8
치수문자_일반주서
 62
     0
100
AcDbTrace
 10
38.84800000000001
 20
28.12940594144731
 30
0.0
 11
38.84800000000001
 21
29.23007260811398
 31
0.0
 12
42.15000000000001
 22
28.67973927478064
 32
0.0
 13
42.15000000000001
 23
28.67973927478064
 33
0.0
  0
SOLID
  5
113
330
10C
100
AcDbEntity
  8
치수문자_일반주서
 62
     0
100
AcDbTrace
 10
3.452000000000002
 20
29.23007260811398
 30
0.0
 11
3.452000000000002
 21
28.12940594144731
 31
0.0
 12
0.1500000000000021
 22
28.67973927478064
 32
0.0
 13
0.1500000000000021
 23
28.67973927478064
 33
0.0
  0
MTEXT
  5
114
330
10C
100
AcDbEntity
  8
치수문자_일반주서
 62
     0
100
AcDbMText
 10
22.09355363335111
 20
33.05473927478064
 30
0.0
 40
3.5
 41
0.0
 71
     2
 72
     1
  1
\A1;42
  7
SLDTEXTSTYLE0
 73
     1
 44
1.0
  0
POINT
  5
144
330
10C
100
AcDbEntity
  8
Defpoints
 62
     0
100
AcDbPoint
 10
42.15000000000001
 20
3.979949748426475
 30
0.0
  0
POINT
  5
145
330
10C
100
AcDbEntity
  8
Defpoints
 62
     0
100
AcDbPoint
 10
0.1500000000000021
 20
3.849999999999985
 30
0.0
  0
POINT
  5
146
330
10C
100
AcDbEntity
  8
Defpoints
 62
     0
100
AcDbPoint
 10
0.1500000000000021
 20
28.67973927478063
 30
0.0
  0
ENDBLK
  5
10E
330
10C
100
AcDbEntity
  8
0
100
AcDbBlockEnd
  0
BLOCK
  5
116
330
115
100
AcDbEntity
  8
0
100
AcDbBlockBegin
  2
SW_DOWELSYMBOL_0
 70
     0
 10
0.0
 20
0.0
 30
0.0
  3
SW_DOWELSYMBOL_0
  1

  0
CIRCLE
  5
118
330
115
100
AcDbEntity
  8
해칭선
 62
     0
100
AcDbCircle
 10
0.0
 20
0.0
 30
0.0
 40
3.000000000000003
  0
HATCH
  5
119
330
115
100
AcDbEntity
  8
0
  6
Continuous
 62
     0
370
    18
100
AcDbHatch
 10
0.0
 20
0.0
 30
0.0
210
0.0
220
0.0
230
1.0
  2
SOLID
 70
     1
 71
     0
 91
        1
 92
        0
 93
        3
 72
     2
 10
-0.0000000000000017
 20
-0.0000000000000035
 40
3.000000000000003
 50
0.0
 51
90.0
 73
     1
 72
     1
 10
-0.0000000000000017
 20
2.999999999999999
 11
-0.0000000000000017
 21
-0.0000000000000036
 72
     1
 10
-0.0000000000000017
 20
-0.0000000000000035
 11
3.000000000000001
 21
-0.0000000000000035
 97
        0
 75
     0
 76
     1
 98
        1
 10
0.0
 20
0.0
  0
HATCH
  5
11A
330
115
100
AcDbEntity
  8
0
  6
Continuous
 62
     0
370
    18
100
AcDbHatch
 10
0.0
 20
0.0
 30
0.0
210
0.0
220
0.0
230
1.0
  2
SOLID
 70
     1
 71
     0
 91
        1
 92
        0
 93
        3
 72
     2
 10
-0.0000000000000017
 20
-0.0000000000000035
 40
3.000000000000003
 50
180.0
 51
270.0000000000008
 73
     1
 72
     1
 10
-0.0000000000000017
 20
-3.000000000000006
 11
-0.0000000000000017
 21
-0.0000000000000036
 72
     1
 10
-0.0000000000000017
 20
-0.0000000000000035
 11
-3.000000000000004
 21
-0.0000000000000035
 97
        0
 75
     0
 76
     1
 98
        1
 10
0.0
 20
0.0
  0
ENDBLK
  5
117
330
115
100
AcDbEntity
  8
0
100
AcDbBlockEnd
  0
ENDSEC
  0
SECTION
  2
ENTITIES
  0
LINE
  5
99
330
1F
100
AcDbEntity
  8
0
  6
Continuous
 62
     4
370
    25
100
AcDbLine
 10
0.0
 20
3.999999999999993
 30
0.0
 11
-57.35000000000002
 21
3.999999999999976
 31
0.0
  0
LINE
  5
9A
330
1F
100
AcDbEntity
  8
0
  6
Continuous
 62
     4
370
    25
100
AcDbLine
 10
-57.35000000000002
 20
-4.000000000000011
 30
0.0
 11
0.0
 21
-3.999999999999993
 31
0.0
  0
LINE
  5
9B
330
1F
100
AcDbEntity
  8
0
  6
Continuous
 62
     4
370
    25
100
AcDbLine
 10
-57.35000000000002
 20
3.999999999999981
 30
0.0
 11
-57.85000000000002
 21
3.49999999999998
 31
0.0
  0
LINE
  5
9C
330
1F
100
AcDbEntity
  8
0
  6
Continuous
 62
     4
370
    25
100
AcDbLine
 10
-57.85000000000002
 20
-3.50000000000002
 30
0.0
 11
-57.35000000000002
 21
-4.00000000000002
 31
0.0
  0
LINE
  5
9D
330
1F
100
AcDbEntity
  8
0
  6
Continuous
 62
     4
370
    25
100
AcDbLine
 10
0.0
 20
-3.999999999999986
 30
0.0
 11
0.1500000000000021
 21
-3.849999999999985
 31
0.0
  0
LINE
  5
9E
330
1F
100
AcDbEntity
  8
0
  6
Continuous
 62
     4
370
    25
100
AcDbLine
 10
0.1500000000000021
 20
3.849999999999986
 30
0.0
 11
0.0
 21
3.999999999999988
 31
0.0
  0
LINE
  5
9F
330
1F
100
AcDbEntity
  8
0
  6
Continuous
 62
     4
370
    25
100
AcDbLine
 10
28.62975830955251
 20
3.849999999999993
 30
0.0
 11
0.1500000000000021
 21
3.849999999999984
 31
0.0
  0
LINE
  5
A0
330
1F
100
AcDbEntity
  8
0
  6
Continuous
 62
     4
370
    25
100
AcDbLine
 10
0.1500000000000021
 20
-3.849999999999985
 30
0.0
 11
28.62975830955251
 21
-3.849999999999977
 31
0.0
  0
LINE
  5
A1
330
1F
100
AcDbEntity
  8
0
  6
Continuous
 62
     1
370
    25
100
AcDbLine
 10
40.96482325938215
 20
-4.00000000000001
 30
0.0
 11
42.15000000000001
 21
-4.00000000000001
 31
0.0
1001
PE_URL
1000

  0
LINE
  5
A2
330
1F
100
AcDbEntity
  8
0
  6
Continuous
 62
     1
370
    25
100
AcDbLine
 10
34.99717203537057
 20
3.999999999999994
 30
0.0
 11
32.62621103023722
 21
3.999999999999994
 31
0.0
1001
PE_URL
1000

  0
LINE
  5
A3
330
1F
100
AcDbEntity
  8
0
  6
Continuous
 62
     1
370
    25
100
AcDbLine
 10
32.62621103023719
 20
-4.00000000000001
 30
0.0
 11
34.99717203537057
 21
-4.00000000000001
 31
0.0
1001
PE_URL
1000

  0
LINE
  5
A4
330
1F
100
AcDbEntity
  8
0
  6
Continuous
 62
     1
370
    25
100
AcDbLine
 10
42.15000000000001
 20
3.999999999999994
 30
0.0
 11
40.96482325938215
 21
3.999999999999994
 31
0.0
1001
PE_URL
1000

  0
LINE
  5
A5
330
1F
100
AcDbEntity
  8
0
  6
Continuous
 62
     4
370
    25
100
AcDbLine
 10
0.0
 20
3.999999999999987
 30
0.0
 11
0.0
 21
-3.999999999999987
 31
0.0
  0
LINE
  5
A6
330
1F
100
AcDbEntity
  8
0
  6
Continuous
 62
     4
370
    25
100
AcDbLine
 10
-57.35000000000002
 20
3.999999999999981
 30
0.0
 11
-57.35000000000002
 21
-4.000000000000018
 31
0.0
  0
LINE
  5
A7
330
1F
100
AcDbEntity
  8
0
  6
Continuous
 62
     4
370
    25
100
AcDbLine
 10
-57.85000000000002
 20
3.499999999999982
 30
0.0
 11
-57.85000000000002
 21
-3.50000000000002
 31
0.0
  0
LINE
  5
A8
330
1F
100
AcDbEntity
  8
0
  6
Continuous
 62
     4
370
    25
100
AcDbLine
 10
0.1500000000000021
 20
3.849999999999985
 30
0.0
 11
0.1500000000000021
 21
-3.849999999999985
 31
0.0
  0
SPLINE
  5
A9
330
1F
100
AcDbEntity
  8
0
  6
Continuous
 62
     4
370
    25
100
AcDbSpline
210
0.0
220
0.0
230
1.0
 70
    24
 71
     3
 72
     8
 73
     4
 74
     0
 42
0.000000001
 43
0.00000001
 40
0.0
 40
0.0
 40
0.0
 40
0.0
 40
1.0
 40
1.0
 40
1.0
 40
1.0
 10
30.15
 20
1.697267320839624
 30
0.0
 10
30.15
 20
1.558918108488607
 30
0.0
 10
30.15
 20
1.398818994872496
 30
0.0
 10
30.15
 20
1.214289614723107
 30
0.0
  0
SPLINE
  5
AA
330
1F
100
AcDbEntity
  8
0
  6
Continuous
 62
     4
370
    25
100
AcDbSpline
210
0.0
220
0.0
230
1.0
 70
     8
 71
     3
 72
    14
 73
    10
 74
     0
 42
0.000000001
 43
0.00000001
 40
0.0
 40
0.0
 40
0.0
 40
0.0
 40
0.2499999999999999
 40
0.2499999999999999
 40
0.4999999999999998
 40
0.4999999999999998
 40
0.7499999999999997
 40
0.7499999999999997
 40
1.0
 40
1.0
 40
1.0
 40
1.0
 10
29.06861439642426
 20
-1.664573663332359
 30
0.0
 10
28.99601883628897
 20
-1.617219412598724
 30
0.0
 10
28.93186435237818
 20
-1.561969446257911
 30
0.0
 10
28.81975458506395
 20
-1.435361569933795
 30
0.0
 10
28.77235056416917
 20
-1.363952646892747
 30
0.0
 10
28.6987440326395
 20
-1.212519100645097
 30
0.0
 10
28.67161363292834
 20
-1.130504564901816
 30
0.0
 10
28.63732704041051
 20
-0.9632463997396178
 30
0.0
 10
28.62975830955251
 20
-0.8776097578241046
 30
0.0
 10
28.62975830955251
 20
-0.790169606581408
 30
0.0
  0
SPLINE
  5
AB
330
1F
100
AcDbEntity
  8
0
  6
Continuous
 62
     4
370
    25
100
AcDbSpline
210
0.0
220
0.0
230
1.0
 70
     8
 71
     3
 72
    18
 73
    14
 74
     0
 42
0.000000001
 43
0.00000001
 40
0.0
 40
0.0
 40
0.0
 40
0.0
 40
0.1250000000000001
 40
0.1250000000000001
 40
0.2500000000000002
 40
0.2500000000000002
 40
0.5000000000000001
 40
0.5000000000000001
 40
0.7500000000000001
 40
0.7500000000000001
 40
0.875
 40
0.875
 40
1.0
 40
1.0
 40
1.0
 40
1.0
 10
28.62975830955251
 20
0.752084426935149
 30
0.0
 10
28.62975830955251
 20
0.8429248040438648
 30
0.0
 10
28.63789559159842
 20
0.9317679235808944
 30
0.0
 10
28.67478249230571
 20
1.104985749810551
 30
0.0
 10
28.7041133374887
 20
1.190032966985543
 30
0.0
 10
28.82251855177369
 20
1.423172010084991
 30
0.0
 10
28.94588077518957
 20
1.555996798092987
 30
0.0
 10
29.25250539350766
 20
1.741414991590247
 30
0.0
 10
29.4345621108637
 20
1.793926704279763
 30
0.0
 10
29.7091198512009
 20
1.806233581109715
 30
0.0
 10
29.80250414199486
 20
1.799376470724064
 30
0.0
 10
29.98185895460797
 20
1.764177496010588
 30
0.0
 10
30.06784908937566
 20
1.736281125358253
 30
0.0
 10
30.15
 20
1.697267320839586
 30
0.0
  0
SPLINE
  5
AC
330
1F
100
AcDbEntity
  8
0
  6
Continuous
 62
     4
370
    25
100
AcDbSpline
210
0.0
220
0.0
230
1.0
 70
     8
 71
     3
 72
    18
 73
    14
 74
     0
 42
0.000000001
 43
0.00000001
 40
0.0
 40
0.0
 40
0.0
 40
0.0
 40
0.125
 40
0.125
 40
0.2500000000000001
 40
0.2500000000000001
 40
0.5000000000000001
 40
0.5000000000000001
 40
0.7500000000000002
 40
0.7500000000000002
 40
0.8750000000000001
 40
0.8750000000000001
 40
1.0
 40
1.0
 40
1.0
 40
1.0
 10
28.62975830955251
 20
3.775826931251144
 30
0.0
 10
28.62975830955251
 20
3.757732978799318
 30
0.0
 10
28.63789559159842
 20
3.736626012416754
 30
0.0
 10
28.67478249230571
 20
3.689115329289584
 30
0.0
 10
28.7041133374887
 20
3.662389291228442
 30
0.0
 10
28.82251855177369
 20
3.581085947276265
 30
0.0
 10
28.94588077518956
 20
3.523052525498881
 30
0.0
 10
29.25250539350765
 20
3.435185433155598
 30
0.0
 10
29.4345621108637
 20
3.406525089039925
 30
0.0
 10
29.7091198512009
 20
3.400006147217702
 30
0.0
 10
29.80250414199486
 20
3.403694828003434
 30
0.0
 10
29.98185895460797
 20
3.422071292089416
 30
0.0
 10
30.06784908937565
 20
3.436526895176968
 30
0.0
 10
30.15
 20
3.455688591527013
 30
0.0
  0
LINE
  5
AD
330
1F
100
AcDbEntity
  8
0
  6
Continuous
 62
     4
370
    25
100
AcDbLine
 10
28.62975830955251
 20
3.849999999999977
 30
0.0
 11
28.62975830955251
 21
3.768040869315886
 31
0.0
  0
SPLINE
  5
AE
330
1F
100
AcDbEntity
  8
0
  6
Continuous
 62
     4
370
    25
100
AcDbSpline
210
0.0
220
0.0
230
1.0
 70
     8
 71
     3
 72
    14
 73
    10
 74
     0
 42
0.000000001
 43
0.00000001
 40
0.0
 40
0.0
 40
0.0
 40
0.0
 40
0.2500000000000001
 40
0.2500000000000001
 40
0.5000000000000001
 40
0.5000000000000001
 40
0.7500000000000002
 40
0.7500000000000002
 40
1.0
 40
1.0
 40
1.0
 40
1.0
 10
29.06861439642426
 20
3.471555057800486
 30
0.0
 10
28.99601883628896
 20
3.494260916502317
 30
0.0
 10
28.93186435237817
 20
3.519584422144824
 30
0.0
 10
28.81975458506395
 20
3.573088330730847
 30
0.0
 10
28.77235056416917
 20
3.601192720869491
 30
0.0
 10
28.6987440326395
 20
3.654962826949127
 30
0.0
 10
28.67161363292833
 20
3.681305698993327
 30
0.0
 10
28.63732704041051
 20
3.72856656023374
 30
0.0
 10
28.62975830955251
 20
3.749704404212906
 30
0.0
 10
28.62975830955251
 20
3.768040869315898
 30
0.0
  0
SPLINE
  5
AF
330
1F
100
AcDbEntity
  8
0
  6
Continuous
 62
     4
370
    25
100
AcDbSpline
210
0.0
220
0.0
230
1.0
 70
     8
 71
     3
 72
     8
 73
     4
 74
     0
 42
0.000000001
 43
0.00000001
 40
0.0
 40
0.0
 40
0.0
 40
0.0
 40
1.0
 40
1.0
 40
1.0
 40
1.0
 10
30.15000000000349
 20
3.062633224402221
 30
0.0
 10
29.78791086591715
 20
3.22141822886376
 30
0.0
 10
29.43090222038399
 20
3.358241569690568
 30
0.0
 10
29.06861439642426
 20
3.471555057800487
 30
0.0
  0
LINE
  5
B0
330
1F
100
AcDbEntity
  8
0
  6
Continuous
 62
     4
370
    25
100
AcDbLine
 10
30.15
 20
1.798851555379073
 30
0.0
 11
30.15
 21
1.697267320839617
 31
0.0
  0
SPLINE
  5
B1
330
1F
100
AcDbEntity
  8
0
  6
Continuous
 62
     4
370
    25
100
AcDbSpline
210
0.0
220
0.0
230
1.0
 70
     8
 71
     3
 72
     8
 73
     4
 74
     0
 42
0.000000001
 43
0.00000001
 40
0.0
 40
0.0
 40
0.0
 40
0.0
 40
1.0
 40
1.0
 40
1.0
 40
1.0
 10
30.1500000000035
 20
-2.332976153497396
 30
0.0
 10
29.78791086591715
 20
-2.124529860777366
 30
0.0
 10
29.430902220384
 20
-1.900894843602327
 30
0.0
 10
29.06861439642426
 20
-1.664573663332358
 30
0.0
  0
LINE
  5
B2
330
1F
100
AcDbEntity
  8
0
  6
Continuous
 62
     4
370
    25
100
AcDbLine
 10
30.15
 20
-2.332976153495382
 30
0.0
 11
30.15
 21
-2.457460350210083
 31
0.0
  0
SPLINE
  5
B3
330
1F
100
AcDbEntity
  8
0
  6
Continuous
 62
     4
370
    25
100
AcDbSpline
210
0.0
220
0.0
230
1.0
 70
     8
 71
     3
 72
    18
 73
    14
 74
     0
 42
0.000000001
 43
0.00000001
 40
0.0
 40
0.0
 40
0.0
 40
0.0
 40
0.1249999999999999
 40
0.1249999999999999
 40
0.2499999999999997
 40
0.2499999999999997
 40
0.4999999999999998
 40
0.4999999999999998
 40
0.7499999999999999
 40
0.7499999999999999
 40
0.8749999999999999
 40
0.8749999999999999
 40
1.0
 40
1.0
 40
1.0
 40
1.0
 10
28.62975830955251
 20
-3.775826931251165
 30
0.0
 10
28.62975830955251
 20
-3.757732978799341
 30
0.0
 10
28.63789559159842
 20
-3.736626012416746
 30
0.0
 10
28.67478249230571
 20
-3.689115329289578
 30
0.0
 10
28.70411333748871
 20
-3.662389291228437
 30
0.0
 10
28.8225185517737
 20
-3.581085947276262
 30
0.0
 10
28.94588077518957
 20
-3.523052525498881
 30
0.0
 10
29.25250539350766
 20
-3.435185433155602
 30
0.0
 10
29.43456211086371
 20
-3.406525089039929
 30
0.0
 10
29.70911985120091
 20
-3.400006147217706
 30
0.0
 10
29.80250414199486
 20
-3.403694828003439
 30
0.0
 10
29.98185895460797
 20
-3.422071292089421
 30
0.0
 10
30.06784908937566
 20
-3.436526895176972
 30
0.0
 10
30.15
 20
-3.455688591527017
 30
0.0
  0
LINE
  5
B4
330
1F
100
AcDbEntity
  8
0
  6
Continuous
 62
     4
370
    25
100
AcDbLine
 10
28.62975830955251
 20
-3.775826931251165
 30
0.0
 11
28.62975830955251
 21
-3.849999999999993
 31
0.0
  0
LINE
  5
B5
330
1F
100
AcDbEntity
  8
0
  6
Continuous
 62
     4
370
    25
100
AcDbLine
 10
28.62975830955251
 20
0.7520844269351492
 30
0.0
 11
28.62975830955251
 21
-0.7901696065814102
 31
0.0
  0
SPLINE
  5
B6
330
1F
100
AcDbEntity
  8
0
  6
Continuous
 62
     4
370
    25
100
AcDbSpline
210
0.0
220
0.0
230
1.0
 70
    24
 71
     3
 72
    14
 73
    10
 74
     0
 42
0.000000001
 43
0.00000001
 40
0.0
 40
0.0
 40
0.0
 40
0.0
 40
0.2500000000000001
 40
0.2500000000000001
 40
0.5000000000000001
 40
0.5000000000000001
 40
0.75
 40
0.75
 40
1.0
 40
1.0
 40
1.0
 40
1.0
 10
30.15
 20
1.214289614723594
 30
0.0
 10
30.15
 20
1.031290669438463
 30
0.0
 10
30.15
 20
0.8119684471361422
 30
0.0
 10
30.15
 20
0.2939535280117559
 30
0.0
 10
30.15
 20
-0.0055269047373696
 30
0.0
 10
30.15
 20
-0.6601039334335168
 30
0.0
 10
30.15
 20
-1.015101215055563
 30
0.0
 10
30.15
 20
-1.709726045573088
 30
0.0
 10
30.15
 20
-2.047392444418622
 30
0.0
 10
30.15
 20
-2.332976153495383
 30
0.0
  0
LINE
  5
B7
330
1F
100
AcDbEntity
  8
0
  6
Continuous
 62
     4
370
    25
100
AcDbLine
 10
30.15
 20
3.455688591526997
 30
0.0
 11
30.15
 21
3.165611645380688
 31
0.0
  0
SPLINE
  5
B8
330
1F
100
AcDbEntity
  8
0
  6
Continuous
 62
     1
370
    25
100
AcDbSpline
210
0.0
220
0.0
230
1.0
 70
     8
 71
     3
 72
    16
 73
    12
 74
     0
 42
0.000000001
 43
0.00000001
 40
0.0
 40
0.0
 40
0.0
 40
0.0
 40
0.1207501932924829
 40
0.241507489906797
 40
0.3622740718041818
 40
0.4830521102510929
 40
0.6038437633461881
 40
0.7225120174244832
 40
0.8411722113756364
 40
0.9598080841151855
 40
1.0
 40
1.0
 40
1.0
 40
1.0
 10
30.15000000000341
 20
1.798851555376753
 30
0.0
 10
30.585263878955
 20
1.495332927657848
 30
0.0
 10
31.45581724194689
 20
0.8882778172548755
 30
0.0
 10
32.76172277041919
 20
-0.1048518911082541
 30
0.0
 10
34.06775863145802
 20
-1.083840386502223
 30
0.0
 10
35.37396109530035
 20
-1.999975758950146
 30
0.0
 10
36.67263450966888
 20
-2.789280391317529
 30
0.0
 10
37.96376702445394
 20
-3.41337349934769
 30
0.0
 10
39.24708366082384
 20
-3.819382460127871
 30
0.0
 10
40.24741317597832
 20
-4.009307331702197
 30
0.0
 10
40.819942701961
 20
-3.9810325529354
 30
0.0
 10
40.96482325938215
 20
-3.973877523329436
 30
0.0
  0
LINE
  5
B9
330
1F
100
AcDbEntity
  8
0
  6
Continuous
 62
     4
370
    25
100
AcDbLine
 10
30.15
 20
1.798851555379073
 30
0.0
 11
30.15
 21
3.165611645381108
 31
0.0
  0
SPLINE
  5
BA
330
1F
100
AcDbEntity
  8
0
  6
Continuous
 62
     1
370
    25
100
AcDbSpline
210
0.0
220
0.0
230
1.0
 70
     8
 71
     3
 72
    36
 73
    32
 74
     0
 42
0.000000001
 43
0.00000001
 40
0.0
 40
0.0
 40
0.0
 40
0.0
 40
0.0625
 40
0.0625
 40
0.125
 40
0.125
 40
0.1875000000000001
 40
0.1875000000000001
 40
0.2500000000000001
 40
0.2500000000000001
 40
0.3125000000000001
 40
0.3125000000000001
 40
0.3750000000000001
 40
0.3750000000000001
 40
0.4375000000000001
 40
0.4375000000000001
 40
0.5
 40
0.5
 40
0.5624999999999999
 40
0.5624999999999999
 40
0.6249999999999999
 40
0.6249999999999999
 40
0.6874999999999999
 40
0.6874999999999999
 40
0.7499999999999999
 40
0.7499999999999999
 40
0.875
 40
0.875
 40
0.9375
 40
0.9375
 40
1.0
 40
1.0
 40
1.0
 40
1.0
 10
42.15000000000001
 20
-3.900662793420092
 30
0.0
 10
41.90215417054762
 20
-3.859060790644789
 30
0.0
 10
41.65084932836396
 20
-3.804298536363467
 30
0.0
 10
41.14877323867368
 20
-3.669759788095198
 30
0.0
 10
40.89960403333589
 20
-3.590187476791267
 30
0.0
 10
40.40204499475117
 20
-3.407924987642124
 30
0.0
 10
40.15034500730616
 20
-3.304777118715811
 30
0.0
 10
39.64859448499998
 20
-3.077336544234869
 30
0.0
 10
39.40082735603325
 20
-2.953474703141879
 30
0.0
 10
38.90171679636909
 20
-2.686426173748024
 30
0.0
 10
38.64978586345791
 20
-2.543062814170535
 30
0.0
 10
38.14868577256914
 20
-2.240866020224612
 30
0.0
 10
37.90158415249889
 20
-2.082524140928132
 30
0.0
 10
37.4012412530391
 20
-1.751780734658981
 30
0.0
 10
37.14924407986602
 20
-1.579596840741769
 30
0.0
 10
36.64911788091499
 20
-1.226747430032521
 30
0.0
 10
36.40194377339628
 20
-1.046349714866919
 30
0.0
 10
35.90069036358204
 20
-0.6781384461604502
 30
0.0
 10
35.64879180041969
 20
-0.4908378105233648
 30
0.0
 10
35.1499608566042
 20
-0.1154521788415474
 30
0.0
 10
34.90197642097414
 20
0.0728893112141295
 30
0.0
 10
34.40013629195981
 20
0.4493080385672588
 30
0.0
 10
34.14850097313879
 20
0.6368160536242456
 30
0.0
 10
33.65128386599186
 20
1.004875199765342
 30
0.0
 10
33.40175300112197
 20
1.186409729585536
 30
0.0
 10
32.64860031514431
 20
1.718435453862066
 30
0.0
 10
32.152363886931
 20
2.053490489697829
 30
0.0
 10
31.39930714289491
 20
2.510590841790994
 30
0.0
 10
31.15047129868275
 20
2.654648809086339
 30
0.0
 10
30.6525825134268
 20
2.924298781001047
 30
0.0
 10
30.40082419168249
 20
3.050329018084244
 30
0.0
 10
30.15000000000006
 20
3.165611645380412
 30
0.0
  0
LINE
  5
BB
330
1F
100
AcDbEntity
  8
0
  6
Continuous
 62
     1
370
    25
100
AcDbLine
 10
42.15000000000001
 20
-4.000000000000011
 30
0.0
 11
42.15000000000001
 21
-3.900662793421053
 31
0.0
1001
PE_URL
1000

  0
SPLINE
  5
BC
330
1F
100
AcDbEntity
  8
0
  6
Continuous
 62
     1
370
    25
100
AcDbSpline
210
0.0
220
0.0
230
1.0
 70
     8
 71
     3
 72
    13
 73
     9
 74
     0
 42
0.000000001
 43
0.00000001
 40
0.0
 40
0.0
 40
0.0
 40
0.0
 40
0.152707130824924
 40
0.3246313371592883
 40
0.4934867347951462
 40
0.6623321456158349
 40
0.8311693162642857
 40
1.0
 40
1.0
 40
1.0
 40
1.0
 10
37.96712593310579
 20
-3.378739353811355
 30
0.0
 10
37.56919404938957
 20
-3.525884647617391
 30
0.0
 10
36.72325346487803
 20
-3.838692394229531
 30
0.0
 10
35.43730069702688
 20
-4.024792030122287
 30
0.0
 10
34.10937617382677
 20
-3.986486736564472
 30
0.0
 10
32.78950668647958
 20
-3.695015021979363
 30
0.0
 10
31.46972496503534
 20
-3.188480890175993
 30
0.0
 10
30.58990268761338
 20
-2.692943473638287
 30
0.0
 10
30.15000000000349
 20
-2.445179525236175
 30
0.0
  0
SPLINE
  5
BD
330
1F
100
AcDbEntity
  8
0
  6
Continuous
 62
     4
370
    25
100
AcDbSpline
210
0.0
220
0.0
230
1.0
 70
    24
 71
     3
 72
    20
 73
    16
 74
     0
 42
0.000000001
 43
0.00000001
 40
0.0
 40
0.0
 40
0.0
 40
0.0
 40
0.125
 40
0.125
 40
0.2500000000000001
 40
0.2500000000000001
 40
0.5
 40
0.5
 40
0.625
 40
0.625
 40
0.75
 40
0.75
 40
0.875
 40
0.875
 40
1.0
 40
1.0
 40
1.0
 40
1.0
 10
30.15
 20
1.798851555379075
 30
0.0
 10
30.15
 20
1.718260040286044
 30
0.0
 10
30.15
 20
1.638731628063703
 30
0.0
 10
30.15
 20
1.448696361529683
 30
0.0
 10
30.15
 20
1.339508717436346
 30
0.0
 10
30.15
 20
0.9611325523856559
 30
0.0
 10
30.15
 20
0.6381238760801222
 30
0.0
 10
30.15
 20
0.0437105046246987
 30
0.0
 10
30.15
 20
-0.1721235671986553
 30
0.0
 10
30.15
 20
-0.6276764163927355
 30
0.0
 10
30.15
 20
-0.867366833086368
 30
0.0
 10
30.15
 20
-1.348498450777394
 30
0.0
 10
30.15
 20
-1.589692058668998
 30
0.0
 10
30.15
 20
-2.044791940577275
 30
0.0
 10
30.15
 20
-2.258329693353993
 30
0.0
 10
30.15
 20
-2.445179525234787
 30
0.0
  0
SPLINE
  5
BE
330
1F
100
AcDbEntity
  8
0
  6
Continuous
 62
     4
370
    25
100
AcDbSpline
210
0.0
220
0.0
230
1.0
 70
    24
 71
     3
 72
     9
 73
     5
 74
     0
 42
0.000000001
 43
0.00000001
 40
0.0
 40
0.0
 40
0.0
 40
0.0
 40
0.9019382312110327
 40
1.0
 40
1.0
 40
1.0
 40
1.0
 10
30.15
 20
3.57269269343314
 30
0.0
 10
30.15
 20
3.463238121939455
 30
0.0
 10
30.15
 20
3.341883279993438
 30
0.0
 10
30.15
 20
3.243917548588952
 30
0.0
 10
30.15
 20
3.234310855686724
 30
0.0
  0
SPLINE
  5
BF
330
1F
100
AcDbEntity
  8
0
  6
Continuous
 62
     1
370
    25
100
AcDbSpline
210
0.0
220
0.0
230
1.0
 70
     8
 71
     3
 72
    36
 73
    32
 74
     0
 42
0.000000001
 43
0.00000001
 40
0.0
 40
0.0
 40
0.0
 40
0.0
 40
0.0625
 40
0.0625
 40
0.125
 40
0.125
 40
0.1875
 40
0.1875
 40
0.25
 40
0.25
 40
0.3125
 40
0.3125
 40
0.375
 40
0.375
 40
0.4375
 40
0.4375
 40
0.5
 40
0.5
 40
0.5625
 40
0.5625
 40
0.625
 40
0.625
 40
0.75
 40
0.75
 40
0.8125
 40
0.8125
 40
0.875
 40
0.875
 40
0.9375
 40
0.9375
 40
1.0
 40
1.0
 40
1.0
 40
1.0
 10
41.81291866826417
 20
-0.6360268894712068
 30
0.0
 10
41.56976332368101
 20
-0.4552347770672933
 30
0.0
 10
41.32491912366277
 20
-0.2720181912147153
 30
0.0
 10
40.83875551642451
 20
0.0940980949199818
 30
0.0
 10
40.59862602292782
 20
0.2766951673945162
 30
0.0
 10
40.1117459323997
 20
0.6406649051924898
 30
0.0
 10
39.86693912056849
 20
0.8215370072487539
 30
0.0
 10
39.38149099189248
 20
1.175970843553166
 30
0.0
 10
39.14104704511004
 20
1.349509934001532
 30
0.0
 10
38.65371694929149
 20
1.68855332266983
 30
0.0
 10
38.40900834350761
 20
1.853508792714726
 30
0.0
 10
37.92439391823866
 20
2.169701277450249
 30
0.0
 10
37.68335362010143
 20
2.321228504158046
 30
0.0
 10
37.1956932840023
 20
2.60989033521331
 30
0.0
 10
36.95114362045143
 20
2.746557883760011
 30
0.0
 10
36.46748044347731
 20
3.000855509861163
 30
0.0
 10
36.22556238232865
 20
3.119021109666542
 30
0.0
 10
35.73769184197257
 20
3.335622704973176
 30
0.0
 10
35.49336172473957
 20
3.433763874818446
 30
0.0
 10
35.01076656687009
 20
3.607195399344593
 30
0.0
 10
34.76769004644112
 20
3.683086751930102
 30
0.0
 10
34.03574924249056
 20
3.875498895058211
 30
0.0
 10
33.55371851817578
 20
3.955978511517429
 30
0.0
 10
32.82182314467769
 20
4.001459447750658
 30
0.0
 10
32.57936502286198
 20
4.004016012120937
 30
0.0
 10
32.09621749750113
 20
3.984124186351125
 30
0.0
 10
31.85176925811083
 20
3.961577777926087
 30
0.0
 10
31.36398955377645
 20
3.891682077263495
 30
0.0
 10
31.12254864430663
 20
3.844498112475716
 30
0.0
 10
30.63839179969666
 20
3.726326965087262
 30
0.0
 10
30.39375451281885
 20
3.655112517759244
 30
0.0
 10
30.15000000000341
 20
3.572692693434254
 30
0.0
  0
SPLINE
  5
C0
330
1F
100
AcDbEntity
  8
0
  6
Continuous
 62
     1
370
    25
100
AcDbSpline
210
0.0
220
0.0
230
1.0
 70
     8
 71
     3
 72
     8
 73
     4
 74
     0
 42
0.000000001
 43
0.00000001
 40
0.0
 40
0.0
 40
0.0
 40
0.0
 40
1.0
 40
1.0
 40
1.0
 40
1.0
 10
42.15000000000001
 20
-0.885694942983946
 30
0.0
 10
42.03227231384501
 20
-0.8073892334258559
 30
0.0
 10
41.91426807939131
 20
-0.7279965589022658
 30
0.0
 10
41.7960662146927
 20
-0.6478271045057153
 30
0.0
1001
PE_URL
1000

  0
LINE
  5
C1
330
1F
100
AcDbEntity
  8
0
  6
Continuous
 62
     1
370
    25
100
AcDbLine
 10
42.15000000000001
 20
-3.900662793421053
 30
0.0
 11
42.15000000000001
 21
-0.8856949429839445
 31
0.0
1001
PE_URL
1000

  0
SPLINE
  5
C2
330
1F
100
AcDbEntity
  8
0
  6
Continuous
 62
     1
370
    25
100
AcDbSpline
210
0.0
220
0.0
230
1.0
 70
     8
 71
     3
 72
    13
 73
     9
 74
     0
 42
0.000000001
 43
0.00000001
 40
0.0
 40
0.0
 40
0.0
 40
0.0
 40
0.1879302664855895
 40
0.3758528954513493
 40
0.5637684141313205
 40
0.7516773522023501
 40
0.9395802416059998
 40
1.0
 40
1.0
 40
1.0
 40
1.0
 10
42.15000000000001
 20
0.8859061869185886
 30
0.0
 10
41.70190858271074
 20
1.209685518512837
 30
0.0
 10
40.80574395864801
 20
1.857231023251064
 30
0.0
 10
39.46154598543671
 20
2.693817533943946
 30
0.0
 10
38.11741129763803
 20
3.367368633328625
 30
0.0
 10
36.77334795943413
 20
3.807498701615681
 30
0.0
 10
35.73325023083966
 20
4.011322962800638
 30
0.0
 10
35.14121984298443
 20
3.980351584644306
 30
0.0
 10
34.99717203537057
 20
3.972815891859412
 30
0.0
1001
PE_URL
1000

  0
LINE
  5
C3
330
1F
100
AcDbEntity
  8
0
  6
Continuous
 62
     1
370
    25
100
AcDbLine
 10
42.15000000000001
 20
-0.4000000000000212
 30
0.0
 11
42.15000000000001
 21
0.8859061869186655
 31
0.0
1001
PE_URL
1000

  0
LINE
  5
C4
330
1F
100
AcDbEntity
  8
0
  6
Continuous
 62
     1
370
    25
100
AcDbLine
 10
42.15000000000001
 20
-0.4000000000000205
 30
0.0
 11
41.81291866826417
 21
-0.6360268894712148
 31
0.0
1001
PE_URL
1000

  0
SPLINE
  5
C5
330
1F
100
AcDbEntity
  8
0
  6
Continuous
 62
     1
370
    25
100
AcDbSpline
210
0.0
220
0.0
230
1.0
 70
     8
 71
     3
 72
    10
 73
     6
 74
     0
 42
0.000000001
 43
0.00000001
 40
0.0
 40
0.0
 40
0.0
 40
0.0
 40
0.3328190563380832
 40
0.666437398700407
 40
1.0
 40
1.0
 40
1.0
 40
1.0
 10
37.96712593310578
 20
3.378739353811345
 30
0.0
 10
38.393808955004
 20
3.53099645110275
 30
0.0
 10
39.24819970507757
 20
3.835876300739377
 30
0.0
 10
40.53012041611525
 20
4.033643520887754
 30
0.0
 10
41.38534306801804
 20
3.977286271118321
 30
0.0
 10
41.81291866826417
 20
3.949110000477251
 30
0.0
1001
PE_URL
1000

  0
SPLINE
  5
C6
330
1F
100
AcDbEntity
  8
0
  6
Continuous
 62
     1
370
    25
100
AcDbSpline
210
0.0
220
0.0
230
1.0
 70
     8
 71
     3
 72
     8
 73
     4
 74
     0
 42
0.000000001
 43
0.00000001
 40
0.0
 40
0.0
 40
0.0
 40
0.0
 40
1.0
 40
1.0
 40
1.0
 40
1.0
 10
41.81291866826417
 20
3.949110000477256
 30
0.0
 10
41.81445947611158
 20
3.812772771758054
 30
0.0
 10
41.8092540960299
 20
3.677690355784977
 30
0.0
 10
41.79606621468545
 20
3.544092710831596
 30
0.0
1001
PE_URL
1000

  0
SPLINE
  5
C7
330
1F
100
AcDbEntity
  8
0
  6
Continuous
 62
     1
370
    25
100
AcDbSpline
210
0.0
220
0.0
230
1.0
 70
     8
 71
     3
 72
     8
 73
     4
 74
     0
 42
0.000000001
 43
0.00000001
 40
0.0
 40
0.0
 40
0.0
 40
0.0
 40
1.0
 40
1.0
 40
1.0
 40
1.0
 10
42.15000000000001
 20
3.455899091622759
 30
0.0
 10
42.03227231384475
 20
3.491036409771582
 30
0.0
 10
41.91426807939078
 20
3.51983093978352
 30
0.0
 10
41.7960662146919
 20
3.544092710856995
 30
0.0
1001
PE_URL
1000

  0
LINE
  5
C8
330
1F
100
AcDbEntity
  8
0
  6
Continuous
 62
     1
370
    25
100
AcDbLine
 10
42.15000000000001
 20
0.8895720657566277
 30
0.0
 11
42.15000000000001
 21
3.455899091622757
 31
0.0
1001
PE_URL
1000

  0
LINE
  5
C9
330
1F
100
AcDbEntity
  8
0
  6
Continuous
 62
     1
370
    25
100
AcDbLine
 10
42.15000000000001
 20
-0.4000000000000072
 30
0.0
 11
42.15000000000001
 21
-0.885694942983946
 31
0.0
1001
PE_URL
1000

  0
SPLINE
  5
CA
330
1F
100
AcDbEntity
  8
0
  6
Continuous
 62
     1
370
    25
100
AcDbSpline
210
0.0
220
0.0
230
1.0
 70
     8
 71
     3
 72
     9
 73
     5
 74
     0
 42
0.000000001
 43
0.00000001
 40
0.0
 40
0.0
 40
0.0
 40
0.0
 40
0.5273411888244474
 40
1.0
 40
1.0
 40
1.0
 40
1.0
 10
30.15000000000342
 20
-3.572692693434282
 30
0.0
 10
30.58526335141713
 20
-3.703531369773587
 30
0.0
 10
31.41065564133857
 20
-3.951641472136294
 30
0.0
 10
32.23607112771882
 20
-3.976862681870061
 30
0.0
 10
32.62621103023719
 20
-3.988783708879232
 30
0.0
  0
LINE
  5
CB
330
1F
100
AcDbEntity
  8
0
  6
Continuous
 62
     4
370
    25
100
AcDbLine
 10
30.15
 20
-3.572692693433168
 30
0.0
 11
30.15
 21
-2.445179525234791
 31
0.0
  0
ELLIPSE
  5
CC
330
1F
100
AcDbEntity
  8
0
  6
Continuous
 62
     1
370
    25
100
AcDbEllipse
 10
42.72125920269684
 20
-0.000000000000008
 30
0.0
 11
5.712592026968444
 21
0.0
 31
0.0
210
0.0
220
0.0
230
1.0
 40
0.7002075382097119
 41
1.670963747956455
 42
1.73048082060168
1001
PE_URL
1000

  0
LINE
  5
CD
330
1F
100
AcDbEntity
  8
0
  6
Continuous
 62
     1
370
    25
100
AcDbLine
 10
42.15000000000001
 20
3.455899091622757
 30
0.0
 11
42.15000000000001
 21
3.979949748426475
 31
0.0
1001
PE_URL
1000

  0
LINE
  5
CE
330
1F
100
AcDbEntity
  8
0
  6
Continuous
 62
     1
370
    25
100
AcDbLine
 10
42.15000000000001
 20
3.979949748426475
 30
0.0
 11
42.15000000000001
 21
3.999999999999995
 31
0.0
1001
PE_URL
1000

  0
LINE
  5
CF
330
1F
100
AcDbEntity
  8
중심선
100
AcDbLine
 10
-60.85
 20
-0.0000000000000128
 30
0.0
 11
45.15000000000001
 21
-0.0000000000000035
 31
0.0
  0
CIRCLE
  5
D0
330
1F
100
AcDbEntity
  8
해칭선
100
AcDbCircle
 10
0.0
 20
0.0
 30
0.0
 40
3.000000000000003
  0
INSERT
  5
D1
330
1F
100
AcDbEntity
  8
0
  6
Continuous
 62
     7
100
AcDbBlockReference
 66
     1
  2
블럭10
 10
-21.79027293212521
 20
-52.04717430164394
 30
0.0
  0
ATTRIB
  5
D2
330
D1
100
AcDbEntity
  8
FORMAT
 62
     2
100
AcDbText
 10
-37.90953397156076
 20
-49.97180738881175
 30
0.0
 40
4.233333333333333
  1
SEME7308042E [ 4 FLUTE ]
 41
0.75
  7
SLDTEXTSTYLE0
 11
-37.90953397156076
 21
-52.08847405547841
 31
0.0
100
AcDbAttribute
  2
AUTOATTR0
 70
     0
 74
     1
  0
SEQEND
  5
D3
330
D1
100
AcDbEntity
  8
0
  6
Continuous
 62
     7
  0
HATCH
  5
D4
330
1F
100
AcDbEntity
  8
중심선
100
AcDbHatch
 10
0.0
 20
0.0
 30
0.0
210
0.0
220
0.0
230
1.0
  2
SOLID
 70
     1
 71
     0
 91
        1
 92
        0
 93
        4
 72
     1
 10
-16.07536362774437
 20
-35.8
 11
-19.52163887158165
 21
-35.8
 72
     1
 10
-19.52163887158165
 20
-35.8
 11
-21.64986873078567
 21
-38.3363255805726
 72
     1
 10
-21.64986873078567
 20
-38.3363255805726
 11
-18.20356040183524
 21
-38.33628615127011
 72
     1
 10
-18.20356040183524
 20
-38.33628615127011
 11
-16.07536362774437
 21
-35.8
 97
        0
 75
     0
 76
     1
 98
        1
 10
18.64994507901019
 20
-0.0000000000000089
  0
HATCH
  5
D5
330
1F
100
AcDbEntity
  8
중심선
100
AcDbHatch
 10
0.0
 20
0.0
 30
0.0
210
0.0
220
0.0
230
1.0
  2
SOLID
 70
     1
 71
     0
 91
        1
 92
        0
 93
        4
 72
     1
 10
-11.06259963670836
 20
-35.8
 11
-14.50887488054567
 21
-35.8
 72
     1
 10
-14.50887488054567
 20
-35.8
 11
-19.04001288890309
 21
-41.20000000000002
 72
     1
 10
-19.04001288890309
 20
-41.20000000000002
 11
-15.5937376450658
 21
-41.20000000000002
 72
     1
 10
-15.5937376450658
 20
-41.20000000000002
 11
-11.06259963670836
 21
-35.8
 97
        0
 75
     0
 76
     1
 98
        1
 10
18.64994507901019
 20
-0.0000000000000089
  0
HATCH
  5
D6
330
1F
100
AcDbEntity
  8
중심선
100
AcDbHatch
 10
0.0
 20
0.0
 30
0.0
210
0.0
220
0.0
230
1.0
  2
SOLID
 70
     1
 71
     0
 91
        1
 92
        0
 93
        4
 72
     1
 10
-6.049835645672548
 20
-35.8
 11
-9.496110889509637
 21
-35.8
 72
     1
 10
-9.496110889509637
 20
-35.8
 11
-16.54454779139888
 21
-44.20000000000002
 72
     1
 10
-16.54454779139888
 20
-44.20000000000002
 11
-13.0982725475616
 21
-44.20000000000002
 72
     1
 10
-13.0982725475616
 20
-44.20000000000002
 11
-6.049835645672548
 21
-35.8
 97
        0
 75
     0
 76
     1
 98
        1
 10
18.64994507901019
 20
-0.0000000000000089
  0
HATCH
  5
D7
330
1F
100
AcDbEntity
  8
중심선
100
AcDbHatch
 10
0.0
 20
0.0
 30
0.0
210
0.0
220
0.0
230
1.0
  2
SOLID
 70
     1
 71
     0
 91
        1
 92
        0
 93
        6
 72
     3
 10
-1.249945214660322
 20
-40.00000000005128
 11
3.960054785062283
 21
1.540882976769353E-10
 40
0.3939339440162628
 50
17.09539180608437
 51
320.0019657685086
 73
     0
 72
     1
 10
0.4330544410402766
 20
-38.58789400463834
 11
2.738356314741313
 21
-36.65356729459041
 72
     3
 10
-1.249945214713168
 20
-40.00000000000016
 11
6.600054785286829
 21
-1.278976924368180E-13
 40
0.636358354079598
 50
39.99873849337385
 51
368.4976242363725
 73
     1
 72
     1
 10
5.175387277187442
 20
-39.03999999993002
 11
-2.569877907877245
 21
-39.03999999993002
 72
     1
 10
-2.569877907877245
 20
-39.03999999993002
 11
-2.569902952323179
 21
-40.95999999992992
 72
     1
 10
-2.569902952323179
 20
-40.95999999992992
 11
1.87147681714886
 21
-40.95999999992989
 97
        0
 75
     0
 76
     1
 98
        1
 10
18.64994507901019
 20
-0.0000000000000089
  0
DIMENSION
  5
D8
330
1F
100
AcDbEntity
  8
치수문자_일반주서
100
AcDbDimension
  2
_D
 10
55.14999999999999
 20
4.000000000000044
 30
0.0
 11
55.15000000000001
 21
-0.0000000000000074
 31
0.0
 70
   160
  1
%%c<>
 71
     2
 42
8.000000000000005
 52
-270.0
  3
SLDDIMSTYLE0
100
AcDbAlignedDimension
 13
42.15000000000001
 23
-4.000000000000011
 33
0.0
 14
42.15000000000001
 24
3.999999999999995
 34
0.0
 50
90.0000000000002
100
AcDbRotatedDimension
  0
DIMENSION
  5
E6
330
1F
100
AcDbEntity
  8
치수문자_일반주서
100
AcDbDimension
  2
_D_1
 10
42.15000000000001
 20
38.00000000000001
 30
0.0
 11
-7.850000000000005
 21
38.00000000000001
 31
0.0
 70
   160
  1
<>
 71
     2
 42
100.0
  3
SLDDIMSTYLE1
100
AcDbAlignedDimension
 13
-57.85000000000002
 23
3.499999999999982
 33
0.0
 14
42.15000000000001
 24
-0.4000000000000072
 34
0.0
100
AcDbRotatedDimension
  0
DIMENSION
  5
F1
330
1F
100
AcDbEntity
  8
치수문자_일반주서
100
AcDbDimension
  2
_D_2
 10
-71.34263956161989
 20
-4.000000000000064
 30
0.0
 11
-71.3426395616199
 21
-1.452927798406197
 31
0.0
 70
   160
  1
%%c<>
 71
     2
 42
7.999999999999979
 52
-270.0
  3
SLDDIMSTYLE2
100
AcDbAlignedDimension
 13
-57.35000000000002
 23
3.999999999999968
 33
0.0
 14
-57.35000000000002
 24
-4.000000000000012
 34
0.0
 50
90.0000000000002
100
AcDbRotatedDimension
  0
DIMENSION
  5
FF
330
1F
100
AcDbEntity
  8
치수문자_일반주서
100
AcDbDimension
  2
_D_3
 10
42.15000000000001
 20
14.41861099602079
 30
0.0
 11
36.14999999999999
 21
14.41861099602079
 31
0.0
 70
   160
  1
<>
 71
     2
 42
12.00000000000001
  3
SLDDIMSTYLE2
100
AcDbAlignedDimension
 13
30.15
 23
3.57269269343314
 33
0.0
 14
42.15000000000001
 24
-0.4000000000000072
 34
0.0
 50
0.000000000000017
100
AcDbRotatedDimension
  0
DIMENSION
  5
10B
330
1F
100
AcDbEntity
  8
치수문자_일반주서
100
AcDbDimension
  2
_D_4
 10
0.1500000000000021
 20
28.67973927478064
 30
0.0
 11
22.09355363335111
 21
28.67973927478064
 31
0.0
 70
   160
  1
<>
 71
     2
 42
42.0
  3
SLDDIMSTYLE1
100
AcDbAlignedDimension
 13
42.15000000000001
 23
3.979949748426475
 33
0.0
 14
0.1500000000000021
 24
3.849999999999985
 34
0.0
 50
0.0000000000000291
100
AcDbRotatedDimension
  0
INSERT
  5
11B
330
1F
100
AcDbEntity
  8
해칭선
100
AcDbBlockReference
  2
SW_DOWELSYMBOL_0
 10
0.0
 20
0.0
 30
0.0
  0
ENDSEC
  0
SECTION
  2
OBJECTS
  0
DICTIONARY
  5
C
330
0
100
AcDbDictionary
281
     1
  3
ACAD_GROUP
350
D
  3
ACAD_LAYOUT
350
1A
  3
ACAD_MLINESTYLE
350
17
  3
ACAD_PLOTSETTINGS
350
19
  3
ACAD_PLOTSTYLENAME
350
E
  3
ACAD_SCALELIST
350
47
  3
APPDATA
350
13D
  3
DWGPROPS
350
147
  0
DICTIONARY
  5
D
102
{ACAD_REACTORS
330
C
102
}
330
C
100
AcDbDictionary
281
     1
  0
DICTIONARY
  5
1A
102
{ACAD_REACTORS
330
C
102
}
330
C
100
AcDbDictionary
281
     1
  3
Layout1
350
1E
  3
Layout2
350
26
  3
Model
350
22
  0
DICTIONARY
  5
17
102
{ACAD_REACTORS
330
C
102
}
330
C
100
AcDbDictionary
281
     1
  3
Standard
350
18
  0
DICTIONARY
  5
19
102
{ACAD_REACTORS
330
C
102
}
330
C
100
AcDbDictionary
281
     1
  0
ACDBDICTIONARYWDFLT
  5
E
102
{ACAD_REACTORS
330
C
102
}
330
C
100
AcDbDictionary
281
     1
  3
Normal
350
F
100
AcDbDictionaryWithDefault
340
F
  0
DICTIONARY
  5
47
102
{ACAD_REACTORS
330
C
102
}
330
C
100
AcDbDictionary
281
     1
  3
A0
350
48
  3
A1
350
49
  3
A2
350
4A
  3
A3
350
4B
  3
A4
350
4C
  3
A5
350
4D
  3
A6
350
4E
  3
A7
350
4F
  3
A8
350
50
  3
A9
350
51
  3
B0
350
52
  3
B1
350
53
  3
B2
350
54
  3
B3
350
55
  3
B4
350
56
  3
B5
350
57
  3
B6
350
58
  3
B7
350
59
  3
B8
350
5A
  3
B9
350
5B
  3
C0
350
5C
  3
C1
350
5D
  3
C2
350
5E
  3
C3
350
5F
  3
C4
350
60
  3
C5
350
61
  3
C6
350
62
  3
C7
350
63
  3
C8
350
64
  3
C9
350
65
  3
D0
350
66
  3
D1
350
67
  3
D2
350
68
  0
DICTIONARY
  5
13D
102
{ACAD_REACTORS
330
C
102
}
330
C
100
AcDbDictionary
281
     1
  0
XRECORD
  5
147
102
{ACAD_REACTORS
330
C
102
}
330
C
100
AcDbXrecord
280
     1
  1
DWGPROPS COOKIE
  2

  3

  4

  6

  7

  8
12011908
  9

300
=
301
=
302
=
303
=
304
=
305
=
306
=
307
=
308
=
309
=
 40
0.0
 41
2458260.417171308
 42
2458268.368231898
  1

 90
        0
  0
LAYOUT
  5
1E
102
{ACAD_REACTORS
330
1A
102
}
330
1A
100
AcDbPlotSettings
  1

  2
none_device
  4

  6

 40
0.0
 41
0.0
 42
0.0
 43
0.0
 44
0.0
 45
0.0
 46
0.0
 47
0.0
 48
0.0
 49
0.0
140
0.0
141
0.0
142
1.0
143
1.0
 70
   688
 72
     1
 73
     0
 74
     5
  7

 75
    16
147
1.0
148
0.0
149
0.0
100
AcDbLayout
  1
Layout1
 70
     1
 71
     1
 10
0.0
 20
0.0
 11
420.0
 21
297.0
 12
0.0
 22
0.0
 32
0.0
 14
1.000000000000000E+20
 24
1.000000000000000E+20
 34
1.000000000000000E+20
 15
-1.000000000000000E+20
 25
-1.000000000000000E+20
 35
-1.000000000000000E+20
146
0.0
 13
0.0
 23
0.0
 33
0.0
 16
1.0
 26
0.0
 36
0.0
 17
0.0
 27
1.0
 37
0.0
 76
     0
330
1B
  0
LAYOUT
  5
26
102
{ACAD_REACTORS
330
1A
102
}
330
1A
100
AcDbPlotSettings
  1

  2
none_device
  4

  6

 40
0.0
 41
0.0
 42
0.0
 43
0.0
 44
0.0
 45
0.0
 46
0.0
 47
0.0
 48
0.0
 49
0.0
140
0.0
141
0.0
142
1.0
143
1.0
 70
   688
 72
     1
 73
     0
 74
     5
  7

 75
    16
147
1.0
148
0.0
149
0.0
100
AcDbLayout
  1
Layout2
 70
     1
 71
     2
 10
0.0
 20
0.0
 11
0.0
 21
0.0
 12
0.0
 22
0.0
 32
0.0
 14
0.0
 24
0.0
 34
0.0
 15
0.0
 25
0.0
 35
0.0
146
0.0
 13
0.0
 23
0.0
 33
0.0
 16
1.0
 26
0.0
 36
0.0
 17
0.0
 27
1.0
 37
0.0
 76
     0
330
23
  0
LAYOUT
  5
22
102
{ACAD_REACTORS
330
1A
102
}
330
1A
100
AcDbPlotSettings
  1

  2
none_device
  4
ANSI_A_(11.00_x_8.50_Inches)
  6

 40
6.35
 41
19.05
 42
6.35000508
 43
19.05000254
 44
279.4
 45
215.9
 46
188.9868429633298
 47
97.31331639397365
 48
0.0
 49
0.0
140
0.0
141
0.0
142
0.0807487851913163
143
1.0
 70
  1696
 72
     0
 73
     0
 74
     0
  7

 75
     0
147
0.0235690232323232
148
0.0
149
0.0
100
AcDbLayout
  1
Model
 70
     1
 71
     0
 10
0.0
 20
0.0
 11
420.0
 21
297.0
 12
0.0
 22
0.0
 32
0.0
 14
-75.7176395616199
 24
-49.97180738881175
 34
0.0
 15
55.70033333333336
 25
42.37500000000001
 35
0.0
146
0.0
 13
0.0
 23
0.0
 33
0.0
 16
1.0
 26
0.0
 36
0.0
 17
0.0
 27
1.0
 37
0.0
 76
     0
330
1F
331
29
  0
MLINESTYLE
  5
18
102
{ACAD_REACTORS
330
17
102
}
330
17
100
AcDbMlineStyle
  2
Standard
 70
     0
  3

 62
   256
 51
90.0
 52
90.0
 71
     2
 49
0.5
 62
   256
  6
BYLAYER
 49
-0.5
 62
   256
  6
BYLAYER
  0
ACDBPLACEHOLDER
  5
F
102
{ACAD_REACTORS
330
E
102
}
330
E
  0
SCALE
  5
48
102
{ACAD_REACTORS
330
47
102
}
330
47
100
AcDbScale
 70
     0
300
1:1
140
1.0
141
1.0
290
     1
  0
SCALE
  5
49
102
{ACAD_REACTORS
330
47
102
}
330
47
100
AcDbScale
 70
     0
300
1:2
140
1.0
141
2.0
290
     0
  0
SCALE
  5
4A
102
{ACAD_REACTORS
330
47
102
}
330
47
100
AcDbScale
 70
     0
300
1:4
140
1.0
141
4.0
290
     0
  0
SCALE
  5
4B
102
{ACAD_REACTORS
330
47
102
}
330
47
100
AcDbScale
 70
     0
300
1:5
140
1.0
141
5.0
290
     0
  0
SCALE
  5
4C
102
{ACAD_REACTORS
330
47
102
}
330
47
100
AcDbScale
 70
     0
300
1:8
140
1.0
141
8.0
290
     0
  0
SCALE
  5
4D
102
{ACAD_REACTORS
330
47
102
}
330
47
100
AcDbScale
 70
     0
300
1:10
140
1.0
141
10.0
290
     0
  0
SCALE
  5
4E
102
{ACAD_REACTORS
330
47
102
}
330
47
100
AcDbScale
 70
     0
300
1:16
140
1.0
141
16.0
290
     0
  0
SCALE
  5
4F
102
{ACAD_REACTORS
330
47
102
}
330
47
100
AcDbScale
 70
     0
300
1:20
140
1.0
141
20.0
290
     0
  0
SCALE
  5
50
102
{ACAD_REACTORS
330
47
102
}
330
47
100
AcDbScale
 70
     0
300
1:30
140
1.0
141
30.0
290
     0
  0
SCALE
  5
51
102
{ACAD_REACTORS
330
47
102
}
330
47
100
AcDbScale
 70
     0
300
1:40
140
1.0
141
40.0
290
     0
  0
SCALE
  5
52
102
{ACAD_REACTORS
330
47
102
}
330
47
100
AcDbScale
 70
     0
300
1:50
140
1.0
141
50.0
290
     0
  0
SCALE
  5
53
102
{ACAD_REACTORS
330
47
102
}
330
47
100
AcDbScale
 70
     0
300
1:100
140
1.0
141
100.0
290
     0
  0
SCALE
  5
54
102
{ACAD_REACTORS
330
47
102
}
330
47
100
AcDbScale
 70
     0
300
2:1
140
2.0
141
1.0
290
     0
  0
SCALE
  5
55
102
{ACAD_REACTORS
330
47
102
}
330
47
100
AcDbScale
 70
     0
300
4:1
140
4.0
141
1.0
290
     0
  0
SCALE
  5
56
102
{ACAD_REACTORS
330
47
102
}
330
47
100
AcDbScale
 70
     0
300
8:1
140
8.0
141
1.0
290
     0
  0
SCALE
  5
57
102
{ACAD_REACTORS
330
47
102
}
330
47
100
AcDbScale
 70
     0
300
10:1
140
10.0
141
1.0
290
     0
  0
SCALE
  5
58
102
{ACAD_REACTORS
330
47
102
}
330
47
100
AcDbScale
 70
     0
300
100:1
140
100.0
141
1.0
290
     0
  0
SCALE
  5
59
102
{ACAD_REACTORS
330
47
102
}
330
47
100
AcDbScale
 70
     0
300
1/128" = 1'-0"
140
0.0078125
141
12.0
290
     0
  0
SCALE
  5
5A
102
{ACAD_REACTORS
330
47
102
}
330
47
100
AcDbScale
 70
     0
300
1/64" = 1'-0"
140
0.015625
141
12.0
290
     0
  0
SCALE
  5
5B
102
{ACAD_REACTORS
330
47
102
}
330
47
100
AcDbScale
 70
     0
300
1/32" = 1'-0"
140
0.03125
141
12.0
290
     0
  0
SCALE
  5
5C
102
{ACAD_REACTORS
330
47
102
}
330
47
100
AcDbScale
 70
     0
300
1/16" = 1'-0"
140
0.0625
141
12.0
290
     0
  0
SCALE
  5
5D
102
{ACAD_REACTORS
330
47
102
}
330
47
100
AcDbScale
 70
     0
300
3/32" = 1'-0"
140
0.09375
141
12.0
290
     0
  0
SCALE
  5
5E
102
{ACAD_REACTORS
330
47
102
}
330
47
100
AcDbScale
 70
     0
300
1/8" = 1'-0"
140
0.125
141
12.0
290
     0
  0
SCALE
  5
5F
102
{ACAD_REACTORS
330
47
102
}
330
47
100
AcDbScale
 70
     0
300
3/16" = 1'-0"
140
0.1875
141
12.0
290
     0
  0
SCALE
  5
60
102
{ACAD_REACTORS
330
47
102
}
330
47
100
AcDbScale
 70
     0
300
1/4" = 1'-0"
140
0.25
141
12.0
290
     0
  0
SCALE
  5
61
102
{ACAD_REACTORS
330
47
102
}
330
47
100
AcDbScale
 70
     0
300
3/8" = 1'-0"
140
0.375
141
12.0
290
     0
  0
SCALE
  5
62
102
{ACAD_REACTORS
330
47
102
}
330
47
100
AcDbScale
 70
     0
300
1/2" = 1'-0"
140
0.5
141
12.0
290
     0
  0
SCALE
  5
63
102
{ACAD_REACTORS
330
47
102
}
330
47
100
AcDbScale
 70
     0
300
3/4" = 1'-0"
140
0.75
141
12.0
290
     0
  0
SCALE
  5
64
102
{ACAD_REACTORS
330
47
102
}
330
47
100
AcDbScale
 70
     0
300
1" = 1'-0"
140
1.0
141
12.0
290
     0
  0
SCALE
  5
65
102
{ACAD_REACTORS
330
47
102
}
330
47
100
AcDbScale
 70
     0
300
1-1/2" = 1'-0"
140
1.5
141
12.0
290
     0
  0
SCALE
  5
66
102
{ACAD_REACTORS
330
47
102
}
330
47
100
AcDbScale
 70
     0
300
3" = 1'-0"
140
3.0
141
12.0
290
     0
  0
SCALE
  5
67
102
{ACAD_REACTORS
330
47
102
}
330
47
100
AcDbScale
 70
     0
300
6" = 1'-0"
140
6.0
141
12.0
290
     0
  0
SCALE
  5
68
102
{ACAD_REACTORS
330
47
102
}
330
47
100
AcDbScale
 70
     0
300
1'-0" = 1'-0"
140
12.0
141
12.0
290
     0
  0
ENDSEC
  0
EOF
