  0
SECTION
  2
HEADER
  9
$ACADVER
  1
AC1015
  9
$ACADMAINTVER
 70
     6
  9
$DWGCODEPAGE
  3
ANSI_949
  9
$INSBASE
 10
0.0
 20
0.0
 30
0.0
  9
$EXTMIN
 10
-57.98965953969893
 20
-49.97180738881174
 30
0.0
  9
$EXTMAX
 10
35.66948002192096
 20
41.37500000000002
 30
0.0
  9
$LIMMIN
 10
0.0
 20
0.0
  9
$LIMMAX
 10
420.0
 20
297.0
  9
$ORTHOMODE
 70
     0
  9
$REGENMODE
 70
     1
  9
$FILLMODE
 70
     1
  9
$QTEXTMODE
 70
     0
  9
$MIRRTEXT
 70
     1
  9
$LTSCALE
 40
1.0
  9
$ATTMODE
 70
     1
  9
$TEXTSIZE
 40
3.5
  9
$TRACEWID
 40
1.0
  9
$TEXTSTYLE
  7
Standard
  9
$CLAYER
  8
0
  9
$CELTYPE
  6
ByLayer
  9
$CECOLOR
 62
   256
  9
$CELTSCALE
 40
1.0
  9
$DISPSILH
 70
     0
  9
$DIMSCALE
 40
1.0
  9
$DIMASZ
 40
3.302
  9
$DIMEXO
 40
1.0
  9
$DIMDLI
 40
3.75
  9
$DIMRND
 40
0.0
  9
$DIMDLE
 40
0.0
  9
$DIMEXE
 40
1.0
  9
$DIMTP
 40
0.0
  9
$DIMTM
 40
0.0
  9
$DIMTXT
 40
3.5
  9
$DIMCEN
 40
2.5
  9
$DIMTSZ
 40
0.0
  9
$DIMTOL
 70
     0
  9
$DIMLIM
 70
     0
  9
$DIMTIH
 70
     1
  9
$DIMTOH
 70
     1
  9
$DIMSE1
 70
     0
  9
$DIMSE2
 70
     0
  9
$DIMTAD
 70
     1
  9
$DIMZIN
 70
     0
  9
$DIMBLK
  1

  9
$DIMASO
 70
     1
  9
$DIMSHO
 70
     1
  9
$DIMPOST
  1

  9
$DIMAPOST
  1

  9
$DIMALT
 70
     0
  9
$DIMALTD
 70
     3
  9
$DIMALTF
 40
0.0393700787401575
  9
$DIMLFAC
 40
1.0
  9
$DIMTOFL
 70
     1
  9
$DIMTVP
 40
0.0
  9
$DIMTIX
 70
     0
  9
$DIMSOXD
 70
     0
  9
$DIMSAH
 70
     0
  9
$DIMBLK1
  1

  9
$DIMBLK2
  1

  9
$DIMSTYLE
  2
ISO-25
  9
$DIMCLRD
 70
     0
  9
$DIMCLRE
 70
     0
  9
$DIMCLRT
 70
     0
  9
$DIMTFAC
 40
1.0
  9
$DIMGAP
 40
1.524
  9
$DIMJUST
 70
     0
  9
$DIMSD1
 70
     0
  9
$DIMSD2
 70
     0
  9
$DIMTOLJ
 70
     0
  9
$DIMTZIN
 70
     0
  9
$DIMALTZ
 70
     0
  9
$DIMALTTZ
 70
     0
  9
$DIMUPT
 70
     0
  9
$DIMDEC
 70
     2
  9
$DIMTDEC
 70
     2
  9
$DIMALTU
 70
     2
  9
$DIMALTTD
 70
     3
  9
$DIMTXSTY
  7
Standard
  9
$DIMAUNIT
 70
     0
  9
$DIMADEC
 70
     2
  9
$DIMALTRND
 40
0.0
  9
$DIMAZIN
 70
     0
  9
$DIMDSEP
 70
    44
  9
$DIMATFIT
 70
     3
  9
$DIMFRAC
 70
     0
  9
$DIMLDRBLK
  1

  9
$DIMLUNIT
 70
     2
  9
$DIMLWD
 70
    -2
  9
$DIMLWE
 70
    -2
  9
$DIMTMOVE
 70
     0
  9
$LUNITS
 70
     2
  9
$LUPREC
 70
     2
  9
$SKETCHINC
 40
1.0
  9
$FILLETRAD
 40
10.0
  9
$AUNITS
 70
     0
  9
$AUPREC
 70
     2
  9
$MENU
  1
.
  9
$ELEVATION
 40
0.0
  9
$PELEVATION
 40
0.0
  9
$THICKNESS
 40
0.0
  9
$LIMCHECK
 70
     0
  9
$CHAMFERA
 40
0.0
  9
$CHAMFERB
 40
0.0
  9
$CHAMFERC
 40
0.0
  9
$CHAMFERD
 40
0.0
  9
$SKPOLY
 70
     0
  9
$TDCREATE
 40
2458260.784420764
  9
$TDUCREATE
 40
2458260.409420764
  9
$TDUPDATE
 40
2459677.704497072
  9
$TDUUPDATE
 40
2459677.329497072
  9
$TDINDWG
 40
0.0015996181
  9
$TDUSRTIMER
 40
0.0006013426
  9
$USRTIMER
 70
     1
  9
$ANGBASE
 50
0.0
  9
$ANGDIR
 70
     0
  9
$PDMODE
 70
     0
  9
$PDSIZE
 40
-1.0
  9
$PLINEWID
 40
0.0
  9
$SPLFRAME
 70
     0
  9
$SPLINETYPE
 70
     6
  9
$SPLINESEGS
 70
     8
  9
$HANDSEED
  5
178
  9
$SURFTAB1
 70
     6
  9
$SURFTAB2
 70
     6
  9
$SURFTYPE
 70
     6
  9
$SURFU
 70
     6
  9
$SURFV
 70
     6
  9
$UCSBASE
  2

  9
$UCSNAME
  2

  9
$UCSORG
 10
0.0
 20
0.0
 30
0.0
  9
$UCSXDIR
 10
1.0
 20
0.0
 30
0.0
  9
$UCSYDIR
 10
0.0
 20
1.0
 30
0.0
  9
$UCSORTHOREF
  2

  9
$UCSORTHOVIEW
 70
     0
  9
$UCSORGTOP
 10
0.0
 20
0.0
 30
0.0
  9
$UCSORGBOTTOM
 10
0.0
 20
0.0
 30
0.0
  9
$UCSORGLEFT
 10
0.0
 20
0.0
 30
0.0
  9
$UCSORGRIGHT
 10
0.0
 20
0.0
 30
0.0
  9
$UCSORGFRONT
 10
0.0
 20
0.0
 30
0.0
  9
$UCSORGBACK
 10
0.0
 20
0.0
 30
0.0
  9
$PUCSBASE
  2

  9
$PUCSNAME
  2

  9
$PUCSORG
 10
0.0
 20
0.0
 30
0.0
  9
$PUCSXDIR
 10
1.0
 20
0.0
 30
0.0
  9
$PUCSYDIR
 10
0.0
 20
1.0
 30
0.0
  9
$PUCSORTHOREF
  2

  9
$PUCSORTHOVIEW
 70
     0
  9
$PUCSORGTOP
 10
0.0
 20
0.0
 30
0.0
  9
$PUCSORGBOTTOM
 10
0.0
 20
0.0
 30
0.0
  9
$PUCSORGLEFT
 10
0.0
 20
0.0
 30
0.0
  9
$PUCSORGRIGHT
 10
0.0
 20
0.0
 30
0.0
  9
$PUCSORGFRONT
 10
0.0
 20
0.0
 30
0.0
  9
$PUCSORGBACK
 10
0.0
 20
0.0
 30
0.0
  9
$USERI1
 70
     0
  9
$USERI2
 70
     0
  9
$USERI3
 70
     0
  9
$USERI4
 70
     0
  9
$USERI5
 70
     0
  9
$USERR1
 40
0.0
  9
$USERR2
 40
0.0
  9
$USERR3
 40
0.0
  9
$USERR4
 40
0.0
  9
$USERR5
 40
0.0
  9
$WORLDVIEW
 70
     1
  9
$SHADEDGE
 70
     3
  9
$SHADEDIF
 70
    70
  9
$TILEMODE
 70
     1
  9
$MAXACTVP
 70
    64
  9
$PINSBASE
 10
0.0
 20
0.0
 30
0.0
  9
$PLIMCHECK
 70
     0
  9
$PEXTMIN
 10
1.000000000000000E+20
 20
1.000000000000000E+20
 30
1.000000000000000E+20
  9
$PEXTMAX
 10
-1.000000000000000E+20
 20
-1.000000000000000E+20
 30
-1.000000000000000E+20
  9
$PLIMMIN
 10
0.0
 20
0.0
  9
$PLIMMAX
 10
0.0
 20
0.0
  9
$UNITMODE
 70
     0
  9
$VISRETAIN
 70
     1
  9
$PLINEGEN
 70
     0
  9
$PSLTSCALE
 70
     1
  9
$TREEDEPTH
 70
  3020
  9
$CMLSTYLE
  2
Standard
  9
$CMLJUST
 70
     0
  9
$CMLSCALE
 40
20.0
  9
$PROXYGRAPHICS
 70
     1
  9
$MEASUREMENT
 70
     1
  9
$CELWEIGHT
370
    -1
  9
$ENDCAPS
280
     0
  9
$JOINSTYLE
280
     0
  9
$LWDISPLAY
290
     1
  9
$INSUNITS
 70
     4
  9
$HYPERLINKBASE
  1

  9
$STYLESHEET
  1

  9
$XEDIT
290
     1
  9
$CEPSNTYPE
380
     0
  9
$PSTYLEMODE
290
     1
  9
$FINGERPRINTGUID
  2
{289B526F-EA9F-4259-884B-5EA9551BB700}
  9
$VERSIONGUID
  2
{FAEB1C32-E019-11D5-929B-00C0DF256EC4}
  9
$EXTNAMES
290
     1
  9
$PSVPSCALE
 40
0.0
  9
$OLESTARTUP
290
     0
  0
ENDSEC
  0
SECTION
  2
CLASSES
  0
CLASS
  1
ACDBDICTIONARYWDFLT
  2
AcDbDictionaryWithDefault
  3
ObjectDBX Classes
 90
        0
280
     0
281
     0
  0
CLASS
  1
VISUALSTYLE
  2
AcDbVisualStyle
  3
ObjectDBX Classes
 90
     4095
280
     0
281
     0
  0
CLASS
  1
MATERIAL
  2
AcDbMaterial
  3
ObjectDBX Classes
 90
     1153
280
     0
281
     0
  0
CLASS
  1
SCALE
  2
AcDbScale
  3
ObjectDBX Classes
 90
     1153
280
     0
281
     0
  0
CLASS
  1
TABLESTYLE
  2
AcDbTableStyle
  3
ObjectDBX Classes
 90
     4095
280
     0
281
     0
  0
CLASS
  1
MLEADERSTYLE
  2
AcDbMLeaderStyle
  3
ACDB_MLEADERSTYLE_CLASS
 90
     4095
280
     0
281
     0
  0
CLASS
  1
SUN
  2
AcDbSun
  3
SCENEOE
 90
     1153
280
     0
281
     0
  0
CLASS
  1
ACDBPLACEHOLDER
  2
AcDbPlaceHolder
  3
ObjectDBX Classes
 90
        0
280
     0
281
     0
  0
CLASS
  1
LAYOUT
  2
AcDbLayout
  3
ObjectDBX Classes
 90
        0
280
     0
281
     0
  0
ENDSEC
  0
SECTION
  2
TABLES
  0
TABLE
  2
VPORT
  5
8
330
0
100
AcDbSymbolTable
 70
     1
  0
VPORT
  5
29
330
8
100
AcDbSymbolTableRecord
100
AcDbViewportTableRecord
  2
*Active
 70
     0
 10
0.0
 20
0.0
 11
1.0
 21
1.0
 12
-12.41408007624958
 22
-7.993086129147322
 13
0.0
 23
0.0
 14
10.0
 24
10.0
 15
10.0
 25
10.0
 16
0.0
 26
0.0
 36
1.0
 17
0.0
 27
0.0
 37
0.0
 40
69.63852179592087
 41
1.531481481481481
 42
50.0
 43
0.0
 44
0.0
 50
0.0
 51
0.0
 71
    16
 72
  2000
 73
     1
 74
     3
 75
     0
 76
     0
 77
     0
 78
     0
281
     0
 65
     1
110
0.0
120
0.0
130
0.0
111
1.0
121
0.0
131
0.0
112
0.0
122
1.0
132
0.0
 79
     0
146
0.0
  0
ENDTAB
  0
TABLE
  2
LTYPE
  5
5
330
0
100
AcDbSymbolTable
 70
     6
  0
LTYPE
  5
14
330
5
100
AcDbSymbolTableRecord
100
AcDbLinetypeTableRecord
  2
ByBlock
 70
     0
  3

 72
    65
 73
     0
 40
0.0
  0
LTYPE
  5
15
330
5
100
AcDbSymbolTableRecord
100
AcDbLinetypeTableRecord
  2
ByLayer
 70
     0
  3

 72
    65
 73
     0
 40
0.0
  0
LTYPE
  5
16
330
5
100
AcDbSymbolTableRecord
100
AcDbLinetypeTableRecord
  2
Continuous
 70
     0
  3
Solid line
 72
    65
 73
     0
 40
0.0
  0
LTYPE
  5
6E
330
5
100
AcDbSymbolTableRecord
100
AcDbLinetypeTableRecord
  2
HIDDEN
 70
     0
  3
Hidden __ __ __ __ __ __ __ __ __ __ __ __ __ __
 72
    65
 73
     2
 40
1.905
 49
1.27
 74
     0
 49
-0.635
 74
     0
  0
LTYPE
  5
6F
330
5
100
AcDbSymbolTableRecord
100
AcDbLinetypeTableRecord
  2
PHANTOM
 70
     0
  3
Phantom ______  __  __  ______  __  __  ______
 72
    65
 73
     6
 40
12.7
 49
6.35
 74
     0
 49
-1.27
 74
     0
 49
1.27
 74
     0
 49
-1.27
 74
     0
 49
1.27
 74
     0
 49
-1.27
 74
     0
  0
LTYPE
  5
70
330
5
100
AcDbSymbolTableRecord
100
AcDbLinetypeTableRecord
  2
CENTER
 70
     0
  3
Center ____ _ ____ _ ____ _ ____ _ ____ _ ____
 72
    65
 73
     4
 40
10.16
 49
6.35
 74
     0
 49
-1.27
 74
     0
 49
1.27
 74
     0
 49
-1.27
 74
     0
  0
LTYPE
  5
71
330
5
100
AcDbSymbolTableRecord
100
AcDbLinetypeTableRecord
  2
CENTERX2
 70
     0
  3
Center (2x) ________  __  ________  __  _____
 72
    65
 73
     4
 40
20.32
 49
12.7
 74
     0
 49
-2.54
 74
     0
 49
2.54
 74
     0
 49
-2.54
 74
     0
  0
LTYPE
  5
72
330
5
100
AcDbSymbolTableRecord
100
AcDbLinetypeTableRecord
  2
DOT2
 70
     0
  3
Dot (.5x) ........................................
 72
    65
 73
     2
 40
0.635
 49
0.0
 74
     0
 49
-0.635
 74
     0
  0
ENDTAB
  0
TABLE
  2
LAYER
  5
2
330
0
100
AcDbSymbolTable
 70
    17
  0
LAYER
  5
10
330
2
100
AcDbSymbolTableRecord
100
AcDbLayerTableRecord
  2
0
 70
     0
 62
     7
  6
Continuous
370
    -3
390
F
  0
LAYER
  5
73
330
2
100
AcDbSymbolTableRecord
100
AcDbLayerTableRecord
  2
FORMAT
 70
     0
 62
     2
  6
Continuous
370
    -3
390
F
  0
LAYER
  5
74
330
2
100
AcDbSymbolTableRecord
100
AcDbLayerTableRecord
  2
외형선
 70
     0
 62
   100
  6
Continuous
370
    35
390
F
  0
LAYER
  5
75
330
2
100
AcDbSymbolTableRecord
100
AcDbLayerTableRecord
  2
숨은선
 70
     0
 62
     2
  6
HIDDEN
370
    25
390
F
  0
LAYER
  5
76
330
2
100
AcDbSymbolTableRecord
100
AcDbLayerTableRecord
  2
중심선
 70
     0
 62
     1
  6
CENTERX2
370
    -3
390
F
  0
LAYER
  5
77
330
2
100
AcDbSymbolTableRecord
100
AcDbLayerTableRecord
  2
파단선
 70
     0
 62
     4
  6
Continuous
370
    -3
390
F
  0
LAYER
  5
78
330
2
100
AcDbSymbolTableRecord
100
AcDbLayerTableRecord
  2
해칭선
 70
     0
 62
   100
  6
Continuous
370
    -3
390
F
  0
LAYER
  5
79
330
2
100
AcDbSymbolTableRecord
100
AcDbLayerTableRecord
  2
가는실선
 70
     0
 62
     4
  6
Continuous
370
    -3
390
F
  0
LAYER
  5
7A
330
2
100
AcDbSymbolTableRecord
100
AcDbLayerTableRecord
  2
치수_보조선
 70
     0
 62
     4
  6
Continuous
370
    -3
390
F
  0
LAYER
  5
7B
330
2
100
AcDbSymbolTableRecord
100
AcDbLayerTableRecord
  2
치수문자_일반주서
 70
     0
 62
     7
  6
Continuous
370
    25
390
F
  0
LAYER
  5
7C
330
2
100
AcDbSymbolTableRecord
100
AcDbLayerTableRecord
  2
개별주서
 70
     0
 62
   100
  6
Continuous
370
    35
390
F
  0
LAYER
  5
7D
330
2
100
AcDbSymbolTableRecord
100
AcDbLayerTableRecord
  2
중간선
 70
     0
 62
     2
  6
Continuous
370
    25
390
F
  0
LAYER
  5
7E
330
2
100
AcDbSymbolTableRecord
100
AcDbLayerTableRecord
  2
윤곽선
 70
     0
 62
     3
  6
Continuous
370
    50
390
F
  0
LAYER
  5
7F
330
2
100
AcDbSymbolTableRecord
100
AcDbLayerTableRecord
  2
중심마크
 70
     0
 62
   100
  6
Continuous
370
    35
390
F
  0
LAYER
  5
80
330
2
100
AcDbSymbolTableRecord
100
AcDbLayerTableRecord
  2
가상선
 70
     0
 62
     4
  6
PHANTOM
370
    -3
390
F
  0
LAYER
  5
81
330
2
100
AcDbSymbolTableRecord
100
AcDbLayerTableRecord
  2
특수지정선
 70
     0
 62
     5
  6
CENTERX2
370
    70
390
F
  0
LAYER
  5
143
330
2
100
AcDbSymbolTableRecord
100
AcDbLayerTableRecord
  2
Defpoints
 70
     0
 62
     7
  6
Continuous
290
     0
370
    -3
390
F
  0
ENDTAB
  0
TABLE
  2
STYLE
  5
3
330
0
100
AcDbSymbolTable
 70
     2
  0
STYLE
  5
11
330
3
100
AcDbSymbolTableRecord
100
AcDbTextStyleTableRecord
  2
Standard
 70
     0
 40
0.0
 41
1.0
 50
0.0
 71
     0
 42
3.5
  3
txt
  4

  0
STYLE
  5
97
330
3
100
AcDbSymbolTableRecord
100
AcDbTextStyleTableRecord
  2
SLDTEXTSTYLE0
 70
     0
 40
0.0
 41
0.75
 50
0.0
 71
     0
 42
3.5
  3
TXT
  4

  0
ENDTAB
  0
TABLE
  2
VIEW
  5
6
330
0
100
AcDbSymbolTable
 70
     0
  0
ENDTAB
  0
TABLE
  2
UCS
  5
7
330
0
100
AcDbSymbolTable
 70
     0
  0
ENDTAB
  0
TABLE
  2
APPID
  5
9
330
0
100
AcDbSymbolTable
 70
     2
  0
APPID
  5
12
330
9
100
AcDbSymbolTableRecord
100
AcDbRegAppTableRecord
  2
ACAD
 70
     0
  0
APPID
  5
14E
330
9
100
AcDbSymbolTableRecord
100
AcDbRegAppTableRecord
  2
PE_URL
 70
     0
  0
ENDTAB
  0
TABLE
  2
DIMSTYLE
  5
A
330
0
100
AcDbSymbolTable
 70
     5
100
AcDbDimStyleTable
  0
DIMSTYLE
105
27
330
A
100
AcDbSymbolTableRecord
100
AcDbDimStyleTableRecord
  2
ISO-25
 70
     0
 41
2.5
 42
0.625
 43
3.75
 44
1.25
 73
     0
 74
     0
 77
     1
 78
     8
140
2.5
141
2.5
143
0.03937007874016
147
0.625
171
     3
172
     1
178
     0
271
     2
272
     2
274
     3
278
    44
283
     0
284
     8
340
11
  0
DIMSTYLE
105
DB
102
{ACAD_REACTORS
330
DA
102
}
330
A
100
AcDbSymbolTableRecord
100
AcDbDimStyleTableRecord
  2
SLDDIMSTYLE0
 70
     0
 41
3.302
 44
0.0
 45
0.000000001
 73
     0
 74
     0
 77
     1
 78
    12
 79
     3
140
3.5
147
0.875
172
     1
173
     1
178
     0
271
     1
272
     1
276
     2
284
    12
289
     0
340
97
  0
DIMSTYLE
105
E9
102
{ACAD_REACTORS
330
E8
102
}
330
A
100
AcDbSymbolTableRecord
100
AcDbDimStyleTableRecord
  2
SLDDIMSTYLE1
 70
     0
 41
3.302
 44
0.0
 45
0.000000001
 73
     0
 74
     0
 77
     1
 78
    12
 79
     3
140
3.5
147
0.875
173
     1
178
     0
271
     2
272
     2
276
     2
284
    12
340
97
  0
DIMSTYLE
105
F4
102
{ACAD_REACTORS
330
F3
330
10E
102
}
330
A
100
AcDbSymbolTableRecord
100
AcDbDimStyleTableRecord
  2
SLDDIMSTYLE2
 70
     0
 41
3.302
 44
0.0
 45
0.000000001
 73
     0
 74
     0
 77
     1
 78
    12
 79
     3
140
3.5
147
0.875
172
     1
173
     1
178
     0
271
     2
272
     2
276
     2
284
    12
289
     0
340
97
  0
DIMSTYLE
105
102
102
{ACAD_REACTORS
330
101
102
}
330
A
100
AcDbSymbolTableRecord
100
AcDbDimStyleTableRecord
  2
SLDDIMSTYLE3
 70
     0
 41
3.302
 44
0.0
 45
0.000000001
 73
     0
 74
     0
 77
     1
 78
     4
 79
     1
140
3.5
147
0.875
172
     1
173
     1
178
     0
271
     2
272
     2
276
     2
284
    12
289
     0
340
97
  0
ENDTAB
  0
TABLE
  2
BLOCK_RECORD
  5
1
330
0
100
AcDbSymbolTable
 70
     8
  0
BLOCK_RECORD
  5
1F
102
{ACAD_XDICTIONARY
360
175
102
}
330
1
100
AcDbSymbolTableRecord
100
AcDbBlockTableRecord
  2
*Model_Space
340
22
  0
BLOCK_RECORD
  5
1B
330
1
100
AcDbSymbolTableRecord
100
AcDbBlockTableRecord
  2
*Paper_Space
340
1E
  0
BLOCK_RECORD
  5
23
330
1
100
AcDbSymbolTableRecord
100
AcDbBlockTableRecord
  2
*Paper_Space0
340
26
  0
BLOCK_RECORD
  5
82
330
1
100
AcDbSymbolTableRecord
100
AcDbBlockTableRecord
  2
블럭10
340
0
102
{BLKREFS
331
D3
102
}
  0
BLOCK_RECORD
  5
DC
330
1
100
AcDbSymbolTableRecord
100
AcDbBlockTableRecord
  2
_D
340
0
  0
BLOCK_RECORD
  5
EA
330
1
100
AcDbSymbolTableRecord
100
AcDbBlockTableRecord
  2
_D_1
340
0
  0
BLOCK_RECORD
  5
F5
330
1
100
AcDbSymbolTableRecord
100
AcDbBlockTableRecord
  2
_D_2
340
0
  0
BLOCK_RECORD
  5
103
330
1
100
AcDbSymbolTableRecord
100
AcDbBlockTableRecord
  2
_D_3
340
0
  0
BLOCK_RECORD
  5
10F
330
1
100
AcDbSymbolTableRecord
100
AcDbBlockTableRecord
  2
_D_4
340
0
  0
BLOCK_RECORD
  5
11A
330
1
100
AcDbSymbolTableRecord
100
AcDbBlockTableRecord
  2
SW_DOWELSYMBOL_0
340
0
102
{BLKREFS
331
120
102
}
  0
ENDTAB
  0
ENDSEC
  0
SECTION
  2
BLOCKS
  0
BLOCK
  5
20
330
1F
100
AcDbEntity
  8
0
100
AcDbBlockBegin
  2
*Model_Space
 70
     0
 10
0.0
 20
0.0
 30
0.0
  3
*Model_Space
  1

  0
ENDBLK
  5
21
330
1F
100
AcDbEntity
  8
0
100
AcDbBlockEnd
  0
BLOCK
  5
1C
330
1B
100
AcDbEntity
 67
     1
  8
0
100
AcDbBlockBegin
  2
*Paper_Space
 70
     0
 10
0.0
 20
0.0
 30
0.0
  3
*Paper_Space
  1

  0
ENDBLK
  5
1D
330
1B
100
AcDbEntity
 67
     1
  8
0
100
AcDbBlockEnd
  0
BLOCK
  5
24
330
23
100
AcDbEntity
  8
0
100
AcDbBlockBegin
  2
*Paper_Space0
 70
     0
 10
0.0
 20
0.0
 30
0.0
  3
*Paper_Space0
  1

  0
ENDBLK
  5
25
330
23
100
AcDbEntity
  8
0
100
AcDbBlockEnd
  0
BLOCK
  5
83
330
82
100
AcDbEntity
  8
0
100
AcDbBlockBegin
  2
블럭10
 70
     2
 10
0.0
 20
0.0
 30
0.0
  3
블럭10
  1

  0
ELLIPSE
  5
85
330
82
100
AcDbEntity
  8
중심선
100
AcDbEllipse
 10
20.54032771741204
 20
12.0471743016438
 30
0.0
 11
6.600054785286829
 21
-1.261213355974178E-13
 31
0.0
210
0.0
220
0.0
230
1.0
 40
0.636358354079598
 41
0.9219305317359503
 42
6.513795318482858
  0
ELLIPSE
  5
86
330
82
100
AcDbEntity
  8
중심선
100
AcDbEllipse
 10
20.54032771746488
 20
12.04717430159265
 30
0.0
 11
3.960054785062283
 21
1.540847449632565E-10
 31
0.0
210
0.0
220
0.0
230
1.0
 40
0.3939339440162632
 41
1.131841032648279
 42
5.62031148352944
  0
LINE
  5
87
330
82
100
AcDbEntity
  8
중심선
100
AcDbLine
 10
2.268634060543552
 20
16.24717430164393
 30
0.0
 11
5.714909304380834
 21
16.24717430164393
 31
0.0
  0
LINE
  5
88
330
82
100
AcDbEntity
  8
중심선
100
AcDbLine
 10
5.245725140726316
 20
7.84717430164391
 30
0.0
 11
8.692000384563599
 21
7.84717430164391
 31
0.0
  0
LINE
  5
89
330
82
100
AcDbEntity
  8
중심선
100
AcDbLine
 10
15.74043728645272
 20
16.24717430164393
 30
0.0
 11
8.692000384563599
 21
7.84717430164391
 31
0.0
  0
LINE
  5
8A
330
82
100
AcDbEntity
  8
중심선
100
AcDbLine
 10
0.1404042013395286
 20
13.71084872107135
 30
0.0
 11
3.58671253028996
 21
13.71088815037384
 31
0.0
  0
LINE
  5
8B
330
82
100
AcDbEntity
  8
중심선
100
AcDbLine
 10
2.750260043222114
 20
10.84717430164391
 30
0.0
 11
6.196535287059397
 21
10.84717430164391
 31
0.0
  0
LINE
  5
8C
330
82
100
AcDbEntity
  8
중심선
100
AcDbLine
 10
12.29416204261559
 20
16.24717430164393
 30
0.0
 11
5.245725140726316
 21
7.84717430164391
 31
0.0
  0
LINE
  5
8D
330
82
100
AcDbEntity
  8
중심선
100
AcDbLine
 10
10.72767329541681
 20
16.24717430164393
 30
0.0
 11
6.196535287059397
 21
10.84717430164391
 31
0.0
  0
LINE
  5
8E
330
82
100
AcDbEntity
  8
중심선
100
AcDbLine
 10
7.28139805157953
 20
16.24717430164393
 30
0.0
 11
2.750260043222114
 21
10.84717430164391
 31
0.0
  0
LINE
  5
8F
330
82
100
AcDbEntity
  8
중심선
100
AcDbLine
 10
5.714909304380834
 20
16.24717430164393
 30
0.0
 11
3.58671253028996
 21
13.71088815037384
 31
0.0
  0
LINE
  5
90
330
82
100
AcDbEntity
  8
중심선
100
AcDbLine
 10
2.268634060543552
 20
16.24717430164393
 30
0.0
 11
0.1404042013395286
 21
13.71084872107135
 31
0.0
  0
LINE
  5
91
330
82
100
AcDbEntity
  8
중심선
100
AcDbLine
 10
7.28139805157953
 20
16.24717430164393
 30
0.0
 11
10.72767329541681
 21
16.24717430164393
 31
0.0
  0
LINE
  5
92
330
82
100
AcDbEntity
  8
중심선
100
AcDbLine
 10
12.29416204261559
 20
16.24717430164393
 30
0.0
 11
15.74043728645272
 21
16.24717430164393
 31
0.0
  0
LINE
  5
93
330
82
100
AcDbEntity
  8
중심선
100
AcDbLine
 10
19.22036997980202
 20
11.08717430171403
 30
0.0
 11
23.66174974927406
 21
11.08717430171406
 31
0.0
  0
LINE
  5
94
330
82
100
AcDbEntity
  8
중심선
100
AcDbLine
 10
19.22039502424796
 20
13.00717430171391
 30
0.0
 11
19.22036997980202
 21
11.08717430171403
 31
0.0
  0
LINE
  5
95
330
82
100
AcDbEntity
  8
중심선
100
AcDbLine
 10
19.22039502424796
 20
13.00717430171391
 30
0.0
 11
26.96566020931264
 21
13.00717430171391
 31
0.0
  0
LINE
  5
96
330
82
100
AcDbEntity
  8
중심선
100
AcDbLine
 10
22.22332737316547
 20
13.45928029700563
 30
0.0
 11
24.52862924686651
 21
15.39360700705356
 31
0.0
  0
ATTDEF
  5
98
330
82
100
AcDbEntity
  8
FORMAT
 62
     2
100
AcDbText
 10
-16.11926103943555
 20
2.075366912832191
 30
0.0
 40
4.233333333333333
  1
SEME7303014E [ 4 FLUTE ]
 41
0.75
  7
SLDTEXTSTYLE0
 11
-16.11926103943555
 21
-0.0412997538344756
 31
0.0
100
AcDbAttributeDefinition
  3

  2
AUTOATTR0
 70
     0
 74
     1
  0
ENDBLK
  5
84
330
82
100
AcDbEntity
  8
0
100
AcDbBlockEnd
  0
BLOCK
  5
DD
330
DC
100
AcDbEntity
  8
0
100
AcDbBlockBegin
  2
_D
 70
     0
 10
0.0
 20
0.0
 30
0.0
  3
_D
  1

  0
LINE
  5
DF
330
DC
100
AcDbEntity
  8
치수문자_일반주서
 62
     0
370
    -2
100
AcDbLine
 10
19.94048002192098
 20
-1.492481155659927
 30
0.0
 11
28.47279648325543
 21
-1.492481155659895
 31
0.0
  0
LINE
  5
E0
330
DC
100
AcDbEntity
  8
치수문자_일반주서
 62
     0
370
    -2
100
AcDbLine
 10
19.94048002192095
 20
1.492481155659932
 30
0.0
 11
28.47279648325542
 21
1.492481155659963
 31
0.0
  0
LINE
  5
E1
330
DC
100
AcDbEntity
  8
치수문자_일반주서
 62
     0
370
    -2
100
AcDbLine
 10
28.47279648325542
 20
1.492481155659963
 30
0.0
 11
28.47279648325538
 21
14.22148115565996
 31
0.0
  0
LINE
  5
E2
330
DC
100
AcDbEntity
  8
치수문자_일반주서
 62
     0
370
    -2
100
AcDbLine
 10
28.47279648325543
 20
-1.492481155659895
 30
0.0
 11
28.47279648325542
 21
1.492481155659963
 31
0.0
  0
LINE
  5
E3
330
DC
100
AcDbEntity
  8
치수문자_일반주서
 62
     0
370
    -2
100
AcDbLine
 10
28.47279648325544
 20
-4.794481155659895
 30
0.0
 11
28.47279648325545
 21
-8.096481155659895
 31
0.0
  0
LINE
  5
E4
330
DC
100
AcDbEntity
  8
치수문자_일반주서
 62
     0
370
    -2
100
AcDbLine
 10
28.47279648325541
 20
4.794481155659962
 30
0.0
 11
28.4727964832554
 21
8.096481155659962
 31
0.0
  0
SOLID
  5
E5
330
DC
100
AcDbEntity
  8
치수문자_일반주서
 62
     0
100
AcDbTrace
 10
29.02312981658878
 20
-4.794481155659893
 30
0.0
 11
27.92246314992211
 21
-4.794481155659897
 31
0.0
 12
28.47279648325543
 22
-1.492481155659895
 32
0.0
 13
28.47279648325543
 23
-1.492481155659895
 33
0.0
  0
SOLID
  5
E6
330
DC
100
AcDbEntity
  8
치수문자_일반주서
 62
     0
100
AcDbTrace
 10
27.92246314992208
 20
4.794481155659961
 30
0.0
 11
29.02312981658875
 21
4.794481155659964
 31
0.0
 12
28.47279648325542
 22
1.492481155659963
 32
0.0
 13
28.47279648325542
 23
1.492481155659963
 33
0.0
  0
MTEXT
  5
E7
330
DC
100
AcDbEntity
  8
치수문자_일반주서
 62
     0
100
AcDbMText
 10
24.09779648325539
 20
11.15898115565995
 30
0.0
 40
3.5
 41
0.0
 71
     2
 72
     1
  1
\A1;%%c3
  7
SLDTEXTSTYLE0
 11
-3.570611593983174E-15
 21
1.0
 31
0.0
 73
     1
 44
1.0
  0
POINT
  5
148
330
DC
100
AcDbEntity
  8
Defpoints
 62
     0
100
AcDbPoint
 10
19.87798002192098
 20
-1.492481155659928
 30
0.0
  0
POINT
  5
149
330
DC
100
AcDbEntity
  8
Defpoints
 62
     0
100
AcDbPoint
 10
19.87798002192095
 20
1.492481155659932
 30
0.0
  0
POINT
  5
14A
330
DC
100
AcDbEntity
  8
Defpoints
 62
     0
100
AcDbPoint
 10
28.47279648325543
 20
1.492481155659964
 30
0.0
  0
ENDBLK
  5
DE
330
DC
100
AcDbEntity
  8
0
100
AcDbBlockEnd
  0
BLOCK
  5
EB
330
EA
100
AcDbEntity
  8
0
100
AcDbBlockBegin
  2
_D_1
 70
     0
 10
0.0
 20
0.0
 30
0.0
  3
_D_1
  1

  0
LINE
  5
ED
330
EA
100
AcDbEntity
  8
치수문자_일반주서
 62
     0
370
    -2
100
AcDbLine
 10
-40.12201997807905
 20
2.562499999999993
 30
0.0
 11
-40.12201997807905
 21
37.00000000000003
 31
0.0
  0
LINE
  5
EE
330
EA
100
AcDbEntity
  8
치수문자_일반주서
 62
     0
370
    -2
100
AcDbLine
 10
19.87798002192095
 20
1.554981155659932
 30
0.0
 11
19.87798002192095
 21
37.00000000000003
 31
0.0
  0
LINE
  5
EF
330
EA
100
AcDbEntity
  8
치수문자_일반주서
 62
     0
370
    -2
100
AcDbLine
 10
-36.82001997807905
 20
37.00000000000003
 30
0.0
 11
16.57598002192096
 21
37.00000000000003
 31
0.0
  0
SOLID
  5
F0
330
EA
100
AcDbEntity
  8
치수문자_일반주서
 62
     0
100
AcDbTrace
 10
-36.82001997807905
 20
37.55033333333336
 30
0.0
 11
-36.82001997807905
 21
36.44966666666669
 31
0.0
 12
-40.12201997807905
 22
37.00000000000003
 32
0.0
 13
-40.12201997807905
 23
37.00000000000003
 33
0.0
  0
SOLID
  5
F1
330
EA
100
AcDbEntity
  8
치수문자_일반주서
 62
     0
100
AcDbTrace
 10
16.57598002192096
 20
36.44966666666669
 30
0.0
 11
16.57598002192096
 21
37.55033333333336
 31
0.0
 12
19.87798002192095
 22
37.00000000000003
 32
0.0
 13
19.87798002192095
 23
37.00000000000003
 33
0.0
  0
MTEXT
  5
F2
330
EA
100
AcDbEntity
  8
치수문자_일반주서
 62
     0
100
AcDbMText
 10
-10.12201997807903
 20
41.37500000000003
 30
0.0
 40
3.5
 41
0.0
 71
     2
 72
     1
  1
\A1;60
  7
SLDTEXTSTYLE0
 73
     1
 44
1.0
  0
POINT
  5
144
330
EA
100
AcDbEntity
  8
Defpoints
 62
     0
100
AcDbPoint
 10
-40.12201997807905
 20
2.499999999999993
 30
0.0
  0
POINT
  5
145
330
EA
100
AcDbEntity
  8
Defpoints
 62
     0
100
AcDbPoint
 10
19.87798002192095
 20
1.492481155659932
 30
0.0
  0
POINT
  5
146
330
EA
100
AcDbEntity
  8
Defpoints
 62
     0
100
AcDbPoint
 10
19.87798002192095
 20
37.00000000000003
 30
0.0
  0
ENDBLK
  5
EC
330
EA
100
AcDbEntity
  8
0
100
AcDbBlockEnd
  0
BLOCK
  5
F6
330
F5
100
AcDbEntity
  8
0
100
AcDbBlockBegin
  2
_D_2
 70
     0
 10
0.0
 20
0.0
 30
0.0
  3
_D_2
  1

  0
LINE
  5
F8
330
F5
100
AcDbEntity
  8
치수문자_일반주서
 62
     0
370
    -2
100
AcDbLine
 10
-39.68451997807903
 20
3.000000000000003
 30
0.0
 11
-53.61465953969894
 21
2.999999999999951
 31
0.0
  0
LINE
  5
F9
330
F5
100
AcDbEntity
  8
치수문자_일반주서
 62
     0
370
    -2
100
AcDbLine
 10
-39.68451997807903
 20
-3.000000000000003
 30
0.0
 11
-53.61465953969892
 21
-3.000000000000055
 31
0.0
  0
LINE
  5
FA
330
F5
100
AcDbEntity
  8
치수문자_일반주서
 62
     0
370
    -2
100
AcDbLine
 10
-53.61465953969893
 20
-0.3020000000000489
 30
0.0
 11
-53.61465953969893
 21
0.301999999999945
 31
0.0
  0
SOLID
  5
FB
330
F5
100
AcDbEntity
  8
치수문자_일반주서
 62
     0
100
AcDbTrace
 10
-53.06432620636559
 20
-0.302000000000047
 30
0.0
 11
-54.16499287303226
 21
-0.3020000000000508
 31
0.0
 12
-53.61465953969894
 22
2.999999999999951
 32
0.0
 13
-53.61465953969894
 23
2.999999999999951
 33
0.0
  0
SOLID
  5
FC
330
F5
100
AcDbEntity
  8
치수문자_일반주서
 62
     0
100
AcDbTrace
 10
-54.16499287303227
 20
0.301999999999943
 30
0.0
 11
-53.0643262063656
 21
0.3019999999999469
 31
0.0
 12
-53.61465953969892
 22
-3.000000000000055
 32
0.0
 13
-53.61465953969892
 23
-3.000000000000055
 33
0.0
  0
MTEXT
  5
FD
330
F5
100
AcDbEntity
  8
치수문자_일반주서
 62
     0
100
AcDbMText
 10
-57.98965953969893
 20
-1.089695848804636
 30
0.0
 40
3.5
 41
0.0
 71
     2
 72
     1
  1
\A1;%%c6
  7
SLDTEXTSTYLE0
 11
-3.552713678800497E-15
 21
1.0
 31
0.0
 73
     1
 44
1.0
  0
POINT
  5
FE
330
F5
100
AcDbEntity
  8
Defpoints
 62
     0
100
AcDbPoint
 10
-39.62201997807903
 20
3.000000000000004
 30
0.0
  0
POINT
  5
FF
330
F5
100
AcDbEntity
  8
Defpoints
 62
     0
100
AcDbPoint
 10
-39.62201997807903
 20
-3.000000000000003
 30
0.0
  0
POINT
  5
100
330
F5
100
AcDbEntity
  8
Defpoints
 62
     0
100
AcDbPoint
 10
-53.61465953969893
 20
-3.000000000000055
 30
0.0
  0
ENDBLK
  5
F7
330
F5
100
AcDbEntity
  8
0
100
AcDbBlockEnd
  0
BLOCK
  5
104
330
103
100
AcDbEntity
  8
0
100
AcDbBlockBegin
  2
_D_3
 70
     0
 10
0.0
 20
0.0
 30
0.0
  3
_D_3
  1

  0
LINE
  5
106
330
103
100
AcDbEntity
  8
치수문자_일반주서
 62
     0
370
    -2
100
AcDbLine
 10
15.37798002192095
 20
1.402168404497258
 30
0.0
 11
15.37798002192095
 21
17.86761139844831
 31
0.0
  0
LINE
  5
107
330
103
100
AcDbEntity
  8
치수문자_일반주서
 62
     0
370
    -2
100
AcDbLine
 10
19.87798002192095
 20
1.554981155659932
 30
0.0
 11
19.87798002192095
 21
17.86761139844831
 31
0.0
  0
LINE
  5
108
330
103
100
AcDbEntity
  8
치수문자_일반주서
 62
     0
370
    -2
100
AcDbLine
 10
19.87798002192095
 20
17.86761139844831
 30
0.0
 11
35.66948002192096
 21
17.86761139844831
 31
0.0
  0
LINE
  5
109
330
103
100
AcDbEntity
  8
치수문자_일반주서
 62
     0
370
    -2
100
AcDbLine
 10
15.37798002192095
 20
17.86761139844831
 30
0.0
 11
19.87798002192095
 21
17.86761139844831
 31
0.0
  0
LINE
  5
10A
330
103
100
AcDbEntity
  8
치수문자_일반주서
 62
     0
370
    -2
100
AcDbLine
 10
12.07598002192096
 20
17.86761139844831
 30
0.0
 11
8.773980021920956
 21
17.86761139844831
 31
0.0
  0
LINE
  5
10B
330
103
100
AcDbEntity
  8
치수문자_일반주서
 62
     0
370
    -2
100
AcDbLine
 10
23.17998002192095
 20
17.86761139844831
 30
0.0
 11
26.48198002192095
 21
17.86761139844831
 31
0.0
  0
SOLID
  5
10C
330
103
100
AcDbEntity
  8
치수문자_일반주서
 62
     0
100
AcDbTrace
 10
12.07598002192096
 20
17.31727806511497
 30
0.0
 11
12.07598002192096
 21
18.41794473178164
 31
0.0
 12
15.37798002192095
 22
17.86761139844831
 32
0.0
 13
15.37798002192095
 23
17.86761139844831
 33
0.0
  0
SOLID
  5
10D
330
103
100
AcDbEntity
  8
치수문자_일반주서
 62
     0
100
AcDbTrace
 10
23.17998002192095
 20
18.41794473178164
 30
0.0
 11
23.17998002192095
 21
17.31727806511497
 31
0.0
 12
19.87798002192095
 22
17.86761139844831
 32
0.0
 13
19.87798002192095
 23
17.86761139844831
 33
0.0
  0
MTEXT
  5
147
330
103
100
AcDbEntity
  8
치수문자_일반주서
 62
     0
100
AcDbMText
 10
31.07573002192096
 20
22.24261139844831
 30
0.0
 40
3.5
 41
0.0
 71
     2
 72
     1
  1
\A1;4.50
  7
SLDTEXTSTYLE0
 73
     1
 44
1.0
  0
POINT
  5
14B
330
103
100
AcDbEntity
  8
Defpoints
 62
     0
100
AcDbPoint
 10
15.37798002192095
 20
1.339668404497258
 30
0.0
  0
POINT
  5
14C
330
103
100
AcDbEntity
  8
Defpoints
 62
     0
100
AcDbPoint
 10
19.87798002192095
 20
1.492481155659932
 30
0.0
  0
POINT
  5
14D
330
103
100
AcDbEntity
  8
Defpoints
 62
     0
100
AcDbPoint
 10
19.87798002192095
 20
17.86761139844831
 30
0.0
  0
ENDBLK
  5
105
330
103
100
AcDbEntity
  8
0
100
AcDbBlockEnd
  0
BLOCK
  5
110
330
10F
100
AcDbEntity
  8
0
100
AcDbBlockBegin
  2
_D_4
 70
     0
 10
0.0
 20
0.0
 30
0.0
  3
_D_4
  1

  0
LINE
  5
112
330
10F
100
AcDbEntity
  8
치수문자_일반주서
 62
     0
370
    -2
100
AcDbLine
 10
19.87798002192095
 20
1.554981155659932
 30
0.0
 11
19.87798002192095
 21
26.19227068201411
 31
0.0
  0
LINE
  5
113
330
10F
100
AcDbEntity
  8
치수문자_일반주서
 62
     0
370
    -2
100
AcDbLine
 10
5.877980021920958
 20
1.487499999999998
 30
0.0
 11
5.877980021920958
 21
26.19227068201411
 31
0.0
  0
LINE
  5
114
330
10F
100
AcDbEntity
  8
치수문자_일반주서
 62
     0
370
    -2
100
AcDbLine
 10
16.57598002192096
 20
26.19227068201411
 30
0.0
 11
9.179980021920958
 21
26.19227068201411
 31
0.0
  0
SOLID
  5
115
330
10F
100
AcDbEntity
  8
치수문자_일반주서
 62
     0
100
AcDbTrace
 10
16.57598002192096
 20
25.64193734868077
 30
0.0
 11
16.57598002192096
 21
26.74260401534744
 31
0.0
 12
19.87798002192095
 22
26.19227068201411
 32
0.0
 13
19.87798002192095
 23
26.19227068201411
 33
0.0
  0
SOLID
  5
116
330
10F
100
AcDbEntity
  8
치수문자_일반주서
 62
     0
100
AcDbTrace
 10
9.179980021920958
 20
26.74260401534744
 30
0.0
 11
9.179980021920958
 21
25.64193734868077
 31
0.0
 12
5.877980021920958
 22
26.19227068201411
 32
0.0
 13
5.877980021920958
 23
26.19227068201411
 33
0.0
  0
MTEXT
  5
117
330
10F
100
AcDbEntity
  8
치수문자_일반주서
 62
     0
100
AcDbMText
 10
13.19249789970467
 20
30.56727068201411
 30
0.0
 40
3.5
 41
0.0
 71
     2
 72
     1
  1
\A1;14
  7
SLDTEXTSTYLE0
 73
     1
 44
1.0
  0
POINT
  5
118
330
10F
100
AcDbEntity
  8
Defpoints
 62
     0
100
AcDbPoint
 10
19.87798002192095
 20
1.492481155659932
 30
0.0
  0
POINT
  5
119
330
10F
100
AcDbEntity
  8
Defpoints
 62
     0
100
AcDbPoint
 10
5.877980021920958
 20
1.424999999999998
 30
0.0
  0
POINT
  5
150
330
10F
100
AcDbEntity
  8
Defpoints
 62
     0
100
AcDbPoint
 10
5.877980021920958
 20
26.19227068201411
 30
0.0
  0
ENDBLK
  5
111
330
10F
100
AcDbEntity
  8
0
100
AcDbBlockEnd
  0
BLOCK
  5
11B
330
11A
100
AcDbEntity
  8
0
100
AcDbBlockBegin
  2
SW_DOWELSYMBOL_0
 70
     0
 10
0.0
 20
0.0
 30
0.0
  3
SW_DOWELSYMBOL_0
  1

  0
CIRCLE
  5
11D
330
11A
100
AcDbEntity
  8
해칭선
 62
     0
100
AcDbCircle
 10
0.0
 20
0.0
 30
0.0
 40
3.000000000000003
  0
HATCH
  5
11E
330
11A
100
AcDbEntity
  8
0
  6
Continuous
 62
     0
370
    18
100
AcDbHatch
 10
0.0
 20
0.0
 30
0.0
210
0.0
220
0.0
230
1.0
  2
SOLID
 70
     1
 71
     0
 91
        1
 92
        0
 93
        3
 72
     2
 10
-0.0000000000000017
 20
-0.0000000000000035
 40
3.000000000000003
 50
0.0
 51
90.0
 73
     1
 72
     1
 10
-0.0000000000000017
 20
2.999999999999999
 11
-0.0000000000000017
 21
-0.0000000000000036
 72
     1
 10
-0.0000000000000017
 20
-0.0000000000000035
 11
3.000000000000001
 21
-0.0000000000000035
 97
        0
 75
     0
 76
     1
 98
        1
 10
0.0
 20
0.0
  0
HATCH
  5
11F
330
11A
100
AcDbEntity
  8
0
  6
Continuous
 62
     0
370
    18
100
AcDbHatch
 10
0.0
 20
0.0
 30
0.0
210
0.0
220
0.0
230
1.0
  2
SOLID
 70
     1
 71
     0
 91
        1
 92
        0
 93
        3
 72
     2
 10
-0.0000000000000017
 20
-0.0000000000000035
 40
3.000000000000003
 50
180.0
 51
270.0000000000007
 73
     1
 72
     1
 10
-0.0000000000000017
 20
-3.000000000000006
 11
-0.0000000000000017
 21
-0.0000000000000036
 72
     1
 10
-0.0000000000000017
 20
-0.0000000000000035
 11
-3.000000000000004
 21
-0.0000000000000035
 97
        0
 75
     0
 76
     1
 98
        1
 10
0.0
 20
0.0
  0
ENDBLK
  5
11C
330
11A
100
AcDbEntity
  8
0
100
AcDbBlockEnd
  0
ENDSEC
  0
SECTION
  2
ENTITIES
  0
LINE
  5
99
330
1F
100
AcDbEntity
  8
0
  6
Continuous
 62
     4
370
    25
100
AcDbLine
 10
-0.0000000000000453
 20
3.000000000000002
 30
0.0
 11
-39.62201997807905
 21
2.999999999999989
 31
0.0
  0
LINE
  5
9A
330
1F
100
AcDbEntity
  8
0
  6
Continuous
 62
     4
370
    25
100
AcDbLine
 10
-39.62201997807905
 20
-3.000000000000001
 30
0.0
 11
-0.0000000000000009
 21
-2.99999999999999
 31
0.0
  0
LINE
  5
9B
330
1F
100
AcDbEntity
  8
0
  6
Continuous
 62
     4
370
    25
100
AcDbLine
 10
-39.62201997807905
 20
2.999999999999992
 30
0.0
 11
-40.12201997807905
 21
2.499999999999992
 31
0.0
  0
LINE
  5
9C
330
1F
100
AcDbEntity
  8
0
  6
Continuous
 62
     4
370
    25
100
AcDbLine
 10
-40.12201997807905
 20
-2.500000000000007
 30
0.0
 11
-39.62201997807905
 21
-3.000000000000007
 31
0.0
  0
LINE
  5
9D
330
1F
100
AcDbEntity
  8
0
  6
Continuous
 62
     4
370
    25
100
AcDbLine
 10
0.0000000000000018
 20
-2.99999999999999
 30
0.0
 11
5.877980021920955
 21
-1.424999999999983
 31
0.0
  0
LINE
  5
9F
330
1F
100
AcDbEntity
  8
0
  6
Continuous
 62
     4
370
    25
100
AcDbLine
 10
14.48775511834111
 20
1.425
 30
0.0
 11
5.877980021920958
 21
1.424999999999998
 31
0.0
  0
LINE
  5
A0
330
1F
100
AcDbEntity
  8
0
  6
Continuous
 62
     4
370
    25
100
AcDbLine
 10
5.877980021920958
 20
-1.424999999999983
 30
0.0
 11
14.48775511834111
 21
-1.424999999999979
 31
0.0
  0
LINE
  5
A1
330
1F
100
AcDbEntity
  8
0
  6
Continuous
 62
     1
370
    25
100
AcDbLine
 10
17.19534747324363
 20
1.5
 30
0.0
 11
16.30621449623253
 21
1.5
 31
0.0
  0
LINE
  5
A2
330
1F
100
AcDbEntity
  8
0
  6
Continuous
 62
     1
370
    25
100
AcDbLine
 10
19.43268890519209
 20
-1.5
 30
0.0
 11
19.66375782090964
 21
-1.5
 31
0.0
1001
PE_URL
1000

  0
LINE
  5
A3
330
1F
100
AcDbEntity
  8
0
  6
Continuous
 62
     1
370
    25
100
AcDbLine
 10
19.66375782090964
 20
1.5
 30
0.0
 11
19.43268890519208
 21
1.5
 31
0.0
1001
PE_URL
1000

  0
LINE
  5
A5
330
1F
100
AcDbEntity
  8
0
  6
Continuous
 62
     4
370
    25
100
AcDbLine
 10
-39.62201997807905
 20
2.999999999999993
 30
0.0
 11
-39.62201997807905
 21
-3.000000000000007
 31
0.0
  0
LINE
  5
A6
330
1F
100
AcDbEntity
  8
0
  6
Continuous
 62
     4
370
    25
100
AcDbLine
 10
-40.12201997807905
 20
2.499999999999993
 30
0.0
 11
-40.12201997807905
 21
-2.500000000000008
 31
0.0
  0
LINE
  5
A7
330
1F
100
AcDbEntity
  8
0
  6
Continuous
 62
     4
370
    25
100
AcDbLine
 10
5.877980021920958
 20
1.424999999999998
 30
0.0
 11
5.877980021920958
 21
-1.424999999999983
 31
0.0
  0
SPLINE
  5
A8
330
1F
100
AcDbEntity
  8
0
  6
Continuous
 62
     4
370
    25
100
AcDbSpline
210
0.0
220
0.0
230
1.0
 70
     8
 71
     3
 72
    10
 73
     6
 74
     0
 42
0.000000001
 43
0.00000001
 40
0.0
 40
0.0
 40
0.0
 40
0.0
 40
0.5
 40
0.5
 40
1.0
 40
1.0
 40
1.0
 40
1.0
 10
14.65535112687952
 20
-0.4006981020278385
 30
0.0
 10
14.59940215081728
 20
-0.3624558379049115
 30
0.0
 10
14.55554946270444
 20
-0.3096147637584605
 30
0.0
 10
14.49956936938013
 20
-0.1880666655888122
 30
0.0
 10
14.48775511834111
 20
-0.1196593210678435
 30
0.0
 10
14.48775511834111
 20
-0.0511976786541236
 30
0.0
  0
SPLINE
  5
A9
330
1F
100
AcDbEntity
  8
0
  6
Continuous
 62
     4
370
    25
100
AcDbSpline
210
0.0
220
0.0
230
1.0
 70
     8
 71
     3
 72
    14
 73
    10
 74
     0
 42
0.000000001
 43
0.00000001
 40
0.0
 40
0.0
 40
0.0
 40
0.0
 40
0.25
 40
0.25
 40
0.5
 40
0.5
 40
0.75
 40
0.75
 40
1.0
 40
1.0
 40
1.0
 40
1.0
 10
14.48775511834111
 20
0.4850201826570483
 30
0.0
 10
14.48775511834111
 20
0.554738444768136
 30
0.0
 10
14.50183448423618
 20
0.6223874711972456
 30
0.0
 10
14.56750024468097
 20
0.7369484803865216
 30
0.0
 10
14.61901111185299
 20
0.7840781347482212
 30
0.0
 10
14.74723634633063
 20
0.8459873661418792
 30
0.0
 10
14.82129388154368
 20
0.8601866710067215
 30
0.0
 10
14.9683024299934
 20
0.8549833178090049
 30
0.0
 10
15.04097138209077
 20
0.8353913780461834
 30
0.0
 10
15.10143578690339
 20
0.7994360957344769
 30
0.0
  0
SPLINE
  5
AA
330
1F
100
AcDbEntity
  8
0
  6
Continuous
 62
     4
370
    25
100
AcDbSpline
210
0.0
220
0.0
230
1.0
 70
     8
 71
     3
 72
    10
 73
     6
 74
     0
 42
0.000000001
 43
0.00000001
 40
0.0
 40
0.0
 40
0.0
 40
0.0
 40
0.5000000000000001
 40
0.5000000000000001
 40
1.0
 40
1.0
 40
1.0
 40
1.0
 10
14.65535112687952
 20
-1.367503576240754
 30
0.0
 10
14.59940215081728
 20
-1.378709106462056
 30
0.0
 10
14.55554946270444
 20
-1.392326597618657
 30
0.0
 10
14.49956936938014
 20
-1.413883158421466
 30
0.0
 10
14.48775511834111
 20
-1.421618690550859
 30
0.0
 10
14.48775511834111
 20
-1.424079982901371
 30
0.0
  0
SPLINE
  5
AB
330
1F
100
AcDbEntity
  8
0
  6
Continuous
 62
     4
370
    25
100
AcDbSpline
210
0.0
220
0.0
230
1.0
 70
     8
 71
     3
 72
     9
 73
     5
 74
     0
 42
0.000000001
 43
0.00000001
 40
0.0
 40
0.0
 40
0.0
 40
0.0
 40
0.3936907395216682
 40
1.0
 40
1.0
 40
1.0
 40
1.0
 10
15.18051701306118
 20
-1.209523224838542
 30
0.0
 10
15.1116227335288
 20
-1.236706572854111
 30
0.0
 10
14.93662679733766
 20
-1.305754039016501
 30
0.0
 10
14.76151999979956
 20
-1.344195912411333
 30
0.0
 10
14.65535112687952
 20
-1.367503576240754
 30
0.0
  0
SPLINE
  5
AC
330
1F
100
AcDbEntity
  8
0
  6
Continuous
 62
     4
370
    25
100
AcDbSpline
210
0.0
220
0.0
230
1.0
 70
     8
 71
     3
 72
     9
 73
     5
 74
     0
 42
0.000000001
 43
0.00000001
 40
0.0
 40
0.0
 40
0.0
 40
0.0
 40
0.3820056387823546
 40
1.0
 40
1.0
 40
1.0
 40
1.0
 10
15.18051701306121
 20
1.209523224838545
 30
0.0
 10
15.20563387453771
 20
1.219230290530052
 30
0.0
 10
15.27138385026207
 20
1.244641082167704
 30
0.0
 10
15.33726552093654
 20
1.265728438439909
 30
0.0
 10
15.37798002192095
 20
1.278760305709121
 30
0.0
  0
LINE
  5
AD
330
1F
100
AcDbEntity
  8
0
  6
Continuous
 62
     4
370
    25
100
AcDbLine
 10
14.48775511834111
 20
1.42499999999999
 30
0.0
 11
14.48775511834111
 21
1.424079982901383
 31
0.0
  0
SPLINE
  5
AE
330
1F
100
AcDbEntity
  8
0
  6
Continuous
 62
     4
370
    25
100
AcDbSpline
210
0.0
220
0.0
230
1.0
 70
     8
 71
     3
 72
    10
 73
     6
 74
     0
 42
0.000000001
 43
0.00000001
 40
0.0
 40
0.0
 40
0.0
 40
0.0
 40
0.5
 40
0.5
 40
1.0
 40
1.0
 40
1.0
 40
1.0
 10
14.65535112687952
 20
1.367503576240759
 30
0.0
 10
14.59940215081728
 20
1.378709106462062
 30
0.0
 10
14.55554946270443
 20
1.392326597618678
 30
0.0
 10
14.49956936938013
 20
1.413883158421487
 30
0.0
 10
14.48775511834111
 20
1.421618690550882
 30
0.0
 10
14.48775511834111
 20
1.424079982901393
 30
0.0
  0
SPLINE
  5
AF
330
1F
100
AcDbEntity
  8
0
  6
Continuous
 62
     4
370
    25
100
AcDbSpline
210
0.0
220
0.0
230
1.0
 70
     8
 71
     3
 72
     8
 73
     4
 74
     0
 42
0.000000001
 43
0.00000001
 40
0.0
 40
0.0
 40
0.0
 40
0.0
 40
1.0
 40
1.0
 40
1.0
 40
1.0
 10
15.37798002192094
 20
1.136149140549539
 30
0.0
 10
15.13534308136003
 20
1.240462969399839
 30
0.0
 10
14.89799453348052
 20
1.318906654240914
 30
0.0
 10
14.65535112687952
 20
1.367503576240759
 30
0.0
  0
LINE
  5
B0
330
1F
100
AcDbEntity
  8
0
  6
Continuous
 62
     4
370
    25
100
AcDbLine
 10
15.37798002192095
 20
0.674750743602273
 30
0.0
 11
15.37798002192095
 21
0.62880607546585
 31
0.0
  0
SPLINE
  5
B1
330
1F
100
AcDbEntity
  8
0
  6
Continuous
 62
     4
370
    25
100
AcDbSpline
210
0.0
220
0.0
230
1.0
 70
     8
 71
     3
 72
     8
 73
     4
 74
     0
 42
0.000000001
 43
0.00000001
 40
0.0
 40
0.0
 40
0.0
 40
0.0
 40
1.0
 40
1.0
 40
1.0
 40
1.0
 10
15.37798002192095
 20
0.6288060754658229
 30
0.0
 10
15.28543379492492
 20
0.6879593190110638
 30
0.0
 10
15.19281197536145
 20
0.7450990578894984
 30
0.0
 10
15.10143578690339
 20
0.7994360957344814
 30
0.0
  0
SPLINE
  5
B2
330
1F
100
AcDbEntity
  8
0
  6
Continuous
 62
     4
370
    25
100
AcDbSpline
210
0.0
220
0.0
230
1.0
 70
     8
 71
     3
 72
     8
 73
     4
 74
     0
 42
0.000000001
 43
0.00000001
 40
0.0
 40
0.0
 40
0.0
 40
0.0
 40
1.0
 40
1.0
 40
1.0
 40
1.0
 10
15.37798002192094
 20
-0.8601105338434807
 30
0.0
 10
15.13534308136003
 20
-0.7223188636658101
 30
0.0
 10
14.89799453348052
 20
-0.5665498100662784
 30
0.0
 10
14.65535112687952
 20
-0.4006981020278383
 30
0.0
  0
LINE
  5
B3
330
1F
100
AcDbEntity
  8
0
  6
Continuous
 62
     4
370
    25
100
AcDbLine
 10
15.37798002192095
 20
-0.8601105338434887
 30
0.0
 11
15.37798002192095
 21
-1.278760305709157
 31
0.0
  0
SPLINE
  5
B4
330
1F
100
AcDbEntity
  8
0
  6
Continuous
 62
     4
370
    25
100
AcDbSpline
210
0.0
220
0.0
230
1.0
 70
     8
 71
     3
 72
     8
 73
     4
 74
     0
 42
0.000000001
 43
0.00000001
 40
0.0
 40
0.0
 40
0.0
 40
0.0
 40
1.0
 40
1.0
 40
1.0
 40
1.0
 10
15.37798002192095
 20
-1.278760305709122
 30
0.0
 10
15.28543379492492
 20
-1.249672822496911
 30
0.0
 10
15.19281197536145
 20
-1.216454246147384
 30
0.0
 10
15.10143578690339
 20
-1.179629996582332
 30
0.0
  0
SPLINE
  5
B5
330
1F
100
AcDbEntity
  8
0
  6
Continuous
 62
     4
370
    25
100
AcDbSpline
210
0.0
220
0.0
230
1.0
 70
     8
 71
     3
 72
    14
 73
    10
 74
     0
 42
0.000000001
 43
0.00000001
 40
0.0
 40
0.0
 40
0.0
 40
0.0
 40
0.2500000000000001
 40
0.2500000000000001
 40
0.5000000000000001
 40
0.5000000000000001
 40
0.7500000000000002
 40
0.7500000000000002
 40
1.0
 40
1.0
 40
1.0
 40
1.0
 10
14.48775511834111
 20
-1.339918065560465
 30
0.0
 10
14.48775511834111
 20
-1.31468162380124
 30
0.0
 10
14.50183448423618
 20
-1.283552144326132
 30
0.0
 10
14.56750024468097
 20
-1.221384136446644
 30
0.0
 10
14.61901111185301
 20
-1.190491709493638
 30
0.0
 10
14.74723634633065
 20
-1.147324892125881
 30
0.0
 10
14.82129388154368
 20
-1.136096168156997
 30
0.0
 10
14.9683024299934
 20
-1.140017165900121
 30
0.0
 10
15.04097138209077
 20
-1.155263075941457
 30
0.0
 10
15.10143578690339
 20
-1.179629996582317
 30
0.0
  0
LINE
  5
B6
330
1F
100
AcDbEntity
  8
0
  6
Continuous
 62
     4
370
    25
100
AcDbLine
 10
14.48775511834111
 20
-1.339918065560465
 30
0.0
 11
14.48775511834111
 21
-1.424999999999989
 31
0.0
  0
LINE
  5
B7
330
1F
100
AcDbEntity
  8
0
  6
Continuous
 62
     4
370
    25
100
AcDbLine
 10
14.48775511834111
 20
0.4850201826570483
 30
0.0
 11
14.48775511834111
 21
-0.0511976786541236
 31
0.0
  0
SPLINE
  5
B8
330
1F
100
AcDbEntity
  8
0
  6
Continuous
 62
     4
370
    25
100
AcDbSpline
210
0.0
220
0.0
230
1.0
 70
    24
 71
     3
 72
    14
 73
    10
 74
     0
 42
0.000000001
 43
0.00000001
 40
0.0
 40
0.0
 40
0.0
 40
0.0
 40
0.25
 40
0.25
 40
0.5
 40
0.5
 40
0.75
 40
0.75
 40
1.0
 40
1.0
 40
1.0
 40
1.0
 10
15.37798002192095
 20
0.6288060754658502
 30
0.0
 10
15.37798002192095
 20
0.5725988862659046
 30
0.0
 10
15.37798002192095
 20
0.5023171488382111
 30
0.0
 10
15.37798002192095
 20
0.3166056710011442
 30
0.0
 10
15.37798002192095
 20
0.2012202802811338
 30
0.0
 10
15.37798002192095
 20
-0.0733088937357825
 30
0.0
 10
15.37798002192095
 20
-0.2330552218176621
 30
0.0
 10
15.37798002192095
 20
-0.5594586087127353
 30
0.0
 10
15.37798002192095
 20
-0.7244847923733658
 30
0.0
 10
15.37798002192095
 20
-0.8601105338434889
 30
0.0
  0
LINE
  5
B9
330
1F
100
AcDbEntity
  8
0
  6
Continuous
 62
     4
370
    25
100
AcDbLine
 10
15.37798002192095
 20
1.278760305709155
 30
0.0
 11
15.37798002192095
 21
1.228620156342906
 31
0.0
  0
SPLINE
  5
BA
330
1F
100
AcDbEntity
  8
0
  6
Continuous
 62
     1
370
    25
100
AcDbSpline
210
0.0
220
0.0
230
1.0
 70
     8
 71
     3
 72
    26
 73
    22
 74
     0
 42
0.000000001
 43
0.00000001
 40
0.0
 40
0.0
 40
0.0
 40
0.0
 40
0.0625000000000001
 40
0.0625000000000001
 40
0.1250000000000002
 40
0.1250000000000002
 40
0.25
 40
0.25
 40
0.3749999999999999
 40
0.3749999999999999
 40
0.4999999999999998
 40
0.4999999999999998
 40
0.5624999999999999
 40
0.5624999999999999
 40
0.6249999999999999
 40
0.6249999999999999
 40
0.75
 40
0.75
 40
0.875
 40
0.875
 40
1.0
 40
1.0
 40
1.0
 40
1.0
 10
19.60253293351117
 20
-1.402849308280365
 30
0.0
 10
19.51394220062377
 20
-1.379319375280575
 30
0.0
 10
19.42503469604123
 20
-1.351612512550008
 30
0.0
 10
19.24892729131972
 20
-1.288623699129954
 30
0.0
 10
19.16267733744974
 20
-1.253498868182438
 30
0.0
 10
18.89950305925359
 20
-1.136885714029138
 30
0.0
 10
18.71984507511286
 20
-1.044077323123728
 30
0.0
 10
18.37075339913131
 20
-0.8380878457877715
 30
0.0
 10
18.19397377389102
 20
-0.7235900148716898
 30
0.0
 10
17.84028469497974
 20
-0.4802370980205227
 30
0.0
 10
17.66755150328757
 20
-0.3524563358658235
 30
0.0
 10
17.40161854607937
 20
-0.155204092026955
 30
0.0
 10
17.3127808404316
 20
-0.088753159246976
 30
0.0
 10
17.13705373666768
 20
0.0437926939840465
 30
0.0
 10
17.05086106946174
 20
0.1097119487625946
 30
0.0
 10
16.78706719002853
 20
0.3072372008335085
 30
0.0
 10
16.60748585615503
 20
0.4377208998845314
 30
0.0
 10
16.25950142230051
 20
0.6828438336251965
 30
0.0
 10
16.08153144589901
 20
0.7997215800022204
 30
0.0
 10
15.72834884931065
 20
1.011421964102085
 30
0.0
 10
15.55532464352337
 20
1.105961450568069
 30
0.0
 10
15.37798002192094
 20
1.187228519055217
 30
0.0
  0
LINE
  5
BB
330
1F
100
AcDbEntity
  8
0
  6
Continuous
 62
     4
370
    25
100
AcDbLine
 10
15.37798002192095
 20
1.339668404497258
 30
0.0
 11
15.37798002192095
 21
1.228620156342906
 31
0.0
  0
SPLINE
  5
BC
330
1F
100
AcDbEntity
  8
0
  6
Continuous
 62
     1
370
    25
100
AcDbSpline
210
0.0
220
0.0
230
1.0
 70
     8
 71
     3
 72
    28
 73
    24
 74
     0
 42
0.000000001
 43
0.00000001
 40
0.0
 40
0.0
 40
0.0
 40
0.0
 40
0.1249999999999996
 40
0.1249999999999996
 40
0.1874999999999996
 40
0.1874999999999996
 40
0.2499999999999996
 40
0.2499999999999996
 40
0.3749999999999996
 40
0.3749999999999996
 40
0.4374999999999996
 40
0.4374999999999996
 40
0.4999999999999997
 40
0.4999999999999997
 40
0.6249999999999998
 40
0.6249999999999998
 40
0.7499999999999998
 40
0.7499999999999998
 40
0.8124999999999999
 40
0.8124999999999999
 40
0.8749999999999999
 40
0.8749999999999999
 40
1.0
 40
1.0
 40
1.0
 40
1.0
 10
19.87798002192095
 20
-0.3322148200945004
 30
0.0
 10
19.69332345097006
 20
-0.1951269607727996
 30
0.0
 10
19.50173754937062
 20
-0.0518963509080341
 30
0.0
 10
19.22080936444235
 20
0.1595906067341943
 30
0.0
 10
19.12899255160421
 20
0.2293352941107898
 30
0.0
 10
18.94146237612926
 20
0.3678098433683175
 30
0.0
 10
18.84669866225819
 20
0.4362932722535743
 30
0.0
 10
18.56365718616432
 20
0.6363865554114554
 30
0.0
 10
18.37965693635618
 20
0.76198279102228
 30
0.0
 10
18.09637866939014
 20
0.9343483898585684
 30
0.0
 10
18.00170487777088
 20
0.9889059339589032
 30
0.0
 10
17.8146833995275
 20
1.090658348031875
 30
0.0
 10
17.72280392851935
 20
1.137810184005895
 30
0.0
 10
17.44117060348087
 20
1.268471607530939
 30
0.0
 10
17.25126590054613
 20
1.339924859537094
 30
0.0
 10
16.88040871435932
 20
1.444681944007577
 30
0.0
 10
16.68869875150635
 20
1.478874260075077
 30
0.0
 10
16.40859125402347
 20
1.499673009964217
 30
0.0
 10
16.31658648824715
 20
1.501649926761758
 30
0.0
 10
16.12862498618006
 20
1.495634624488209
 30
0.0
 10
16.03381142572363
 20
1.487598405826499
 30
0.0
 10
15.75112522714879
 20
1.448725498542617
 30
0.0
 10
15.56691084869922
 20
1.403388570073896
 30
0.0
 10
15.37798002192095
 20
1.339668404497242
 30
0.0
  0
LINE
  5
BD
330
1F
100
AcDbEntity
  8
0
  6
Continuous
 62
     1
370
    25
100
AcDbLine
 10
19.87798002192095
 20
-0.9086001904052564
 30
0.0
 11
19.87798002192095
 21
-0.3336674099901151
 31
0.0
1001
PE_URL
1000

  0
SPLINE
  5
BE
330
1F
100
AcDbEntity
  8
0
  6
Continuous
 62
     1
370
    25
100
AcDbSpline
210
0.0
220
0.0
230
1.0
 70
     8
 71
     3
 72
     8
 73
     4
 74
     0
 42
0.000000001
 43
0.00000001
 40
0.0
 40
0.0
 40
0.0
 40
0.0
 40
1.0
 40
1.0
 40
1.0
 40
1.0
 10
19.87798002192095
 20
-0.9086001904052535
 30
0.0
 10
19.74158614673739
 20
-1.0490082251993
 30
0.0
 10
19.64954044254302
 20
-1.227337368100996
 30
0.0
 10
19.60253293351147
 20
-1.402849308280439
 30
0.0
1001
PE_URL
1000

  0
LINE
  5
BF
330
1F
100
AcDbEntity
  8
0
  6
Continuous
 62
     1
370
    25
100
AcDbLine
 10
19.87798002192095
 20
-0.150000000000004
 30
0.0
 11
19.25507911171758
 21
0.2861599128820901
 31
0.0
1001
PE_URL
1000

  0
LINE
  5
C0
330
1F
100
AcDbEntity
  8
0
  6
Continuous
 62
     1
370
    25
100
AcDbLine
 10
19.87798002192095
 20
-0.3322148200945009
 30
0.0
 11
19.87798002192095
 21
-0.1500000000000045
 31
0.0
1001
PE_URL
1000

  0
SPLINE
  5
C1
330
1F
100
AcDbEntity
  8
0
  6
Continuous
 62
     1
370
    25
100
AcDbSpline
210
0.0
220
0.0
230
1.0
 70
     8
 71
     3
 72
    12
 73
     8
 74
     0
 42
0.000000001
 43
0.00000001
 40
0.0
 40
0.0
 40
0.0
 40
0.0
 40
0.2455623081430447
 40
0.4913491199802424
 40
0.7374415145212955
 40
0.9833326793764715
 40
1.0
 40
1.0
 40
1.0
 40
1.0
 10
19.60253293351118
 20
0.5310497323766363
 30
0.0
 10
19.40557274539319
 20
0.6651911219943123
 30
0.0
 10
19.0114722996255
 20
0.933596539095938
 30
0.0
 10
18.41982385733085
 20
1.245630785568681
 30
0.0
 10
17.82752890201442
 20
1.436798196592469
 30
0.0
 10
17.41937790772635
 20
1.51979021790087
 30
0.0
 10
17.20872011645692
 20
1.497070959698052
 30
0.0
 10
17.19534747324363
 20
1.495628731845067
 30
0.0
1001
PE_URL
1000

  0
ELLIPSE
  5
C2
330
1F
100
AcDbEntity
  8
0
  6
Continuous
 62
     1
370
    25
100
AcDbEllipse
 10
20.05764187690963
 20
0.0000000000000007
 30
0.0
 11
2.108109133910233
 21
1.383186489812299
 31
0.0
210
0.0
220
0.0
230
1.0
 40
0.2752896061219037
 41
1.606176818976315
 42
1.776107053100966
1001
PE_URL
1000

  0
ELLIPSE
  5
C3
330
1F
100
AcDbEntity
  8
0
  6
Continuous
 62
     1
370
    25
100
AcDbEllipse
 10
19.66375782090964
 20
0.000000000000001
 30
0.0
 11
2.142222010113162
 21
2.623465327748100E-16
 31
0.0
210
0.0
220
0.0
230
1.0
 40
0.700207538209713
 41
4.520439151221078
 42
4.812556401546258
1001
PE_URL
1000

  0
SPLINE
  5
C4
330
1F
100
AcDbEntity
  8
0
  6
Continuous
 62
     1
370
    25
100
AcDbSpline
210
0.0
220
0.0
230
1.0
 70
     8
 71
     3
 72
    15
 73
    11
 74
     0
 42
0.000000001
 43
0.00000001
 40
0.0
 40
0.0
 40
0.0
 40
0.0
 40
0.1552450349858734
 40
0.3105046602842415
 40
0.4657983094910425
 40
0.6211452492234074
 40
0.7436133088446668
 40
0.8656365322757329
 40
0.9875109105157837
 40
1.0
 40
1.0
 40
1.0
 40
1.0
 10
15.37798002192094
 20
0.674750743602271
 30
0.0
 10
15.58782255965929
 20
0.5269005100335955
 30
0.0
 10
16.00752735665687
 20
0.2311861475654834
 30
0.0
 10
16.63714789304835
 20
-0.2532702985315127
 30
0.0
 10
17.26698954593699
 20
-0.7079866558956764
 30
0.0
 10
17.85242934720544
 20
-1.065829953993992
 30
0.0
 10
18.3933860396507
 20
-1.314492115677695
 30
0.0
 10
18.88822693921989
 20
-1.453046644812664
 30
0.0
 10
19.23416625950626
 20
-1.512023774861357
 30
0.0
 10
19.41580552819313
 20
-1.497141024281784
 30
0.0
 10
19.43268890519209
 20
-1.495757672043949
 30
0.0
  0
LINE
  5
C5
330
1F
100
AcDbEntity
  8
0
  6
Continuous
 62
     4
370
    25
100
AcDbLine
 10
15.37798002192095
 20
0.674750743602273
 30
0.0
 11
15.37798002192095
 21
1.187228519055212
 31
0.0
  0
ELLIPSE
  5
C6
330
1F
100
AcDbEntity
  8
0
  6
Continuous
 62
     1
370
    25
100
AcDbEllipse
 10
20.05764187690963
 20
0.0000000000000011
 30
0.0
 11
2.072926250411694
 21
1.107910717291652
 31
0.0
210
0.0
220
0.0
230
1.0
 40
0.4878148243396962
 41
4.073336930005171
 42
4.243267164129817
1001
PE_URL
1000

  0
SPLINE
  5
C7
330
1F
100
AcDbEntity
  8
0
  6
Continuous
 62
     1
370
    25
100
AcDbSpline
210
0.0
220
0.0
230
1.0
 70
     8
 71
     3
 72
    15
 73
    11
 74
     0
 42
0.000000001
 43
0.00000001
 40
0.0
 40
0.0
 40
0.0
 40
0.0
 40
0.1260427931506196
 40
0.2524191910350554
 40
0.378462083697736
 40
0.5048352196493123
 40
0.6308790234197473
 40
0.7569217668364197
 40
0.8832949941440302
 40
1.0
 40
1.0
 40
1.0
 40
1.0
 10
15.37798002192086
 20
0.0855393147488915
 30
0.0
 10
15.45840507626725
 20
0.0481500138965752
 30
0.0
 10
15.61946805059226
 20
-0.0267275482281385
 30
0.0
 10
15.86027228208441
 20
-0.1403908502306268
 30
0.0
 10
16.10210808152702
 20
-0.2502551387626271
 30
0.0
 10
16.34347373363471
 20
-0.3569524989048554
 30
0.0
 10
16.58433437938665
 20
-0.4593897389152373
 30
0.0
 10
16.82601236159915
 20
-0.5533322925216295
 30
0.0
 10
17.06126457384018
 20
-0.6387900146273899
 30
0.0
 10
17.21612602015728
 20
-0.6872282230492759
 30
0.0
 10
17.29047700487558
 20
-0.7104840338389022
 30
0.0
1001
PE_URL
1000

  0
SPLINE
  5
C8
330
1F
100
AcDbEntity
  8
0
  6
Continuous
 62
     4
370
    25
100
AcDbSpline
210
0.0
220
0.0
230
1.0
 70
    24
 71
     3
 72
    12
 73
     8
 74
     0
 42
0.000000001
 43
0.00000001
 40
0.0
 40
0.0
 40
0.0
 40
0.0
 40
0.25
 40
0.25
 40
0.4999999999999999
 40
0.4999999999999999
 40
1.0
 40
1.0
 40
1.0
 40
1.0
 10
15.37798002192095
 20
0.674750743602274
 30
0.0
 10
15.37798002192095
 20
0.6443444566407645
 30
0.0
 10
15.37798002192095
 20
0.6143362907183069
 30
0.0
 10
15.37798002192095
 20
0.5425155776095583
 30
0.0
 10
15.37798002192095
 20
0.501221445774935
 30
0.0
 10
15.37798002192095
 20
0.3580251202983039
 30
0.0
 10
15.37798002192095
 20
0.235640499938202
 30
0.0
 10
15.37798002192095
 20
0.0855393147488754
 30
0.0
  0
SPLINE
  5
C9
330
1F
100
AcDbEntity
  8
0
  6
Continuous
 62
     1
370
    25
100
AcDbSpline
210
0.0
220
0.0
230
1.0
 70
     8
 71
     3
 72
     8
 73
     4
 74
     0
 42
0.000000001
 43
0.00000001
 40
0.0
 40
0.0
 40
0.0
 40
0.0
 40
1.0
 40
1.0
 40
1.0
 40
1.0
 10
19.87798002192095
 20
0.440051862829864
 30
0.0
 10
19.74158614673739
 20
0.4173584195184912
 30
0.0
 10
19.64954044254302
 20
0.4563175980293944
 30
0.0
 10
19.60253293351147
 20
0.5310497323764133
 30
0.0
1001
PE_URL
1000

  0
LINE
  5
CA
330
1F
100
AcDbEntity
  8
0
  6
Continuous
 62
     1
370
    25
100
AcDbLine
 10
19.87798002192095
 20
-0.1499999999999992
 30
0.0
 11
19.87798002192095
 21
0.44005186282987
 31
0.0
1001
PE_URL
1000

  0
SPLINE
  5
CB
330
1F
100
AcDbEntity
  8
0
  6
Continuous
 62
     1
370
    25
100
AcDbSpline
210
0.0
220
0.0
230
1.0
 70
     8
 71
     3
 72
    11
 73
     7
 74
     0
 42
0.000000001
 43
0.00000001
 40
0.0
 40
0.0
 40
0.0
 40
0.0
 40
0.0530365174771555
 40
0.3685863471324919
 40
0.6837512658393279
 40
1.0
 40
1.0
 40
1.0
 40
1.0
 10
18.31064006314017
 20
1.26220971571068
 30
0.0
 10
18.33837857380207
 20
1.275027740453529
 30
0.0
 10
18.53115209676528
 20
1.364108795208975
 30
0.0
 10
18.88816735996716
 20
1.453546810685486
 30
0.0
 10
19.38246643238185
 20
1.520196902948528
 30
0.0
 10
19.71261992364527
 20
1.481919900040379
 30
0.0
 10
19.87798002192095
 20
1.462748547532887
 30
0.0
1001
PE_URL
1000

  0
LINE
  5
CC
330
1F
100
AcDbEntity
  8
0
  6
Continuous
 62
     1
370
    25
100
AcDbLine
 10
19.87798002192095
 20
0.4400518628298699
 30
0.0
 11
19.87798002192095
 21
1.462748547532892
 31
0.0
1001
PE_URL
1000

  0
SPLINE
  5
CD
330
1F
100
AcDbEntity
  8
0
  6
Continuous
 62
     1
370
    25
100
AcDbSpline
210
0.0
220
0.0
230
1.0
 70
     8
 71
     3
 72
     9
 73
     5
 74
     0
 42
0.000000001
 43
0.00000001
 40
0.0
 40
0.0
 40
0.0
 40
0.0
 40
0.3635618608433342
 40
1.0
 40
1.0
 40
1.0
 40
1.0
 10
16.29833669138355
 20
-0.3341005287490715
 30
0.0
 10
16.18678560325012
 20
-0.417040903098887
 30
0.0
 10
15.87995724706695
 20
-0.6451736730143652
 30
0.0
 10
15.57320735342008
 20
-0.8343193740774537
 30
0.0
 10
15.37798002192095
 20
-0.9546989120915288
 30
0.0
1001
PE_URL
1000

  0
ELLIPSE
  5
CE
330
1F
100
AcDbEntity
  8
0
  6
Continuous
 62
     1
370
    25
100
AcDbEllipse
 10
19.66375782090964
 20
0.0000000000000004
 30
0.0
 11
2.142222010113162
 21
0.0
 31
0.0
210
0.0
220
0.0
230
1.0
 40
0.7002075382097132
 41
1.470628905633338
 42
1.570796326794897
1001
PE_URL
1000

  0
LINE
  5
CF
330
1F
100
AcDbEntity
  8
0
  6
Continuous
 62
     1
370
    25
100
AcDbLine
 10
19.87798002192095
 20
1.462748547532892
 30
0.0
 11
19.87798002192095
 21
1.492481155659932
 31
0.0
1001
PE_URL
1000

  0
LINE
  5
D0
330
1F
100
AcDbEntity
  8
0
  6
Continuous
 62
     1
370
    25
100
AcDbLine
 10
19.87798002192095
 20
-0.9086001904052564
 30
0.0
 11
19.87798002192095
 21
-1.49248115565993
 31
0.0
1001
PE_URL
1000

  0
LINE
  5
D1
330
1F
100
AcDbEntity
  8
중심선
100
AcDbLine
 10
-43.12201997807903
 20
-0.0000000000000044
 30
0.0
 11
21.37798002192097
 21
0.0000000000000022
 31
0.0
  0
CIRCLE
  5
D2
330
1F
100
AcDbEntity
  8
해칭선
100
AcDbCircle
 10
0.0
 20
0.0
 30
0.0
 40
3.000000000000003
  0
INSERT
  5
D3
330
1F
100
AcDbEntity
  8
0
  6
Continuous
 62
     7
100
AcDbBlockReference
 66
     1
  2
블럭10
 10
-31.36527293212521
 20
-52.04717430164394
 30
0.0
  0
ATTRIB
  5
D4
330
D3
100
AcDbEntity
  8
FORMAT
 62
     2
100
AcDbText
 10
-47.48453397156077
 20
-49.97180738881174
 30
0.0
 40
4.233333333333333
  1
SEME7303014E [ 4 FLUTE ]
 41
0.75
  7
SLDTEXTSTYLE0
 11
-47.48453397156077
 21
-52.08847405547841
 31
0.0
100
AcDbAttribute
  2
AUTOATTR0
 70
     0
 74
     1
  0
SEQEND
  5
D5
330
D3
100
AcDbEntity
  8
0
  6
Continuous
 62
     7
  0
HATCH
  5
D6
330
1F
100
AcDbEntity
  8
중심선
100
AcDbHatch
 10
0.0
 20
0.0
 30
0.0
210
0.0
220
0.0
230
1.0
  2
SOLID
 70
     1
 71
     0
 91
        1
 92
        0
 93
        4
 72
     1
 10
-25.65036362774437
 20
-35.8
 11
-29.09663887158165
 21
-35.8
 72
     1
 10
-29.09663887158165
 20
-35.8
 11
-31.2248687307857
 21
-38.3363255805726
 72
     1
 10
-31.2248687307857
 20
-38.3363255805726
 11
-27.77856040183524
 21
-38.33628615127011
 72
     1
 10
-27.77856040183524
 20
-38.33628615127011
 11
-25.65036362774437
 21
-35.8
 97
        0
 75
     0
 76
     1
 98
        1
 10
-0.4250549209898202
 20
-0.000000000000008
  0
HATCH
  5
D7
330
1F
100
AcDbEntity
  8
중심선
100
AcDbHatch
 10
0.0
 20
0.0
 30
0.0
210
0.0
220
0.0
230
1.0
  2
SOLID
 70
     1
 71
     0
 91
        1
 92
        0
 93
        4
 72
     1
 10
-20.63759963670836
 20
-35.79999999999998
 11
-24.0838748805457
 21
-35.80000000000003
 72
     1
 10
-24.0838748805457
 20
-35.80000000000003
 11
-28.61501288890308
 21
-41.20000000000002
 72
     1
 10
-28.61501288890308
 20
-41.20000000000002
 11
-25.1687376450658
 21
-41.20000000000002
 72
     1
 10
-25.1687376450658
 20
-41.20000000000002
 11
-20.63759963670836
 21
-35.79999999999998
 97
        0
 75
     0
 76
     1
 98
        1
 10
-0.4250549209898202
 20
-0.000000000000008
  0
HATCH
  5
D8
330
1F
100
AcDbEntity
  8
중심선
100
AcDbHatch
 10
0.0
 20
0.0
 30
0.0
210
0.0
220
0.0
230
1.0
  2
SOLID
 70
     1
 71
     0
 91
        1
 92
        0
 93
        4
 72
     1
 10
-15.62483564567252
 20
-35.8
 11
-19.07111088950963
 21
-35.80000000000003
 72
     1
 10
-19.07111088950963
 20
-35.80000000000003
 11
-26.11954779139888
 21
-44.20000000000002
 72
     1
 10
-26.11954779139888
 20
-44.20000000000002
 11
-22.6732725475616
 21
-44.20000000000002
 72
     1
 10
-22.6732725475616
 20
-44.20000000000002
 11
-15.62483564567252
 21
-35.8
 97
        0
 75
     0
 76
     1
 98
        1
 10
-0.4250549209898202
 20
-0.000000000000008
  0
HATCH
  5
D9
330
1F
100
AcDbEntity
  8
중심선
100
AcDbHatch
 10
0.0
 20
0.0
 30
0.0
210
0.0
220
0.0
230
1.0
  2
SOLID
 70
     1
 71
     0
 91
        1
 92
        0
 93
        6
 72
     3
 10
-10.82494521466032
 20
-40.00000000005128
 11
3.960054785062283
 21
1.540882976769353E-10
 40
0.3939339440162628
 50
17.09539180608436
 51
320.0019657685077
 73
     0
 72
     1
 10
-9.141945558959753
 20
-38.58789400463831
 11
-6.836643685258687
 21
-36.65356729459039
 72
     3
 10
-10.82494521471317
 20
-40.00000000000016
 11
6.600054785286829
 21
-1.278976924368180E-13
 40
0.636358354079598
 50
39.99873849337411
 51
368.4976242363724
 73
     1
 72
     1
 10
-4.399612722812558
 20
-39.03999999993002
 11
-12.14487790787724
 21
-39.03999999993
 72
     1
 10
-12.14487790787724
 20
-39.03999999993
 11
-12.14490295232318
 21
-40.95999999992992
 72
     1
 10
-12.14490295232318
 20
-40.95999999992992
 11
-7.703523182851141
 21
-40.95999999992989
 97
        0
 75
     0
 76
     1
 98
        1
 10
-0.4250549209898202
 20
-0.000000000000008
  0
DIMENSION
  5
DA
330
1F
100
AcDbEntity
  8
치수문자_일반주서
100
AcDbDimension
  2
_D
 10
28.47279648325542
 20
1.492481155659963
 30
0.0
 11
28.47279648325539
 21
11.15898115565996
 31
0.0
 70
   160
  1
%%c<>
 71
     2
 42
2.984962311319859
 52
-270.0
  3
SLDDIMSTYLE0
100
AcDbAlignedDimension
 13
19.87798002192098
 23
-1.492481155659928
 33
0.0
 14
19.87798002192095
 24
1.492481155659932
 34
0.0
 50
90.0000000000002
100
AcDbRotatedDimension
  0
DIMENSION
  5
E8
330
1F
100
AcDbEntity
  8
치수문자_일반주서
100
AcDbDimension
  2
_D_1
 10
19.87798002192095
 20
37.00000000000003
 30
0.0
 11
-10.12201997807903
 21
37.00000000000003
 31
0.0
 70
   160
  1
<>
 71
     2
 42
60.0
  3
SLDDIMSTYLE1
100
AcDbAlignedDimension
 13
-40.12201997807905
 23
2.499999999999993
 33
0.0
 14
19.87798002192095
 24
1.492481155659932
 34
0.0
100
AcDbRotatedDimension
  0
DIMENSION
  5
F3
330
1F
100
AcDbEntity
  8
치수문자_일반주서
100
AcDbDimension
  2
_D_2
 10
-53.61465953969892
 20
-3.000000000000055
 30
0.0
 11
-53.61465953969893
 21
-1.08969584880462
 31
0.0
 70
   160
  1
%%c<>
 71
     2
 42
6.000000000000006
 52
-270.0
  3
SLDDIMSTYLE2
100
AcDbAlignedDimension
 13
-39.62201997807903
 23
3.000000000000004
 33
0.0
 14
-39.62201997807903
 24
-3.000000000000003
 34
0.0
 50
90.0000000000002
100
AcDbRotatedDimension
  0
DIMENSION
  5
101
330
1F
100
AcDbEntity
  8
치수문자_일반주서
100
AcDbDimension
  2
_D_3
 10
19.87798002192095
 20
17.86761139844831
 30
0.0
 11
31.07573002192096
 21
17.86761139844831
 31
0.0
 70
   160
  1
<>
 71
     2
 42
4.5
  3
SLDDIMSTYLE3
100
AcDbAlignedDimension
 13
15.37798002192095
 23
1.339668404497258
 33
0.0
 14
19.87798002192095
 24
1.492481155659932
 34
0.0
100
AcDbRotatedDimension
  0
DIMENSION
  5
10E
330
1F
100
AcDbEntity
  8
치수문자_일반주서
100
AcDbDimension
  2
_D_4
 10
5.877980021920958
 20
26.19227068201411
 30
0.0
 11
13.19249789970467
 21
26.19227068201411
 31
0.0
 70
   160
  1
<>
 71
     2
 42
14.0
  3
SLDDIMSTYLE2
100
AcDbAlignedDimension
 13
19.87798002192095
 23
1.492481155659932
 33
0.0
 14
5.877980021920958
 24
1.424999999999998
 34
0.0
100
AcDbRotatedDimension
  0
INSERT
  5
120
330
1F
100
AcDbEntity
  8
해칭선
100
AcDbBlockReference
  2
SW_DOWELSYMBOL_0
 10
0.0
 20
0.0
 30
0.0
  0
LINE
  5
173
330
1F
100
AcDbEntity
  8
0
  6
Continuous
 62
     4
370
    25
100
AcDbLine
 10
0.0000000000000009
 20
2.99999999999999
 30
0.0
 11
5.877980021920955
 21
1.424999999999984
 31
0.0
  0
LINE
  5
174
330
1F
100
AcDbEntity
  8
0
  6
Continuous
 62
     4
370
    25
100
AcDbLine
 10
0.0000000000000009
 20
2.99999999999999
 30
0.0
 11
-0.0000000000000009
 21
-2.99999999999999
 31
0.0
1001
PE_URL
1000

  0
ENDSEC
  0
SECTION
  2
OBJECTS
  0
DICTIONARY
  5
C
330
0
100
AcDbDictionary
281
     1
  3
ACAD_GROUP
350
D
  3
ACAD_LAYOUT
350
1A
  3
ACAD_MLINESTYLE
350
17
  3
ACAD_PLOTSETTINGS
350
19
  3
ACAD_PLOTSTYLENAME
350
E
  3
ACAD_SCALELIST
350
47
  3
APPDATA
350
142
  3
DWGPROPS
350
177
  0
DICTIONARY
  5
175
330
1F
100
AcDbDictionary
280
     1
281
     1
  3
DIM_BOUNDING_BOXES_V1
360
176
  0
DICTIONARY
  5
D
102
{ACAD_REACTORS
330
C
102
}
330
C
100
AcDbDictionary
281
     1
  0
DICTIONARY
  5
1A
102
{ACAD_REACTORS
330
C
102
}
330
C
100
AcDbDictionary
281
     1
  3
Layout1
350
1E
  3
Layout2
350
26
  3
Model
350
22
  0
DICTIONARY
  5
17
102
{ACAD_REACTORS
330
C
102
}
330
C
100
AcDbDictionary
281
     1
  3
Standard
350
18
  0
DICTIONARY
  5
19
102
{ACAD_REACTORS
330
C
102
}
330
C
100
AcDbDictionary
281
     1
  0
ACDBDICTIONARYWDFLT
  5
E
102
{ACAD_REACTORS
330
C
102
}
330
C
100
AcDbDictionary
281
     1
  3
Normal
350
F
100
AcDbDictionaryWithDefault
340
F
  0
DICTIONARY
  5
47
102
{ACAD_REACTORS
330
C
102
}
330
C
100
AcDbDictionary
281
     1
  3
A0
350
48
  3
A1
350
49
  3
A2
350
4A
  3
A3
350
4B
  3
A4
350
4C
  3
A5
350
4D
  3
A6
350
4E
  3
A7
350
4F
  3
A8
350
50
  3
A9
350
51
  3
B0
350
52
  3
B1
350
53
  3
B2
350
54
  3
B3
350
55
  3
B4
350
56
  3
B5
350
57
  3
B6
350
58
  3
B7
350
59
  3
B8
350
5A
  3
B9
350
5B
  3
C0
350
5C
  3
C1
350
5D
  3
C2
350
5E
  3
C3
350
5F
  3
C4
350
60
  3
C5
350
61
  3
C6
350
62
  3
C7
350
63
  3
C8
350
64
  3
C9
350
65
  3
D0
350
66
  3
D1
350
67
  3
D2
350
68
  0
DICTIONARY
  5
142
102
{ACAD_REACTORS
330
C
102
}
330
C
100
AcDbDictionary
281
     1
  0
XRECORD
  5
177
102
{ACAD_REACTORS
330
C
102
}
330
C
100
AcDbXrecord
280
     1
  1
DWGPROPS COOKIE
  2

  3

  4

  6

  7

  8
12016016
  9

300
=
301
=
302
=
303
=
304
=
305
=
306
=
307
=
308
=
309
=
 40
0.0
 41
2458260.409420764
 42
2459677.329497072
  1

 90
        0
  0
DICTIONARY
  5
176
102
{ACAD_REACTORS
330
175
102
}
330
175
100
AcDbDictionary
281
     1
  0
LAYOUT
  5
1E
102
{ACAD_REACTORS
330
1A
102
}
330
1A
100
AcDbPlotSettings
  1

  2
none_device
  4

  6

 40
0.0
 41
0.0
 42
0.0
 43
0.0
 44
0.0
 45
0.0
 46
0.0
 47
0.0
 48
0.0
 49
0.0
140
0.0
141
0.0
142
1.0
143
1.0
 70
   688
 72
     1
 73
     0
 74
     5
  7

 75
    16
147
1.0
148
0.0
149
0.0
100
AcDbLayout
  1
Layout1
 70
     1
 71
     1
 10
0.0
 20
0.0
 11
420.0
 21
297.0
 12
0.0
 22
0.0
 32
0.0
 14
1.000000000000000E+20
 24
1.000000000000000E+20
 34
1.000000000000000E+20
 15
-1.000000000000000E+20
 25
-1.000000000000000E+20
 35
-1.000000000000000E+20
146
0.0
 13
0.0
 23
0.0
 33
0.0
 16
1.0
 26
0.0
 36
0.0
 17
0.0
 27
1.0
 37
0.0
 76
     0
330
1B
  0
LAYOUT
  5
26
102
{ACAD_REACTORS
330
1A
102
}
330
1A
100
AcDbPlotSettings
  1

  2
none_device
  4

  6

 40
0.0
 41
0.0
 42
0.0
 43
0.0
 44
0.0
 45
0.0
 46
0.0
 47
0.0
 48
0.0
 49
0.0
140
0.0
141
0.0
142
1.0
143
1.0
 70
   688
 72
     1
 73
     0
 74
     5
  7

 75
    16
147
1.0
148
0.0
149
0.0
100
AcDbLayout
  1
Layout2
 70
     1
 71
     2
 10
0.0
 20
0.0
 11
0.0
 21
0.0
 12
0.0
 22
0.0
 32
0.0
 14
0.0
 24
0.0
 34
0.0
 15
0.0
 25
0.0
 35
0.0
146
0.0
 13
0.0
 23
0.0
 33
0.0
 16
1.0
 26
0.0
 36
0.0
 17
0.0
 27
1.0
 37
0.0
 76
     0
330
23
  0
LAYOUT
  5
22
102
{ACAD_REACTORS
330
1A
102
}
330
1A
100
AcDbPlotSettings
  1

  2
none_device
  4
ANSI_A_(11.00_x_8.50_Inches)
  6

 40
6.35
 41
19.05
 42
6.35000508
 43
19.05000254
 44
279.4
 45
215.9
 46
167.2473636261004
 47
99.56536258473129
 48
0.0
 49
0.0
140
0.0
141
0.0
142
0.0912417563505177
143
1.0
 70
  1696
 72
     0
 73
     0
 74
     0
  7

 75
     0
147
0.0235690232323232
148
0.0
149
0.0
100
AcDbLayout
  1
Model
 70
     1
 71
     0
 10
0.0
 20
0.0
 11
420.0
 21
297.0
 12
0.0
 22
0.0
 32
0.0
 14
-57.98965953969893
 24
-49.97180738881174
 34
0.0
 15
35.66948002192096
 25
41.37500000000002
 35
0.0
146
0.0
 13
0.0
 23
0.0
 33
0.0
 16
1.0
 26
0.0
 36
0.0
 17
0.0
 27
1.0
 37
0.0
 76
     0
330
1F
331
29
  0
MLINESTYLE
  5
18
102
{ACAD_REACTORS
330
17
102
}
330
17
100
AcDbMlineStyle
  2
Standard
 70
     0
  3

 62
   256
 51
90.0
 52
90.0
 71
     2
 49
0.5
 62
   256
  6
BYLAYER
 49
-0.5
 62
   256
  6
BYLAYER
  0
ACDBPLACEHOLDER
  5
F
102
{ACAD_REACTORS
330
E
102
}
330
E
  0
SCALE
  5
48
102
{ACAD_REACTORS
330
47
102
}
330
47
100
AcDbScale
 70
     0
300
1:1
140
1.0
141
1.0
290
     1
  0
SCALE
  5
49
102
{ACAD_REACTORS
330
47
102
}
330
47
100
AcDbScale
 70
     0
300
1:2
140
1.0
141
2.0
290
     0
  0
SCALE
  5
4A
102
{ACAD_REACTORS
330
47
102
}
330
47
100
AcDbScale
 70
     0
300
1:4
140
1.0
141
4.0
290
     0
  0
SCALE
  5
4B
102
{ACAD_REACTORS
330
47
102
}
330
47
100
AcDbScale
 70
     0
300
1:5
140
1.0
141
5.0
290
     0
  0
SCALE
  5
4C
102
{ACAD_REACTORS
330
47
102
}
330
47
100
AcDbScale
 70
     0
300
1:8
140
1.0
141
8.0
290
     0
  0
SCALE
  5
4D
102
{ACAD_REACTORS
330
47
102
}
330
47
100
AcDbScale
 70
     0
300
1:10
140
1.0
141
10.0
290
     0
  0
SCALE
  5
4E
102
{ACAD_REACTORS
330
47
102
}
330
47
100
AcDbScale
 70
     0
300
1:16
140
1.0
141
16.0
290
     0
  0
SCALE
  5
4F
102
{ACAD_REACTORS
330
47
102
}
330
47
100
AcDbScale
 70
     0
300
1:20
140
1.0
141
20.0
290
     0
  0
SCALE
  5
50
102
{ACAD_REACTORS
330
47
102
}
330
47
100
AcDbScale
 70
     0
300
1:30
140
1.0
141
30.0
290
     0
  0
SCALE
  5
51
102
{ACAD_REACTORS
330
47
102
}
330
47
100
AcDbScale
 70
     0
300
1:40
140
1.0
141
40.0
290
     0
  0
SCALE
  5
52
102
{ACAD_REACTORS
330
47
102
}
330
47
100
AcDbScale
 70
     0
300
1:50
140
1.0
141
50.0
290
     0
  0
SCALE
  5
53
102
{ACAD_REACTORS
330
47
102
}
330
47
100
AcDbScale
 70
     0
300
1:100
140
1.0
141
100.0
290
     0
  0
SCALE
  5
54
102
{ACAD_REACTORS
330
47
102
}
330
47
100
AcDbScale
 70
     0
300
2:1
140
2.0
141
1.0
290
     0
  0
SCALE
  5
55
102
{ACAD_REACTORS
330
47
102
}
330
47
100
AcDbScale
 70
     0
300
4:1
140
4.0
141
1.0
290
     0
  0
SCALE
  5
56
102
{ACAD_REACTORS
330
47
102
}
330
47
100
AcDbScale
 70
     0
300
8:1
140
8.0
141
1.0
290
     0
  0
SCALE
  5
57
102
{ACAD_REACTORS
330
47
102
}
330
47
100
AcDbScale
 70
     0
300
10:1
140
10.0
141
1.0
290
     0
  0
SCALE
  5
58
102
{ACAD_REACTORS
330
47
102
}
330
47
100
AcDbScale
 70
     0
300
100:1
140
100.0
141
1.0
290
     0
  0
SCALE
  5
59
102
{ACAD_REACTORS
330
47
102
}
330
47
100
AcDbScale
 70
     0
300
1/128" = 1'-0"
140
0.0078125
141
12.0
290
     0
  0
SCALE
  5
5A
102
{ACAD_REACTORS
330
47
102
}
330
47
100
AcDbScale
 70
     0
300
1/64" = 1'-0"
140
0.015625
141
12.0
290
     0
  0
SCALE
  5
5B
102
{ACAD_REACTORS
330
47
102
}
330
47
100
AcDbScale
 70
     0
300
1/32" = 1'-0"
140
0.03125
141
12.0
290
     0
  0
SCALE
  5
5C
102
{ACAD_REACTORS
330
47
102
}
330
47
100
AcDbScale
 70
     0
300
1/16" = 1'-0"
140
0.0625
141
12.0
290
     0
  0
SCALE
  5
5D
102
{ACAD_REACTORS
330
47
102
}
330
47
100
AcDbScale
 70
     0
300
3/32" = 1'-0"
140
0.09375
141
12.0
290
     0
  0
SCALE
  5
5E
102
{ACAD_REACTORS
330
47
102
}
330
47
100
AcDbScale
 70
     0
300
1/8" = 1'-0"
140
0.125
141
12.0
290
     0
  0
SCALE
  5
5F
102
{ACAD_REACTORS
330
47
102
}
330
47
100
AcDbScale
 70
     0
300
3/16" = 1'-0"
140
0.1875
141
12.0
290
     0
  0
SCALE
  5
60
102
{ACAD_REACTORS
330
47
102
}
330
47
100
AcDbScale
 70
     0
300
1/4" = 1'-0"
140
0.25
141
12.0
290
     0
  0
SCALE
  5
61
102
{ACAD_REACTORS
330
47
102
}
330
47
100
AcDbScale
 70
     0
300
3/8" = 1'-0"
140
0.375
141
12.0
290
     0
  0
SCALE
  5
62
102
{ACAD_REACTORS
330
47
102
}
330
47
100
AcDbScale
 70
     0
300
1/2" = 1'-0"
140
0.5
141
12.0
290
     0
  0
SCALE
  5
63
102
{ACAD_REACTORS
330
47
102
}
330
47
100
AcDbScale
 70
     0
300
3/4" = 1'-0"
140
0.75
141
12.0
290
     0
  0
SCALE
  5
64
102
{ACAD_REACTORS
330
47
102
}
330
47
100
AcDbScale
 70
     0
300
1" = 1'-0"
140
1.0
141
12.0
290
     0
  0
SCALE
  5
65
102
{ACAD_REACTORS
330
47
102
}
330
47
100
AcDbScale
 70
     0
300
1-1/2" = 1'-0"
140
1.5
141
12.0
290
     0
  0
SCALE
  5
66
102
{ACAD_REACTORS
330
47
102
}
330
47
100
AcDbScale
 70
     0
300
3" = 1'-0"
140
3.0
141
12.0
290
     0
  0
SCALE
  5
67
102
{ACAD_REACTORS
330
47
102
}
330
47
100
AcDbScale
 70
     0
300
6" = 1'-0"
140
6.0
141
12.0
290
     0
  0
SCALE
  5
68
102
{ACAD_REACTORS
330
47
102
}
330
47
100
AcDbScale
 70
     0
300
1'-0" = 1'-0"
140
12.0
141
12.0
290
     0
  0
ENDSEC
  0
EOF
