  0
SECTION
  2
HEADER
  9
$ACADVER
  1
AC1015
  9
$ACADMAINTVER
 70
     6
  9
$DWGCODEPAGE
  3
ANSI_949
  9
$INSBASE
 10
0.0
 20
0.0
 30
0.0
  9
$EXTMIN
 10
-54.88199891556476
 20
-49.97180738881174
 30
0.0
  9
$EXTMAX
 10
53.08964064605513
 20
40.37500000000001
 30
0.0
  9
$LIMMIN
 10
0.0
 20
0.0
  9
$LIMMAX
 10
420.0
 20
297.0
  9
$ORTHOMODE
 70
     0
  9
$REGENMODE
 70
     1
  9
$FILLMODE
 70
     1
  9
$QTEXTMODE
 70
     0
  9
$MIRRTEXT
 70
     1
  9
$LTSCALE
 40
1.0
  9
$ATTMODE
 70
     1
  9
$TEXTSIZE
 40
3.5
  9
$TRACEWID
 40
1.0
  9
$TEXTSTYLE
  7
Standard
  9
$CLAYER
  8
0
  9
$CELTYPE
  6
ByLayer
  9
$CECOLOR
 62
   256
  9
$CELTSCALE
 40
1.0
  9
$DISPSILH
 70
     0
  9
$DIMSCALE
 40
1.0
  9
$DIMASZ
 40
3.302
  9
$DIMEXO
 40
1.0
  9
$DIMDLI
 40
3.75
  9
$DIMRND
 40
0.0
  9
$DIMDLE
 40
0.0
  9
$DIMEXE
 40
1.0
  9
$DIMTP
 40
0.0
  9
$DIMTM
 40
0.0
  9
$DIMTXT
 40
3.5
  9
$DIMCEN
 40
2.5
  9
$DIMTSZ
 40
0.0
  9
$DIMTOL
 70
     0
  9
$DIMLIM
 70
     0
  9
$DIMTIH
 70
     1
  9
$DIMTOH
 70
     1
  9
$DIMSE1
 70
     0
  9
$DIMSE2
 70
     0
  9
$DIMTAD
 70
     1
  9
$DIMZIN
 70
     0
  9
$DIMBLK
  1

  9
$DIMASO
 70
     1
  9
$DIMSHO
 70
     1
  9
$DIMPOST
  1

  9
$DIMAPOST
  1

  9
$DIMALT
 70
     0
  9
$DIMALTD
 70
     3
  9
$DIMALTF
 40
0.0393700787401575
  9
$DIMLFAC
 40
1.0
  9
$DIMTOFL
 70
     1
  9
$DIMTVP
 40
0.0
  9
$DIMTIX
 70
     0
  9
$DIMSOXD
 70
     0
  9
$DIMSAH
 70
     0
  9
$DIMBLK1
  1

  9
$DIMBLK2
  1

  9
$DIMSTYLE
  2
ISO-25
  9
$DIMCLRD
 70
     0
  9
$DIMCLRE
 70
     0
  9
$DIMCLRT
 70
     0
  9
$DIMTFAC
 40
1.0
  9
$DIMGAP
 40
1.524
  9
$DIMJUST
 70
     0
  9
$DIMSD1
 70
     0
  9
$DIMSD2
 70
     0
  9
$DIMTOLJ
 70
     0
  9
$DIMTZIN
 70
     0
  9
$DIMALTZ
 70
     0
  9
$DIMALTTZ
 70
     0
  9
$DIMUPT
 70
     0
  9
$DIMDEC
 70
     2
  9
$DIMTDEC
 70
     2
  9
$DIMALTU
 70
     2
  9
$DIMALTTD
 70
     3
  9
$DIMTXSTY
  7
Standard
  9
$DIMAUNIT
 70
     0
  9
$DIMADEC
 70
     2
  9
$DIMALTRND
 40
0.0
  9
$DIMAZIN
 70
     0
  9
$DIMDSEP
 70
    44
  9
$DIMATFIT
 70
     3
  9
$DIMFRAC
 70
     0
  9
$DIMLDRBLK
  1

  9
$DIMLUNIT
 70
     2
  9
$DIMLWD
 70
    -2
  9
$DIMLWE
 70
    -2
  9
$DIMTMOVE
 70
     0
  9
$LUNITS
 70
     2
  9
$LUPREC
 70
     2
  9
$SKETCHINC
 40
1.0
  9
$FILLETRAD
 40
10.0
  9
$AUNITS
 70
     0
  9
$AUPREC
 70
     2
  9
$MENU
  1
.
  9
$ELEVATION
 40
0.0
  9
$PELEVATION
 40
0.0
  9
$THICKNESS
 40
0.0
  9
$LIMCHECK
 70
     0
  9
$CHAMFERA
 40
0.0
  9
$CHAMFERB
 40
0.0
  9
$CHAMFERC
 40
0.0
  9
$CHAMFERD
 40
0.0
  9
$SKPOLY
 70
     0
  9
$TDCREATE
 40
2458260.783097477
  9
$TDUCREATE
 40
2458260.408097477
  9
$TDUPDATE
 40
2459677.722461725
  9
$TDUUPDATE
 40
2459677.347461725
  9
$TDINDWG
 40
0.0023330787
  9
$TDUSRTIMER
 40
0.0005529861
  9
$USRTIMER
 70
     1
  9
$ANGBASE
 50
0.0
  9
$ANGDIR
 70
     0
  9
$PDMODE
 70
     0
  9
$PDSIZE
 40
-1.0
  9
$PLINEWID
 40
0.0
  9
$SPLFRAME
 70
     0
  9
$SPLINETYPE
 70
     6
  9
$SPLINESEGS
 70
     8
  9
$HANDSEED
  5
177
  9
$SURFTAB1
 70
     6
  9
$SURFTAB2
 70
     6
  9
$SURFTYPE
 70
     6
  9
$SURFU
 70
     6
  9
$SURFV
 70
     6
  9
$UCSBASE
  2

  9
$UCSNAME
  2

  9
$UCSORG
 10
0.0
 20
0.0
 30
0.0
  9
$UCSXDIR
 10
1.0
 20
0.0
 30
0.0
  9
$UCSYDIR
 10
0.0
 20
1.0
 30
0.0
  9
$UCSORTHOREF
  2

  9
$UCSORTHOVIEW
 70
     0
  9
$UCSORGTOP
 10
0.0
 20
0.0
 30
0.0
  9
$UCSORGBOTTOM
 10
0.0
 20
0.0
 30
0.0
  9
$UCSORGLEFT
 10
0.0
 20
0.0
 30
0.0
  9
$UCSORGRIGHT
 10
0.0
 20
0.0
 30
0.0
  9
$UCSORGFRONT
 10
0.0
 20
0.0
 30
0.0
  9
$UCSORGBACK
 10
0.0
 20
0.0
 30
0.0
  9
$PUCSBASE
  2

  9
$PUCSNAME
  2

  9
$PUCSORG
 10
0.0
 20
0.0
 30
0.0
  9
$PUCSXDIR
 10
1.0
 20
0.0
 30
0.0
  9
$PUCSYDIR
 10
0.0
 20
1.0
 30
0.0
  9
$PUCSORTHOREF
  2

  9
$PUCSORTHOVIEW
 70
     0
  9
$PUCSORGTOP
 10
0.0
 20
0.0
 30
0.0
  9
$PUCSORGBOTTOM
 10
0.0
 20
0.0
 30
0.0
  9
$PUCSORGLEFT
 10
0.0
 20
0.0
 30
0.0
  9
$PUCSORGRIGHT
 10
0.0
 20
0.0
 30
0.0
  9
$PUCSORGFRONT
 10
0.0
 20
0.0
 30
0.0
  9
$PUCSORGBACK
 10
0.0
 20
0.0
 30
0.0
  9
$USERI1
 70
     0
  9
$USERI2
 70
     0
  9
$USERI3
 70
     0
  9
$USERI4
 70
     0
  9
$USERI5
 70
     0
  9
$USERR1
 40
0.0
  9
$USERR2
 40
0.0
  9
$USERR3
 40
0.0
  9
$USERR4
 40
0.0
  9
$USERR5
 40
0.0
  9
$WORLDVIEW
 70
     1
  9
$SHADEDGE
 70
     3
  9
$SHADEDIF
 70
    70
  9
$TILEMODE
 70
     1
  9
$MAXACTVP
 70
    64
  9
$PINSBASE
 10
0.0
 20
0.0
 30
0.0
  9
$PLIMCHECK
 70
     0
  9
$PEXTMIN
 10
1.000000000000000E+20
 20
1.000000000000000E+20
 30
1.000000000000000E+20
  9
$PEXTMAX
 10
-1.000000000000000E+20
 20
-1.000000000000000E+20
 30
-1.000000000000000E+20
  9
$PLIMMIN
 10
0.0
 20
0.0
  9
$PLIMMAX
 10
0.0
 20
0.0
  9
$UNITMODE
 70
     0
  9
$VISRETAIN
 70
     1
  9
$PLINEGEN
 70
     0
  9
$PSLTSCALE
 70
     1
  9
$TREEDEPTH
 70
  3020
  9
$CMLSTYLE
  2
Standard
  9
$CMLJUST
 70
     0
  9
$CMLSCALE
 40
20.0
  9
$PROXYGRAPHICS
 70
     1
  9
$MEASUREMENT
 70
     1
  9
$CELWEIGHT
370
    -1
  9
$ENDCAPS
280
     0
  9
$JOINSTYLE
280
     0
  9
$LWDISPLAY
290
     1
  9
$INSUNITS
 70
     4
  9
$HYPERLINKBASE
  1

  9
$STYLESHEET
  1

  9
$XEDIT
290
     1
  9
$CEPSNTYPE
380
     0
  9
$PSTYLEMODE
290
     1
  9
$FINGERPRINTGUID
  2
{F6937A22-189A-4FE7-8B08-751E784D3C5B}
  9
$VERSIONGUID
  2
{FAEB1C32-E019-11D5-929B-00C0DF256EC4}
  9
$EXTNAMES
290
     1
  9
$PSVPSCALE
 40
0.0
  9
$OLESTARTUP
290
     0
  0
ENDSEC
  0
SECTION
  2
CLASSES
  0
CLASS
  1
ACDBDICTIONARYWDFLT
  2
AcDbDictionaryWithDefault
  3
ObjectDBX Classes
 90
        0
280
     0
281
     0
  0
CLASS
  1
VISUALSTYLE
  2
AcDbVisualStyle
  3
ObjectDBX Classes
 90
     4095
280
     0
281
     0
  0
CLASS
  1
MATERIAL
  2
AcDbMaterial
  3
ObjectDBX Classes
 90
     1153
280
     0
281
     0
  0
CLASS
  1
SCALE
  2
AcDbScale
  3
ObjectDBX Classes
 90
     1153
280
     0
281
     0
  0
CLASS
  1
TABLESTYLE
  2
AcDbTableStyle
  3
ObjectDBX Classes
 90
     4095
280
     0
281
     0
  0
CLASS
  1
MLEADERSTYLE
  2
AcDbMLeaderStyle
  3
ACDB_MLEADERSTYLE_CLASS
 90
     4095
280
     0
281
     0
  0
CLASS
  1
SUN
  2
AcDbSun
  3
SCENEOE
 90
     1153
280
     0
281
     0
  0
CLASS
  1
ACDBPLACEHOLDER
  2
AcDbPlaceHolder
  3
ObjectDBX Classes
 90
        0
280
     0
281
     0
  0
CLASS
  1
LAYOUT
  2
AcDbLayout
  3
ObjectDBX Classes
 90
        0
280
     0
281
     0
  0
ENDSEC
  0
SECTION
  2
TABLES
  0
TABLE
  2
VPORT
  5
8
330
0
100
AcDbSymbolTable
 70
     1
  0
VPORT
  5
29
330
8
100
AcDbSymbolTableRecord
100
AcDbViewportTableRecord
  2
*Active
 70
     0
 10
0.0
 20
0.0
 11
1.0
 21
1.0
 12
-6.701063617643051
 22
-2.208721402918455
 13
0.0
 23
0.0
 14
10.0
 24
10.0
 15
10.0
 25
10.0
 16
0.0
 26
0.0
 36
1.0
 17
0.0
 27
0.0
 37
0.0
 40
35.2739916474965
 41
1.531481481481481
 42
50.0
 43
0.0
 44
0.0
 50
0.0
 51
0.0
 71
    16
 72
  2000
 73
     1
 74
     3
 75
     0
 76
     0
 77
     0
 78
     0
281
     0
 65
     1
110
0.0
120
0.0
130
0.0
111
1.0
121
0.0
131
0.0
112
0.0
122
1.0
132
0.0
 79
     0
146
0.0
  0
ENDTAB
  0
TABLE
  2
LTYPE
  5
5
330
0
100
AcDbSymbolTable
 70
     6
  0
LTYPE
  5
14
330
5
100
AcDbSymbolTableRecord
100
AcDbLinetypeTableRecord
  2
ByBlock
 70
     0
  3

 72
    65
 73
     0
 40
0.0
  0
LTYPE
  5
15
330
5
100
AcDbSymbolTableRecord
100
AcDbLinetypeTableRecord
  2
ByLayer
 70
     0
  3

 72
    65
 73
     0
 40
0.0
  0
LTYPE
  5
16
330
5
100
AcDbSymbolTableRecord
100
AcDbLinetypeTableRecord
  2
Continuous
 70
     0
  3
Solid line
 72
    65
 73
     0
 40
0.0
  0
LTYPE
  5
6E
330
5
100
AcDbSymbolTableRecord
100
AcDbLinetypeTableRecord
  2
HIDDEN
 70
     0
  3
Hidden __ __ __ __ __ __ __ __ __ __ __ __ __ __
 72
    65
 73
     2
 40
1.905
 49
1.27
 74
     0
 49
-0.635
 74
     0
  0
LTYPE
  5
6F
330
5
100
AcDbSymbolTableRecord
100
AcDbLinetypeTableRecord
  2
PHANTOM
 70
     0
  3
Phantom ______  __  __  ______  __  __  ______
 72
    65
 73
     6
 40
12.7
 49
6.35
 74
     0
 49
-1.27
 74
     0
 49
1.27
 74
     0
 49
-1.27
 74
     0
 49
1.27
 74
     0
 49
-1.27
 74
     0
  0
LTYPE
  5
70
330
5
100
AcDbSymbolTableRecord
100
AcDbLinetypeTableRecord
  2
CENTER
 70
     0
  3
Center ____ _ ____ _ ____ _ ____ _ ____ _ ____
 72
    65
 73
     4
 40
10.16
 49
6.35
 74
     0
 49
-1.27
 74
     0
 49
1.27
 74
     0
 49
-1.27
 74
     0
  0
LTYPE
  5
71
330
5
100
AcDbSymbolTableRecord
100
AcDbLinetypeTableRecord
  2
CENTERX2
 70
     0
  3
Center (2x) ________  __  ________  __  _____
 72
    65
 73
     4
 40
20.32
 49
12.7
 74
     0
 49
-2.54
 74
     0
 49
2.54
 74
     0
 49
-2.54
 74
     0
  0
LTYPE
  5
72
330
5
100
AcDbSymbolTableRecord
100
AcDbLinetypeTableRecord
  2
DOT2
 70
     0
  3
Dot (.5x) ........................................
 72
    65
 73
     2
 40
0.635
 49
0.0
 74
     0
 49
-0.635
 74
     0
  0
ENDTAB
  0
TABLE
  2
LAYER
  5
2
330
0
100
AcDbSymbolTable
 70
    17
  0
LAYER
  5
10
330
2
100
AcDbSymbolTableRecord
100
AcDbLayerTableRecord
  2
0
 70
     0
 62
     7
  6
Continuous
370
    -3
390
F
  0
LAYER
  5
73
330
2
100
AcDbSymbolTableRecord
100
AcDbLayerTableRecord
  2
FORMAT
 70
     0
 62
     2
  6
Continuous
370
    -3
390
F
  0
LAYER
  5
74
330
2
100
AcDbSymbolTableRecord
100
AcDbLayerTableRecord
  2
외형선
 70
     0
 62
   100
  6
Continuous
370
    35
390
F
  0
LAYER
  5
75
330
2
100
AcDbSymbolTableRecord
100
AcDbLayerTableRecord
  2
숨은선
 70
     0
 62
     2
  6
HIDDEN
370
    25
390
F
  0
LAYER
  5
76
330
2
100
AcDbSymbolTableRecord
100
AcDbLayerTableRecord
  2
중심선
 70
     0
 62
     1
  6
CENTERX2
370
    -3
390
F
  0
LAYER
  5
77
330
2
100
AcDbSymbolTableRecord
100
AcDbLayerTableRecord
  2
파단선
 70
     0
 62
     4
  6
Continuous
370
    -3
390
F
  0
LAYER
  5
78
330
2
100
AcDbSymbolTableRecord
100
AcDbLayerTableRecord
  2
해칭선
 70
     0
 62
   100
  6
Continuous
370
    -3
390
F
  0
LAYER
  5
79
330
2
100
AcDbSymbolTableRecord
100
AcDbLayerTableRecord
  2
가는실선
 70
     0
 62
     4
  6
Continuous
370
    -3
390
F
  0
LAYER
  5
7A
330
2
100
AcDbSymbolTableRecord
100
AcDbLayerTableRecord
  2
치수_보조선
 70
     0
 62
     4
  6
Continuous
370
    -3
390
F
  0
LAYER
  5
7B
330
2
100
AcDbSymbolTableRecord
100
AcDbLayerTableRecord
  2
치수문자_일반주서
 70
     0
 62
     7
  6
Continuous
370
    25
390
F
  0
LAYER
  5
7C
330
2
100
AcDbSymbolTableRecord
100
AcDbLayerTableRecord
  2
개별주서
 70
     0
 62
   100
  6
Continuous
370
    35
390
F
  0
LAYER
  5
7D
330
2
100
AcDbSymbolTableRecord
100
AcDbLayerTableRecord
  2
중간선
 70
     0
 62
     2
  6
Continuous
370
    25
390
F
  0
LAYER
  5
7E
330
2
100
AcDbSymbolTableRecord
100
AcDbLayerTableRecord
  2
윤곽선
 70
     0
 62
     3
  6
Continuous
370
    50
390
F
  0
LAYER
  5
7F
330
2
100
AcDbSymbolTableRecord
100
AcDbLayerTableRecord
  2
중심마크
 70
     0
 62
   100
  6
Continuous
370
    35
390
F
  0
LAYER
  5
80
330
2
100
AcDbSymbolTableRecord
100
AcDbLayerTableRecord
  2
가상선
 70
     0
 62
     4
  6
PHANTOM
370
    -3
390
F
  0
LAYER
  5
81
330
2
100
AcDbSymbolTableRecord
100
AcDbLayerTableRecord
  2
특수지정선
 70
     0
 62
     5
  6
CENTERX2
370
    70
390
F
  0
LAYER
  5
141
330
2
100
AcDbSymbolTableRecord
100
AcDbLayerTableRecord
  2
Defpoints
 70
     0
 62
     7
  6
Continuous
290
     0
370
    -3
390
F
  0
ENDTAB
  0
TABLE
  2
STYLE
  5
3
330
0
100
AcDbSymbolTable
 70
     2
  0
STYLE
  5
11
330
3
100
AcDbSymbolTableRecord
100
AcDbTextStyleTableRecord
  2
Standard
 70
     0
 40
0.0
 41
1.0
 50
0.0
 71
     0
 42
3.5
  3
txt
  4

  0
STYLE
  5
97
330
3
100
AcDbSymbolTableRecord
100
AcDbTextStyleTableRecord
  2
SLDTEXTSTYLE0
 70
     0
 40
0.0
 41
0.75
 50
0.0
 71
     0
 42
3.5
  3
TXT
  4

  0
ENDTAB
  0
TABLE
  2
VIEW
  5
6
330
0
100
AcDbSymbolTable
 70
     0
  0
ENDTAB
  0
TABLE
  2
UCS
  5
7
330
0
100
AcDbSymbolTable
 70
     0
  0
ENDTAB
  0
TABLE
  2
APPID
  5
9
330
0
100
AcDbSymbolTable
 70
     4
  0
APPID
  5
12
330
9
100
AcDbSymbolTableRecord
100
AcDbRegAppTableRecord
  2
ACAD
 70
     0
  0
APPID
  5
140
330
9
100
AcDbSymbolTableRecord
100
AcDbRegAppTableRecord
  2
PE_URL
 70
     0
  0
APPID
  5
150
330
9
100
AcDbSymbolTableRecord
100
AcDbRegAppTableRecord
  2
ACAD_DSTYLE_DIMFLIPARROW_SYMBOL
 70
     0
  0
APPID
  5
151
330
9
100
AcDbSymbolTableRecord
100
AcDbRegAppTableRecord
  2
ACAD_DSTYLE_DIMFLIPARROW_WHICH_SYMBOL
 70
     0
  0
ENDTAB
  0
TABLE
  2
DIMSTYLE
  5
A
330
0
100
AcDbSymbolTable
 70
     4
100
AcDbDimStyleTable
  0
DIMSTYLE
105
27
330
A
100
AcDbSymbolTableRecord
100
AcDbDimStyleTableRecord
  2
ISO-25
 70
     0
 41
2.5
 42
0.625
 43
3.75
 44
1.25
 73
     0
 74
     0
 77
     1
 78
     8
140
2.5
141
2.5
143
0.03937007874016
147
0.625
171
     3
172
     1
178
     0
271
     2
272
     2
274
     3
278
    44
283
     0
284
     8
340
11
  0
DIMSTYLE
105
DB
102
{ACAD_REACTORS
330
DA
102
}
330
A
100
AcDbSymbolTableRecord
100
AcDbDimStyleTableRecord
  2
SLDDIMSTYLE0
 70
     0
 41
3.302
 44
0.0
 45
0.000000001
 73
     0
 74
     0
 77
     1
 78
    12
 79
     3
140
3.5
147
0.875
172
     1
173
     1
178
     0
271
     1
272
     1
276
     2
284
    12
289
     0
340
97
  0
DIMSTYLE
105
E9
102
{ACAD_REACTORS
330
E8
330
10D
102
}
330
A
100
AcDbSymbolTableRecord
100
AcDbDimStyleTableRecord
  2
SLDDIMSTYLE1
 70
     0
 41
3.302
 44
0.0
 45
0.000000001
 73
     0
 74
     0
 77
     1
 78
    12
 79
     3
140
3.5
147
0.875
173
     1
178
     0
271
     2
272
     2
276
     2
284
    12
340
97
  0
DIMSTYLE
105
F4
102
{ACAD_REACTORS
330
F3
330
101
102
}
330
A
100
AcDbSymbolTableRecord
100
AcDbDimStyleTableRecord
  2
SLDDIMSTYLE2
 70
     0
 41
3.302
 44
0.0
 45
0.000000001
 73
     0
 74
     0
 77
     1
 78
    12
 79
     3
140
3.5
147
0.875
172
     1
173
     1
178
     0
271
     2
272
     2
276
     2
284
    12
289
     0
340
97
  0
ENDTAB
  0
TABLE
  2
BLOCK_RECORD
  5
1
330
0
100
AcDbSymbolTable
 70
     8
  0
BLOCK_RECORD
  5
1F
102
{ACAD_XDICTIONARY
360
174
102
}
330
1
100
AcDbSymbolTableRecord
100
AcDbBlockTableRecord
  2
*Model_Space
340
22
  0
BLOCK_RECORD
  5
1B
330
1
100
AcDbSymbolTableRecord
100
AcDbBlockTableRecord
  2
*Paper_Space
340
1E
  0
BLOCK_RECORD
  5
23
330
1
100
AcDbSymbolTableRecord
100
AcDbBlockTableRecord
  2
*Paper_Space0
340
26
  0
BLOCK_RECORD
  5
82
330
1
100
AcDbSymbolTableRecord
100
AcDbBlockTableRecord
  2
블럭10
340
0
102
{BLKREFS
331
D3
102
}
  0
BLOCK_RECORD
  5
DC
330
1
100
AcDbSymbolTableRecord
100
AcDbBlockTableRecord
  2
_D
340
0
  0
BLOCK_RECORD
  5
EA
330
1
100
AcDbSymbolTableRecord
100
AcDbBlockTableRecord
  2
_D_1
340
0
  0
BLOCK_RECORD
  5
F5
330
1
100
AcDbSymbolTableRecord
100
AcDbBlockTableRecord
  2
_D_2
340
0
  0
BLOCK_RECORD
  5
102
330
1
100
AcDbSymbolTableRecord
100
AcDbBlockTableRecord
  2
_D_3
340
0
  0
BLOCK_RECORD
  5
10E
330
1
100
AcDbSymbolTableRecord
100
AcDbBlockTableRecord
  2
_D_4
340
0
  0
BLOCK_RECORD
  5
117
330
1
100
AcDbSymbolTableRecord
100
AcDbBlockTableRecord
  2
SW_DOWELSYMBOL_0
340
0
102
{BLKREFS
331
11D
102
}
  0
ENDTAB
  0
ENDSEC
  0
SECTION
  2
BLOCKS
  0
BLOCK
  5
20
330
1F
100
AcDbEntity
  8
0
100
AcDbBlockBegin
  2
*Model_Space
 70
     0
 10
0.0
 20
0.0
 30
0.0
  3
*Model_Space
  1

  0
ENDBLK
  5
21
330
1F
100
AcDbEntity
  8
0
100
AcDbBlockEnd
  0
BLOCK
  5
1C
330
1B
100
AcDbEntity
 67
     1
  8
0
100
AcDbBlockBegin
  2
*Paper_Space
 70
     0
 10
0.0
 20
0.0
 30
0.0
  3
*Paper_Space
  1

  0
ENDBLK
  5
1D
330
1B
100
AcDbEntity
 67
     1
  8
0
100
AcDbBlockEnd
  0
BLOCK
  5
24
330
23
100
AcDbEntity
  8
0
100
AcDbBlockBegin
  2
*Paper_Space0
 70
     0
 10
0.0
 20
0.0
 30
0.0
  3
*Paper_Space0
  1

  0
ENDBLK
  5
25
330
23
100
AcDbEntity
  8
0
100
AcDbBlockEnd
  0
BLOCK
  5
83
330
82
100
AcDbEntity
  8
0
100
AcDbBlockBegin
  2
블럭10
 70
     2
 10
0.0
 20
0.0
 30
0.0
  3
블럭10
  1

  0
ELLIPSE
  5
85
330
82
100
AcDbEntity
  8
중심선
100
AcDbEllipse
 10
20.54032771741204
 20
12.0471743016438
 30
0.0
 11
6.600054785286829
 21
-1.261213355974178E-13
 31
0.0
210
0.0
220
0.0
230
1.0
 40
0.636358354079598
 41
0.9219305317359503
 42
6.513795318482858
  0
ELLIPSE
  5
86
330
82
100
AcDbEntity
  8
중심선
100
AcDbEllipse
 10
20.54032771746488
 20
12.04717430159265
 30
0.0
 11
3.960054785062283
 21
1.540847449632565E-10
 31
0.0
210
0.0
220
0.0
230
1.0
 40
0.3939339440162632
 41
1.131841032648279
 42
5.62031148352944
  0
LINE
  5
87
330
82
100
AcDbEntity
  8
중심선
100
AcDbLine
 10
2.268634060543552
 20
16.24717430164393
 30
0.0
 11
5.714909304380834
 21
16.24717430164393
 31
0.0
  0
LINE
  5
88
330
82
100
AcDbEntity
  8
중심선
100
AcDbLine
 10
5.245725140726316
 20
7.84717430164391
 30
0.0
 11
8.692000384563599
 21
7.84717430164391
 31
0.0
  0
LINE
  5
89
330
82
100
AcDbEntity
  8
중심선
100
AcDbLine
 10
15.74043728645272
 20
16.24717430164393
 30
0.0
 11
8.692000384563599
 21
7.84717430164391
 31
0.0
  0
LINE
  5
8A
330
82
100
AcDbEntity
  8
중심선
100
AcDbLine
 10
0.1404042013395286
 20
13.71084872107135
 30
0.0
 11
3.58671253028996
 21
13.71088815037384
 31
0.0
  0
LINE
  5
8B
330
82
100
AcDbEntity
  8
중심선
100
AcDbLine
 10
2.750260043222114
 20
10.84717430164391
 30
0.0
 11
6.196535287059397
 21
10.84717430164391
 31
0.0
  0
LINE
  5
8C
330
82
100
AcDbEntity
  8
중심선
100
AcDbLine
 10
12.29416204261559
 20
16.24717430164393
 30
0.0
 11
5.245725140726316
 21
7.84717430164391
 31
0.0
  0
LINE
  5
8D
330
82
100
AcDbEntity
  8
중심선
100
AcDbLine
 10
10.72767329541681
 20
16.24717430164393
 30
0.0
 11
6.196535287059397
 21
10.84717430164391
 31
0.0
  0
LINE
  5
8E
330
82
100
AcDbEntity
  8
중심선
100
AcDbLine
 10
7.28139805157953
 20
16.24717430164393
 30
0.0
 11
2.750260043222114
 21
10.84717430164391
 31
0.0
  0
LINE
  5
8F
330
82
100
AcDbEntity
  8
중심선
100
AcDbLine
 10
5.714909304380834
 20
16.24717430164393
 30
0.0
 11
3.58671253028996
 21
13.71088815037384
 31
0.0
  0
LINE
  5
90
330
82
100
AcDbEntity
  8
중심선
100
AcDbLine
 10
2.268634060543552
 20
16.24717430164393
 30
0.0
 11
0.1404042013395286
 21
13.71084872107135
 31
0.0
  0
LINE
  5
91
330
82
100
AcDbEntity
  8
중심선
100
AcDbLine
 10
7.28139805157953
 20
16.24717430164393
 30
0.0
 11
10.72767329541681
 21
16.24717430164393
 31
0.0
  0
LINE
  5
92
330
82
100
AcDbEntity
  8
중심선
100
AcDbLine
 10
12.29416204261559
 20
16.24717430164393
 30
0.0
 11
15.74043728645272
 21
16.24717430164393
 31
0.0
  0
LINE
  5
93
330
82
100
AcDbEntity
  8
중심선
100
AcDbLine
 10
19.22036997980202
 20
11.08717430171403
 30
0.0
 11
23.66174974927406
 21
11.08717430171406
 31
0.0
  0
LINE
  5
94
330
82
100
AcDbEntity
  8
중심선
100
AcDbLine
 10
19.22039502424796
 20
13.00717430171391
 30
0.0
 11
19.22036997980202
 21
11.08717430171403
 31
0.0
  0
LINE
  5
95
330
82
100
AcDbEntity
  8
중심선
100
AcDbLine
 10
19.22039502424796
 20
13.00717430171391
 30
0.0
 11
26.96566020931264
 21
13.00717430171391
 31
0.0
  0
LINE
  5
96
330
82
100
AcDbEntity
  8
중심선
100
AcDbLine
 10
22.22332737316547
 20
13.45928029700563
 30
0.0
 11
24.52862924686651
 21
15.39360700705356
 31
0.0
  0
ATTDEF
  5
98
330
82
100
AcDbEntity
  8
FORMAT
 62
     2
100
AcDbText
 10
-16.11926103943555
 20
2.075366912832191
 30
0.0
 40
4.233333333333333
  1
SEME7302540E [ 4 FLUTE ]
 41
0.75
  7
SLDTEXTSTYLE0
 11
-16.11926103943555
 21
-0.0412997538344756
 31
0.0
100
AcDbAttributeDefinition
  3

  2
AUTOATTR0
 70
     0
 74
     1
  0
ENDBLK
  5
84
330
82
100
AcDbEntity
  8
0
100
AcDbBlockEnd
  0
BLOCK
  5
DD
330
DC
100
AcDbEntity
  8
0
100
AcDbBlockBegin
  2
_D
 70
     0
 10
0.0
 20
0.0
 30
0.0
  3
_D
  1

  0
LINE
  5
DF
330
DC
100
AcDbEntity
  8
치수문자_일반주서
 62
     0
370
    -2
100
AcDbLine
 10
43.04814064605515
 20
-1.250000000000005
 30
0.0
 11
51.60860854068692
 21
-1.249999999999973
 31
0.0
  0
LINE
  5
E0
330
DC
100
AcDbEntity
  8
치수문자_일반주서
 62
     0
370
    -2
100
AcDbLine
 10
43.04814064605515
 20
1.250000000000005
 30
0.0
 11
51.60860854068691
 21
1.250000000000037
 31
0.0
  0
LINE
  5
E1
330
DC
100
AcDbEntity
  8
치수문자_일반주서
 62
     0
370
    -2
100
AcDbLine
 10
51.60860854068691
 20
1.250000000000037
 30
0.0
 11
51.60860854068686
 21
17.47900000000003
 31
0.0
  0
LINE
  5
E2
330
DC
100
AcDbEntity
  8
치수문자_일반주서
 62
     0
370
    -2
100
AcDbLine
 10
51.60860854068692
 20
-1.249999999999973
 30
0.0
 11
51.60860854068691
 21
1.250000000000037
 31
0.0
  0
LINE
  5
E3
330
DC
100
AcDbEntity
  8
치수문자_일반주서
 62
     0
370
    -2
100
AcDbLine
 10
51.60860854068692
 20
-4.551999999999973
 30
0.0
 11
51.60860854068693
 21
-7.853999999999973
 31
0.0
  0
LINE
  5
E4
330
DC
100
AcDbEntity
  8
치수문자_일반주서
 62
     0
370
    -2
100
AcDbLine
 10
51.6086085406869
 20
4.552000000000037
 30
0.0
 11
51.60860854068689
 21
7.854000000000037
 31
0.0
  0
SOLID
  5
E5
330
DC
100
AcDbEntity
  8
치수문자_일반주서
 62
     0
100
AcDbTrace
 10
52.15894187402026
 20
-4.551999999999971
 30
0.0
 11
51.05827520735359
 21
-4.551999999999975
 31
0.0
 12
51.60860854068692
 22
-1.249999999999973
 32
0.0
 13
51.60860854068692
 23
-1.249999999999973
 33
0.0
  0
SOLID
  5
E6
330
DC
100
AcDbEntity
  8
치수문자_일반주서
 62
     0
100
AcDbTrace
 10
51.05827520735357
 20
4.552000000000035
 30
0.0
 11
52.15894187402024
 21
4.552000000000039
 31
0.0
 12
51.60860854068691
 22
1.250000000000037
 32
0.0
 13
51.60860854068691
 23
1.250000000000037
 33
0.0
  0
MTEXT
  5
E7
330
DC
100
AcDbEntity
  8
치수문자_일반주서
 62
     0
100
AcDbMText
 10
47.23360854068687
 20
12.66650000000002
 30
0.0
 40
3.5
 41
0.0
 71
     2
 72
     1
  1
\A1;%%c2.5
  7
SLDTEXTSTYLE0
 11
-2.842170943040389E-15
 21
1.0
 31
0.0
 73
     1
 44
1.0
  0
POINT
  5
147
330
DC
100
AcDbEntity
  8
Defpoints
 62
     0
100
AcDbPoint
 10
42.98564064605515
 20
-1.250000000000005
 30
0.0
  0
POINT
  5
148
330
DC
100
AcDbEntity
  8
Defpoints
 62
     0
100
AcDbPoint
 10
42.98564064605515
 20
1.250000000000005
 30
0.0
  0
POINT
  5
149
330
DC
100
AcDbEntity
  8
Defpoints
 62
     0
100
AcDbPoint
 10
51.6086085406869
 20
1.250000000000037
 30
0.0
  0
ENDBLK
  5
DE
330
DC
100
AcDbEntity
  8
0
100
AcDbBlockEnd
  0
BLOCK
  5
EB
330
EA
100
AcDbEntity
  8
0
100
AcDbBlockBegin
  2
_D_1
 70
     0
 10
0.0
 20
0.0
 30
0.0
  3
_D_1
  1

  0
LINE
  5
ED
330
EA
100
AcDbEntity
  8
치수문자_일반주서
 62
     0
370
    -2
100
AcDbLine
 10
-37.01435935394487
 20
1.562499999999991
 30
0.0
 11
-37.01435935394487
 21
36.00000000000001
 31
0.0
  0
LINE
  5
EE
330
EA
100
AcDbEntity
  8
치수문자_일반주서
 62
     0
370
    -2
100
AcDbLine
 10
42.98564064605513
 20
1.306234296383276
 30
0.0
 11
42.98564064605513
 21
36.00000000000001
 31
0.0
  0
LINE
  5
EF
330
EA
100
AcDbEntity
  8
치수문자_일반주서
 62
     0
370
    -2
100
AcDbLine
 10
-33.71235935394487
 20
36.00000000000001
 30
0.0
 11
39.68364064605513
 21
36.00000000000001
 31
0.0
  0
SOLID
  5
F0
330
EA
100
AcDbEntity
  8
치수문자_일반주서
 62
     0
100
AcDbTrace
 10
-33.71235935394487
 20
36.55033333333335
 30
0.0
 11
-33.71235935394487
 21
35.44966666666668
 31
0.0
 12
-37.01435935394487
 22
36.00000000000001
 32
0.0
 13
-37.01435935394487
 23
36.00000000000001
 33
0.0
  0
SOLID
  5
F1
330
EA
100
AcDbEntity
  8
치수문자_일반주서
 62
     0
100
AcDbTrace
 10
39.68364064605513
 20
35.44966666666668
 30
0.0
 11
39.68364064605513
 21
36.55033333333335
 31
0.0
 12
42.98564064605513
 22
36.00000000000001
 32
0.0
 13
42.98564064605513
 23
36.00000000000001
 33
0.0
  0
MTEXT
  5
F2
330
EA
100
AcDbEntity
  8
치수문자_일반주서
 62
     0
100
AcDbMText
 10
2.985640646055147
 20
40.37500000000001
 30
0.0
 40
3.5
 41
0.0
 71
     2
 72
     1
  1
\A1;80
  7
SLDTEXTSTYLE0
 73
     1
 44
1.0
  0
POINT
  5
142
330
EA
100
AcDbEntity
  8
Defpoints
 62
     0
100
AcDbPoint
 10
-37.01435935394487
 20
1.499999999999991
 30
0.0
  0
POINT
  5
143
330
EA
100
AcDbEntity
  8
Defpoints
 62
     0
100
AcDbPoint
 10
42.98564064605513
 20
1.243734296383276
 30
0.0
  0
POINT
  5
144
330
EA
100
AcDbEntity
  8
Defpoints
 62
     0
100
AcDbPoint
 10
42.98564064605513
 20
36.00000000000001
 30
0.0
  0
ENDBLK
  5
EC
330
EA
100
AcDbEntity
  8
0
100
AcDbBlockEnd
  0
BLOCK
  5
F6
330
F5
100
AcDbEntity
  8
0
100
AcDbBlockBegin
  2
_D_2
 70
     0
 10
0.0
 20
0.0
 30
0.0
  3
_D_2
  1

  0
LINE
  5
F8
330
F5
100
AcDbEntity
  8
치수문자_일반주서
 62
     0
370
    -2
100
AcDbLine
 10
-36.57685935394487
 20
1.999999999999974
 30
0.0
 11
-50.50699891556476
 21
1.999999999999923
 31
0.0
  0
LINE
  5
F9
330
F5
100
AcDbEntity
  8
치수문자_일반주서
 62
     0
370
    -2
100
AcDbLine
 10
-36.57685935394487
 20
-2.000000000000001
 30
0.0
 11
-50.50699891556475
 21
-2.000000000000053
 31
0.0
  0
LINE
  5
FA
330
F5
100
AcDbEntity
  8
치수문자_일반주서
 62
     0
370
    -2
100
AcDbLine
 10
-50.50699891556475
 20
-1.302000000000077
 30
0.0
 11
-50.50699891556476
 21
1.301999999999947
 31
0.0
  0
SOLID
  5
FB
330
F5
100
AcDbEntity
  8
치수문자_일반주서
 62
     0
100
AcDbTrace
 10
-49.95666558223142
 20
-1.302000000000075
 30
0.0
 11
-51.05733224889808
 21
-1.302000000000079
 31
0.0
 12
-50.50699891556476
 22
1.999999999999923
 32
0.0
 13
-50.50699891556476
 23
1.999999999999923
 33
0.0
  0
SOLID
  5
FC
330
F5
100
AcDbEntity
  8
치수문자_일반주서
 62
     0
100
AcDbTrace
 10
-51.0573322488981
 20
1.301999999999945
 30
0.0
 11
-49.95666558223143
 21
1.301999999999949
 31
0.0
 12
-50.50699891556475
 22
-2.000000000000053
 32
0.0
 13
-50.50699891556475
 23
-2.000000000000053
 33
0.0
  0
MTEXT
  5
FD
330
F5
100
AcDbEntity
  8
치수문자_일반주서
 62
     0
100
AcDbMText
 10
-54.88199891556476
 20
-0.7264638992031232
 30
0.0
 40
3.5
 41
0.0
 71
     2
 72
     1
  1
\A1;%%c4
  7
SLDTEXTSTYLE0
 11
-3.552713678800522E-15
 21
1.0
 31
0.0
 73
     1
 44
1.0
  0
POINT
  5
FE
330
F5
100
AcDbEntity
  8
Defpoints
 62
     0
100
AcDbPoint
 10
-36.51435935394487
 20
1.999999999999975
 30
0.0
  0
POINT
  5
FF
330
F5
100
AcDbEntity
  8
Defpoints
 62
     0
100
AcDbPoint
 10
-36.51435935394487
 20
-2.000000000000001
 30
0.0
  0
POINT
  5
100
330
F5
100
AcDbEntity
  8
Defpoints
 62
     0
100
AcDbPoint
 10
-50.50699891556474
 20
-2.000000000000053
 30
0.0
  0
ENDBLK
  5
F7
330
F5
100
AcDbEntity
  8
0
100
AcDbBlockEnd
  0
BLOCK
  5
103
330
102
100
AcDbEntity
  8
0
100
AcDbBlockBegin
  2
_D_3
 70
     0
 10
0.0
 20
0.0
 30
0.0
  3
_D_3
  1

  0
LINE
  5
105
330
102
100
AcDbEntity
  8
치수문자_일반주서
 62
     0
370
    -2
100
AcDbLine
 10
38.98564064605515
 20
1.155590015307331
 30
0.0
 11
38.98564064605515
 21
19.97306760287244
 31
0.0
  0
LINE
  5
106
330
102
100
AcDbEntity
  8
치수문자_일반주서
 62
     0
370
    -2
100
AcDbLine
 10
42.98564064605513
 20
1.293845709663677
 30
0.0
 11
42.98564064605513
 21
19.97306760287244
 31
0.0
  0
LINE
  5
107
330
102
100
AcDbEntity
  8
치수문자_일반주서
 62
     0
370
    -2
100
AcDbLine
 10
42.98564064605513
 20
19.97306760287244
 30
0.0
 11
53.08964064605514
 21
19.97306760287244
 31
0.0
  0
LINE
  5
108
330
102
100
AcDbEntity
  8
치수문자_일반주서
 62
     0
370
    -2
100
AcDbLine
 10
42.28764064605515
 20
19.97306760287244
 30
0.0
 11
39.68364064605513
 21
19.97306760287244
 31
0.0
  0
LINE
  5
109
330
102
100
AcDbEntity
  8
치수문자_일반주서
 62
     0
370
    -2
100
AcDbLine
 10
39.68364064605513
 20
19.97306760287244
 30
0.0
 11
36.38164064605513
 21
19.97306760287244
 31
0.0
  0
SOLID
  5
10A
330
102
100
AcDbEntity
  8
치수문자_일반주서
 62
     0
100
AcDbTrace
 10
42.28764064605515
 20
20.52340093620578
 30
0.0
 11
42.28764064605515
 21
19.42273426953911
 31
0.0
 12
38.98564064605515
 22
19.97306760287244
 32
0.0
 13
38.98564064605515
 23
19.97306760287244
 33
0.0
  0
SOLID
  5
10B
330
102
100
AcDbEntity
  8
치수문자_일반주서
 62
     0
100
AcDbTrace
 10
39.68364064605513
 20
19.42273426953911
 30
0.0
 11
39.68364064605513
 21
20.52340093620578
 31
0.0
 12
42.98564064605513
 22
19.97306760287244
 32
0.0
 13
42.98564064605513
 23
19.97306760287244
 33
0.0
  0
MTEXT
  5
10C
330
102
100
AcDbEntity
  8
치수문자_일반주서
 62
     0
100
AcDbMText
 10
51.33964064605514
 20
24.34806760287244
 30
0.0
 40
3.5
 41
0.0
 71
     2
 72
     1
  1
\A1;4
  7
SLDTEXTSTYLE0
 73
     1
 44
1.0
  0
POINT
  5
145
330
102
100
AcDbEntity
  8
Defpoints
 62
     0
100
AcDbPoint
 10
38.98564064605515
 20
1.093090015307331
 30
0.0
  0
POINT
  5
14A
330
102
100
AcDbEntity
  8
Defpoints
 62
     0
100
AcDbPoint
 10
42.98564064605513
 20
1.231345709663677
 30
0.0
  0
POINT
  5
14B
330
102
100
AcDbEntity
  8
Defpoints
 62
     0
100
AcDbPoint
 10
42.98564064605513
 20
19.97306760287244
 30
0.0
  0
ENDBLK
  5
104
330
102
100
AcDbEntity
  8
0
100
AcDbBlockEnd
  0
BLOCK
  5
10F
330
10E
100
AcDbEntity
  8
0
100
AcDbBlockBegin
  2
_D_4
 70
     0
 10
0.0
 20
0.0
 30
0.0
  3
_D_4
  1

  0
LINE
  5
111
330
10E
100
AcDbEntity
  8
치수문자_일반주서
 62
     0
370
    -2
100
AcDbLine
 10
42.98564064605513
 20
1.306234296383276
 30
0.0
 11
42.98564064605513
 21
25.94352382273745
 31
0.0
  0
LINE
  5
112
330
10E
100
AcDbEntity
  8
치수문자_일반주서
 62
     0
370
    -2
100
AcDbLine
 10
2.98564064605514
 20
1.262499999999992
 30
0.0
 11
2.985640646055138
 21
25.94352382273745
 31
0.0
  0
LINE
  5
113
330
10E
100
AcDbEntity
  8
치수문자_일반주서
 62
     0
370
    -2
100
AcDbLine
 10
39.68364064605513
 20
25.94352382273745
 30
0.0
 11
6.287640646055138
 21
25.94352382273745
 31
0.0
  0
SOLID
  5
114
330
10E
100
AcDbEntity
  8
치수문자_일반주서
 62
     0
100
AcDbTrace
 10
39.68364064605513
 20
25.39319048940412
 30
0.0
 11
39.68364064605513
 21
26.49385715607079
 31
0.0
 12
42.98564064605513
 22
25.94352382273745
 32
0.0
 13
42.98564064605513
 23
25.94352382273745
 33
0.0
  0
SOLID
  5
115
330
10E
100
AcDbEntity
  8
치수문자_일반주서
 62
     0
100
AcDbTrace
 10
6.287640646055138
 20
26.49385715607079
 30
0.0
 11
6.287640646055138
 21
25.39319048940412
 31
0.0
 12
2.985640646055138
 22
25.94352382273745
 32
0.0
 13
2.985640646055138
 23
25.94352382273745
 33
0.0
  0
MTEXT
  5
116
330
10E
100
AcDbEntity
  8
치수문자_일반주서
 62
     0
100
AcDbMText
 10
23.88426315400859
 20
30.31852382273745
 30
0.0
 40
3.5
 41
0.0
 71
     2
 72
     1
  1
\A1;40
  7
SLDTEXTSTYLE0
 73
     1
 44
1.0
  0
POINT
  5
14C
330
10E
100
AcDbEntity
  8
Defpoints
 62
     0
100
AcDbPoint
 10
42.98564064605513
 20
1.243734296383276
 30
0.0
  0
POINT
  5
14D
330
10E
100
AcDbEntity
  8
Defpoints
 62
     0
100
AcDbPoint
 10
2.98564064605514
 20
1.199999999999992
 30
0.0
  0
POINT
  5
14E
330
10E
100
AcDbEntity
  8
Defpoints
 62
     0
100
AcDbPoint
 10
2.98564064605514
 20
25.94352382273745
 30
0.0
  0
ENDBLK
  5
110
330
10E
100
AcDbEntity
  8
0
100
AcDbBlockEnd
  0
BLOCK
  5
118
330
117
100
AcDbEntity
  8
0
100
AcDbBlockBegin
  2
SW_DOWELSYMBOL_0
 70
     0
 10
0.0
 20
0.0
 30
0.0
  3
SW_DOWELSYMBOL_0
  1

  0
CIRCLE
  5
11A
330
117
100
AcDbEntity
  8
해칭선
 62
     0
100
AcDbCircle
 10
0.0
 20
0.0
 30
0.0
 40
3.000000000000003
  0
HATCH
  5
11B
330
117
100
AcDbEntity
  8
0
  6
Continuous
 62
     0
370
    18
100
AcDbHatch
 10
0.0
 20
0.0
 30
0.0
210
0.0
220
0.0
230
1.0
  2
SOLID
 70
     1
 71
     0
 91
        1
 92
        0
 93
        3
 72
     2
 10
-0.0000000000000017
 20
-0.0000000000000035
 40
3.000000000000003
 50
0.0
 51
90.0
 73
     1
 72
     1
 10
-0.0000000000000017
 20
2.999999999999999
 11
-0.0000000000000017
 21
-0.0000000000000036
 72
     1
 10
-0.0000000000000017
 20
-0.0000000000000035
 11
3.000000000000001
 21
-0.0000000000000035
 97
        0
 75
     0
 76
     1
 98
        1
 10
0.0
 20
0.0
  0
HATCH
  5
11C
330
117
100
AcDbEntity
  8
0
  6
Continuous
 62
     0
370
    18
100
AcDbHatch
 10
0.0
 20
0.0
 30
0.0
210
0.0
220
0.0
230
1.0
  2
SOLID
 70
     1
 71
     0
 91
        1
 92
        0
 93
        3
 72
     2
 10
-0.0000000000000017
 20
-0.0000000000000035
 40
3.000000000000003
 50
180.0
 51
270.0000000000007
 73
     1
 72
     1
 10
-0.0000000000000017
 20
-3.000000000000006
 11
-0.0000000000000017
 21
-0.0000000000000036
 72
     1
 10
-0.0000000000000017
 20
-0.0000000000000035
 11
-3.000000000000004
 21
-0.0000000000000035
 97
        0
 75
     0
 76
     1
 98
        1
 10
0.0
 20
0.0
  0
ENDBLK
  5
119
330
117
100
AcDbEntity
  8
0
100
AcDbBlockEnd
  0
ENDSEC
  0
SECTION
  2
ENTITIES
  0
LINE
  5
99
330
1F
100
AcDbEntity
  8
0
  6
Continuous
 62
     4
370
    25
100
AcDbLine
 10
0.0000000000000124
 20
1.999999999999998
 30
0.0
 11
-36.51435935394487
 21
1.999999999999988
 31
0.0
  0
LINE
  5
9A
330
1F
100
AcDbEntity
  8
0
  6
Continuous
 62
     4
370
    25
100
AcDbLine
 10
-36.51435935394487
 20
-2.000000000000004
 30
0.0
 11
-0.0000000000000053
 21
-1.999999999999993
 31
0.0
  0
LINE
  5
9B
330
1F
100
AcDbEntity
  8
0
  6
Continuous
 62
     4
370
    25
100
AcDbLine
 10
-36.51435935394487
 20
1.99999999999999
 30
0.0
 11
-37.01435935394487
 21
1.499999999999991
 31
0.0
  0
LINE
  5
9C
330
1F
100
AcDbEntity
  8
0
  6
Continuous
 62
     4
370
    25
100
AcDbLine
 10
-37.01435935394487
 20
-1.500000000000008
 30
0.0
 11
-36.51435935394487
 21
-2.000000000000007
 31
0.0
  0
LINE
  5
9D
330
1F
100
AcDbEntity
  8
0
  6
Continuous
 62
     4
370
    25
100
AcDbLine
 10
0.0
 20
-1.999999999999993
 30
0.0
 11
2.98564064605514
 21
-1.199999999999983
 31
0.0
  0
LINE
  5
9F
330
1F
100
AcDbEntity
  8
0
  6
Continuous
 62
     4
370
    25
100
AcDbLine
 10
38.17939546545544
 20
1.200000000000002
 30
0.0
 11
2.98564064605514
 21
1.199999999999991
 31
0.0
  0
LINE
  5
A0
330
1F
100
AcDbEntity
  8
0
  6
Continuous
 62
     4
370
    25
100
AcDbLine
 10
2.98564064605514
 20
-1.199999999999983
 30
0.0
 11
38.17939546545544
 21
-1.199999999999972
 31
0.0
  0
LINE
  5
A1
330
1F
100
AcDbEntity
  8
0
  6
Continuous
 62
     1
370
    25
100
AcDbLine
 10
42.61442833821621
 20
-1.249999999999999
 30
0.0
 11
42.80712214521238
 21
-1.249999999999999
 31
0.0
1001
PE_URL
1000

  0
LINE
  5
A2
330
1F
100
AcDbEntity
  8
0
  6
Continuous
 62
     4
370
    25
100
AcDbLine
 10
40.46281454129213
 20
0.2125831791516832
 30
0.0
 11
40.51175894640822
 21
0.1786461451679094
 31
0.0
  0
LINE
  5
A3
330
1F
100
AcDbEntity
  8
0
  6
Continuous
 62
     1
370
    25
100
AcDbLine
 10
42.79922804895376
 20
-0.1382956146622702
 30
0.0
 11
42.77678481063349
 21
-0.1210929745571221
 31
0.0
1001
PE_URL
1000

  0
SPLINE
  5
A4
330
1F
100
AcDbEntity
  8
0
  6
Continuous
 62
     1
370
    25
100
AcDbSpline
210
0.0
220
0.0
230
1.0
 70
     8
 71
     3
 72
     9
 73
     5
 74
     0
 42
0.000000001
 43
0.00000001
 40
0.0
 40
0.0
 40
0.0
 40
0.0
 40
0.5607479318986267
 40
1.0
 40
1.0
 40
1.0
 40
1.0
 10
42.98564064605513
 20
-0.2782892567090469
 30
0.0
 10
42.95121478013412
 20
-0.2531357408272995
 30
0.0
 10
42.88982201528798
 20
-0.2082786589713208
 30
0.0
 10
42.82687684512489
 20
-0.1596540671711016
 30
0.0
 10
42.79922804895376
 20
-0.1382956146622702
 30
0.0
1001
PE_URL
1000

  0
LINE
  5
A5
330
1F
100
AcDbEntity
  8
0
  6
Continuous
 62
     1
370
    25
100
AcDbLine
 10
40.74947066170733
 20
1.250000000000001
 30
0.0
 11
40.0104238993386
 21
1.250000000000001
 31
0.0
  0
LINE
  5
A6
330
1F
100
AcDbEntity
  8
0
  6
Continuous
 62
     4
370
    25
100
AcDbLine
 10
39.79955650137671
 20
-0.4280661462229676
 30
0.0
 11
39.79981097294415
 21
-0.4273299979495592
 31
0.0
  0
LINE
  5
A7
330
1F
100
AcDbEntity
  8
0
  6
Continuous
 62
     1
370
    25
100
AcDbLine
 10
42.80712214521238
 20
1.250000000000001
 30
0.0
 11
42.61442833821621
 21
1.250000000000001
 31
0.0
1001
PE_URL
1000

  0
LINE
  5
A8
330
1F
100
AcDbEntity
  8
0
  6
Continuous
 62
     4
370
    25
100
AcDbLine
 10
0.0
 20
1.999999999999993
 30
0.0
 11
0.0
 21
-1.999999999999993
 31
0.0
  0
LINE
  5
A9
330
1F
100
AcDbEntity
  8
0
  6
Continuous
 62
     4
370
    25
100
AcDbLine
 10
-36.51435935394487
 20
1.999999999999991
 30
0.0
 11
-36.51435935394487
 21
-2.000000000000007
 31
0.0
  0
LINE
  5
AA
330
1F
100
AcDbEntity
  8
0
  6
Continuous
 62
     4
370
    25
100
AcDbLine
 10
-37.01435935394487
 20
1.499999999999991
 30
0.0
 11
-37.01435935394487
 21
-1.500000000000007
 31
0.0
  0
LINE
  5
AB
330
1F
100
AcDbEntity
  8
0
  6
Continuous
 62
     4
370
    25
100
AcDbLine
 10
2.98564064605514
 20
1.199999999999992
 30
0.0
 11
2.98564064605514
 21
-1.199999999999983
 31
0.0
  0
SPLINE
  5
AC
330
1F
100
AcDbEntity
  8
0
  6
Continuous
 62
     4
370
    25
100
AcDbSpline
210
0.0
220
0.0
230
1.0
 70
     8
 71
     3
 72
    10
 73
     6
 74
     0
 42
0.000000001
 43
0.00000001
 40
0.0
 40
0.0
 40
0.0
 40
0.0
 40
0.5
 40
0.5
 40
1.0
 40
1.0
 40
1.0
 40
1.0
 10
38.23328879078562
 20
-0.0547635927484046
 30
0.0
 10
38.1876629688415
 20
-0.0218983494477814
 30
0.0
 10
38.15178234252031
 20
0.0227576360013062
 30
0.0
 10
38.1056420872695
 20
0.1234925860318174
 30
0.0
 10
38.09563114509712
 20
0.1791855007684429
 30
0.0
 10
38.09563114509715
 20
0.2341885898537736
 30
0.0
  0
SPLINE
  5
AD
330
1F
100
AcDbEntity
  8
0
  6
Continuous
 62
     4
370
    25
100
AcDbSpline
210
0.0
220
0.0
230
1.0
 70
     8
 71
     3
 72
    14
 73
    10
 74
     0
 42
0.000000001
 43
0.00000001
 40
0.0
 40
0.0
 40
0.0
 40
0.0
 40
0.2500000000000001
 40
0.2500000000000001
 40
0.5000000000000002
 40
0.5000000000000002
 40
0.7500000000000001
 40
0.7500000000000001
 40
1.0
 40
1.0
 40
1.0
 40
1.0
 10
38.09563114509715
 20
0.6727627914077682
 30
0.0
 10
38.09563114509715
 20
0.7237749510826637
 30
0.0
 10
38.10794242865411
 20
0.7718698572166663
 30
0.0
 10
38.1636463583386
 20
0.8512273554860467
 30
0.0
 10
38.20710332380087
 20
0.8827522961401638
 30
0.0
 10
38.31399272267571
 20
0.9233206974368666
 30
0.0
 10
38.37552439700848
 20
0.9322870998737197
 30
0.0
 10
38.49770666375906
 20
0.9284463309572818
 30
0.0
 10
38.55790077709447
 20
0.9155252048260138
 30
0.0
 10
38.60803721752794
 20
0.8913068457027139
 30
0.0
  0
SPLINE
  5
AE
330
1F
100
AcDbEntity
  8
0
  6
Continuous
 62
     4
370
    25
100
AcDbSpline
210
0.0
220
0.0
230
1.0
 70
     8
 71
     3
 72
    10
 73
     6
 74
     0
 42
0.000000001
 43
0.00000001
 40
0.0
 40
0.0
 40
0.0
 40
0.0
 40
0.5
 40
0.5
 40
1.0
 40
1.0
 40
1.0
 40
1.0
 10
38.23328879078562
 20
-1.198749744070571
 30
0.0
 10
38.1876629688415
 20
-1.200251157362708
 30
0.0
 10
38.15178234252033
 20
-1.200844880945394
 30
0.0
 10
38.1056420872695
 20
-1.194694906360741
 30
0.0
 10
38.09563114509712
 20
-1.187871071450968
 30
0.0
 10
38.09563114509715
 20
-1.17692638018792
 30
0.0
  0
SPLINE
  5
AF
330
1F
100
AcDbEntity
  8
0
  6
Continuous
 62
     4
370
    25
100
AcDbSpline
210
0.0
220
0.0
230
1.0
 70
     8
 71
     3
 72
    10
 73
     6
 74
     0
 42
0.000000001
 43
0.00000001
 40
0.0
 40
0.0
 40
0.0
 40
0.0
 40
0.5
 40
0.5
 40
1.0
 40
1.0
 40
1.0
 40
1.0
 10
38.98564064605139
 20
-1.053563998211604
 30
0.0
 10
38.86090831880195
 20
-1.096911390857412
 30
0.0
 10
38.7331579398728
 20
-1.131488784139685
 30
0.0
 10
38.48136846844823
 20
-1.18028931123695
 30
0.0
 10
38.35928729772952
 20
-1.194603499136142
 30
0.0
 10
38.23328879078562
 20
-1.198749744070571
 30
0.0
  0
LINE
  5
B0
330
1F
100
AcDbEntity
  8
0
  6
Continuous
 62
     4
370
    25
100
AcDbLine
 10
38.23328879078562
 20
1.198749744070574
 30
0.0
 11
38.17939546545544
 21
1.199505955424467
 31
0.0
  0
SPLINE
  5
B1
330
1F
100
AcDbEntity
  8
0
  6
Continuous
 62
     4
370
    25
100
AcDbSpline
210
0.0
220
0.0
230
1.0
 70
     8
 71
     3
 72
    10
 73
     6
 74
     0
 42
0.000000001
 43
0.00000001
 40
0.0
 40
0.0
 40
0.0
 40
0.0
 40
0.5
 40
0.5
 40
1.0
 40
1.0
 40
1.0
 40
1.0
 10
38.98564064605139
 20
1.05356399821161
 30
0.0
 10
38.86090831880195
 20
1.096911390857418
 30
0.0
 10
38.7331579398728
 20
1.13148878413969
 30
0.0
 10
38.48136846844823
 20
1.180289311236954
 30
0.0
 10
38.35928729772952
 20
1.194603499136145
 30
0.0
 10
38.23328879078562
 20
1.198749744070574
 30
0.0
  0
SPLINE
  5
B2
330
1F
100
AcDbEntity
  8
0
  6
Continuous
 62
     4
370
    25
100
AcDbSpline
210
0.0
220
0.0
230
1.0
 70
     8
 71
     3
 72
     8
 73
     4
 74
     0
 42
0.000000001
 43
0.00000001
 40
0.0
 40
0.0
 40
0.0
 40
0.0
 40
1.0
 40
1.0
 40
1.0
 40
1.0
 10
38.9856406460549
 20
0.687864605134066
 30
0.0
 10
38.86116393334333
 20
0.7619087980327386
 30
0.0
 10
38.73368153465374
 20
0.8306144796781918
 30
0.0
 10
38.60803721752794
 20
0.8913068457027169
 30
0.0
  0
LINE
  5
B3
330
1F
100
AcDbEntity
  8
0
  6
Continuous
 62
     4
370
    25
100
AcDbLine
 10
38.09563114509715
 20
0.6727627914077684
 30
0.0
 11
38.09563114509715
 21
0.2341885898537732
 31
0.0
  0
SPLINE
  5
B4
330
1F
100
AcDbEntity
  8
0
  6
Continuous
 62
     4
370
    25
100
AcDbSpline
210
0.0
220
0.0
230
1.0
 70
     8
 71
     3
 72
    10
 73
     6
 74
     0
 42
0.000000001
 43
0.00000001
 40
0.0
 40
0.0
 40
0.0
 40
0.0
 40
0.5
 40
0.5
 40
1.0
 40
1.0
 40
1.0
 40
1.0
 10
38.98564064605139
 20
-0.5744587902298474
 30
0.0
 10
38.86090831880195
 20
-0.4949591758368078
 30
0.0
 10
38.7331579398728
 20
-0.4098573670035591
 30
0.0
 10
38.48136846844823
 20
-0.2348767159613808
 30
0.0
 10
38.35928729772952
 20
-0.1455229787666782
 30
0.0
 10
38.23328879078562
 20
-0.0547635927484046
 30
0.0
  0
LINE
  5
B5
330
1F
100
AcDbEntity
  8
0
  6
Continuous
 62
     4
370
    25
100
AcDbLine
 10
38.98564064605515
 20
-0.5744587902322434
 30
0.0
 11
38.98564064605515
 21
-0.9832813864832247
 31
0.0
  0
SPLINE
  5
B6
330
1F
100
AcDbEntity
  8
0
  6
Continuous
 62
     4
370
    25
100
AcDbSpline
210
0.0
220
0.0
230
1.0
 70
     8
 71
     3
 72
     8
 73
     4
 74
     0
 42
0.000000001
 43
0.00000001
 40
0.0
 40
0.0
 40
0.0
 40
0.0
 40
1.0
 40
1.0
 40
1.0
 40
1.0
 10
38.98564064605491
 20
-0.9832813864829202
 30
0.0
 10
38.86116393334333
 20
-0.9314830099338688
 30
0.0
 10
38.73368153465374
 20
-0.8708019679859412
 30
0.0
 10
38.60803721752794
 20
-0.8034750194022793
 30
0.0
  0
SPLINE
  5
B7
330
1F
100
AcDbEntity
  8
0
  6
Continuous
 62
     4
370
    25
100
AcDbSpline
210
0.0
220
0.0
230
1.0
 70
     8
 71
     3
 72
    14
 73
    10
 74
     0
 42
0.000000001
 43
0.00000001
 40
0.0
 40
0.0
 40
0.0
 40
0.0
 40
0.2500000000000001
 40
0.2500000000000001
 40
0.5000000000000002
 40
0.5000000000000002
 40
0.7500000000000002
 40
0.7500000000000002
 40
1.0
 40
1.0
 40
1.0
 40
1.0
 10
38.09563114509715
 20
-0.9936751111390432
 30
0.0
 10
38.09563114509715
 20
-0.9591375821681494
 30
0.0
 10
38.10794242865413
 20
-0.920390323544933
 30
0.0
 10
38.16364635833862
 20
-0.8475337240647496
 30
0.0
 10
38.20710332380087
 20
-0.8134476520136648
 30
0.0
 10
38.31399272267571
 20
-0.7670903392638826
 30
0.0
 10
38.37552439700848
 20
-0.7555461656948984
 30
0.0
 10
38.49770666375906
 20
-0.7602609128576687
 30
0.0
 10
38.55790077709447
 20
-0.7766092317212215
 30
0.0
 10
38.60803721752794
 20
-0.8034750194022644
 30
0.0
  0
LINE
  5
B8
330
1F
100
AcDbEntity
  8
0
  6
Continuous
 62
     4
370
    25
100
AcDbLine
 10
38.09563114509715
 20
-0.9936751111390436
 30
0.0
 11
38.09563114509715
 21
-1.176926380187931
 31
0.0
  0
SPLINE
  5
B9
330
1F
100
AcDbEntity
  8
0
  6
Continuous
 62
     4
370
    25
100
AcDbSpline
210
0.0
220
0.0
230
1.0
 70
    24
 71
     3
 72
    16
 73
    12
 74
     0
 42
0.000000001
 43
0.00000001
 40
0.0
 40
0.0
 40
0.0
 40
0.0
 40
0.1250000000000001
 40
0.1250000000000001
 40
0.2500000000000002
 40
0.2500000000000002
 40
0.5000000000000001
 40
0.5000000000000001
 40
0.75
 40
0.75
 40
1.0
 40
1.0
 40
1.0
 40
1.0
 10
38.98564064605515
 20
0.6878646051347825
 30
0.0
 10
38.98564064605513
 20
0.6597578789904465
 30
0.0
 10
38.98564064605513
 20
0.6303837170509955
 30
0.0
 10
38.98564064605513
 20
0.5619939511421989
 30
0.0
 10
38.98564064605513
 20
0.5238455979746235
 30
0.0
 10
38.98564064605515
 20
0.3961794121432977
 30
0.0
 10
38.98564064605515
 20
0.2926188750156353
 30
0.0
 10
38.98564064605515
 20
0.0537774343638799
 30
0.0
 10
38.98564064605515
 20
-0.0818941310294173
 30
0.0
 10
38.98564064605515
 20
-0.3479114303949666
 30
0.0
 10
38.98564064605515
 20
-0.4765528534192525
 30
0.0
 10
38.98564064605515
 20
-0.574458790232243
 30
0.0
  0
ELLIPSE
  5
BA
330
1F
100
AcDbEntity
  8
0
  6
Continuous
 62
     1
370
    25
100
AcDbEllipse
 10
42.80712214521238
 20
0.0000000000000013
 30
0.0
 11
1.785185008427637
 21
2.186221106456750E-16
 31
0.0
210
0.0
220
0.0
230
1.0
 40
0.7002075382097122
 41
4.457431239409859
 42
4.812556401546257
1001
PE_URL
1000

  0
SPLINE
  5
BB
330
1F
100
AcDbEntity
  8
0
  6
Continuous
 62
     1
370
    25
100
AcDbSpline
210
0.0
220
0.0
230
1.0
 70
     8
 71
     3
 72
    14
 73
    10
 74
     0
 42
0.000000001
 43
0.00000001
 40
0.0
 40
0.0
 40
0.0
 40
0.0
 40
0.1543597662418557
 40
0.3085838028891743
 40
0.4627592113119061
 40
0.6169737692736916
 40
0.7786244571033143
 40
0.9403689106310836
 40
1.0
 40
1.0
 40
1.0
 40
1.0
 10
38.98564064605199
 20
0.7239414940499398
 30
0.0
 10
39.1723763378583
 20
0.6012535351331729
 30
0.0
 10
39.54568352350434
 20
0.3559854976581276
 30
0.0
 10
40.10527422047323
 20
-0.0743375858124889
 30
0.0
 10
40.66466431236202
 20
-0.4896619534175566
 30
0.0
 10
41.23302527058672
 20
-0.8595769234905366
 30
0.0
 10
41.81089206418341
 20
-1.123140354118171
 30
0.0
 10
42.27431455659433
 20
-1.254296984553471
 30
0.0
 10
42.54225440002843
 20
-1.236604477877145
 30
0.0
 10
42.61442833821621
 20
-1.231838714536845
 30
0.0
  0
LINE
  5
BC
330
1F
100
AcDbEntity
  8
0
  6
Continuous
 62
     4
370
    25
100
AcDbLine
 10
38.98564064605515
 20
0.7239414940483087
 30
0.0
 11
38.98564064605515
 21
1.093090015307331
 31
0.0
  0
SPLINE
  5
BD
330
1F
100
AcDbEntity
  8
0
  6
Continuous
 62
     1
370
    25
100
AcDbSpline
210
0.0
220
0.0
230
1.0
 70
     8
 71
     3
 72
    26
 73
    22
 74
     0
 42
0.000000001
 43
0.00000001
 40
0.0
 40
0.0
 40
0.0
 40
0.0
 40
0.0625
 40
0.0625
 40
0.1250000000000001
 40
0.1250000000000001
 40
0.2500000000000001
 40
0.2500000000000001
 40
0.3750000000000002
 40
0.3750000000000002
 40
0.5000000000000002
 40
0.5000000000000002
 40
0.6250000000000002
 40
0.6250000000000002
 40
0.7500000000000003
 40
0.7500000000000003
 40
0.8750000000000001
 40
0.8750000000000001
 40
0.9375000000000001
 40
0.9375000000000001
 40
1.0
 40
1.0
 40
1.0
 40
1.0
 10
42.64602197048038
 20
-1.137241129347666
 30
0.0
 10
42.56900239642867
 20
-1.113305220240992
 30
0.0
 10
42.49205346869511
 20
-1.085729545472086
 30
0.0
 10
42.34047191524208
 20
-1.024194298922573
 30
0.0
 10
42.26600589291545
 20
-0.9902982529873814
 30
0.0
 10
42.03697726215703
 20
-0.878689957154181
 30
0.0
 10
41.88084723742087
 20
-0.7914187559478201
 30
0.0
 10
41.57919811442759
 20
-0.601187495525211
 30
0.0
 10
41.42603898084929
 20
-0.4967388716599737
 30
0.0
 10
41.11854122086974
 20
-0.2775461100054004
 30
0.0
 10
40.96983127155116
 20
-0.1642492423449
 30
0.0
 10
40.66275122668306
 20
0.0659962336646686
 30
0.0
 10
40.5082464233334
 20
0.1819605534017786
 30
0.0
 10
40.20782221060735
 20
0.4043329577359779
 30
0.0
 10
40.05183172046517
 20
0.5131663596985913
 30
0.0
 10
39.74574344745886
 20
0.7137178402470576
 30
0.0
 10
39.59660245861373
 20
0.8053956592897163
 30
0.0
 10
39.36562991852838
 20
0.9273247199995072
 30
0.0
 10
39.28845080000504
 20
0.9651562912635109
 30
0.0
 10
39.13591262949665
 20
1.034173927860357
 30
0.0
 10
39.06152580115641
 20
1.065254345397714
 30
0.0
 10
38.98564064605203
 20
1.093090015308473
 30
0.0
  0
ELLIPSE
  5
BE
330
1F
100
AcDbEntity
  8
0
  6
Continuous
 62
     1
370
    25
100
AcDbEllipse
 10
43.12239375161966
 20
0.0000000000000013
 30
0.0
 11
1.732818626133572
 21
1.010141631583992
 31
0.0
210
0.0
220
0.0
230
1.0
 40
0.4249053091009709
 41
4.026404750350352
 42
4.199458500115824
1001
PE_URL
1000

  0
SPLINE
  5
BF
330
1F
100
AcDbEntity
  8
0
  6
Continuous
 62
     1
370
    25
100
AcDbSpline
210
0.0
220
0.0
230
1.0
 70
     8
 71
     3
 72
    14
 73
    10
 74
     0
 42
0.000000001
 43
0.00000001
 40
0.0
 40
0.0
 40
0.0
 40
0.0
 40
0.1194128167484181
 40
0.2626884620365516
 40
0.4059189312262743
 40
0.5491857707224203
 40
0.6993608479253584
 40
0.8496230343831175
 40
1.0
 40
1.0
 40
1.0
 40
1.0
 10
39.07934834465453
 20
1.049518619458349
 30
0.0
 10
39.23484509473867
 20
1.107300599594402
 30
0.0
 10
39.57691224668724
 20
1.234411406530188
 30
0.0
 10
40.10527329856605
 20
1.269711318508766
 30
0.0
 10
40.66466426433266
 20
1.176412173791435
 30
0.0
 10
41.23302640381031
 20
0.9431456136430718
 30
0.0
 10
41.81088732769948
 20
0.5947886285816363
 30
0.0
 10
42.39802848522876
 20
0.1645112307197925
 30
0.0
 10
42.78972007861083
 20
-0.1296892717058021
 30
0.0
 10
42.98564064605515
 20
-0.2768456834120831
 30
0.0
  0
LINE
  5
C0
330
1F
100
AcDbEntity
  8
0
  6
Continuous
 62
     1
370
    25
100
AcDbLine
 10
42.98564064605513
 20
-0.6564853529212432
 30
0.0
 11
42.98564064605513
 21
-0.2776960450593236
 31
0.0
1001
PE_URL
1000

  0
SPLINE
  5
C1
330
1F
100
AcDbEntity
  8
0
  6
Continuous
 62
     1
370
    25
100
AcDbSpline
210
0.0
220
0.0
230
1.0
 70
     8
 71
     3
 72
    10
 73
     6
 74
     0
 42
0.000000001
 43
0.00000001
 40
0.0
 40
0.0
 40
0.0
 40
0.0
 40
0.5
 40
0.5
 40
1.0
 40
1.0
 40
1.0
 40
1.0
 10
42.98564064605513
 20
-0.6564853529212425
 30
0.0
 10
42.90447953961007
 20
-0.7172331793412886
 30
0.0
 10
42.83265824373292
 20
-0.7938678537631134
 30
0.0
 10
42.71741341493417
 20
-0.9603929894438946
 30
0.0
 10
42.67442418081205
 20
-1.049605786933608
 30
0.0
 10
42.64602197047888
 20
-1.137241129347207
 30
0.0
1001
PE_URL
1000

  0
SPLINE
  5
C2
330
1F
100
AcDbEntity
  8
0
  6
Continuous
 62
     1
370
    25
100
AcDbSpline
210
0.0
220
0.0
230
1.0
 70
     8
 71
     3
 72
    18
 73
    14
 74
     0
 42
0.000000001
 43
0.00000001
 40
0.0
 40
0.0
 40
0.0
 40
0.0
 40
0.0955408567507656
 40
0.1913304747665356
 40
0.2868700910542591
 40
0.3824110177111332
 40
0.4782001586103538
 40
0.5737397018426401
 40
0.6692803920516677
 40
0.7650695238302818
 40
0.8606091197316152
 40
0.9563942183857322
 40
1.0
 40
1.0
 40
1.0
 40
1.0
 10
38.98564064605199
 20
-0.0759257081298944
 30
0.0
 10
39.05249515797487
 20
-0.106895770638275
 30
0.0
 10
39.18637825198832
 20
-0.1689165329047832
 30
0.0
 10
39.38766763852876
 20
-0.2579374024495454
 30
0.0
 10
39.58906968539399
 20
-0.3431008005444914
 30
0.0
 10
39.78970017459483
 20
-0.4246709797083016
 30
0.0
 10
39.99087653676393
 20
-0.4989246380211279
 30
0.0
 10
40.19231751855263
 20
-0.5655542671234708
 30
0.0
 10
40.39312732198822
 20
-0.6247906312491132
 30
0.0
 10
40.59408032548404
 20
-0.6746788416061505
 30
0.0
 10
40.79570395618197
 20
-0.7136314028748223
 30
0.0
 10
40.96034220106039
 20
-0.7392168397821168
 30
0.0
 10
41.05794733368313
 20
-0.7474226349958504
 30
0.0
 10
41.08848124012941
 20
-0.7499896617150483
 30
0.0
1001
PE_URL
1000

  0
SPLINE
  5
C3
330
1F
100
AcDbEntity
  8
0
  6
Continuous
 62
     4
370
    25
100
AcDbSpline
210
0.0
220
0.0
230
1.0
 70
    24
 71
     3
 72
    14
 73
    10
 74
     0
 42
0.000000001
 43
0.00000001
 40
0.0
 40
0.0
 40
0.0
 40
0.0
 40
0.2499999999999999
 40
0.2499999999999999
 40
0.4999999999999999
 40
0.4999999999999999
 40
0.7499999999999999
 40
0.7499999999999999
 40
1.0
 40
1.0
 40
1.0
 40
1.0
 10
38.98564064605515
 20
0.7239414940483104
 30
0.0
 10
38.98564064605515
 20
0.6837501042671199
 30
0.0
 10
38.98564064605515
 20
0.6447137566027455
 30
0.0
 10
38.98564064605515
 20
0.5465666663045466
 30
0.0
 10
38.98564064605515
 20
0.489304075030435
 30
0.0
 10
38.98564064605515
 20
0.3561609860156835
 30
0.0
 10
38.98564064605515
 20
0.2801409486475206
 30
0.0
 10
38.98564064605515
 20
0.1117293073159848
 30
0.0
 10
38.98564064605515
 20
0.0192382860250347
 30
0.0
 10
38.98564064605515
 20
-0.0759257081300769
 30
0.0
  0
LINE
  5
C4
330
1F
100
AcDbEntity
  8
0
  6
Continuous
 62
     1
370
    25
100
AcDbLine
 10
42.98564064605513
 20
-0.1250000000000033
 30
0.0
 11
42.35689042436709
 21
0.3152556448769974
 31
0.0
1001
PE_URL
1000

  0
LINE
  5
C5
330
1F
100
AcDbEntity
  8
0
  6
Continuous
 62
     1
370
    25
100
AcDbLine
 10
42.98564064605513
 20
-0.2768456834120835
 30
0.0
 11
42.98564064605513
 21
-0.1250000000000034
 31
0.0
1001
PE_URL
1000

  0
SPLINE
  5
C6
330
1F
100
AcDbEntity
  8
0
  6
Continuous
 62
     1
370
    25
100
AcDbSpline
210
0.0
220
0.0
230
1.0
 70
     8
 71
     3
 72
    11
 73
     7
 74
     0
 42
0.000000001
 43
0.00000001
 40
0.0
 40
0.0
 40
0.0
 40
0.0
 40
0.2698557084391563
 40
0.5402407233220475
 40
0.8113128378182771
 40
1.0
 40
1.0
 40
1.0
 40
1.0
 10
42.64602197048038
 20
0.518828115776354
 30
0.0
 10
42.47555074420212
 20
0.6313267431880041
 30
0.0
 10
42.13427392214471
 20
0.8565446575954376
 30
0.0
 10
41.62147995497846
 20
1.095984522505861
 30
0.0
 10
41.15925619185123
 20
1.235342861841269
 30
0.0
 10
40.86871145655533
 20
1.236841841567329
 30
0.0
 10
40.74947066170733
 20
1.237457029221012
 30
0.0
  0
ELLIPSE
  5
C7
330
1F
100
AcDbEntity
  8
0
  6
Continuous
 62
     1
370
    25
100
AcDbEllipse
 10
43.12239375161966
 20
0.000000000000001
 30
0.0
 11
1.746216190168252
 21
1.103618444453233
 31
0.0
210
0.0
220
0.0
230
1.0
 40
0.3361345837673281
 41
1.631589561023636
 42
1.804643310789114
1001
PE_URL
1000

  0
SPLINE
  5
C8
330
1F
100
AcDbEntity
  8
0
  6
Continuous
 62
     1
370
    25
100
AcDbSpline
210
0.0
220
0.0
230
1.0
 70
     8
 71
     3
 72
    10
 73
     6
 74
     0
 42
0.000000001
 43
0.00000001
 40
0.0
 40
0.0
 40
0.0
 40
0.0
 40
0.0940082030986111
 40
0.5468311550519793
 40
1.0
 40
1.0
 40
1.0
 40
1.0
 10
41.6889074225865
 20
1.05005097943015
 30
0.0
 10
41.72953022007989
 20
1.069411588448714
 30
0.0
 10
41.96582674041066
 20
1.182029252047985
 30
0.0
 10
42.3980360441694
 20
1.266361405591082
 30
0.0
 10
42.78972259889895
 20
1.234762571800731
 30
0.0
 10
42.98564064605515
 20
1.218957122944072
 30
0.0
1001
PE_URL
1000

  0
SPLINE
  5
C9
330
1F
100
AcDbEntity
  8
0
  6
Continuous
 62
     1
370
    25
100
AcDbSpline
210
0.0
220
0.0
230
1.0
 70
     8
 71
     3
 72
    10
 73
     6
 74
     0
 42
0.000000001
 43
0.00000001
 40
0.0
 40
0.0
 40
0.0
 40
0.0
 40
0.5
 40
0.5
 40
1.0
 40
1.0
 40
1.0
 40
1.0
 10
42.98564064605513
 20
0.4258566175094944
 30
0.0
 10
42.90447953961007
 20
0.4026442979583172
 30
0.0
 10
42.83265824373292
 20
0.4012997368231402
 30
0.0
 10
42.71741341493417
 20
0.4356906867073851
 30
0.0
 10
42.67442418081205
 20
0.4712545437420104
 30
0.0
 10
42.64602197047888
 20
0.5188281157773585
 30
0.0
1001
PE_URL
1000

  0
LINE
  5
CA
330
1F
100
AcDbEntity
  8
0
  6
Continuous
 62
     1
370
    25
100
AcDbLine
 10
42.98564064605513
 20
0.4258566175094974
 30
0.0
 11
42.98564064605513
 21
1.218957122944077
 31
0.0
1001
PE_URL
1000

  0
LINE
  5
CB
330
1F
100
AcDbEntity
  8
0
  6
Continuous
 62
     1
370
    25
100
AcDbLine
 10
42.98564064605513
 20
-0.124999999999999
 30
0.0
 11
42.98564064605513
 21
0.4258566175094975
 31
0.0
1001
PE_URL
1000

  0
SPLINE
  5
CC
330
1F
100
AcDbEntity
  8
0
  6
Continuous
 62
     1
370
    25
100
AcDbSpline
210
0.0
220
0.0
230
1.0
 70
     8
 71
     3
 72
    12
 73
     8
 74
     0
 42
0.000000001
 43
0.00000001
 40
0.0
 40
0.0
 40
0.0
 40
0.0
 40
0.1240722445309134
 40
0.3124758112153116
 40
0.580653687260078
 40
0.788543689434064
 40
1.0
 40
1.0
 40
1.0
 40
1.0
 10
39.79946257666025
 20
-0.4279329477238804
 30
0.0
 10
39.76589159946529
 20
-0.4518725416708766
 30
0.0
 10
39.68134313037019
 20
-0.5121643826626706
 30
0.0
 10
39.52382569794995
 20
-0.6185681936242725
 30
0.0
 10
39.34299829207313
 20
-0.7327629335807899
 30
0.0
 10
39.1561969382615
 20
-0.8421187853827672
 30
0.0
 10
39.04281415971003
 20
-0.9016393327579416
 30
0.0
 10
38.98564064153227
 20
-0.9316527011087572
 30
0.0
1001
PE_URL
1000

  0
LINE
  5
CD
330
1F
100
AcDbEntity
  8
0
  6
Continuous
 62
     4
370
    25
100
AcDbLine
 10
38.98564064605515
 20
-0.0759257081313459
 30
0.0
 11
38.98564064605515
 21
-0.5504387902322436
 31
0.0
  0
LINE
  5
CE
330
1F
100
AcDbEntity
  8
0
  6
Continuous
 62
     1
370
    25
100
AcDbLine
 10
42.98564064605513
 20
-0.6564853529212432
 30
0.0
 11
42.98564064605513
 21
-1.243734296383274
 31
0.0
1001
PE_URL
1000

  0
ELLIPSE
  5
CF
330
1F
100
AcDbEntity
  8
0
  6
Continuous
 62
     1
370
    25
100
AcDbEllipse
 10
42.80712214521238
 20
0.0000000000000007
 30
0.0
 11
1.785185008427637
 21
0.0
 31
0.0
210
0.0
220
0.0
230
1.0
 40
0.7002075382097122
 41
1.470628905633337
 42
1.570796326794897
1001
PE_URL
1000

  0
LINE
  5
D0
330
1F
100
AcDbEntity
  8
0
  6
Continuous
 62
     1
370
    25
100
AcDbLine
 10
42.98564064605513
 20
1.218957122944077
 30
0.0
 11
42.98564064605513
 21
1.243734296383276
 31
0.0
1001
PE_URL
1000

  0
LINE
  5
D1
330
1F
100
AcDbEntity
  8
중심선
100
AcDbLine
 10
-40.01435935394485
 20
-0.0000000000000041
 30
0.0
 11
44.48564064605515
 21
0.0000000000000037
 31
0.0
  0
CIRCLE
  5
D2
330
1F
100
AcDbEntity
  8
해칭선
100
AcDbCircle
 10
0.0
 20
0.0000000000000002
 30
0.0
 40
3.000000000000003
  0
INSERT
  5
D3
330
1F
100
AcDbEntity
  8
0
  6
Continuous
 62
     7
100
AcDbBlockReference
 66
     1
  2
블럭10
 10
-16.14027293212519
 20
-52.04717430164394
 30
0.0
  0
ATTRIB
  5
D4
330
D3
100
AcDbEntity
  8
FORMAT
 62
     2
100
AcDbText
 10
-32.25953397156075
 20
-49.97180738881174
 30
0.0
 40
4.233333333333333
  1
SEME7302540E [ 4 FLUTE ]
 41
0.75
  7
SLDTEXTSTYLE0
 11
-32.25953397156075
 21
-52.08847405547841
 31
0.0
100
AcDbAttribute
  2
AUTOATTR0
 70
     0
 74
     1
  0
SEQEND
  5
D5
330
D3
100
AcDbEntity
  8
0
  6
Continuous
 62
     7
  0
HATCH
  5
D6
330
1F
100
AcDbEntity
  8
중심선
100
AcDbHatch
 10
0.0
 20
0.0
 30
0.0
210
0.0
220
0.0
230
1.0
  2
SOLID
 70
     1
 71
     0
 91
        1
 92
        0
 93
        4
 72
     1
 10
-10.42536362774436
 20
-35.8
 11
-13.87163887158164
 21
-35.8
 72
     1
 10
-13.87163887158164
 20
-35.8
 11
-15.99986873078566
 21
-38.3363255805726
 72
     1
 10
-15.99986873078566
 20
-38.3363255805726
 11
-12.55356040183523
 21
-38.33628615127011
 72
     1
 10
-12.55356040183523
 20
-38.33628615127011
 11
-10.42536362774436
 21
-35.8
 97
        0
 75
     0
 76
     1
 98
        1
 10
25.29994507901019
 20
-0.000000000000004
  0
HATCH
  5
D7
330
1F
100
AcDbEntity
  8
중심선
100
AcDbHatch
 10
0.0
 20
0.0
 30
0.0
210
0.0
220
0.0
230
1.0
  2
SOLID
 70
     1
 71
     0
 91
        1
 92
        0
 93
        4
 72
     1
 10
-5.412599636708382
 20
-35.79999999999998
 11
-8.858874880545692
 21
-35.80000000000003
 72
     1
 10
-8.858874880545692
 20
-35.80000000000003
 11
-13.39001288890308
 21
-41.20000000000002
 72
     1
 10
-13.39001288890308
 20
-41.20000000000002
 11
-9.943737645065802
 21
-41.20000000000002
 72
     1
 10
-9.943737645065802
 20
-41.20000000000002
 11
-5.412599636708382
 21
-35.79999999999998
 97
        0
 75
     0
 76
     1
 98
        1
 10
25.29994507901019
 20
-0.000000000000004
  0
HATCH
  5
D8
330
1F
100
AcDbEntity
  8
중심선
100
AcDbHatch
 10
0.0
 20
0.0
 30
0.0
210
0.0
220
0.0
230
1.0
  2
SOLID
 70
     1
 71
     0
 91
        1
 92
        0
 93
        4
 72
     1
 10
-0.3998356456725141
 20
-35.8
 11
-3.846110889509632
 21
-35.8
 72
     1
 10
-3.846110889509632
 20
-35.8
 11
-10.89454779139888
 21
-44.20000000000002
 72
     1
 10
-10.89454779139888
 20
-44.20000000000002
 11
-7.448272547561601
 21
-44.20000000000002
 72
     1
 10
-7.448272547561601
 20
-44.20000000000002
 11
-0.3998356456725141
 21
-35.8
 97
        0
 75
     0
 76
     1
 98
        1
 10
25.29994507901019
 20
-0.000000000000004
  0
HATCH
  5
D9
330
1F
100
AcDbEntity
  8
중심선
100
AcDbHatch
 10
0.0
 20
0.0
 30
0.0
210
0.0
220
0.0
230
1.0
  2
SOLID
 70
     1
 71
     0
 91
        1
 92
        0
 93
        6
 72
     3
 10
4.400054785339684
 20
-40.00000000005128
 11
3.960054785062283
 21
1.540882976769353E-10
 40
0.3939339440162628
 50
17.09539180608436
 51
320.0019657685078
 73
     0
 72
     1
 10
6.083054441040279
 20
-38.58789400463831
 11
8.38835631474132
 21
-36.65356729459039
 72
     3
 10
4.400054785286837
 20
-40.00000000000016
 11
6.600054785286829
 21
-1.278976924368180E-13
 40
0.636358354079598
 50
39.99873849337408
 51
368.4976242363724
 73
     1
 72
     1
 10
10.82538727718745
 20
-39.03999999993002
 11
3.08012209212276
 21
-39.03999999993002
 72
     1
 10
3.08012209212276
 20
-39.03999999993002
 11
3.080097047676826
 21
-40.95999999992992
 72
     1
 10
3.080097047676826
 20
-40.95999999992992
 11
7.521476817148862
 21
-40.95999999992989
 97
        0
 75
     0
 76
     1
 98
        1
 10
25.29994507901019
 20
-0.000000000000004
  0
DIMENSION
  5
DA
330
1F
100
AcDbEntity
  8
치수문자_일반주서
100
AcDbDimension
  2
_D
 10
51.60860854068691
 20
1.250000000000037
 30
0.0
 11
51.60860854068687
 21
12.66650000000004
 31
0.0
 70
   160
  1
%%c<>
 71
     2
 42
2.50000000000001
 52
-270.0
  3
SLDDIMSTYLE0
100
AcDbAlignedDimension
 13
42.98564064605515
 23
-1.250000000000005
 33
0.0
 14
42.98564064605515
 24
1.250000000000005
 34
0.0
 50
90.0000000000002
100
AcDbRotatedDimension
  0
DIMENSION
  5
E8
330
1F
100
AcDbEntity
  8
치수문자_일반주서
100
AcDbDimension
  2
_D_1
 10
42.98564064605513
 20
36.00000000000001
 30
0.0
 11
2.985640646055147
 21
36.00000000000001
 31
0.0
 70
   160
  1
<>
 71
     2
 42
80.0
  3
SLDDIMSTYLE1
100
AcDbAlignedDimension
 13
-37.01435935394487
 23
1.499999999999991
 33
0.0
 14
42.98564064605513
 24
1.243734296383276
 34
0.0
100
AcDbRotatedDimension
  0
DIMENSION
  5
F3
330
1F
100
AcDbEntity
  8
치수문자_일반주서
100
AcDbDimension
  2
_D_2
 10
-50.50699891556475
 20
-2.000000000000053
 30
0.0
 11
-50.50699891556476
 21
-0.7264638992031077
 31
0.0
 70
   160
  1
%%c<>
 71
     2
 42
3.999999999999976
 52
-270.0
  3
SLDDIMSTYLE2
100
AcDbAlignedDimension
 13
-36.51435935394487
 23
1.999999999999975
 33
0.0
 14
-36.51435935394487
 24
-2.000000000000001
 34
0.0
 50
90.0000000000002
100
AcDbRotatedDimension
  0
DIMENSION
  5
101
330
1F
100
AcDbEntity
  8
치수문자_일반주서
100
AcDbDimension
  2
_D_3
 10
42.98564064605513
 20
19.97306760287244
 30
0.0
 11
51.33964064605514
 21
19.97306760287244
 31
0.0
 70
   160
  1
<>
 71
     2
 42
3.999999999999986
  3
SLDDIMSTYLE2
100
AcDbAlignedDimension
 13
38.98564064605515
 23
1.093090015307331
 33
0.0
 14
42.98564064605513
 24
1.231345709663677
 34
0.0
100
AcDbRotatedDimension
1001
ACAD_DSTYLE_DIMFLIPARROW_SYMBOL
1070
   385
1070
     0
1001
ACAD_DSTYLE_DIMFLIPARROW_WHICH_SYMBOL
1070
   386
1070
     3
  0
DIMENSION
  5
10D
330
1F
100
AcDbEntity
  8
치수문자_일반주서
100
AcDbDimension
  2
_D_4
 10
2.985640646055138
 20
25.94352382273745
 30
0.0
 11
23.88426315400859
 21
25.94352382273745
 31
0.0
 70
   160
  1
<>
 71
     2
 42
39.99999999999999
  3
SLDDIMSTYLE1
100
AcDbAlignedDimension
 13
42.98564064605513
 23
1.243734296383276
 33
0.0
 14
2.98564064605514
 24
1.199999999999992
 34
0.0
100
AcDbRotatedDimension
  0
INSERT
  5
11D
330
1F
100
AcDbEntity
  8
해칭선
100
AcDbBlockReference
  2
SW_DOWELSYMBOL_0
 10
0.0
 20
0.0000000000000002
 30
0.0
  0
LINE
  5
173
330
1F
100
AcDbEntity
  8
0
  6
Continuous
 62
     4
370
    25
100
AcDbLine
 10
0.0
 20
2.000000000000001
 30
0.0
 11
2.98564064605514
 21
1.199999999999992
 31
0.0
  0
ENDSEC
  0
SECTION
  2
OBJECTS
  0
DICTIONARY
  5
C
330
0
100
AcDbDictionary
281
     1
  3
ACAD_GROUP
350
D
  3
ACAD_LAYOUT
350
1A
  3
ACAD_MLINESTYLE
350
17
  3
ACAD_PLOTSETTINGS
350
19
  3
ACAD_PLOTSTYLENAME
350
E
  3
ACAD_SCALELIST
350
47
  3
APPDATA
350
13F
  3
DWGPROPS
350
176
  0
DICTIONARY
  5
174
330
1F
100
AcDbDictionary
280
     1
281
     1
  3
DIM_BOUNDING_BOXES_V1
360
175
  0
DICTIONARY
  5
D
102
{ACAD_REACTORS
330
C
102
}
330
C
100
AcDbDictionary
281
     1
  0
DICTIONARY
  5
1A
102
{ACAD_REACTORS
330
C
102
}
330
C
100
AcDbDictionary
281
     1
  3
Layout1
350
1E
  3
Layout2
350
26
  3
Model
350
22
  0
DICTIONARY
  5
17
102
{ACAD_REACTORS
330
C
102
}
330
C
100
AcDbDictionary
281
     1
  3
Standard
350
18
  0
DICTIONARY
  5
19
102
{ACAD_REACTORS
330
C
102
}
330
C
100
AcDbDictionary
281
     1
  0
ACDBDICTIONARYWDFLT
  5
E
102
{ACAD_REACTORS
330
C
102
}
330
C
100
AcDbDictionary
281
     1
  3
Normal
350
F
100
AcDbDictionaryWithDefault
340
F
  0
DICTIONARY
  5
47
102
{ACAD_REACTORS
330
C
102
}
330
C
100
AcDbDictionary
281
     1
  3
A0
350
48
  3
A1
350
49
  3
A2
350
4A
  3
A3
350
4B
  3
A4
350
4C
  3
A5
350
4D
  3
A6
350
4E
  3
A7
350
4F
  3
A8
350
50
  3
A9
350
51
  3
B0
350
52
  3
B1
350
53
  3
B2
350
54
  3
B3
350
55
  3
B4
350
56
  3
B5
350
57
  3
B6
350
58
  3
B7
350
59
  3
B8
350
5A
  3
B9
350
5B
  3
C0
350
5C
  3
C1
350
5D
  3
C2
350
5E
  3
C3
350
5F
  3
C4
350
60
  3
C5
350
61
  3
C6
350
62
  3
C7
350
63
  3
C8
350
64
  3
C9
350
65
  3
D0
350
66
  3
D1
350
67
  3
D2
350
68
  0
DICTIONARY
  5
13F
102
{ACAD_REACTORS
330
C
102
}
330
C
100
AcDbDictionary
281
     1
  0
XRECORD
  5
176
102
{ACAD_REACTORS
330
C
102
}
330
C
100
AcDbXrecord
280
     1
  1
DWGPROPS COOKIE
  2

  3

  4

  6

  7

  8
12016016
  9

300
=
301
=
302
=
303
=
304
=
305
=
306
=
307
=
308
=
309
=
 40
0.0
 41
2458260.408097477
 42
2459677.347461725
  1

 90
        0
  0
DICTIONARY
  5
175
102
{ACAD_REACTORS
330
174
102
}
330
174
100
AcDbDictionary
281
     1
  0
LAYOUT
  5
1E
102
{ACAD_REACTORS
330
1A
102
}
330
1A
100
AcDbPlotSettings
  1

  2
none_device
  4

  6

 40
0.0
 41
0.0
 42
0.0
 43
0.0
 44
0.0
 45
0.0
 46
0.0
 47
0.0
 48
0.0
 49
0.0
140
0.0
141
0.0
142
1.0
143
1.0
 70
   688
 72
     1
 73
     0
 74
     5
  7

 75
    16
147
1.0
148
0.0
149
0.0
100
AcDbLayout
  1
Layout1
 70
     1
 71
     1
 10
0.0
 20
0.0
 11
420.0
 21
297.0
 12
0.0
 22
0.0
 32
0.0
 14
1.000000000000000E+20
 24
1.000000000000000E+20
 34
1.000000000000000E+20
 15
-1.000000000000000E+20
 25
-1.000000000000000E+20
 35
-1.000000000000000E+20
146
0.0
 13
0.0
 23
0.0
 33
0.0
 16
1.0
 26
0.0
 36
0.0
 17
0.0
 27
1.0
 37
0.0
 76
     0
330
1B
  0
LAYOUT
  5
26
102
{ACAD_REACTORS
330
1A
102
}
330
1A
100
AcDbPlotSettings
  1

  2
none_device
  4

  6

 40
0.0
 41
0.0
 42
0.0
 43
0.0
 44
0.0
 45
0.0
 46
0.0
 47
0.0
 48
0.0
 49
0.0
140
0.0
141
0.0
142
1.0
143
1.0
 70
   688
 72
     1
 73
     0
 74
     5
  7

 75
    16
147
1.0
148
0.0
149
0.0
100
AcDbLayout
  1
Layout2
 70
     1
 71
     2
 10
0.0
 20
0.0
 11
0.0
 21
0.0
 12
0.0
 22
0.0
 32
0.0
 14
0.0
 24
0.0
 34
0.0
 15
0.0
 25
0.0
 35
0.0
146
0.0
 13
0.0
 23
0.0
 33
0.0
 16
1.0
 26
0.0
 36
0.0
 17
0.0
 27
1.0
 37
0.0
 76
     0
330
23
  0
LAYOUT
  5
22
102
{ACAD_REACTORS
330
1A
102
}
330
1A
100
AcDbPlotSettings
  1

  2
none_device
  4
ANSI_A_(11.00_x_8.50_Inches)
  6

 40
6.35
 41
19.05
 42
6.35000508
 43
19.05000254
 44
279.4
 45
215.9
 46
192.2157511046778
 47
100.8537443875621
 48
0.0
 49
0.0
140
0.0
141
0.0
142
0.0922419125129433
143
1.0
 70
  1696
 72
     0
 73
     0
 74
     0
  7

 75
     0
147
0.0235690232323232
148
0.0
149
0.0
100
AcDbLayout
  1
Model
 70
     1
 71
     0
 10
0.0
 20
0.0
 11
420.0
 21
297.0
 12
0.0
 22
0.0
 32
0.0
 14
-54.88199891556476
 24
-49.97180738881174
 34
0.0
 15
53.08964064605513
 25
40.37500000000001
 35
0.0
146
0.0
 13
0.0
 23
0.0
 33
0.0
 16
1.0
 26
0.0
 36
0.0
 17
0.0
 27
1.0
 37
0.0
 76
     0
330
1F
331
29
  0
MLINESTYLE
  5
18
102
{ACAD_REACTORS
330
17
102
}
330
17
100
AcDbMlineStyle
  2
Standard
 70
     0
  3

 62
   256
 51
90.0
 52
90.0
 71
     2
 49
0.5
 62
   256
  6
BYLAYER
 49
-0.5
 62
   256
  6
BYLAYER
  0
ACDBPLACEHOLDER
  5
F
102
{ACAD_REACTORS
330
E
102
}
330
E
  0
SCALE
  5
48
102
{ACAD_REACTORS
330
47
102
}
330
47
100
AcDbScale
 70
     0
300
1:1
140
1.0
141
1.0
290
     1
  0
SCALE
  5
49
102
{ACAD_REACTORS
330
47
102
}
330
47
100
AcDbScale
 70
     0
300
1:2
140
1.0
141
2.0
290
     0
  0
SCALE
  5
4A
102
{ACAD_REACTORS
330
47
102
}
330
47
100
AcDbScale
 70
     0
300
1:4
140
1.0
141
4.0
290
     0
  0
SCALE
  5
4B
102
{ACAD_REACTORS
330
47
102
}
330
47
100
AcDbScale
 70
     0
300
1:5
140
1.0
141
5.0
290
     0
  0
SCALE
  5
4C
102
{ACAD_REACTORS
330
47
102
}
330
47
100
AcDbScale
 70
     0
300
1:8
140
1.0
141
8.0
290
     0
  0
SCALE
  5
4D
102
{ACAD_REACTORS
330
47
102
}
330
47
100
AcDbScale
 70
     0
300
1:10
140
1.0
141
10.0
290
     0
  0
SCALE
  5
4E
102
{ACAD_REACTORS
330
47
102
}
330
47
100
AcDbScale
 70
     0
300
1:16
140
1.0
141
16.0
290
     0
  0
SCALE
  5
4F
102
{ACAD_REACTORS
330
47
102
}
330
47
100
AcDbScale
 70
     0
300
1:20
140
1.0
141
20.0
290
     0
  0
SCALE
  5
50
102
{ACAD_REACTORS
330
47
102
}
330
47
100
AcDbScale
 70
     0
300
1:30
140
1.0
141
30.0
290
     0
  0
SCALE
  5
51
102
{ACAD_REACTORS
330
47
102
}
330
47
100
AcDbScale
 70
     0
300
1:40
140
1.0
141
40.0
290
     0
  0
SCALE
  5
52
102
{ACAD_REACTORS
330
47
102
}
330
47
100
AcDbScale
 70
     0
300
1:50
140
1.0
141
50.0
290
     0
  0
SCALE
  5
53
102
{ACAD_REACTORS
330
47
102
}
330
47
100
AcDbScale
 70
     0
300
1:100
140
1.0
141
100.0
290
     0
  0
SCALE
  5
54
102
{ACAD_REACTORS
330
47
102
}
330
47
100
AcDbScale
 70
     0
300
2:1
140
2.0
141
1.0
290
     0
  0
SCALE
  5
55
102
{ACAD_REACTORS
330
47
102
}
330
47
100
AcDbScale
 70
     0
300
4:1
140
4.0
141
1.0
290
     0
  0
SCALE
  5
56
102
{ACAD_REACTORS
330
47
102
}
330
47
100
AcDbScale
 70
     0
300
8:1
140
8.0
141
1.0
290
     0
  0
SCALE
  5
57
102
{ACAD_REACTORS
330
47
102
}
330
47
100
AcDbScale
 70
     0
300
10:1
140
10.0
141
1.0
290
     0
  0
SCALE
  5
58
102
{ACAD_REACTORS
330
47
102
}
330
47
100
AcDbScale
 70
     0
300
100:1
140
100.0
141
1.0
290
     0
  0
SCALE
  5
59
102
{ACAD_REACTORS
330
47
102
}
330
47
100
AcDbScale
 70
     0
300
1/128" = 1'-0"
140
0.0078125
141
12.0
290
     0
  0
SCALE
  5
5A
102
{ACAD_REACTORS
330
47
102
}
330
47
100
AcDbScale
 70
     0
300
1/64" = 1'-0"
140
0.015625
141
12.0
290
     0
  0
SCALE
  5
5B
102
{ACAD_REACTORS
330
47
102
}
330
47
100
AcDbScale
 70
     0
300
1/32" = 1'-0"
140
0.03125
141
12.0
290
     0
  0
SCALE
  5
5C
102
{ACAD_REACTORS
330
47
102
}
330
47
100
AcDbScale
 70
     0
300
1/16" = 1'-0"
140
0.0625
141
12.0
290
     0
  0
SCALE
  5
5D
102
{ACAD_REACTORS
330
47
102
}
330
47
100
AcDbScale
 70
     0
300
3/32" = 1'-0"
140
0.09375
141
12.0
290
     0
  0
SCALE
  5
5E
102
{ACAD_REACTORS
330
47
102
}
330
47
100
AcDbScale
 70
     0
300
1/8" = 1'-0"
140
0.125
141
12.0
290
     0
  0
SCALE
  5
5F
102
{ACAD_REACTORS
330
47
102
}
330
47
100
AcDbScale
 70
     0
300
3/16" = 1'-0"
140
0.1875
141
12.0
290
     0
  0
SCALE
  5
60
102
{ACAD_REACTORS
330
47
102
}
330
47
100
AcDbScale
 70
     0
300
1/4" = 1'-0"
140
0.25
141
12.0
290
     0
  0
SCALE
  5
61
102
{ACAD_REACTORS
330
47
102
}
330
47
100
AcDbScale
 70
     0
300
3/8" = 1'-0"
140
0.375
141
12.0
290
     0
  0
SCALE
  5
62
102
{ACAD_REACTORS
330
47
102
}
330
47
100
AcDbScale
 70
     0
300
1/2" = 1'-0"
140
0.5
141
12.0
290
     0
  0
SCALE
  5
63
102
{ACAD_REACTORS
330
47
102
}
330
47
100
AcDbScale
 70
     0
300
3/4" = 1'-0"
140
0.75
141
12.0
290
     0
  0
SCALE
  5
64
102
{ACAD_REACTORS
330
47
102
}
330
47
100
AcDbScale
 70
     0
300
1" = 1'-0"
140
1.0
141
12.0
290
     0
  0
SCALE
  5
65
102
{ACAD_REACTORS
330
47
102
}
330
47
100
AcDbScale
 70
     0
300
1-1/2" = 1'-0"
140
1.5
141
12.0
290
     0
  0
SCALE
  5
66
102
{ACAD_REACTORS
330
47
102
}
330
47
100
AcDbScale
 70
     0
300
3" = 1'-0"
140
3.0
141
12.0
290
     0
  0
SCALE
  5
67
102
{ACAD_REACTORS
330
47
102
}
330
47
100
AcDbScale
 70
     0
300
6" = 1'-0"
140
6.0
141
12.0
290
     0
  0
SCALE
  5
68
102
{ACAD_REACTORS
330
47
102
}
330
47
100
AcDbScale
 70
     0
300
1'-0" = 1'-0"
140
12.0
141
12.0
290
     0
  0
ENDSEC
  0
EOF
