  0
SECTION
  2
HEADER
  9
$ACADVER
  1
AC1015
  9
$ACADMAINTVER
 70
     6
  9
$DWGCODEPAGE
  3
ANSI_949
  9
$INSBASE
 10
0.0
 20
0.0
 30
0.0
  9
$EXTMIN
 10
-52.04228748386178
 20
-49.97180738881174
 30
0.0
  9
$EXTMAX
 10
41.1793520777581
 20
40.37500000000003
 30
0.0
  9
$LIMMIN
 10
0.0
 20
0.0
  9
$LIMMAX
 10
420.0
 20
297.0
  9
$ORTHOMODE
 70
     0
  9
$REGENMODE
 70
     1
  9
$FILLMODE
 70
     1
  9
$QTEXTMODE
 70
     0
  9
$MIRRTEXT
 70
     1
  9
$LTSCALE
 40
1.0
  9
$ATTMODE
 70
     1
  9
$TEXTSIZE
 40
3.5
  9
$TRACEWID
 40
1.0
  9
$TEXTSTYLE
  7
Standard
  9
$CLAYER
  8
0
  9
$CELTYPE
  6
ByLayer
  9
$CECOLOR
 62
   256
  9
$CELTSCALE
 40
1.0
  9
$DISPSILH
 70
     0
  9
$DIMSCALE
 40
1.0
  9
$DIMASZ
 40
3.302
  9
$DIMEXO
 40
1.0
  9
$DIMDLI
 40
3.75
  9
$DIMRND
 40
0.0
  9
$DIMDLE
 40
0.0
  9
$DIMEXE
 40
1.0
  9
$DIMTP
 40
0.0
  9
$DIMTM
 40
0.0
  9
$DIMTXT
 40
3.5
  9
$DIMCEN
 40
2.5
  9
$DIMTSZ
 40
0.0
  9
$DIMTOL
 70
     0
  9
$DIMLIM
 70
     0
  9
$DIMTIH
 70
     1
  9
$DIMTOH
 70
     1
  9
$DIMSE1
 70
     0
  9
$DIMSE2
 70
     0
  9
$DIMTAD
 70
     1
  9
$DIMZIN
 70
     0
  9
$DIMBLK
  1

  9
$DIMASO
 70
     1
  9
$DIMSHO
 70
     1
  9
$DIMPOST
  1

  9
$DIMAPOST
  1

  9
$DIMALT
 70
     0
  9
$DIMALTD
 70
     3
  9
$DIMALTF
 40
0.0393700787401575
  9
$DIMLFAC
 40
1.0
  9
$DIMTOFL
 70
     1
  9
$DIMTVP
 40
0.0
  9
$DIMTIX
 70
     0
  9
$DIMSOXD
 70
     0
  9
$DIMSAH
 70
     0
  9
$DIMBLK1
  1

  9
$DIMBLK2
  1

  9
$DIMSTYLE
  2
ISO-25
  9
$DIMCLRD
 70
     0
  9
$DIMCLRE
 70
     0
  9
$DIMCLRT
 70
     0
  9
$DIMTFAC
 40
1.0
  9
$DIMGAP
 40
1.524
  9
$DIMJUST
 70
     0
  9
$DIMSD1
 70
     0
  9
$DIMSD2
 70
     0
  9
$DIMTOLJ
 70
     0
  9
$DIMTZIN
 70
     0
  9
$DIMALTZ
 70
     0
  9
$DIMALTTZ
 70
     0
  9
$DIMUPT
 70
     0
  9
$DIMDEC
 70
     2
  9
$DIMTDEC
 70
     2
  9
$DIMALTU
 70
     2
  9
$DIMALTTD
 70
     3
  9
$DIMTXSTY
  7
Standard
  9
$DIMAUNIT
 70
     0
  9
$DIMADEC
 70
     2
  9
$DIMALTRND
 40
0.0
  9
$DIMAZIN
 70
     0
  9
$DIMDSEP
 70
    44
  9
$DIMATFIT
 70
     3
  9
$DIMFRAC
 70
     0
  9
$DIMLDRBLK
  1

  9
$DIMLUNIT
 70
     2
  9
$DIMLWD
 70
    -2
  9
$DIMLWE
 70
    -2
  9
$DIMTMOVE
 70
     0
  9
$LUNITS
 70
     2
  9
$LUPREC
 70
     2
  9
$SKETCHINC
 40
1.0
  9
$FILLETRAD
 40
10.0
  9
$AUNITS
 70
     0
  9
$AUPREC
 70
     2
  9
$MENU
  1
.
  9
$ELEVATION
 40
0.0
  9
$PELEVATION
 40
0.0
  9
$THICKNESS
 40
0.0
  9
$LIMCHECK
 70
     0
  9
$CHAMFERA
 40
0.0
  9
$CHAMFERB
 40
0.0
  9
$CHAMFERC
 40
0.0
  9
$CHAMFERD
 40
0.0
  9
$SKPOLY
 70
     0
  9
$TDCREATE
 40
2458260.77950566
  9
$TDUCREATE
 40
2458260.40450566
  9
$TDUPDATE
 40
2459677.735192882
  9
$TDUUPDATE
 40
2459677.360192882
  9
$TDINDWG
 40
0.0021283912
  9
$TDUSRTIMER
 40
0.0004065856
  9
$USRTIMER
 70
     1
  9
$ANGBASE
 50
0.0
  9
$ANGDIR
 70
     0
  9
$PDMODE
 70
     0
  9
$PDSIZE
 40
-1.0
  9
$PLINEWID
 40
0.0
  9
$SPLFRAME
 70
     0
  9
$SPLINETYPE
 70
     6
  9
$SPLINESEGS
 70
     8
  9
$HANDSEED
  5
17D
  9
$SURFTAB1
 70
     6
  9
$SURFTAB2
 70
     6
  9
$SURFTYPE
 70
     6
  9
$SURFU
 70
     6
  9
$SURFV
 70
     6
  9
$UCSBASE
  2

  9
$UCSNAME
  2

  9
$UCSORG
 10
0.0
 20
0.0
 30
0.0
  9
$UCSXDIR
 10
1.0
 20
0.0
 30
0.0
  9
$UCSYDIR
 10
0.0
 20
1.0
 30
0.0
  9
$UCSORTHOREF
  2

  9
$UCSORTHOVIEW
 70
     0
  9
$UCSORGTOP
 10
0.0
 20
0.0
 30
0.0
  9
$UCSORGBOTTOM
 10
0.0
 20
0.0
 30
0.0
  9
$UCSORGLEFT
 10
0.0
 20
0.0
 30
0.0
  9
$UCSORGRIGHT
 10
0.0
 20
0.0
 30
0.0
  9
$UCSORGFRONT
 10
0.0
 20
0.0
 30
0.0
  9
$UCSORGBACK
 10
0.0
 20
0.0
 30
0.0
  9
$PUCSBASE
  2

  9
$PUCSNAME
  2

  9
$PUCSORG
 10
0.0
 20
0.0
 30
0.0
  9
$PUCSXDIR
 10
1.0
 20
0.0
 30
0.0
  9
$PUCSYDIR
 10
0.0
 20
1.0
 30
0.0
  9
$PUCSORTHOREF
  2

  9
$PUCSORTHOVIEW
 70
     0
  9
$PUCSORGTOP
 10
0.0
 20
0.0
 30
0.0
  9
$PUCSORGBOTTOM
 10
0.0
 20
0.0
 30
0.0
  9
$PUCSORGLEFT
 10
0.0
 20
0.0
 30
0.0
  9
$PUCSORGRIGHT
 10
0.0
 20
0.0
 30
0.0
  9
$PUCSORGFRONT
 10
0.0
 20
0.0
 30
0.0
  9
$PUCSORGBACK
 10
0.0
 20
0.0
 30
0.0
  9
$USERI1
 70
     0
  9
$USERI2
 70
     0
  9
$USERI3
 70
     0
  9
$USERI4
 70
     0
  9
$USERI5
 70
     0
  9
$USERR1
 40
0.0
  9
$USERR2
 40
0.0
  9
$USERR3
 40
0.0
  9
$USERR4
 40
0.0
  9
$USERR5
 40
0.0
  9
$WORLDVIEW
 70
     1
  9
$SHADEDGE
 70
     3
  9
$SHADEDIF
 70
    70
  9
$TILEMODE
 70
     1
  9
$MAXACTVP
 70
    64
  9
$PINSBASE
 10
0.0
 20
0.0
 30
0.0
  9
$PLIMCHECK
 70
     0
  9
$PEXTMIN
 10
1.000000000000000E+20
 20
1.000000000000000E+20
 30
1.000000000000000E+20
  9
$PEXTMAX
 10
-1.000000000000000E+20
 20
-1.000000000000000E+20
 30
-1.000000000000000E+20
  9
$PLIMMIN
 10
0.0
 20
0.0
  9
$PLIMMAX
 10
0.0
 20
0.0
  9
$UNITMODE
 70
     0
  9
$VISRETAIN
 70
     1
  9
$PLINEGEN
 70
     0
  9
$PSLTSCALE
 70
     1
  9
$TREEDEPTH
 70
  3020
  9
$CMLSTYLE
  2
Standard
  9
$CMLJUST
 70
     0
  9
$CMLSCALE
 40
20.0
  9
$PROXYGRAPHICS
 70
     1
  9
$MEASUREMENT
 70
     1
  9
$CELWEIGHT
370
    -1
  9
$ENDCAPS
280
     0
  9
$JOINSTYLE
280
     0
  9
$LWDISPLAY
290
     1
  9
$INSUNITS
 70
     4
  9
$HYPERLINKBASE
  1

  9
$STYLESHEET
  1

  9
$XEDIT
290
     1
  9
$CEPSNTYPE
380
     0
  9
$PSTYLEMODE
290
     1
  9
$FINGERPRINTGUID
  2
{BB3C7A15-7188-41D7-B58F-71BD67A232F6}
  9
$VERSIONGUID
  2
{FAEB1C32-E019-11D5-929B-00C0DF256EC4}
  9
$EXTNAMES
290
     1
  9
$PSVPSCALE
 40
0.0
  9
$OLESTARTUP
290
     0
  0
ENDSEC
  0
SECTION
  2
CLASSES
  0
CLASS
  1
ACDBDICTIONARYWDFLT
  2
AcDbDictionaryWithDefault
  3
ObjectDBX Classes
 90
        0
280
     0
281
     0
  0
CLASS
  1
VISUALSTYLE
  2
AcDbVisualStyle
  3
ObjectDBX Classes
 90
     4095
280
     0
281
     0
  0
CLASS
  1
MATERIAL
  2
AcDbMaterial
  3
ObjectDBX Classes
 90
     1153
280
     0
281
     0
  0
CLASS
  1
SCALE
  2
AcDbScale
  3
ObjectDBX Classes
 90
     1153
280
     0
281
     0
  0
CLASS
  1
TABLESTYLE
  2
AcDbTableStyle
  3
ObjectDBX Classes
 90
     4095
280
     0
281
     0
  0
CLASS
  1
MLEADERSTYLE
  2
AcDbMLeaderStyle
  3
ACDB_MLEADERSTYLE_CLASS
 90
     4095
280
     0
281
     0
  0
CLASS
  1
SUN
  2
AcDbSun
  3
SCENEOE
 90
     1153
280
     0
281
     0
  0
CLASS
  1
ACDBPLACEHOLDER
  2
AcDbPlaceHolder
  3
ObjectDBX Classes
 90
        0
280
     0
281
     0
  0
CLASS
  1
LAYOUT
  2
AcDbLayout
  3
ObjectDBX Classes
 90
        0
280
     0
281
     0
  0
ENDSEC
  0
SECTION
  2
TABLES
  0
TABLE
  2
VPORT
  5
8
330
0
100
AcDbSymbolTable
 70
     1
  0
VPORT
  5
29
330
8
100
AcDbSymbolTableRecord
100
AcDbViewportTableRecord
  2
*Active
 70
     0
 10
0.0
 20
0.0
 11
1.0
 21
1.0
 12
-4.213280246161951
 22
-9.36004398247123
 13
0.0
 23
0.0
 14
10.0
 24
10.0
 15
10.0
 25
10.0
 16
0.0
 26
0.0
 36
1.0
 17
0.0
 27
0.0
 37
0.0
 40
35.27399164749651
 41
1.531481481481481
 42
50.0
 43
0.0
 44
0.0
 50
0.0
 51
0.0
 71
    16
 72
  2000
 73
     1
 74
     3
 75
     0
 76
     0
 77
     0
 78
     0
281
     0
 65
     1
110
0.0
120
0.0
130
0.0
111
1.0
121
0.0
131
0.0
112
0.0
122
1.0
132
0.0
 79
     0
146
0.0
  0
ENDTAB
  0
TABLE
  2
LTYPE
  5
5
330
0
100
AcDbSymbolTable
 70
     6
  0
LTYPE
  5
14
330
5
100
AcDbSymbolTableRecord
100
AcDbLinetypeTableRecord
  2
ByBlock
 70
     0
  3

 72
    65
 73
     0
 40
0.0
  0
LTYPE
  5
15
330
5
100
AcDbSymbolTableRecord
100
AcDbLinetypeTableRecord
  2
ByLayer
 70
     0
  3

 72
    65
 73
     0
 40
0.0
  0
LTYPE
  5
16
330
5
100
AcDbSymbolTableRecord
100
AcDbLinetypeTableRecord
  2
Continuous
 70
     0
  3
Solid line
 72
    65
 73
     0
 40
0.0
  0
LTYPE
  5
6E
330
5
100
AcDbSymbolTableRecord
100
AcDbLinetypeTableRecord
  2
HIDDEN
 70
     0
  3
Hidden __ __ __ __ __ __ __ __ __ __ __ __ __ __
 72
    65
 73
     2
 40
1.905
 49
1.27
 74
     0
 49
-0.635
 74
     0
  0
LTYPE
  5
6F
330
5
100
AcDbSymbolTableRecord
100
AcDbLinetypeTableRecord
  2
PHANTOM
 70
     0
  3
Phantom ______  __  __  ______  __  __  ______
 72
    65
 73
     6
 40
12.7
 49
6.35
 74
     0
 49
-1.27
 74
     0
 49
1.27
 74
     0
 49
-1.27
 74
     0
 49
1.27
 74
     0
 49
-1.27
 74
     0
  0
LTYPE
  5
70
330
5
100
AcDbSymbolTableRecord
100
AcDbLinetypeTableRecord
  2
CENTER
 70
     0
  3
Center ____ _ ____ _ ____ _ ____ _ ____ _ ____
 72
    65
 73
     4
 40
10.16
 49
6.35
 74
     0
 49
-1.27
 74
     0
 49
1.27
 74
     0
 49
-1.27
 74
     0
  0
LTYPE
  5
71
330
5
100
AcDbSymbolTableRecord
100
AcDbLinetypeTableRecord
  2
CENTERX2
 70
     0
  3
Center (2x) ________  __  ________  __  _____
 72
    65
 73
     4
 40
20.32
 49
12.7
 74
     0
 49
-2.54
 74
     0
 49
2.54
 74
     0
 49
-2.54
 74
     0
  0
LTYPE
  5
72
330
5
100
AcDbSymbolTableRecord
100
AcDbLinetypeTableRecord
  2
DOT2
 70
     0
  3
Dot (.5x) ........................................
 72
    65
 73
     2
 40
0.635
 49
0.0
 74
     0
 49
-0.635
 74
     0
  0
ENDTAB
  0
TABLE
  2
LAYER
  5
2
330
0
100
AcDbSymbolTable
 70
    17
  0
LAYER
  5
10
330
2
100
AcDbSymbolTableRecord
100
AcDbLayerTableRecord
  2
0
 70
     0
 62
     7
  6
Continuous
370
    -3
390
F
  0
LAYER
  5
73
330
2
100
AcDbSymbolTableRecord
100
AcDbLayerTableRecord
  2
FORMAT
 70
     0
 62
     2
  6
Continuous
370
    -3
390
F
  0
LAYER
  5
74
330
2
100
AcDbSymbolTableRecord
100
AcDbLayerTableRecord
  2
외형선
 70
     0
 62
   100
  6
Continuous
370
    35
390
F
  0
LAYER
  5
75
330
2
100
AcDbSymbolTableRecord
100
AcDbLayerTableRecord
  2
숨은선
 70
     0
 62
     2
  6
HIDDEN
370
    25
390
F
  0
LAYER
  5
76
330
2
100
AcDbSymbolTableRecord
100
AcDbLayerTableRecord
  2
중심선
 70
     0
 62
     1
  6
CENTERX2
370
    -3
390
F
  0
LAYER
  5
77
330
2
100
AcDbSymbolTableRecord
100
AcDbLayerTableRecord
  2
파단선
 70
     0
 62
     4
  6
Continuous
370
    -3
390
F
  0
LAYER
  5
78
330
2
100
AcDbSymbolTableRecord
100
AcDbLayerTableRecord
  2
해칭선
 70
     0
 62
   100
  6
Continuous
370
    -3
390
F
  0
LAYER
  5
79
330
2
100
AcDbSymbolTableRecord
100
AcDbLayerTableRecord
  2
가는실선
 70
     0
 62
     4
  6
Continuous
370
    -3
390
F
  0
LAYER
  5
7A
330
2
100
AcDbSymbolTableRecord
100
AcDbLayerTableRecord
  2
치수_보조선
 70
     0
 62
     4
  6
Continuous
370
    -3
390
F
  0
LAYER
  5
7B
330
2
100
AcDbSymbolTableRecord
100
AcDbLayerTableRecord
  2
치수문자_일반주서
 70
     0
 62
     7
  6
Continuous
370
    25
390
F
  0
LAYER
  5
7C
330
2
100
AcDbSymbolTableRecord
100
AcDbLayerTableRecord
  2
개별주서
 70
     0
 62
   100
  6
Continuous
370
    35
390
F
  0
LAYER
  5
7D
330
2
100
AcDbSymbolTableRecord
100
AcDbLayerTableRecord
  2
중간선
 70
     0
 62
     2
  6
Continuous
370
    25
390
F
  0
LAYER
  5
7E
330
2
100
AcDbSymbolTableRecord
100
AcDbLayerTableRecord
  2
윤곽선
 70
     0
 62
     3
  6
Continuous
370
    50
390
F
  0
LAYER
  5
7F
330
2
100
AcDbSymbolTableRecord
100
AcDbLayerTableRecord
  2
중심마크
 70
     0
 62
   100
  6
Continuous
370
    35
390
F
  0
LAYER
  5
80
330
2
100
AcDbSymbolTableRecord
100
AcDbLayerTableRecord
  2
가상선
 70
     0
 62
     4
  6
PHANTOM
370
    -3
390
F
  0
LAYER
  5
81
330
2
100
AcDbSymbolTableRecord
100
AcDbLayerTableRecord
  2
특수지정선
 70
     0
 62
     5
  6
CENTERX2
370
    70
390
F
  0
LAYER
  5
147
330
2
100
AcDbSymbolTableRecord
100
AcDbLayerTableRecord
  2
Defpoints
 70
     0
 62
     7
  6
Continuous
290
     0
370
    -3
390
F
  0
ENDTAB
  0
TABLE
  2
STYLE
  5
3
330
0
100
AcDbSymbolTable
 70
     2
  0
STYLE
  5
11
330
3
100
AcDbSymbolTableRecord
100
AcDbTextStyleTableRecord
  2
Standard
 70
     0
 40
0.0
 41
1.0
 50
0.0
 71
     0
 42
3.5
  3
txt
  4

  0
STYLE
  5
97
330
3
100
AcDbSymbolTableRecord
100
AcDbTextStyleTableRecord
  2
SLDTEXTSTYLE0
 70
     0
 40
0.0
 41
0.75
 50
0.0
 71
     0
 42
3.5
  3
TXT
  4

  0
ENDTAB
  0
TABLE
  2
VIEW
  5
6
330
0
100
AcDbSymbolTable
 70
     0
  0
ENDTAB
  0
TABLE
  2
UCS
  5
7
330
0
100
AcDbSymbolTable
 70
     0
  0
ENDTAB
  0
TABLE
  2
APPID
  5
9
330
0
100
AcDbSymbolTable
 70
     2
  0
APPID
  5
12
330
9
100
AcDbSymbolTableRecord
100
AcDbRegAppTableRecord
  2
ACAD
 70
     0
  0
APPID
  5
14C
330
9
100
AcDbSymbolTableRecord
100
AcDbRegAppTableRecord
  2
PE_URL
 70
     0
  0
ENDTAB
  0
TABLE
  2
DIMSTYLE
  5
A
330
0
100
AcDbSymbolTable
 70
     5
100
AcDbDimStyleTable
  0
DIMSTYLE
105
27
330
A
100
AcDbSymbolTableRecord
100
AcDbDimStyleTableRecord
  2
ISO-25
 70
     0
 41
2.5
 42
0.625
 43
3.75
 44
1.25
 73
     0
 74
     0
 77
     1
 78
     8
140
2.5
141
2.5
143
0.03937007874016
147
0.625
171
     3
172
     1
178
     0
271
     2
272
     2
274
     3
278
    44
283
     0
284
     8
340
11
  0
DIMSTYLE
105
E1
102
{ACAD_REACTORS
330
E0
102
}
330
A
100
AcDbSymbolTableRecord
100
AcDbDimStyleTableRecord
  2
SLDDIMSTYLE0
 70
     0
 41
3.302
 44
0.0
 45
0.000000001
 73
     0
 74
     0
 77
     1
 78
    12
 79
     3
140
3.5
147
0.875
172
     1
173
     1
178
     0
271
     1
272
     1
276
     2
284
    12
289
     0
340
97
  0
DIMSTYLE
105
EF
102
{ACAD_REACTORS
330
EE
330
114
102
}
330
A
100
AcDbSymbolTableRecord
100
AcDbDimStyleTableRecord
  2
SLDDIMSTYLE1
 70
     0
 41
3.302
 44
0.0
 45
0.000000001
 73
     0
 74
     0
 77
     1
 78
    12
 79
     3
140
3.5
147
0.875
173
     1
178
     0
271
     2
272
     2
276
     2
284
    12
340
97
  0
DIMSTYLE
105
FA
102
{ACAD_REACTORS
330
F9
102
}
330
A
100
AcDbSymbolTableRecord
100
AcDbDimStyleTableRecord
  2
SLDDIMSTYLE2
 70
     0
 41
3.302
 44
0.0
 45
0.000000001
 73
     0
 74
     0
 77
     1
 78
    12
 79
     3
140
3.5
147
0.875
172
     1
173
     1
178
     0
271
     2
272
     2
276
     2
284
    12
289
     0
340
97
  0
DIMSTYLE
105
108
102
{ACAD_REACTORS
330
107
102
}
330
A
100
AcDbSymbolTableRecord
100
AcDbDimStyleTableRecord
  2
SLDDIMSTYLE3
 70
     0
 41
3.302
 44
0.0
 45
0.000000001
 73
     0
 74
     0
 77
     1
 78
     4
 79
     1
140
3.5
147
0.875
172
     1
173
     1
178
     0
271
     2
272
     2
276
     2
284
    12
289
     0
340
97
  0
ENDTAB
  0
TABLE
  2
BLOCK_RECORD
  5
1
330
0
100
AcDbSymbolTable
 70
     8
  0
BLOCK_RECORD
  5
1F
102
{ACAD_XDICTIONARY
360
17A
102
}
330
1
100
AcDbSymbolTableRecord
100
AcDbBlockTableRecord
  2
*Model_Space
340
22
  0
BLOCK_RECORD
  5
1B
330
1
100
AcDbSymbolTableRecord
100
AcDbBlockTableRecord
  2
*Paper_Space
340
1E
  0
BLOCK_RECORD
  5
23
330
1
100
AcDbSymbolTableRecord
100
AcDbBlockTableRecord
  2
*Paper_Space0
340
26
  0
BLOCK_RECORD
  5
82
330
1
100
AcDbSymbolTableRecord
100
AcDbBlockTableRecord
  2
블럭10
340
0
102
{BLKREFS
331
D9
102
}
  0
BLOCK_RECORD
  5
E2
330
1
100
AcDbSymbolTableRecord
100
AcDbBlockTableRecord
  2
_D
340
0
  0
BLOCK_RECORD
  5
F0
330
1
100
AcDbSymbolTableRecord
100
AcDbBlockTableRecord
  2
_D_1
340
0
  0
BLOCK_RECORD
  5
FB
330
1
100
AcDbSymbolTableRecord
100
AcDbBlockTableRecord
  2
_D_2
340
0
  0
BLOCK_RECORD
  5
109
330
1
100
AcDbSymbolTableRecord
100
AcDbBlockTableRecord
  2
_D_3
340
0
  0
BLOCK_RECORD
  5
115
330
1
100
AcDbSymbolTableRecord
100
AcDbBlockTableRecord
  2
_D_4
340
0
  0
BLOCK_RECORD
  5
11E
330
1
100
AcDbSymbolTableRecord
100
AcDbBlockTableRecord
  2
SW_DOWELSYMBOL_0
340
0
102
{BLKREFS
331
124
102
}
  0
ENDTAB
  0
ENDSEC
  0
SECTION
  2
BLOCKS
  0
BLOCK
  5
20
330
1F
100
AcDbEntity
  8
0
100
AcDbBlockBegin
  2
*Model_Space
 70
     0
 10
0.0
 20
0.0
 30
0.0
  3
*Model_Space
  1

  0
ENDBLK
  5
21
330
1F
100
AcDbEntity
  8
0
100
AcDbBlockEnd
  0
BLOCK
  5
1C
330
1B
100
AcDbEntity
 67
     1
  8
0
100
AcDbBlockBegin
  2
*Paper_Space
 70
     0
 10
0.0
 20
0.0
 30
0.0
  3
*Paper_Space
  1

  0
ENDBLK
  5
1D
330
1B
100
AcDbEntity
 67
     1
  8
0
100
AcDbBlockEnd
  0
BLOCK
  5
24
330
23
100
AcDbEntity
  8
0
100
AcDbBlockBegin
  2
*Paper_Space0
 70
     0
 10
0.0
 20
0.0
 30
0.0
  3
*Paper_Space0
  1

  0
ENDBLK
  5
25
330
23
100
AcDbEntity
  8
0
100
AcDbBlockEnd
  0
BLOCK
  5
83
330
82
100
AcDbEntity
  8
0
100
AcDbBlockBegin
  2
블럭10
 70
     2
 10
0.0
 20
0.0
 30
0.0
  3
블럭10
  1

  0
ELLIPSE
  5
85
330
82
100
AcDbEntity
  8
중심선
100
AcDbEllipse
 10
20.54032771741204
 20
12.0471743016438
 30
0.0
 11
6.600054785286829
 21
-1.261213355974178E-13
 31
0.0
210
0.0
220
0.0
230
1.0
 40
0.636358354079598
 41
0.9219305317359503
 42
6.513795318482858
  0
ELLIPSE
  5
86
330
82
100
AcDbEntity
  8
중심선
100
AcDbEllipse
 10
20.54032771746488
 20
12.04717430159265
 30
0.0
 11
3.960054785062283
 21
1.540847449632565E-10
 31
0.0
210
0.0
220
0.0
230
1.0
 40
0.3939339440162632
 41
1.131841032648279
 42
5.62031148352944
  0
LINE
  5
87
330
82
100
AcDbEntity
  8
중심선
100
AcDbLine
 10
2.268634060543552
 20
16.24717430164393
 30
0.0
 11
5.714909304380834
 21
16.24717430164393
 31
0.0
  0
LINE
  5
88
330
82
100
AcDbEntity
  8
중심선
100
AcDbLine
 10
5.245725140726316
 20
7.84717430164391
 30
0.0
 11
8.692000384563599
 21
7.84717430164391
 31
0.0
  0
LINE
  5
89
330
82
100
AcDbEntity
  8
중심선
100
AcDbLine
 10
15.74043728645272
 20
16.24717430164393
 30
0.0
 11
8.692000384563599
 21
7.84717430164391
 31
0.0
  0
LINE
  5
8A
330
82
100
AcDbEntity
  8
중심선
100
AcDbLine
 10
0.1404042013395286
 20
13.71084872107135
 30
0.0
 11
3.58671253028996
 21
13.71088815037384
 31
0.0
  0
LINE
  5
8B
330
82
100
AcDbEntity
  8
중심선
100
AcDbLine
 10
2.750260043222114
 20
10.84717430164391
 30
0.0
 11
6.196535287059397
 21
10.84717430164391
 31
0.0
  0
LINE
  5
8C
330
82
100
AcDbEntity
  8
중심선
100
AcDbLine
 10
12.29416204261559
 20
16.24717430164393
 30
0.0
 11
5.245725140726316
 21
7.84717430164391
 31
0.0
  0
LINE
  5
8D
330
82
100
AcDbEntity
  8
중심선
100
AcDbLine
 10
10.72767329541681
 20
16.24717430164393
 30
0.0
 11
6.196535287059397
 21
10.84717430164391
 31
0.0
  0
LINE
  5
8E
330
82
100
AcDbEntity
  8
중심선
100
AcDbLine
 10
7.28139805157953
 20
16.24717430164393
 30
0.0
 11
2.750260043222114
 21
10.84717430164391
 31
0.0
  0
LINE
  5
8F
330
82
100
AcDbEntity
  8
중심선
100
AcDbLine
 10
5.714909304380834
 20
16.24717430164393
 30
0.0
 11
3.58671253028996
 21
13.71088815037384
 31
0.0
  0
LINE
  5
90
330
82
100
AcDbEntity
  8
중심선
100
AcDbLine
 10
2.268634060543552
 20
16.24717430164393
 30
0.0
 11
0.1404042013395286
 21
13.71084872107135
 31
0.0
  0
LINE
  5
91
330
82
100
AcDbEntity
  8
중심선
100
AcDbLine
 10
7.28139805157953
 20
16.24717430164393
 30
0.0
 11
10.72767329541681
 21
16.24717430164393
 31
0.0
  0
LINE
  5
92
330
82
100
AcDbEntity
  8
중심선
100
AcDbLine
 10
12.29416204261559
 20
16.24717430164393
 30
0.0
 11
15.74043728645272
 21
16.24717430164393
 31
0.0
  0
LINE
  5
93
330
82
100
AcDbEntity
  8
중심선
100
AcDbLine
 10
19.22036997980202
 20
11.08717430171403
 30
0.0
 11
23.66174974927406
 21
11.08717430171406
 31
0.0
  0
LINE
  5
94
330
82
100
AcDbEntity
  8
중심선
100
AcDbLine
 10
19.22039502424796
 20
13.00717430171391
 30
0.0
 11
19.22036997980202
 21
11.08717430171403
 31
0.0
  0
LINE
  5
95
330
82
100
AcDbEntity
  8
중심선
100
AcDbLine
 10
19.22039502424796
 20
13.00717430171391
 30
0.0
 11
26.96566020931264
 21
13.00717430171391
 31
0.0
  0
LINE
  5
96
330
82
100
AcDbEntity
  8
중심선
100
AcDbLine
 10
22.22332737316547
 20
13.45928029700563
 30
0.0
 11
24.52862924686651
 21
15.39360700705356
 31
0.0
  0
ATTDEF
  5
98
330
82
100
AcDbEntity
  8
FORMAT
 62
     2
100
AcDbText
 10
-16.11926103943555
 20
2.075366912832191
 30
0.0
 40
4.233333333333333
  1
SEME7302022E [ 4 FLUTE ]
 41
0.75
  7
SLDTEXTSTYLE0
 11
-16.11926103943555
 21
-0.0412997538344756
 31
0.0
100
AcDbAttributeDefinition
  3

  2
AUTOATTR0
 70
     0
 74
     1
  0
ENDBLK
  5
84
330
82
100
AcDbEntity
  8
0
100
AcDbBlockEnd
  0
BLOCK
  5
E3
330
E2
100
AcDbEntity
  8
0
100
AcDbBlockBegin
  2
_D
 70
     0
 10
0.0
 20
0.0
 30
0.0
  3
_D
  1

  0
LINE
  5
E5
330
E2
100
AcDbEntity
  8
치수문자_일반주서
 62
     0
370
    -2
100
AcDbLine
 10
25.88785207775812
 20
-0.9949874371066187
 30
0.0
 11
37.27473782819683
 21
-0.9949874371065768
 31
0.0
  0
LINE
  5
E6
330
E2
100
AcDbEntity
  8
치수문자_일반주서
 62
     0
370
    -2
100
AcDbLine
 10
25.8878520777581
 20
0.9751656983552576
 30
0.0
 11
37.27473782819682
 21
0.9751656983552994
 31
0.0
  0
LINE
  5
E7
330
E2
100
AcDbEntity
  8
치수문자_일반주서
 62
     0
370
    -2
100
AcDbLine
 10
37.27473782819682
 20
0.9751656983552994
 30
0.0
 11
37.27473782819677
 21
13.70416569835531
 31
0.0
  0
LINE
  5
E8
330
E2
100
AcDbEntity
  8
치수문자_일반주서
 62
     0
370
    -2
100
AcDbLine
 10
37.27473782819683
 20
-0.9949874371065768
 30
0.0
 11
37.27473782819682
 21
0.9751656983552994
 31
0.0
  0
LINE
  5
E9
330
E2
100
AcDbEntity
  8
치수문자_일반주서
 62
     0
370
    -2
100
AcDbLine
 10
37.27473782819684
 20
-4.296987437106576
 30
0.0
 11
37.27473782819686
 21
-7.598987437106576
 31
0.0
  0
LINE
  5
EA
330
E2
100
AcDbEntity
  8
치수문자_일반주서
 62
     0
370
    -2
100
AcDbLine
 10
37.27473782819681
 20
4.277165698355299
 30
0.0
 11
37.27473782819679
 21
7.579165698355299
 31
0.0
  0
SOLID
  5
EB
330
E2
100
AcDbEntity
  8
치수문자_일반주서
 62
     0
100
AcDbTrace
 10
37.82507116153018
 20
-4.296987437106575
 30
0.0
 11
36.72440449486351
 21
-4.296987437106578
 31
0.0
 12
37.27473782819683
 22
-0.9949874371065768
 32
0.0
 13
37.27473782819683
 23
-0.9949874371065768
 33
0.0
  0
SOLID
  5
EC
330
E2
100
AcDbEntity
  8
치수문자_일반주서
 62
     0
100
AcDbTrace
 10
36.72440449486347
 20
4.277165698355297
 30
0.0
 11
37.82507116153014
 21
4.277165698355301
 31
0.0
 12
37.27473782819682
 22
0.9751656983552994
 32
0.0
 13
37.27473782819682
 23
0.9751656983552994
 33
0.0
  0
MTEXT
  5
ED
330
E2
100
AcDbEntity
  8
치수문자_일반주서
 62
     0
100
AcDbMText
 10
32.89973782819678
 20
10.64166569835529
 30
0.0
 40
3.5
 41
0.0
 71
     2
 72
     1
  1
\A1;%%c2
  7
SLDTEXTSTYLE0
 11
-3.606535568076656E-15
 21
1.0
 31
0.0
 73
     1
 44
1.0
  0
POINT
  5
14E
330
E2
100
AcDbEntity
  8
Defpoints
 62
     0
100
AcDbPoint
 10
25.82535207775812
 20
-0.994987437106619
 30
0.0
  0
POINT
  5
14F
330
E2
100
AcDbEntity
  8
Defpoints
 62
     0
100
AcDbPoint
 10
25.8253520777581
 20
0.9751656983552573
 30
0.0
  0
POINT
  5
150
330
E2
100
AcDbEntity
  8
Defpoints
 62
     0
100
AcDbPoint
 10
37.27473782819681
 20
0.9751656983553001
 30
0.0
  0
ENDBLK
  5
E4
330
E2
100
AcDbEntity
  8
0
100
AcDbBlockEnd
  0
BLOCK
  5
F1
330
F0
100
AcDbEntity
  8
0
100
AcDbBlockBegin
  2
_D_1
 70
     0
 10
0.0
 20
0.0
 30
0.0
  3
_D_1
  1

  0
LINE
  5
F3
330
F0
100
AcDbEntity
  8
치수문자_일반주서
 62
     0
370
    -2
100
AcDbLine
 10
-34.17464792224188
 20
1.562499999999993
 30
0.0
 11
-34.17464792224188
 21
36.00000000000003
 31
0.0
  0
LINE
  5
F4
330
F0
100
AcDbEntity
  8
치수문자_일반주서
 62
     0
370
    -2
100
AcDbLine
 10
25.8253520777581
 20
1.037665698355257
 30
0.0
 11
25.8253520777581
 21
36.00000000000003
 31
0.0
  0
LINE
  5
F5
330
F0
100
AcDbEntity
  8
치수문자_일반주서
 62
     0
370
    -2
100
AcDbLine
 10
-30.87264792224188
 20
36.00000000000003
 30
0.0
 11
22.5233520777581
 21
36.00000000000003
 31
0.0
  0
SOLID
  5
F6
330
F0
100
AcDbEntity
  8
치수문자_일반주서
 62
     0
100
AcDbTrace
 10
-30.87264792224188
 20
36.55033333333336
 30
0.0
 11
-30.87264792224188
 21
35.44966666666669
 31
0.0
 12
-34.17464792224188
 22
36.00000000000003
 32
0.0
 13
-34.17464792224188
 23
36.00000000000003
 33
0.0
  0
SOLID
  5
F7
330
F0
100
AcDbEntity
  8
치수문자_일반주서
 62
     0
100
AcDbTrace
 10
22.5233520777581
 20
35.44966666666669
 30
0.0
 11
22.5233520777581
 21
36.55033333333336
 31
0.0
 12
25.8253520777581
 22
36.00000000000003
 32
0.0
 13
25.8253520777581
 23
36.00000000000003
 33
0.0
  0
MTEXT
  5
F8
330
F0
100
AcDbEntity
  8
치수문자_일반주서
 62
     0
100
AcDbMText
 10
-4.174647922241888
 20
40.37500000000003
 30
0.0
 40
3.5
 41
0.0
 71
     2
 72
     1
  1
\A1;60
  7
SLDTEXTSTYLE0
 73
     1
 44
1.0
  0
POINT
  5
148
330
F0
100
AcDbEntity
  8
Defpoints
 62
     0
100
AcDbPoint
 10
-34.17464792224188
 20
1.499999999999993
 30
0.0
  0
POINT
  5
149
330
F0
100
AcDbEntity
  8
Defpoints
 62
     0
100
AcDbPoint
 10
25.8253520777581
 20
0.9751656983552575
 30
0.0
  0
POINT
  5
14A
330
F0
100
AcDbEntity
  8
Defpoints
 62
     0
100
AcDbPoint
 10
25.8253520777581
 20
36.00000000000003
 30
0.0
  0
ENDBLK
  5
F2
330
F0
100
AcDbEntity
  8
0
100
AcDbBlockEnd
  0
BLOCK
  5
FC
330
FB
100
AcDbEntity
  8
0
100
AcDbBlockBegin
  2
_D_2
 70
     0
 10
0.0
 20
0.0
 30
0.0
  3
_D_2
  1

  0
LINE
  5
FE
330
FB
100
AcDbEntity
  8
치수문자_일반주서
 62
     0
370
    -2
100
AcDbLine
 10
-33.73714792224188
 20
2.000000000000001
 30
0.0
 11
-47.66728748386178
 21
1.999999999999949
 31
0.0
  0
LINE
  5
FF
330
FB
100
AcDbEntity
  8
치수문자_일반주서
 62
     0
370
    -2
100
AcDbLine
 10
-33.73714792224188
 20
-2.000000000000002
 30
0.0
 11
-47.66728748386177
 21
-2.000000000000054
 31
0.0
  0
LINE
  5
100
330
FB
100
AcDbEntity
  8
치수문자_일반주서
 62
     0
370
    -2
100
AcDbLine
 10
-47.66728748386177
 20
-1.302000000000051
 30
0.0
 11
-47.66728748386178
 21
1.301999999999946
 31
0.0
  0
SOLID
  5
101
330
FB
100
AcDbEntity
  8
치수문자_일반주서
 62
     0
100
AcDbTrace
 10
-47.11695415052844
 20
-1.302000000000049
 30
0.0
 11
-48.2176208171951
 21
-1.302000000000053
 31
0.0
 12
-47.66728748386178
 22
1.999999999999949
 32
0.0
 13
-47.66728748386178
 23
1.999999999999949
 33
0.0
  0
SOLID
  5
102
330
FB
100
AcDbEntity
  8
치수문자_일반주서
 62
     0
100
AcDbTrace
 10
-48.21762081719512
 20
1.301999999999944
 30
0.0
 11
-47.11695415052845
 21
1.301999999999948
 31
0.0
 12
-47.66728748386177
 22
-2.000000000000054
 32
0.0
 13
-47.66728748386177
 23
-2.000000000000054
 33
0.0
  0
MTEXT
  5
103
330
FB
100
AcDbEntity
  8
치수문자_일반주서
 62
     0
100
AcDbMText
 10
-52.04228748386178
 20
-0.7264638992030967
 30
0.0
 40
3.5
 41
0.0
 71
     2
 72
     1
  1
\A1;%%c4
  7
SLDTEXTSTYLE0
 11
-3.552713678800499E-15
 21
1.0
 31
0.0
 73
     1
 44
1.0
  0
POINT
  5
104
330
FB
100
AcDbEntity
  8
Defpoints
 62
     0
100
AcDbPoint
 10
-33.67464792224188
 20
2.000000000000002
 30
0.0
  0
POINT
  5
105
330
FB
100
AcDbEntity
  8
Defpoints
 62
     0
100
AcDbPoint
 10
-33.67464792224188
 20
-2.000000000000001
 30
0.0
  0
POINT
  5
106
330
FB
100
AcDbEntity
  8
Defpoints
 62
     0
100
AcDbPoint
 10
-47.66728748386178
 20
-2.000000000000054
 30
0.0
  0
ENDBLK
  5
FD
330
FB
100
AcDbEntity
  8
0
100
AcDbBlockEnd
  0
BLOCK
  5
10A
330
109
100
AcDbEntity
  8
0
100
AcDbBlockBegin
  2
_D_3
 70
     0
 10
0.0
 20
0.0
 30
0.0
  3
_D_3
  1

  0
LINE
  5
10C
330
109
100
AcDbEntity
  8
치수문자_일반주서
 62
     0
370
    -2
100
AcDbLine
 10
22.8253520777581
 20
0.955846099490547
 30
0.0
 11
22.8253520777581
 21
15.75654124841258
 31
0.0
  0
LINE
  5
10D
330
109
100
AcDbEntity
  8
치수문자_일반주서
 62
     0
370
    -2
100
AcDbLine
 10
25.8253520777581
 20
1.037665698355261
 30
0.0
 11
25.8253520777581
 21
15.75654124841258
 31
0.0
  0
LINE
  5
10E
330
109
100
AcDbEntity
  8
치수문자_일반주서
 62
     0
370
    -2
100
AcDbLine
 10
25.8253520777581
 20
15.75654124841258
 30
0.0
 11
41.1793520777581
 21
15.75654124841258
 31
0.0
  0
LINE
  5
10F
330
109
100
AcDbEntity
  8
치수문자_일반주서
 62
     0
370
    -2
100
AcDbLine
 10
22.8253520777581
 20
15.75654124841258
 30
0.0
 11
25.8253520777581
 21
15.75654124841258
 31
0.0
  0
LINE
  5
110
330
109
100
AcDbEntity
  8
치수문자_일반주서
 62
     0
370
    -2
100
AcDbLine
 10
19.5233520777581
 20
15.75654124841258
 30
0.0
 11
16.22135207775811
 21
15.75654124841258
 31
0.0
  0
LINE
  5
111
330
109
100
AcDbEntity
  8
치수문자_일반주서
 62
     0
370
    -2
100
AcDbLine
 10
29.1273520777581
 20
15.75654124841258
 30
0.0
 11
32.4293520777581
 21
15.75654124841258
 31
0.0
  0
SOLID
  5
112
330
109
100
AcDbEntity
  8
치수문자_일반주서
 62
     0
100
AcDbTrace
 10
19.5233520777581
 20
15.20620791507924
 30
0.0
 11
19.5233520777581
 21
16.30687458174591
 31
0.0
 12
22.8253520777581
 22
15.75654124841258
 32
0.0
 13
22.8253520777581
 23
15.75654124841258
 33
0.0
  0
SOLID
  5
113
330
109
100
AcDbEntity
  8
치수문자_일반주서
 62
     0
100
AcDbTrace
 10
29.1273520777581
 20
16.30687458174591
 30
0.0
 11
29.1273520777581
 21
15.20620791507924
 31
0.0
 12
25.8253520777581
 22
15.75654124841258
 32
0.0
 13
25.8253520777581
 23
15.75654124841258
 33
0.0
  0
MTEXT
  5
14B
330
109
100
AcDbEntity
  8
치수문자_일반주서
 62
     0
100
AcDbMText
 10
36.8043520777581
 20
20.13154124841257
 30
0.0
 40
3.5
 41
0.0
 71
     2
 72
     1
  1
\A1;3.00
  7
SLDTEXTSTYLE0
 73
     1
 44
1.0
  0
POINT
  5
151
330
109
100
AcDbEntity
  8
Defpoints
 62
     0
100
AcDbPoint
 10
22.8253520777581
 20
0.893346099490547
 30
0.0
  0
POINT
  5
152
330
109
100
AcDbEntity
  8
Defpoints
 62
     0
100
AcDbPoint
 10
25.8253520777581
 20
0.975165698355261
 30
0.0
  0
POINT
  5
153
330
109
100
AcDbEntity
  8
Defpoints
 62
     0
100
AcDbPoint
 10
25.8253520777581
 20
15.75654124841258
 30
0.0
  0
ENDBLK
  5
10B
330
109
100
AcDbEntity
  8
0
100
AcDbBlockEnd
  0
BLOCK
  5
116
330
115
100
AcDbEntity
  8
0
100
AcDbBlockBegin
  2
_D_4
 70
     0
 10
0.0
 20
0.0
 30
0.0
  3
_D_4
  1

  0
LINE
  5
118
330
115
100
AcDbEntity
  8
치수문자_일반주서
 62
     0
370
    -2
100
AcDbLine
 10
25.8253520777581
 20
1.042295897113272
 30
0.0
 11
25.8253520777581
 21
25.67958542346744
 31
0.0
  0
LINE
  5
119
330
115
100
AcDbEntity
  8
치수문자_일반주서
 62
     0
370
    -2
100
AcDbLine
 10
3.825352077758104
 20
1.037499999999996
 30
0.0
 11
3.825352077758104
 21
25.67958542346744
 31
0.0
  0
LINE
  5
11A
330
115
100
AcDbEntity
  8
치수문자_일반주서
 62
     0
370
    -2
100
AcDbLine
 10
22.5233520777581
 20
25.67958542346744
 30
0.0
 11
7.127352077758104
 21
25.67958542346744
 31
0.0
  0
SOLID
  5
11B
330
115
100
AcDbEntity
  8
치수문자_일반주서
 62
     0
100
AcDbTrace
 10
22.5233520777581
 20
25.12925209013411
 30
0.0
 11
22.5233520777581
 21
26.22991875680078
 31
0.0
 12
25.8253520777581
 22
25.67958542346744
 32
0.0
 13
25.8253520777581
 23
25.67958542346744
 33
0.0
  0
SOLID
  5
11C
330
115
100
AcDbEntity
  8
치수문자_일반주서
 62
     0
100
AcDbTrace
 10
7.127352077758104
 20
26.22991875680078
 30
0.0
 11
7.127352077758104
 21
25.12925209013411
 31
0.0
 12
3.825352077758104
 22
25.67958542346744
 32
0.0
 13
3.825352077758104
 23
25.67958542346744
 33
0.0
  0
MTEXT
  5
11D
330
115
100
AcDbEntity
  8
치수문자_일반주서
 62
     0
100
AcDbMText
 10
15.3195944571325
 20
30.05458542346744
 30
0.0
 40
3.5
 41
0.0
 71
     2
 72
     1
  1
\A1;22
  7
SLDTEXTSTYLE0
 73
     1
 44
1.0
  0
POINT
  5
154
330
115
100
AcDbEntity
  8
Defpoints
 62
     0
100
AcDbPoint
 10
25.8253520777581
 20
0.9797958971132722
 30
0.0
  0
POINT
  5
155
330
115
100
AcDbEntity
  8
Defpoints
 62
     0
100
AcDbPoint
 10
3.825352077758104
 20
0.9749999999999955
 30
0.0
  0
POINT
  5
156
330
115
100
AcDbEntity
  8
Defpoints
 62
     0
100
AcDbPoint
 10
3.825352077758104
 20
25.67958542346744
 30
0.0
  0
ENDBLK
  5
117
330
115
100
AcDbEntity
  8
0
100
AcDbBlockEnd
  0
BLOCK
  5
11F
330
11E
100
AcDbEntity
  8
0
100
AcDbBlockBegin
  2
SW_DOWELSYMBOL_0
 70
     0
 10
0.0
 20
0.0
 30
0.0
  3
SW_DOWELSYMBOL_0
  1

  0
CIRCLE
  5
121
330
11E
100
AcDbEntity
  8
해칭선
 62
     0
100
AcDbCircle
 10
0.0
 20
0.0
 30
0.0
 40
3.000000000000003
  0
HATCH
  5
122
330
11E
100
AcDbEntity
  8
0
  6
Continuous
 62
     0
370
    18
100
AcDbHatch
 10
0.0
 20
0.0
 30
0.0
210
0.0
220
0.0
230
1.0
  2
SOLID
 70
     1
 71
     0
 91
        1
 92
        0
 93
        3
 72
     2
 10
-0.0000000000000017
 20
-0.0000000000000035
 40
3.000000000000003
 50
0.0
 51
90.0
 73
     1
 72
     1
 10
-0.0000000000000017
 20
2.999999999999999
 11
-0.0000000000000017
 21
-0.0000000000000036
 72
     1
 10
-0.0000000000000017
 20
-0.0000000000000035
 11
3.000000000000001
 21
-0.0000000000000035
 97
        0
 75
     0
 76
     1
 98
        1
 10
0.0
 20
0.0
  0
HATCH
  5
123
330
11E
100
AcDbEntity
  8
0
  6
Continuous
 62
     0
370
    18
100
AcDbHatch
 10
0.0
 20
0.0
 30
0.0
210
0.0
220
0.0
230
1.0
  2
SOLID
 70
     1
 71
     0
 91
        1
 92
        0
 93
        3
 72
     2
 10
-0.0000000000000017
 20
-0.0000000000000035
 40
3.000000000000003
 50
180.0
 51
270.0000000000007
 73
     1
 72
     1
 10
-0.0000000000000017
 20
-3.000000000000006
 11
-0.0000000000000017
 21
-0.0000000000000036
 72
     1
 10
-0.0000000000000017
 20
-0.0000000000000035
 11
-3.000000000000004
 21
-0.0000000000000035
 97
        0
 75
     0
 76
     1
 98
        1
 10
0.0
 20
0.0
  0
ENDBLK
  5
120
330
11E
100
AcDbEntity
  8
0
100
AcDbBlockEnd
  0
ENDSEC
  0
SECTION
  2
ENTITIES
  0
LINE
  5
99
330
1F
100
AcDbEntity
  8
0
  6
Continuous
 62
     4
370
    25
100
AcDbLine
 10
-0.000000000000044
 20
2.0
 30
0.0
 11
-33.67464792224188
 21
1.99999999999999
 31
0.0
  0
LINE
  5
9A
330
1F
100
AcDbEntity
  8
0
  6
Continuous
 62
     4
370
    25
100
AcDbLine
 10
-33.67464792224188
 20
-2.000000000000003
 30
0.0
 11
0.0
 21
-1.999999999999993
 31
0.0
  0
LINE
  5
9B
330
1F
100
AcDbEntity
  8
0
  6
Continuous
 62
     4
370
    25
100
AcDbLine
 10
-33.67464792224188
 20
1.999999999999993
 30
0.0
 11
-34.17464792224188
 21
1.499999999999993
 31
0.0
  0
LINE
  5
9C
330
1F
100
AcDbEntity
  8
0
  6
Continuous
 62
     4
370
    25
100
AcDbLine
 10
-34.17464792224188
 20
-1.500000000000007
 30
0.0
 11
-33.67464792224188
 21
-2.000000000000007
 31
0.0
  0
LINE
  5
9D
330
1F
100
AcDbEntity
  8
0
  6
Continuous
 62
     4
370
    25
100
AcDbLine
 10
-0.0000000000000009
 20
-1.999999999999993
 30
0.0
 11
3.825352077758105
 21
-0.9749999999999845
 31
0.0
  0
LINE
  5
9F
330
1F
100
AcDbEntity
  8
0
  6
Continuous
 62
     4
370
    25
100
AcDbLine
 10
22.04255908467156
 20
0.9750000000000004
 30
0.0
 11
3.825352077758104
 21
0.9749999999999949
 31
0.0
  0
LINE
  5
A0
330
1F
100
AcDbEntity
  8
0
  6
Continuous
 62
     4
370
    25
100
AcDbLine
 10
3.825352077758104
 20
-0.9749999999999847
 30
0.0
 11
22.04255908467156
 21
-0.9749999999999791
 31
0.0
  0
LINE
  5
A1
330
1F
100
AcDbEntity
  8
0
  6
Continuous
 62
     1
370
    25
100
AcDbLine
 10
25.52826696515985
 20
-1.0
 30
0.0
 11
25.6825372770839
 21
-1.0
 31
0.0
1001
PE_URL
1000

  0
LINE
  5
A2
330
1F
100
AcDbEntity
  8
0
  6
Continuous
 62
     1
370
    25
100
AcDbLine
 10
23.82859340225846
 20
0.1549454168617572
 30
0.0
 11
23.84580835807628
 21
0.143243969194448
 31
0.0
1001
PE_URL
1000

  0
LINE
  5
A3
330
1F
100
AcDbEntity
  8
0
  6
Continuous
 62
     1
370
    25
100
AcDbLine
 10
25.67754289561642
 20
-0.1115745064203401
 30
0.0
 11
25.66162279587106
 21
-0.0993808744121915
 31
0.0
1001
PE_URL
1000

  0
SPLINE
  5
A4
330
1F
100
AcDbEntity
  8
0
  6
Continuous
 62
     1
370
    25
100
AcDbSpline
210
0.0
220
0.0
230
1.0
 70
     8
 71
     3
 72
     9
 73
     5
 74
     0
 42
0.000000001
 43
0.00000001
 40
0.0
 40
0.0
 40
0.0
 40
0.0
 40
0.5546061547549751
 40
1.0
 40
1.0
 40
1.0
 40
1.0
 10
25.8253520777581
 20
-0.2226314053672479
 30
0.0
 10
25.79836473855933
 20
-0.2028782337172656
 30
0.0
 10
25.7497043712565
 20
-0.1672616588187968
 30
0.0
 10
25.69977924124611
 20
-0.1287343379908763
 30
0.0
 10
25.67754289561642
 20
-0.1115745064203401
 30
0.0
1001
PE_URL
1000

  0
LINE
  5
A5
330
1F
100
AcDbEntity
  8
0
  6
Continuous
 62
     1
370
    25
100
AcDbLine
 10
24.03624407428476
 20
1.000000000000001
 30
0.0
 11
23.44454393888261
 21
1.000000000000001
 31
0.0
  0
LINE
  5
A6
330
1F
100
AcDbEntity
  8
0
  6
Continuous
 62
     4
370
    25
100
AcDbLine
 10
22.83693071356307
 20
-0.4611763172333109
 30
0.0
 11
22.8369307127665
 21
-0.461176442954095
 31
0.0
  0
LINE
  5
A7
330
1F
100
AcDbEntity
  8
0
  6
Continuous
 62
     1
370
    25
100
AcDbLine
 10
25.55784514356558
 20
1.000000000000001
 30
0.0
 11
25.52826696515985
 21
1.000000000000001
 31
0.0
1001
PE_URL
1000

  0
LINE
  5
A8
330
1F
100
AcDbEntity
  8
0
  6
Continuous
 62
     4
370
    25
100
AcDbLine
 10
0.0
 20
1.999999999999993
 30
0.0
 11
0.0
 21
-1.999999999999993
 31
0.0
  0
LINE
  5
A9
330
1F
100
AcDbEntity
  8
0
  6
Continuous
 62
     4
370
    25
100
AcDbLine
 10
-33.67464792224188
 20
1.999999999999994
 30
0.0
 11
-33.67464792224188
 21
-2.000000000000007
 31
0.0
  0
LINE
  5
AA
330
1F
100
AcDbEntity
  8
0
  6
Continuous
 62
     4
370
    25
100
AcDbLine
 10
-34.17464792224188
 20
1.499999999999993
 30
0.0
 11
-34.17464792224188
 21
-1.500000000000007
 31
0.0
  0
LINE
  5
AB
330
1F
100
AcDbEntity
  8
0
  6
Continuous
 62
     4
370
    25
100
AcDbLine
 10
3.825352077758104
 20
0.9749999999999955
 30
0.0
 11
3.825352077758104
 21
-0.9749999999999858
 31
0.0
  0
SPLINE
  5
AC
330
1F
100
AcDbEntity
  8
0
  6
Continuous
 62
     4
370
    25
100
AcDbSpline
210
0.0
220
0.0
230
1.0
 70
     8
 71
     3
 72
    10
 73
     6
 74
     0
 42
0.000000001
 43
0.00000001
 40
0.0
 40
0.0
 40
0.0
 40
0.0
 40
0.4999999999999999
 40
0.4999999999999999
 40
1.0
 40
1.0
 40
1.0
 40
1.0
 10
22.13262197585989
 20
-0.1274405443532954
 30
0.0
 10
22.09748060152549
 20
-0.1016688724036382
 30
0.0
 10
22.0697437371617
 20
-0.0670891864585232
 30
0.0
 10
22.03370344000795
 20
0.0111974004263635
 30
0.0
 10
22.02554596556974
 20
0.0547769667519307
 30
0.0
 10
22.02554596556974
 20
0.0981672607061551
 30
0.0
  0
SPLINE
  5
AD
330
1F
100
AcDbEntity
  8
0
  6
Continuous
 62
     4
370
    25
100
AcDbSpline
210
0.0
220
0.0
230
1.0
 70
     8
 71
     3
 72
    14
 73
    10
 74
     0
 42
0.000000001
 43
0.00000001
 40
0.0
 40
0.0
 40
0.0
 40
0.0
 40
0.25
 40
0.25
 40
0.5
 40
0.5
 40
0.75
 40
0.75
 40
1.0
 40
1.0
 40
1.0
 40
1.0
 10
22.02554596556974
 20
0.4859653148698976
 30
0.0
 10
22.02554596556974
 20
0.5285830109078722
 30
0.0
 10
22.03604492606285
 20
0.5690523375575063
 30
0.0
 10
22.08176921189105
 20
0.6361370079473446
 30
0.0
 10
22.11720855999108
 20
0.6630134723429657
 30
0.0
 10
22.2028002702198
 20
0.6972779240079451
 30
0.0
 10
22.25198781215929
 20
0.704839021365116
 30
0.0
 10
22.34955643065405
 20
0.7008421690763764
 30
0.0
 10
22.39732947429384
 20
0.6892487069362723
 30
0.0
 10
22.43714752134519
 20
0.6680775972553107
 30
0.0
  0
SPLINE
  5
AE
330
1F
100
AcDbEntity
  8
0
  6
Continuous
 62
     4
370
    25
100
AcDbSpline
210
0.0
220
0.0
230
1.0
 70
     8
 71
     3
 72
    10
 73
     6
 74
     0
 42
0.000000001
 43
0.00000001
 40
0.0
 40
0.0
 40
0.0
 40
0.0
 40
0.5000000000000001
 40
0.5000000000000001
 40
1.0
 40
1.0
 40
1.0
 40
1.0
 10
22.13262197585989
 20
-0.9666353540270073
 30
0.0
 10
22.09748060152549
 20
-0.9700330736412099
 30
0.0
 10
22.0697437371617
 20
-0.9734770147649168
 30
0.0
 10
22.03370344000797
 20
-0.9757218227747976
 30
0.0
 10
22.02554596556974
 20
-0.9744364949734144
 30
0.0
 10
22.02554596556974
 20
-0.970045457143845
 30
0.0
  0
SPLINE
  5
AF
330
1F
100
AcDbEntity
  8
0
  6
Continuous
 62
     4
370
    25
100
AcDbSpline
210
0.0
220
0.0
230
1.0
 70
     8
 71
     3
 72
     9
 73
     5
 74
     0
 42
0.000000001
 43
0.00000001
 40
0.0
 40
0.0
 40
0.0
 40
0.0
 40
0.4522933216704088
 40
1.0
 40
1.0
 40
1.0
 40
1.0
 10
22.68931129770974
 20
-0.8223556192471021
 30
0.0
 10
22.60535514467763
 20
-0.8556449793719171
 30
0.0
 10
22.41973190195091
 20
-0.929246243263833
 30
0.0
 10
22.2342252228682
 20
-0.9534039931053802
 30
0.0
 10
22.13262197585984
 20
-0.9666353540270113
 30
0.0
  0
LINE
  5
B0
330
1F
100
AcDbEntity
  8
0
  6
Continuous
 62
     4
370
    25
100
AcDbLine
 10
22.68931129770975
 20
0.8223556192471028
 30
0.0
 11
22.8253520777581
 21
0.8728351286402974
 31
0.0
  0
SPLINE
  5
B1
330
1F
100
AcDbEntity
  8
0
  6
Continuous
 62
     4
370
    25
100
AcDbSpline
210
0.0
220
0.0
230
1.0
 70
     8
 71
     3
 72
     9
 73
     5
 74
     0
 42
0.000000001
 43
0.00000001
 40
0.0
 40
0.0
 40
0.0
 40
0.0
 40
0.5414852529106544
 40
1.0
 40
1.0
 40
1.0
 40
1.0
 10
22.13262197585987
 20
0.9666353540270104
 30
0.0
 10
22.11069763845985
 20
0.9690402949794783
 30
0.0
 10
22.07020837807433
 20
0.9734816734649323
 30
0.0
 10
22.05125122083066
 20
0.9742472437825888
 30
0.0
 10
22.04255908467156
 20
0.9745982690631682
 30
0.0
  0
SPLINE
  5
B2
330
1F
100
AcDbEntity
  8
0
  6
Continuous
 62
     4
370
    25
100
AcDbSpline
210
0.0
220
0.0
230
1.0
 70
     8
 71
     3
 72
    10
 73
     6
 74
     0
 42
0.000000001
 43
0.00000001
 40
0.0
 40
0.0
 40
0.0
 40
0.0
 40
0.5
 40
0.5
 40
1.0
 40
1.0
 40
1.0
 40
1.0
 10
22.8253520777581
 20
0.7738728256899277
 30
0.0
 10
22.70938592816185
 20
0.8256282492918188
 30
0.0
 10
22.59628287252677
 20
0.868180854698409
 30
0.0
 10
22.36275972309042
 20
0.9334380839129441
 30
0.0
 10
22.24717664256593
 20
0.9555593888623719
 30
0.0
 10
22.13262197585984
 20
0.9666353540270126
 30
0.0
  0
SPLINE
  5
B3
330
1F
100
AcDbEntity
  8
0
  6
Continuous
 62
     4
370
    25
100
AcDbSpline
210
0.0
220
0.0
230
1.0
 70
     8
 71
     3
 72
     8
 73
     4
 74
     0
 42
0.000000001
 43
0.00000001
 40
0.0
 40
0.0
 40
0.0
 40
0.0
 40
1.0
 40
1.0
 40
1.0
 40
1.0
 10
22.8253520777581
 20
0.4344926215846261
 30
0.0
 10
22.69536440395764
 20
0.5198703366415484
 30
0.0
 10
22.56812164397596
 20
0.598439136282897
 30
0.0
 10
22.43714752134519
 20
0.6680775972553137
 30
0.0
  0
SPLINE
  5
B4
330
1F
100
AcDbEntity
  8
0
  6
Continuous
 62
     4
370
    25
100
AcDbSpline
210
0.0
220
0.0
230
1.0
 70
     8
 71
     3
 72
    10
 73
     6
 74
     0
 42
0.000000001
 43
0.00000001
 40
0.0
 40
0.0
 40
0.0
 40
0.0
 40
0.5
 40
0.5
 40
1.0
 40
1.0
 40
1.0
 40
1.0
 10
22.8253520777581
 20
-0.5930816551358404
 30
0.0
 10
22.70938592816185
 20
-0.5255494434062415
 30
0.0
 10
22.59628287252677
 20
-0.4518398630880277
 30
0.0
 10
22.36275972309042
 20
-0.2942628108361649
 30
0.0
 10
22.24717664256593
 20
-0.2114516380161659
 30
0.0
 10
22.13262197585984
 20
-0.127440544353261
 30
0.0
  0
LINE
  5
B5
330
1F
100
AcDbEntity
  8
0
  6
Continuous
 62
     4
370
    25
100
AcDbLine
 10
22.8253520777581
 20
-0.5930816551358403
 30
0.0
 11
22.8253520777581
 21
-0.8728351286403041
 31
0.0
  0
SPLINE
  5
B6
330
1F
100
AcDbEntity
  8
0
  6
Continuous
 62
     4
370
    25
100
AcDbSpline
210
0.0
220
0.0
230
1.0
 70
     8
 71
     3
 72
     8
 73
     4
 74
     0
 42
0.000000001
 43
0.00000001
 40
0.0
 40
0.0
 40
0.0
 40
0.0
 40
1.0
 40
1.0
 40
1.0
 40
1.0
 10
22.8253520777581
 20
-0.8728351286402996
 30
0.0
 10
22.69536440395764
 20
-0.8303345623560638
 30
0.0
 10
22.56812164397596
 20
-0.7756527395883916
 30
0.0
 10
22.43714752134519
 20
-0.7101389469995144
 30
0.0
  0
SPLINE
  5
B7
330
1F
100
AcDbEntity
  8
0
  6
Continuous
 62
     4
370
    25
100
AcDbSpline
210
0.0
220
0.0
230
1.0
 70
     8
 71
     3
 72
    14
 73
    10
 74
     0
 42
0.000000001
 43
0.00000001
 40
0.0
 40
0.0
 40
0.0
 40
0.0
 40
0.25
 40
0.25
 40
0.5
 40
0.5
 40
0.75
 40
0.75
 40
1.0
 40
1.0
 40
1.0
 40
1.0
 10
22.02554596556974
 20
-0.8452589619420662
 30
0.0
 10
22.02554596556974
 20
-0.8207567407215559
 30
0.0
 10
22.03604492606286
 20
-0.7928586956201905
 30
0.0
 10
22.08176921189105
 20
-0.7401183562242024
 30
0.0
 10
22.11720855999108
 20
-0.715269088036104
 30
0.0
 10
22.2028002702198
 20
-0.6819092531264334
 30
0.0
 10
22.25198781215929
 20
-0.6736729681287781
 30
0.0
 10
22.34955643065405
 20
-0.6778300436471464
 30
0.0
 10
22.39732947429384
 20
-0.6902217967760901
 30
0.0
 10
22.43714752134519
 20
-0.7101389469995021
 30
0.0
  0
LINE
  5
B8
330
1F
100
AcDbEntity
  8
0
  6
Continuous
 62
     4
370
    25
100
AcDbLine
 10
22.02554596556974
 20
-0.8452589619420664
 30
0.0
 11
22.02554596556974
 21
-0.9700454571438543
 31
0.0
  0
LINE
  5
B9
330
1F
100
AcDbEntity
  8
0
  6
Continuous
 62
     4
370
    25
100
AcDbLine
 10
22.02554596556974
 20
0.4859653148698977
 30
0.0
 11
22.02554596556974
 21
0.0981672607061552
 31
0.0
  0
SPLINE
  5
BA
330
1F
100
AcDbEntity
  8
0
  6
Continuous
 62
     4
370
    25
100
AcDbSpline
210
0.0
220
0.0
230
1.0
 70
    24
 71
     3
 72
    16
 73
    12
 74
     0
 42
0.000000001
 43
0.00000001
 40
0.0
 40
0.0
 40
0.0
 40
0.0
 40
0.1249999999999999
 40
0.1249999999999999
 40
0.2499999999999998
 40
0.2499999999999998
 40
0.4999999999999999
 40
0.4999999999999999
 40
0.75
 40
0.75
 40
1.0
 40
1.0
 40
1.0
 40
1.0
 10
22.8253520777581
 20
0.4344926215846304
 30
0.0
 10
22.8253520777581
 20
0.4149895262478363
 30
0.0
 10
22.8253520777581
 20
0.3951231376757905
 30
0.0
 10
22.8253520777581
 20
0.3471390063764812
 30
0.0
 10
22.8253520777581
 20
0.319794041806886
 30
0.0
 10
22.8253520777581
 20
0.2259720837208381
 30
0.0
 10
22.8253520777581
 20
0.1470450809675983
 30
0.0
 10
22.8253520777581
 20
-0.0436846753769177
 30
0.0
 10
22.8253520777581
 20
-0.1560291382582944
 30
0.0
 10
22.8253520777581
 20
-0.3853181455295507
 30
0.0
 10
22.8253520777581
 20
-0.5008231449337375
 30
0.0
 10
22.8253520777581
 20
-0.5930816551358394
 30
0.0
  0
LINE
  5
BB
330
1F
100
AcDbEntity
  8
0
  6
Continuous
 62
     4
370
    25
100
AcDbLine
 10
22.8253520777581
 20
0.8728351286403021
 30
0.0
 11
22.8253520777581
 21
0.8317424962361619
 31
0.0
  0
ELLIPSE
  5
BC
330
1F
100
AcDbEntity
  8
0
  6
Continuous
 62
     1
370
    25
100
AcDbEllipse
 10
25.6825372770839
 20
0.0000000000000007
 30
0.0
 11
1.428148006742111
 21
1.748976885165401E-16
 31
0.0
210
0.0
220
0.0
230
1.0
 40
0.7002075382097119
 41
4.284662682086773
 42
4.81255640154626
1001
PE_URL
1000

  0
SPLINE
  5
BD
330
1F
100
AcDbEntity
  8
0
  6
Continuous
 62
     1
370
    25
100
AcDbSpline
210
0.0
220
0.0
230
1.0
 70
     8
 71
     3
 72
    14
 73
    10
 74
     0
 42
0.000000001
 43
0.00000001
 40
0.0
 40
0.0
 40
0.0
 40
0.0
 40
0.1554968495991545
 40
0.3112182705978532
 40
0.4665282034655026
 40
0.6216289428839016
 40
0.7841712351822889
 40
0.9468697762238394
 40
1.0
 40
1.0
 40
1.0
 40
1.0
 10
22.8253520777581
 20
0.4493692763474628
 30
0.0
 10
22.96545573153266
 20
0.3507258453439493
 30
0.0
 10
23.24586537934583
 20
0.1532965206863065
 30
0.0
 10
23.66664671432504
 20
-0.1694283964565462
 30
0.0
 10
24.08647828927043
 20
-0.472117016436031
 30
0.0
 10
24.51226998891897
 20
-0.7345820911381385
 30
0.0
 10
24.94495630670552
 20
-0.9167942144454854
 30
0.0
 10
25.28579036720715
 20
-1.004918088682559
 30
0.0
 10
25.48036807924769
 20
-0.9913027975033287
 30
0.0
 10
25.52826696515985
 20
-0.9879511429278084
 30
0.0
  0
LINE
  5
BE
330
1F
100
AcDbEntity
  8
0
  6
Continuous
 62
     4
370
    25
100
AcDbLine
 10
22.8253520777581
 20
0.449369276347469
 30
0.0
 11
22.8253520777581
 21
0.7911677044160015
 31
0.0
  0
SPLINE
  5
BF
330
1F
100
AcDbEntity
  8
0
  6
Continuous
 62
     1
370
    25
100
AcDbSpline
210
0.0
220
0.0
230
1.0
 70
     8
 71
     3
 72
    22
 73
    18
 74
     0
 42
0.000000001
 43
0.00000001
 40
0.0
 40
0.0
 40
0.0
 40
0.0
 40
0.125
 40
0.125
 40
0.2500000000000001
 40
0.2500000000000001
 40
0.375
 40
0.375
 40
0.5
 40
0.5
 40
0.625
 40
0.625
 40
0.75
 40
0.75
 40
0.8750000000000001
 40
0.8750000000000001
 40
1.0
 40
1.0
 40
1.0
 40
1.0
 10
25.31451811764532
 20
-0.8206926200798778
 30
0.0
 10
25.21259391524977
 20
-0.7763035022960029
 30
0.0
 10
25.10789591311073
 20
-0.724004142500344
 30
0.0
 10
24.89866085460816
 20
-0.6070227821677726
 30
0.0
 10
24.79694983014796
 20
-0.5429802514912331
 30
0.0
 10
24.59014950272388
 20
-0.4055334245870608
 30
0.0
 10
24.4843933271532
 20
-0.3319027823118786
 30
0.0
 10
24.27678988256892
 20
-0.1808042215408577
 30
0.0
 10
24.17560358374732
 20
-0.1035543487232921
 30
0.0
 10
23.9666530891865
 20
0.053055052658765
 30
0.0
 10
23.86123296677878
 20
0.131815970793074
 30
0.0
 10
23.65703550607694
 20
0.2838866354906028
 30
0.0
 10
23.55274375691759
 20
0.3585637453794256
 30
0.0
 10
23.34345626099945
 20
0.5001251981042384
 30
0.0
 10
23.24154466973167
 20
0.5663445408561529
 30
0.0
 10
23.03499498836155
 20
0.6879013482501978
 30
0.0
 10
22.92925286674604
 20
0.7433492052985868
 30
0.0
 10
22.8253520777581
 20
0.7911677044160026
 30
0.0
  0
ELLIPSE
  5
C0
330
1F
100
AcDbEntity
  8
0
  6
Continuous
 62
     1
370
    25
100
AcDbEllipse
 10
25.89890713776602
 20
0.0000000000000007
 30
0.0
 11
1.407757670531602
 21
0.9316501078184054
 31
0.0
210
0.0
220
0.0
230
1.0
 40
0.2581102466675299
 41
3.941187265385167
 42
4.121635118828613
1001
PE_URL
1000

  0
SPLINE
  5
C1
330
1F
100
AcDbEntity
  8
0
  6
Continuous
 62
     1
370
    25
100
AcDbSpline
210
0.0
220
0.0
230
1.0
 70
     8
 71
     3
 72
    15
 73
    11
 74
     0
 42
0.000000001
 43
0.00000001
 40
0.0
 40
0.0
 40
0.0
 40
0.0
 40
0.1696925732622383
 40
0.3418345785951269
 40
0.4606219700602776
 40
0.580245013171511
 40
0.698105752920222
 40
0.8167802312359527
 40
0.9345945803551611
 40
1.0
 40
1.0
 40
1.0
 40
1.0
 10
22.8253520777581
 20
-0.4552972378280162
 30
0.0
 10
22.92631143075563
 20
-0.5042172554962459
 30
0.0
 10
23.12968743728132
 20
-0.6027634281601657
 30
0.0
 10
23.40249540277621
 20
-0.7027035598391119
 30
0.0
 10
23.64698984713685
 20
-0.7665413656433708
 30
0.0
 10
23.85760745459239
 20
-0.8029546701425024
 30
0.0
 10
24.06980353693237
 20
-0.8187128455323821
 30
0.0
 10
24.27970945567055
 20
-0.8131829765434485
 30
0.0
 10
24.45896282082652
 20
-0.7938592866667046
 30
0.0
 10
24.56785884716476
 20
-0.769177036842451
 30
0.0
 10
24.60673232871292
 20
-0.7603660176035115
 30
0.0
1001
PE_URL
1000

  0
SPLINE
  5
C2
330
1F
100
AcDbEntity
  8
0
  6
Continuous
 62
     4
370
    25
100
AcDbSpline
210
0.0
220
0.0
230
1.0
 70
    24
 71
     3
 72
    16
 73
    12
 74
     0
 42
0.000000001
 43
0.00000001
 40
0.0
 40
0.0
 40
0.0
 40
0.0
 40
0.1250000000000002
 40
0.1250000000000002
 40
0.2500000000000003
 40
0.2500000000000003
 40
0.5000000000000002
 40
0.5000000000000002
 40
0.7500000000000001
 40
0.7500000000000001
 40
1.0
 40
1.0
 40
1.0
 40
1.0
 10
22.8253520777581
 20
0.4493692763474698
 30
0.0
 10
22.8253520777581
 20
0.4317388765222795
 30
0.0
 10
22.8253520777581
 20
0.4143478820035448
 30
0.0
 10
22.8253520777581
 20
0.3742894634568034
 30
0.0
 10
22.8253520777581
 20
0.3516188286944196
 30
0.0
 10
22.8253520777581
 20
0.2742427751679539
 30
0.0
 10
22.8253520777581
 20
0.2098392468151474
 30
0.0
 10
22.8253520777581
 20
0.0519779260043821
 30
0.0
 10
22.8253520777581
 20
-0.0419620700880428
 30
0.0
 10
22.8253520777581
 20
-0.2459860741275174
 30
0.0
 10
22.8253520777581
 20
-0.3557142150023394
 30
0.0
 10
22.8253520777581
 20
-0.4552972378280163
 30
0.0
  0
LINE
  5
C3
330
1F
100
AcDbEntity
  8
0
  6
Continuous
 62
     4
370
    25
100
AcDbLine
 10
22.8253520777581
 20
0.893346099490547
 30
0.0
 11
22.8253520777581
 21
0.831742496236162
 31
0.0
  0
SPLINE
  5
C4
330
1F
100
AcDbEntity
  8
0
  6
Continuous
 62
     1
370
    25
100
AcDbSpline
210
0.0
220
0.0
230
1.0
 70
     8
 71
     3
 72
    22
 73
    18
 74
     0
 42
0.000000001
 43
0.00000001
 40
0.0
 40
0.0
 40
0.0
 40
0.0
 40
0.125
 40
0.125
 40
0.25
 40
0.25
 40
0.375
 40
0.375
 40
0.5
 40
0.5
 40
0.625
 40
0.625
 40
0.75
 40
0.75
 40
0.875
 40
0.875
 40
1.0
 40
1.0
 40
1.0
 40
1.0
 10
25.82535207775812
 20
-0.2214765467296668
 30
0.0
 10
25.7027927931707
 20
-0.1302395589953691
 30
0.0
 10
25.57504515865877
 20
-0.0347717903408423
 30
0.0
 10
25.3241091865751
 20
0.1534797900437267
 30
0.0
 10
25.20201237707716
 20
0.2459803429383067
 30
0.0
 10
24.94977754205146
 20
0.423974998601144
 30
0.0
 10
24.82609330768535
 20
0.5078985654687593
 30
0.0
 10
24.57715640723347
 20
0.6605455771944787
 30
0.0
 10
24.44911069536836
 20
0.7296720094843406
 30
0.0
 10
24.20091233821639
 20
0.8454600991837238
 30
0.0
 10
24.07651069894323
 20
0.8929294936068017
 30
0.0
 10
23.82444076709425
 20
0.9632544869794002
 30
0.0
 10
23.70254549348076
 20
0.9857078806299877
 30
0.0
 10
23.45119082190977
 20
1.004426459902147
 30
0.0
 10
23.32455156009804
 20
1.000328557866294
 30
0.0
 10
23.07845586256192
 20
0.9661857664466598
 30
0.0
 10
22.9505743012841
 20
0.9356903964078592
 30
0.0
 10
22.8253520777581
 20
0.893346099490537
 30
0.0
  0
LINE
  5
C5
330
1F
100
AcDbEntity
  8
0
  6
Continuous
 62
     1
370
    25
100
AcDbLine
 10
25.8253520777581
 20
-0.3596944150732721
 30
0.0
 11
25.8253520777581
 21
-0.2222714362606435
 31
0.0
1001
PE_URL
1000

  0
SPLINE
  5
C6
330
1F
100
AcDbEntity
  8
0
  6
Continuous
 62
     1
370
    25
100
AcDbSpline
210
0.0
220
0.0
230
1.0
 70
     8
 71
     3
 72
    10
 73
     6
 74
     0
 42
0.000000001
 43
0.00000001
 40
0.0
 40
0.0
 40
0.0
 40
0.0
 40
0.5
 40
0.5
 40
1.0
 40
1.0
 40
1.0
 40
1.0
 10
25.8253520777581
 20
-0.3596944150732736
 30
0.0
 10
25.72692391919719
 20
-0.3967609655673478
 30
0.0
 10
25.61615651703996
 20
-0.4707531816934145
 30
0.0
 10
25.43273649782684
 20
-0.6399380817119463
 30
0.0
 10
25.35999509357407
 20
-0.7345153677674089
 30
0.0
 10
25.31451811764532
 20
-0.8206926200798822
 30
0.0
1001
PE_URL
1000

  0
LINE
  5
C7
330
1F
100
AcDbEntity
  8
0
  6
Continuous
 62
     1
370
    25
100
AcDbLine
 10
25.8253520777581
 20
-0.100000000000003
 30
0.0
 11
25.09013718561065
 21
0.4148030096856906
 31
0.0
1001
PE_URL
1000

  0
LINE
  5
C8
330
1F
100
AcDbEntity
  8
0
  6
Continuous
 62
     1
370
    25
100
AcDbLine
 10
25.8253520777581
 20
-0.2214765467296671
 30
0.0
 11
25.8253520777581
 21
-0.100000000000003
 31
0.0
1001
PE_URL
1000

  0
SPLINE
  5
C9
330
1F
100
AcDbEntity
  8
0
  6
Continuous
 62
     1
370
    25
100
AcDbSpline
210
0.0
220
0.0
230
1.0
 70
     8
 71
     3
 72
    10
 73
     6
 74
     0
 42
0.000000001
 43
0.00000001
 40
0.0
 40
0.0
 40
0.0
 40
0.0
 40
0.3638067221369455
 40
0.7273004020909446
 40
0.9999999999999999
 40
0.9999999999999999
 40
0.9999999999999999
 40
0.9999999999999999
 10
25.31451811764535
 20
0.5713699531358114
 30
0.0
 10
25.15945896759404
 20
0.6595665216887143
 30
0.0
 10
24.84947409013559
 20
0.8358837689203967
 30
0.0
 10
24.42341055491854
 20
0.981008073198954
 30
0.0
 10
24.15240753689634
 20
0.9863149871961081
 30
0.0
 10
24.03624407428476
 20
0.988589757086829
 30
0.0
1001
PE_URL
1000

  0
ELLIPSE
  5
CA
330
1F
100
AcDbEntity
  8
0
  6
Continuous
 62
     1
370
    25
100
AcDbEllipse
 10
25.89890713776602
 20
0.0000000000000005
 30
0.0
 11
1.38155721250302
 21
0.715392361667364
 31
0.0
210
0.0
220
0.0
230
1.0
 40
0.5057502862779788
 41
1.736233015521149
 42
1.916680868964605
1001
PE_URL
1000

  0
SPLINE
  5
CB
330
1F
100
AcDbEntity
  8
0
  6
Continuous
 62
     1
370
    25
100
AcDbSpline
210
0.0
220
0.0
230
1.0
 70
     8
 71
     3
 72
    10
 73
     6
 74
     0
 42
0.000000001
 43
0.00000001
 40
0.0
 40
0.0
 40
0.0
 40
0.0
 40
0.1513428902404236
 40
0.5753027179932426
 40
1.0
 40
1.0
 40
1.0
 40
1.0
 10
24.78787939938847
 20
0.8377758192430619
 30
0.0
 10
24.84019029142407
 20
0.8613636024560681
 30
0.0
 10
25.03904071856289
 20
0.9510283086891825
 30
0.0
 10
25.38478194870049
 20
1.013964160199367
 30
0.0
 10
25.67841031704011
 20
0.9881060089221997
 30
0.0
 10
25.8253520777581
 20
0.9751656983552573
 30
0.0
1001
PE_URL
1000

  0
LINE
  5
CC
330
1F
100
AcDbEntity
  8
0
  6
Continuous
 62
     1
370
    25
100
AcDbLine
 10
25.8253520777581
 20
0.4986320349225105
 30
0.0
 11
25.8253520777581
 21
0.975165698355261
 31
0.0
1001
PE_URL
1000

  0
SPLINE
  5
CD
330
1F
100
AcDbEntity
  8
0
  6
Continuous
 62
     1
370
    25
100
AcDbSpline
210
0.0
220
0.0
230
1.0
 70
     8
 71
     3
 72
    10
 73
     6
 74
     0
 42
0.000000001
 43
0.00000001
 40
0.0
 40
0.0
 40
0.0
 40
0.0
 40
0.5
 40
0.5
 40
1.0
 40
1.0
 40
1.0
 40
1.0
 10
25.8253520777581
 20
0.4986320349225131
 30
0.0
 10
25.72692391919719
 20
0.42650551579167
 30
0.0
 10
25.61615651703996
 20
0.3990581046245855
 30
0.0
 10
25.43273649782684
 20
0.4312648185840277
 30
0.0
 10
25.35999509357407
 20
0.4897740412342454
 30
0.0
 10
25.31451811764532
 20
0.5713699531358102
 30
0.0
1001
PE_URL
1000

  0
LINE
  5
CE
330
1F
100
AcDbEntity
  8
0
  6
Continuous
 62
     1
370
    25
100
AcDbLine
 10
25.80769671268792
 20
0.0218505028672192
 30
0.0
 11
25.8253520777581
 21
0.017620957782241
 31
0.0
1001
PE_URL
1000

  0
LINE
  5
CF
330
1F
100
AcDbEntity
  8
0
  6
Continuous
 62
     1
370
    25
100
AcDbLine
 10
25.8253520777581
 20
-0.0706738015036518
 30
0.0
 11
25.8253520777581
 21
0.017620957782241
 31
0.0
1001
PE_URL
1000

  0
LINE
  5
D0
330
1F
100
AcDbEntity
  8
0
  6
Continuous
 62
     1
370
    25
100
AcDbLine
 10
25.80769671268792
 20
-0.0876375802880133
 30
0.0
 11
25.8253520777581
 21
-0.0706738015036518
 31
0.0
1001
PE_URL
1000

  0
LINE
  5
D1
330
1F
100
AcDbEntity
  8
0
  6
Continuous
 62
     1
370
    25
100
AcDbLine
 10
25.8253520777581
 20
0.06642794823505
 30
0.0
 11
25.8253520777581
 21
0.4986320349225133
 31
0.0
1001
PE_URL
1000

  0
LINE
  5
D2
330
1F
100
AcDbEntity
  8
0
  6
Continuous
 62
     1
370
    25
100
AcDbLine
 10
25.80769671268792
 20
0.0218505028672192
 30
0.0
 11
25.8253520777581
 21
0.06642794823505
 31
0.0
1001
PE_URL
1000

  0
SPLINE
  5
D3
330
1F
100
AcDbEntity
  8
0
  6
Continuous
 62
     1
370
    25
100
AcDbSpline
210
0.0
220
0.0
230
1.0
 70
     8
 71
     3
 72
    11
 73
     7
 74
     0
 42
0.000000001
 43
0.00000001
 40
0.0
 40
0.0
 40
0.0
 40
0.0
 40
0.0443037389800698
 40
0.4018067555443894
 40
0.9303315419099404
 40
0.9999999999999999
 40
0.9999999999999999
 40
0.9999999999999999
 40
0.9999999999999999
 10
25.8253520777581
 20
0.9797958971132763
 30
0.0
 10
25.82141252043311
 20
0.9803857213713592
 30
0.0
 10
25.78568323926001
 20
0.9857350525325106
 30
0.0
 10
25.70265632275139
 20
0.9948719901892915
 30
0.0
 10
25.61742380528337
 20
1.001409039755587
 30
0.0
 10
25.56406013310776
 20
0.9995491024183326
 30
0.0
 10
25.55784514356558
 20
0.9993324851836319
 30
0.0
1001
PE_URL
1000

  0
LINE
  5
D4
330
1F
100
AcDbEntity
  8
0
  6
Continuous
 62
     1
370
    25
100
AcDbLine
 10
25.8253520777581
 20
-0.3596944150732721
 30
0.0
 11
25.8253520777581
 21
-0.9949874371066202
 31
0.0
1001
PE_URL
1000

  0
LINE
  5
D5
330
1F
100
AcDbEntity
  8
0
  6
Continuous
 62
     1
370
    25
100
AcDbLine
 10
25.8253520777581
 20
0.975165698355261
 30
0.0
 11
25.8253520777581
 21
0.9797958971132744
 31
0.0
1001
PE_URL
1000

  0
LINE
  5
D6
330
1F
100
AcDbEntity
  8
0
  6
Continuous
 62
     1
370
    25
100
AcDbLine
 10
25.8253520777581
 20
0.017620957782241
 30
0.0
 11
25.8253520777581
 21
0.06642794823505
 31
0.0
1001
PE_URL
1000

  0
LINE
  5
D7
330
1F
100
AcDbEntity
  8
중심선
100
AcDbLine
 10
-37.17464792224188
 20
-0.0000000000000046
 30
0.0
 11
27.3253520777581
 21
0.0000000000000027
 31
0.0
  0
CIRCLE
  5
D8
330
1F
100
AcDbEntity
  8
해칭선
100
AcDbCircle
 10
0.0
 20
0.0
 30
0.0
 40
3.000000000000003
  0
INSERT
  5
D9
330
1F
100
AcDbEntity
  8
0
  6
Continuous
 62
     7
100
AcDbBlockReference
 66
     1
  2
블럭10
 10
-21.5152729321252
 20
-52.04717430164394
 30
0.0
  0
ATTRIB
  5
DA
330
D9
100
AcDbEntity
  8
FORMAT
 62
     2
100
AcDbText
 10
-37.63453397156075
 20
-49.97180738881174
 30
0.0
 40
4.233333333333333
  1
SEME7302022E [ 4 FLUTE ]
 41
0.75
  7
SLDTEXTSTYLE0
 11
-37.63453397156075
 21
-52.08847405547841
 31
0.0
100
AcDbAttribute
  2
AUTOATTR0
 70
     0
 74
     1
  0
SEQEND
  5
DB
330
D9
100
AcDbEntity
  8
0
  6
Continuous
 62
     7
  0
HATCH
  5
DC
330
1F
100
AcDbEntity
  8
중심선
100
AcDbHatch
 10
0.0
 20
0.0
 30
0.0
210
0.0
220
0.0
230
1.0
  2
SOLID
 70
     1
 71
     0
 91
        1
 92
        0
 93
        4
 72
     1
 10
-15.80036362774435
 20
-35.8
 11
-19.24663887158163
 21
-35.8
 72
     1
 10
-19.24663887158163
 20
-35.8
 11
-21.37486873078565
 21
-38.33632558057258
 72
     1
 10
-21.37486873078565
 20
-38.33632558057258
 11
-17.92856040183522
 21
-38.33628615127009
 72
     1
 10
-17.92856040183522
 20
-38.33628615127009
 11
-15.80036362774435
 21
-35.8
 97
        0
 75
     0
 76
     1
 98
        1
 10
8.524945079010186
 20
-0.0000000000000056
  0
HATCH
  5
DD
330
1F
100
AcDbEntity
  8
중심선
100
AcDbHatch
 10
0.0
 20
0.0
 30
0.0
210
0.0
220
0.0
230
1.0
  2
SOLID
 70
     1
 71
     0
 91
        1
 92
        0
 93
        4
 72
     1
 10
-10.78759963670837
 20
-35.80000000000003
 11
-14.23387488054565
 21
-35.8
 72
     1
 10
-14.23387488054565
 20
-35.8
 11
-18.76501288890307
 21
-41.20000000000002
 72
     1
 10
-18.76501288890307
 20
-41.20000000000002
 11
-15.31873764506578
 21
-41.20000000000002
 72
     1
 10
-15.31873764506579
 20
-41.20000000000002
 11
-10.78759963670837
 21
-35.80000000000003
 97
        0
 75
     0
 76
     1
 98
        1
 10
8.524945079010186
 20
-0.0000000000000056
  0
HATCH
  5
DE
330
1F
100
AcDbEntity
  8
중심선
100
AcDbHatch
 10
0.0
 20
0.0
 30
0.0
210
0.0
220
0.0
230
1.0
  2
SOLID
 70
     1
 71
     0
 91
        1
 92
        0
 93
        4
 72
     1
 10
-5.774835645672473
 20
-35.8
 11
-9.22111088950959
 21
-35.8
 72
     1
 10
-9.22111088950959
 20
-35.8
 11
-16.26954779139886
 21
-44.20000000000002
 72
     1
 10
-16.26954779139886
 20
-44.20000000000002
 11
-12.82327254756158
 21
-44.20000000000002
 72
     1
 10
-12.82327254756158
 20
-44.20000000000002
 11
-5.774835645672473
 21
-35.8
 97
        0
 75
     0
 76
     1
 98
        1
 10
8.524945079010186
 20
-0.0000000000000056
  0
HATCH
  5
DF
330
1F
100
AcDbEntity
  8
중심선
100
AcDbHatch
 10
0.0
 20
0.0
 30
0.0
210
0.0
220
0.0
230
1.0
  2
SOLID
 70
     1
 71
     0
 91
        1
 92
        0
 93
        6
 72
     3
 10
-0.9749452146603019
 20
-40.00000000005128
 11
3.960054785062283
 21
1.540882976769353E-10
 40
0.3939339440162628
 50
17.09539180608436
 51
320.0019657685086
 73
     0
 72
     1
 10
0.7080544410402938
 20
-38.58789400463834
 11
3.013356314741359
 21
-36.65356729459039
 72
     3
 10
-0.9749452147131485
 20
-40.00000000000016
 11
6.600054785286829
 21
-1.278976924368180E-13
 40
0.636358354079598
 50
39.99873849337385
 51
368.4976242363724
 73
     1
 72
     1
 10
5.450387277187461
 20
-39.03999999993002
 11
-2.294877907877199
 21
-39.03999999993
 72
     1
 10
-2.294877907877199
 20
-39.03999999993
 11
-2.294902952323159
 21
-40.95999999992992
 72
     1
 10
-2.294902952323159
 20
-40.95999999992992
 11
2.146476817148877
 21
-40.95999999992989
 97
        0
 75
     0
 76
     1
 98
        1
 10
8.524945079010186
 20
-0.0000000000000056
  0
DIMENSION
  5
E0
330
1F
100
AcDbEntity
  8
치수문자_일반주서
100
AcDbDimension
  2
_D
 10
37.27473782819682
 20
0.9751656983552994
 30
0.0
 11
37.27473782819678
 21
10.64166569835531
 31
0.0
 70
   160
  1
%%c<>
 71
     2
 42
1.970153135461876
 52
-270.0
  3
SLDDIMSTYLE0
100
AcDbAlignedDimension
 13
25.82535207775812
 23
-0.994987437106619
 33
0.0
 14
25.8253520777581
 24
0.9751656983552573
 34
0.0
 50
90.0000000000002
100
AcDbRotatedDimension
  0
DIMENSION
  5
EE
330
1F
100
AcDbEntity
  8
치수문자_일반주서
100
AcDbDimension
  2
_D_1
 10
25.8253520777581
 20
36.00000000000003
 30
0.0
 11
-4.174647922241888
 21
36.00000000000003
 31
0.0
 70
   160
  1
<>
 71
     2
 42
59.99999999999999
  3
SLDDIMSTYLE1
100
AcDbAlignedDimension
 13
-34.17464792224188
 23
1.499999999999993
 33
0.0
 14
25.8253520777581
 24
0.9751656983552575
 34
0.0
100
AcDbRotatedDimension
  0
DIMENSION
  5
F9
330
1F
100
AcDbEntity
  8
치수문자_일반주서
100
AcDbDimension
  2
_D_2
 10
-47.66728748386177
 20
-2.000000000000054
 30
0.0
 11
-47.66728748386178
 21
-0.7264638992030813
 31
0.0
 70
   160
  1
%%c<>
 71
     2
 42
4.000000000000004
 52
-270.0
  3
SLDDIMSTYLE2
100
AcDbAlignedDimension
 13
-33.67464792224188
 23
2.000000000000002
 33
0.0
 14
-33.67464792224188
 24
-2.000000000000001
 34
0.0
 50
90.0000000000002
100
AcDbRotatedDimension
  0
DIMENSION
  5
107
330
1F
100
AcDbEntity
  8
치수문자_일반주서
100
AcDbDimension
  2
_D_3
 10
25.8253520777581
 20
15.75654124841258
 30
0.0
 11
36.8043520777581
 21
15.75654124841258
 31
0.0
 70
   160
  1
<>
 71
     2
 42
3.0
  3
SLDDIMSTYLE3
100
AcDbAlignedDimension
 13
22.8253520777581
 23
0.893346099490547
 33
0.0
 14
25.8253520777581
 24
0.975165698355261
 34
0.0
 50
-0.0000000000002262
100
AcDbRotatedDimension
  0
DIMENSION
  5
114
330
1F
100
AcDbEntity
  8
치수문자_일반주서
100
AcDbDimension
  2
_D_4
 10
3.825352077758104
 20
25.67958542346744
 30
0.0
 11
15.3195944571325
 21
25.67958542346744
 31
0.0
 70
   160
  1
<>
 71
     2
 42
22.0
  3
SLDDIMSTYLE1
100
AcDbAlignedDimension
 13
25.8253520777581
 23
0.9797958971132722
 33
0.0
 14
3.825352077758104
 24
0.9749999999999955
 34
0.0
100
AcDbRotatedDimension
  0
INSERT
  5
124
330
1F
100
AcDbEntity
  8
해칭선
100
AcDbBlockReference
  2
SW_DOWELSYMBOL_0
 10
0.0
 20
0.0
 30
0.0
  0
LINE
  5
179
330
1F
100
AcDbEntity
  8
0
  6
Continuous
 62
     4
370
    25
100
AcDbLine
 10
-0.0000000000000075
 20
1.99999999999999
 30
0.0
 11
3.825352077758102
 21
0.9749999999999943
 31
0.0
  0
ENDSEC
  0
SECTION
  2
OBJECTS
  0
DICTIONARY
  5
C
330
0
100
AcDbDictionary
281
     1
  3
ACAD_GROUP
350
D
  3
ACAD_LAYOUT
350
1A
  3
ACAD_MLINESTYLE
350
17
  3
ACAD_PLOTSETTINGS
350
19
  3
ACAD_PLOTSTYLENAME
350
E
  3
ACAD_SCALELIST
350
47
  3
APPDATA
350
146
  3
DWGPROPS
350
17C
  0
DICTIONARY
  5
17A
330
1F
100
AcDbDictionary
280
     1
281
     1
  3
DIM_BOUNDING_BOXES_V1
360
17B
  0
DICTIONARY
  5
D
102
{ACAD_REACTORS
330
C
102
}
330
C
100
AcDbDictionary
281
     1
  0
DICTIONARY
  5
1A
102
{ACAD_REACTORS
330
C
102
}
330
C
100
AcDbDictionary
281
     1
  3
Layout1
350
1E
  3
Layout2
350
26
  3
Model
350
22
  0
DICTIONARY
  5
17
102
{ACAD_REACTORS
330
C
102
}
330
C
100
AcDbDictionary
281
     1
  3
Standard
350
18
  0
DICTIONARY
  5
19
102
{ACAD_REACTORS
330
C
102
}
330
C
100
AcDbDictionary
281
     1
  0
ACDBDICTIONARYWDFLT
  5
E
102
{ACAD_REACTORS
330
C
102
}
330
C
100
AcDbDictionary
281
     1
  3
Normal
350
F
100
AcDbDictionaryWithDefault
340
F
  0
DICTIONARY
  5
47
102
{ACAD_REACTORS
330
C
102
}
330
C
100
AcDbDictionary
281
     1
  3
A0
350
48
  3
A1
350
49
  3
A2
350
4A
  3
A3
350
4B
  3
A4
350
4C
  3
A5
350
4D
  3
A6
350
4E
  3
A7
350
4F
  3
A8
350
50
  3
A9
350
51
  3
B0
350
52
  3
B1
350
53
  3
B2
350
54
  3
B3
350
55
  3
B4
350
56
  3
B5
350
57
  3
B6
350
58
  3
B7
350
59
  3
B8
350
5A
  3
B9
350
5B
  3
C0
350
5C
  3
C1
350
5D
  3
C2
350
5E
  3
C3
350
5F
  3
C4
350
60
  3
C5
350
61
  3
C6
350
62
  3
C7
350
63
  3
C8
350
64
  3
C9
350
65
  3
D0
350
66
  3
D1
350
67
  3
D2
350
68
  0
DICTIONARY
  5
146
102
{ACAD_REACTORS
330
C
102
}
330
C
100
AcDbDictionary
281
     1
  0
XRECORD
  5
17C
102
{ACAD_REACTORS
330
C
102
}
330
C
100
AcDbXrecord
280
     1
  1
DWGPROPS COOKIE
  2

  3

  4

  6

  7

  8
12016016
  9

300
=
301
=
302
=
303
=
304
=
305
=
306
=
307
=
308
=
309
=
 40
0.0
 41
2458260.40450566
 42
2459677.360192882
  1

 90
        0
  0
DICTIONARY
  5
17B
102
{ACAD_REACTORS
330
17A
102
}
330
17A
100
AcDbDictionary
281
     1
  0
LAYOUT
  5
1E
102
{ACAD_REACTORS
330
1A
102
}
330
1A
100
AcDbPlotSettings
  1

  2
none_device
  4

  6

 40
0.0
 41
0.0
 42
0.0
 43
0.0
 44
0.0
 45
0.0
 46
0.0
 47
0.0
 48
0.0
 49
0.0
140
0.0
141
0.0
142
1.0
143
1.0
 70
   688
 72
     1
 73
     0
 74
     5
  7

 75
    16
147
1.0
148
0.0
149
0.0
100
AcDbLayout
  1
Layout1
 70
     1
 71
     1
 10
0.0
 20
0.0
 11
420.0
 21
297.0
 12
0.0
 22
0.0
 32
0.0
 14
1.000000000000000E+20
 24
1.000000000000000E+20
 34
1.000000000000000E+20
 15
-1.000000000000000E+20
 25
-1.000000000000000E+20
 35
-1.000000000000000E+20
146
0.0
 13
0.0
 23
0.0
 33
0.0
 16
1.0
 26
0.0
 36
0.0
 17
0.0
 27
1.0
 37
0.0
 76
     0
330
1B
  0
LAYOUT
  5
26
102
{ACAD_REACTORS
330
1A
102
}
330
1A
100
AcDbPlotSettings
  1

  2
none_device
  4

  6

 40
0.0
 41
0.0
 42
0.0
 43
0.0
 44
0.0
 45
0.0
 46
0.0
 47
0.0
 48
0.0
 49
0.0
140
0.0
141
0.0
142
1.0
143
1.0
 70
   688
 72
     1
 73
     0
 74
     5
  7

 75
    16
147
1.0
148
0.0
149
0.0
100
AcDbLayout
  1
Layout2
 70
     1
 71
     2
 10
0.0
 20
0.0
 11
0.0
 21
0.0
 12
0.0
 22
0.0
 32
0.0
 14
0.0
 24
0.0
 34
0.0
 15
0.0
 25
0.0
 35
0.0
146
0.0
 13
0.0
 23
0.0
 33
0.0
 16
1.0
 26
0.0
 36
0.0
 17
0.0
 27
1.0
 37
0.0
 76
     0
330
23
  0
LAYOUT
  5
22
102
{ACAD_REACTORS
330
1A
102
}
330
1A
100
AcDbPlotSettings
  1

  2
none_device
  4
ANSI_A_(11.00_x_8.50_Inches)
  6

 40
6.35
 41
19.05
 42
6.35000508
 43
19.05000254
 44
279.4
 45
215.9
 46
171.1292499042189
 47
100.8537443875621
 48
0.0
 49
0.0
140
0.0
141
0.0
142
0.0922419125129433
143
1.0
 70
  1696
 72
     0
 73
     0
 74
     0
  7

 75
     0
147
0.0235690232323232
148
0.0
149
0.0
100
AcDbLayout
  1
Model
 70
     1
 71
     0
 10
0.0
 20
0.0
 11
420.0
 21
297.0
 12
0.0
 22
0.0
 32
0.0
 14
-52.04228748386178
 24
-49.97180738881174
 34
0.0
 15
41.1793520777581
 25
40.37500000000003
 35
0.0
146
0.0
 13
0.0
 23
0.0
 33
0.0
 16
1.0
 26
0.0
 36
0.0
 17
0.0
 27
1.0
 37
0.0
 76
     0
330
1F
331
29
  0
MLINESTYLE
  5
18
102
{ACAD_REACTORS
330
17
102
}
330
17
100
AcDbMlineStyle
  2
Standard
 70
     0
  3

 62
   256
 51
90.0
 52
90.0
 71
     2
 49
0.5
 62
   256
  6
BYLAYER
 49
-0.5
 62
   256
  6
BYLAYER
  0
ACDBPLACEHOLDER
  5
F
102
{ACAD_REACTORS
330
E
102
}
330
E
  0
SCALE
  5
48
102
{ACAD_REACTORS
330
47
102
}
330
47
100
AcDbScale
 70
     0
300
1:1
140
1.0
141
1.0
290
     1
  0
SCALE
  5
49
102
{ACAD_REACTORS
330
47
102
}
330
47
100
AcDbScale
 70
     0
300
1:2
140
1.0
141
2.0
290
     0
  0
SCALE
  5
4A
102
{ACAD_REACTORS
330
47
102
}
330
47
100
AcDbScale
 70
     0
300
1:4
140
1.0
141
4.0
290
     0
  0
SCALE
  5
4B
102
{ACAD_REACTORS
330
47
102
}
330
47
100
AcDbScale
 70
     0
300
1:5
140
1.0
141
5.0
290
     0
  0
SCALE
  5
4C
102
{ACAD_REACTORS
330
47
102
}
330
47
100
AcDbScale
 70
     0
300
1:8
140
1.0
141
8.0
290
     0
  0
SCALE
  5
4D
102
{ACAD_REACTORS
330
47
102
}
330
47
100
AcDbScale
 70
     0
300
1:10
140
1.0
141
10.0
290
     0
  0
SCALE
  5
4E
102
{ACAD_REACTORS
330
47
102
}
330
47
100
AcDbScale
 70
     0
300
1:16
140
1.0
141
16.0
290
     0
  0
SCALE
  5
4F
102
{ACAD_REACTORS
330
47
102
}
330
47
100
AcDbScale
 70
     0
300
1:20
140
1.0
141
20.0
290
     0
  0
SCALE
  5
50
102
{ACAD_REACTORS
330
47
102
}
330
47
100
AcDbScale
 70
     0
300
1:30
140
1.0
141
30.0
290
     0
  0
SCALE
  5
51
102
{ACAD_REACTORS
330
47
102
}
330
47
100
AcDbScale
 70
     0
300
1:40
140
1.0
141
40.0
290
     0
  0
SCALE
  5
52
102
{ACAD_REACTORS
330
47
102
}
330
47
100
AcDbScale
 70
     0
300
1:50
140
1.0
141
50.0
290
     0
  0
SCALE
  5
53
102
{ACAD_REACTORS
330
47
102
}
330
47
100
AcDbScale
 70
     0
300
1:100
140
1.0
141
100.0
290
     0
  0
SCALE
  5
54
102
{ACAD_REACTORS
330
47
102
}
330
47
100
AcDbScale
 70
     0
300
2:1
140
2.0
141
1.0
290
     0
  0
SCALE
  5
55
102
{ACAD_REACTORS
330
47
102
}
330
47
100
AcDbScale
 70
     0
300
4:1
140
4.0
141
1.0
290
     0
  0
SCALE
  5
56
102
{ACAD_REACTORS
330
47
102
}
330
47
100
AcDbScale
 70
     0
300
8:1
140
8.0
141
1.0
290
     0
  0
SCALE
  5
57
102
{ACAD_REACTORS
330
47
102
}
330
47
100
AcDbScale
 70
     0
300
10:1
140
10.0
141
1.0
290
     0
  0
SCALE
  5
58
102
{ACAD_REACTORS
330
47
102
}
330
47
100
AcDbScale
 70
     0
300
100:1
140
100.0
141
1.0
290
     0
  0
SCALE
  5
59
102
{ACAD_REACTORS
330
47
102
}
330
47
100
AcDbScale
 70
     0
300
1/128" = 1'-0"
140
0.0078125
141
12.0
290
     0
  0
SCALE
  5
5A
102
{ACAD_REACTORS
330
47
102
}
330
47
100
AcDbScale
 70
     0
300
1/64" = 1'-0"
140
0.015625
141
12.0
290
     0
  0
SCALE
  5
5B
102
{ACAD_REACTORS
330
47
102
}
330
47
100
AcDbScale
 70
     0
300
1/32" = 1'-0"
140
0.03125
141
12.0
290
     0
  0
SCALE
  5
5C
102
{ACAD_REACTORS
330
47
102
}
330
47
100
AcDbScale
 70
     0
300
1/16" = 1'-0"
140
0.0625
141
12.0
290
     0
  0
SCALE
  5
5D
102
{ACAD_REACTORS
330
47
102
}
330
47
100
AcDbScale
 70
     0
300
3/32" = 1'-0"
140
0.09375
141
12.0
290
     0
  0
SCALE
  5
5E
102
{ACAD_REACTORS
330
47
102
}
330
47
100
AcDbScale
 70
     0
300
1/8" = 1'-0"
140
0.125
141
12.0
290
     0
  0
SCALE
  5
5F
102
{ACAD_REACTORS
330
47
102
}
330
47
100
AcDbScale
 70
     0
300
3/16" = 1'-0"
140
0.1875
141
12.0
290
     0
  0
SCALE
  5
60
102
{ACAD_REACTORS
330
47
102
}
330
47
100
AcDbScale
 70
     0
300
1/4" = 1'-0"
140
0.25
141
12.0
290
     0
  0
SCALE
  5
61
102
{ACAD_REACTORS
330
47
102
}
330
47
100
AcDbScale
 70
     0
300
3/8" = 1'-0"
140
0.375
141
12.0
290
     0
  0
SCALE
  5
62
102
{ACAD_REACTORS
330
47
102
}
330
47
100
AcDbScale
 70
     0
300
1/2" = 1'-0"
140
0.5
141
12.0
290
     0
  0
SCALE
  5
63
102
{ACAD_REACTORS
330
47
102
}
330
47
100
AcDbScale
 70
     0
300
3/4" = 1'-0"
140
0.75
141
12.0
290
     0
  0
SCALE
  5
64
102
{ACAD_REACTORS
330
47
102
}
330
47
100
AcDbScale
 70
     0
300
1" = 1'-0"
140
1.0
141
12.0
290
     0
  0
SCALE
  5
65
102
{ACAD_REACTORS
330
47
102
}
330
47
100
AcDbScale
 70
     0
300
1-1/2" = 1'-0"
140
1.5
141
12.0
290
     0
  0
SCALE
  5
66
102
{ACAD_REACTORS
330
47
102
}
330
47
100
AcDbScale
 70
     0
300
3" = 1'-0"
140
3.0
141
12.0
290
     0
  0
SCALE
  5
67
102
{ACAD_REACTORS
330
47
102
}
330
47
100
AcDbScale
 70
     0
300
6" = 1'-0"
140
6.0
141
12.0
290
     0
  0
SCALE
  5
68
102
{ACAD_REACTORS
330
47
102
}
330
47
100
AcDbScale
 70
     0
300
1'-0" = 1'-0"
140
12.0
141
12.0
290
     0
  0
ENDSEC
  0
EOF
