  0
SECTION
  2
HEADER
  9
$ACADVER
  1
AC1015
  9
$ACADMAINTVER
 70
     6
  9
$DWGCODEPAGE
  3
ANSI_949
  9
$INSBASE
 10
0.0
 20
0.0
 30
0.0
  9
$EXTMIN
 10
-55.1092747819696
 20
-49.97180738881173
 30
0.0
  9
$EXTMAX
 10
28.54986477965033
 20
40.37500000000002
 30
0.0
  9
$LIMMIN
 10
0.0
 20
0.0
  9
$LIMMAX
 10
420.0
 20
297.0
  9
$ORTHOMODE
 70
     0
  9
$REGENMODE
 70
     1
  9
$FILLMODE
 70
     1
  9
$QTEXTMODE
 70
     0
  9
$MIRRTEXT
 70
     1
  9
$LTSCALE
 40
1.0
  9
$ATTMODE
 70
     1
  9
$TEXTSIZE
 40
3.5
  9
$TRACEWID
 40
1.0
  9
$TEXTSTYLE
  7
Standard
  9
$CLAYER
  8
0
  9
$CELTYPE
  6
ByLayer
  9
$CECOLOR
 62
   256
  9
$CELTSCALE
 40
1.0
  9
$DISPSILH
 70
     0
  9
$DIMSCALE
 40
1.0
  9
$DIMASZ
 40
3.302
  9
$DIMEXO
 40
1.0
  9
$DIMDLI
 40
3.75
  9
$DIMRND
 40
0.0
  9
$DIMDLE
 40
0.0
  9
$DIMEXE
 40
1.0
  9
$DIMTP
 40
0.0
  9
$DIMTM
 40
0.0
  9
$DIMTXT
 40
3.5
  9
$DIMCEN
 40
2.5
  9
$DIMTSZ
 40
0.0
  9
$DIMTOL
 70
     0
  9
$DIMLIM
 70
     0
  9
$DIMTIH
 70
     1
  9
$DIMTOH
 70
     1
  9
$DIMSE1
 70
     0
  9
$DIMSE2
 70
     0
  9
$DIMTAD
 70
     1
  9
$DIMZIN
 70
     0
  9
$DIMBLK
  1

  9
$DIMASO
 70
     1
  9
$DIMSHO
 70
     1
  9
$DIMPOST
  1

  9
$DIMAPOST
  1

  9
$DIMALT
 70
     0
  9
$DIMALTD
 70
     3
  9
$DIMALTF
 40
0.0393700787401575
  9
$DIMLFAC
 40
1.0
  9
$DIMTOFL
 70
     1
  9
$DIMTVP
 40
0.0
  9
$DIMTIX
 70
     0
  9
$DIMSOXD
 70
     0
  9
$DIMSAH
 70
     0
  9
$DIMBLK1
  1

  9
$DIMBLK2
  1

  9
$DIMSTYLE
  2
ISO-25
  9
$DIMCLRD
 70
     0
  9
$DIMCLRE
 70
     0
  9
$DIMCLRT
 70
     0
  9
$DIMTFAC
 40
1.0
  9
$DIMGAP
 40
1.524
  9
$DIMJUST
 70
     0
  9
$DIMSD1
 70
     0
  9
$DIMSD2
 70
     0
  9
$DIMTOLJ
 70
     0
  9
$DIMTZIN
 70
     0
  9
$DIMALTZ
 70
     0
  9
$DIMALTTZ
 70
     0
  9
$DIMUPT
 70
     0
  9
$DIMDEC
 70
     2
  9
$DIMTDEC
 70
     2
  9
$DIMALTU
 70
     2
  9
$DIMALTTD
 70
     3
  9
$DIMTXSTY
  7
Standard
  9
$DIMAUNIT
 70
     0
  9
$DIMADEC
 70
     2
  9
$DIMALTRND
 40
0.0
  9
$DIMAZIN
 70
     0
  9
$DIMDSEP
 70
    44
  9
$DIMATFIT
 70
     3
  9
$DIMFRAC
 70
     0
  9
$DIMLDRBLK
  1

  9
$DIMLUNIT
 70
     2
  9
$DIMLWD
 70
    -2
  9
$DIMLWE
 70
    -2
  9
$DIMTMOVE
 70
     0
  9
$LUNITS
 70
     2
  9
$LUPREC
 70
     2
  9
$SKETCHINC
 40
1.0
  9
$FILLETRAD
 40
10.0
  9
$AUNITS
 70
     0
  9
$AUPREC
 70
     2
  9
$MENU
  1
.
  9
$ELEVATION
 40
0.0
  9
$PELEVATION
 40
0.0
  9
$THICKNESS
 40
0.0
  9
$LIMCHECK
 70
     0
  9
$CHAMFERA
 40
0.0
  9
$CHAMFERB
 40
0.0
  9
$CHAMFERC
 40
0.0
  9
$CHAMFERD
 40
0.0
  9
$SKPOLY
 70
     0
  9
$TDCREATE
 40
2458260.776103102
  9
$TDUCREATE
 40
2458260.401103102
  9
$TDUPDATE
 40
2459677.742949259
  9
$TDUUPDATE
 40
2459677.367949259
  9
$TDINDWG
 40
0.0023201273
  9
$TDUSRTIMER
 40
0.0003566782
  9
$USRTIMER
 70
     1
  9
$ANGBASE
 50
0.0
  9
$ANGDIR
 70
     0
  9
$PDMODE
 70
     0
  9
$PDSIZE
 40
-1.0
  9
$PLINEWID
 40
0.0
  9
$SPLFRAME
 70
     0
  9
$SPLINETYPE
 70
     6
  9
$SPLINESEGS
 70
     8
  9
$HANDSEED
  5
194
  9
$SURFTAB1
 70
     6
  9
$SURFTAB2
 70
     6
  9
$SURFTYPE
 70
     6
  9
$SURFU
 70
     6
  9
$SURFV
 70
     6
  9
$UCSBASE
  2

  9
$UCSNAME
  2

  9
$UCSORG
 10
0.0
 20
0.0
 30
0.0
  9
$UCSXDIR
 10
1.0
 20
0.0
 30
0.0
  9
$UCSYDIR
 10
0.0
 20
1.0
 30
0.0
  9
$UCSORTHOREF
  2

  9
$UCSORTHOVIEW
 70
     0
  9
$UCSORGTOP
 10
0.0
 20
0.0
 30
0.0
  9
$UCSORGBOTTOM
 10
0.0
 20
0.0
 30
0.0
  9
$UCSORGLEFT
 10
0.0
 20
0.0
 30
0.0
  9
$UCSORGRIGHT
 10
0.0
 20
0.0
 30
0.0
  9
$UCSORGFRONT
 10
0.0
 20
0.0
 30
0.0
  9
$UCSORGBACK
 10
0.0
 20
0.0
 30
0.0
  9
$PUCSBASE
  2

  9
$PUCSNAME
  2

  9
$PUCSORG
 10
0.0
 20
0.0
 30
0.0
  9
$PUCSXDIR
 10
1.0
 20
0.0
 30
0.0
  9
$PUCSYDIR
 10
0.0
 20
1.0
 30
0.0
  9
$PUCSORTHOREF
  2

  9
$PUCSORTHOVIEW
 70
     0
  9
$PUCSORGTOP
 10
0.0
 20
0.0
 30
0.0
  9
$PUCSORGBOTTOM
 10
0.0
 20
0.0
 30
0.0
  9
$PUCSORGLEFT
 10
0.0
 20
0.0
 30
0.0
  9
$PUCSORGRIGHT
 10
0.0
 20
0.0
 30
0.0
  9
$PUCSORGFRONT
 10
0.0
 20
0.0
 30
0.0
  9
$PUCSORGBACK
 10
0.0
 20
0.0
 30
0.0
  9
$USERI1
 70
     0
  9
$USERI2
 70
     0
  9
$USERI3
 70
     0
  9
$USERI4
 70
     0
  9
$USERI5
 70
     0
  9
$USERR1
 40
0.0
  9
$USERR2
 40
0.0
  9
$USERR3
 40
0.0
  9
$USERR4
 40
0.0
  9
$USERR5
 40
0.0
  9
$WORLDVIEW
 70
     1
  9
$SHADEDGE
 70
     3
  9
$SHADEDIF
 70
    70
  9
$TILEMODE
 70
     1
  9
$MAXACTVP
 70
    64
  9
$PINSBASE
 10
0.0
 20
0.0
 30
0.0
  9
$PLIMCHECK
 70
     0
  9
$PEXTMIN
 10
1.000000000000000E+20
 20
1.000000000000000E+20
 30
1.000000000000000E+20
  9
$PEXTMAX
 10
-1.000000000000000E+20
 20
-1.000000000000000E+20
 30
-1.000000000000000E+20
  9
$PLIMMIN
 10
0.0
 20
0.0
  9
$PLIMMAX
 10
0.0
 20
0.0
  9
$UNITMODE
 70
     0
  9
$VISRETAIN
 70
     1
  9
$PLINEGEN
 70
     0
  9
$PSLTSCALE
 70
     1
  9
$TREEDEPTH
 70
  3020
  9
$CMLSTYLE
  2
Standard
  9
$CMLJUST
 70
     0
  9
$CMLSCALE
 40
20.0
  9
$PROXYGRAPHICS
 70
     1
  9
$MEASUREMENT
 70
     1
  9
$CELWEIGHT
370
    -1
  9
$ENDCAPS
280
     0
  9
$JOINSTYLE
280
     0
  9
$LWDISPLAY
290
     1
  9
$INSUNITS
 70
     4
  9
$HYPERLINKBASE
  1

  9
$STYLESHEET
  1

  9
$XEDIT
290
     1
  9
$CEPSNTYPE
380
     0
  9
$PSTYLEMODE
290
     1
  9
$FINGERPRINTGUID
  2
{D5F3E020-5ACD-4A27-8530-DE344D44C190}
  9
$VERSIONGUID
  2
{FAEB1C32-E019-11D5-929B-00C0DF256EC4}
  9
$EXTNAMES
290
     1
  9
$PSVPSCALE
 40
0.0
  9
$OLESTARTUP
290
     0
  0
ENDSEC
  0
SECTION
  2
CLASSES
  0
CLASS
  1
ACDBDICTIONARYWDFLT
  2
AcDbDictionaryWithDefault
  3
ObjectDBX Classes
 90
        0
280
     0
281
     0
  0
CLASS
  1
VISUALSTYLE
  2
AcDbVisualStyle
  3
ObjectDBX Classes
 90
     4095
280
     0
281
     0
  0
CLASS
  1
MATERIAL
  2
AcDbMaterial
  3
ObjectDBX Classes
 90
     1153
280
     0
281
     0
  0
CLASS
  1
SCALE
  2
AcDbScale
  3
ObjectDBX Classes
 90
     1153
280
     0
281
     0
  0
CLASS
  1
TABLESTYLE
  2
AcDbTableStyle
  3
ObjectDBX Classes
 90
     4095
280
     0
281
     0
  0
CLASS
  1
MLEADERSTYLE
  2
AcDbMLeaderStyle
  3
ACDB_MLEADERSTYLE_CLASS
 90
     4095
280
     0
281
     0
  0
CLASS
  1
SUN
  2
AcDbSun
  3
SCENEOE
 90
     1153
280
     0
281
     0
  0
CLASS
  1
ACDBPLACEHOLDER
  2
AcDbPlaceHolder
  3
ObjectDBX Classes
 90
        0
280
     0
281
     0
  0
CLASS
  1
LAYOUT
  2
AcDbLayout
  3
ObjectDBX Classes
 90
        0
280
     0
281
     0
  0
CLASS
  1
DICTIONARYVAR
  2
AcDbDictionaryVar
  3
ObjectDBX Classes
 90
        0
280
     0
281
     0
  0
ENDSEC
  0
SECTION
  2
TABLES
  0
TABLE
  2
VPORT
  5
8
330
0
100
AcDbSymbolTable
 70
     1
  0
VPORT
  5
29
330
8
100
AcDbSymbolTableRecord
100
AcDbViewportTableRecord
  2
*Active
 70
     0
 10
0.0
 20
0.0
 11
1.0
 21
1.0
 12
-25.64339507736249
 22
-0.4515879353008465
 13
0.0
 23
0.0
 14
10.0
 24
10.0
 15
10.0
 25
10.0
 16
0.0
 26
0.0
 36
1.0
 17
0.0
 27
0.0
 37
0.0
 40
44.35084399038264
 41
1.531481481481481
 42
50.0
 43
0.0
 44
0.0
 50
0.0
 51
0.0
 71
    16
 72
  2000
 73
     1
 74
     3
 75
     0
 76
     0
 77
     0
 78
     0
281
     0
 65
     1
110
0.0
120
0.0
130
0.0
111
1.0
121
0.0
131
0.0
112
0.0
122
1.0
132
0.0
 79
     0
146
0.0
  0
ENDTAB
  0
TABLE
  2
LTYPE
  5
5
330
0
100
AcDbSymbolTable
 70
     6
  0
LTYPE
  5
14
330
5
100
AcDbSymbolTableRecord
100
AcDbLinetypeTableRecord
  2
ByBlock
 70
     0
  3

 72
    65
 73
     0
 40
0.0
  0
LTYPE
  5
15
330
5
100
AcDbSymbolTableRecord
100
AcDbLinetypeTableRecord
  2
ByLayer
 70
     0
  3

 72
    65
 73
     0
 40
0.0
  0
LTYPE
  5
16
330
5
100
AcDbSymbolTableRecord
100
AcDbLinetypeTableRecord
  2
Continuous
 70
     0
  3
Solid line
 72
    65
 73
     0
 40
0.0
  0
LTYPE
  5
6E
330
5
100
AcDbSymbolTableRecord
100
AcDbLinetypeTableRecord
  2
HIDDEN
 70
     0
  3
Hidden __ __ __ __ __ __ __ __ __ __ __ __ __ __
 72
    65
 73
     2
 40
1.905
 49
1.27
 74
     0
 49
-0.635
 74
     0
  0
LTYPE
  5
6F
330
5
100
AcDbSymbolTableRecord
100
AcDbLinetypeTableRecord
  2
PHANTOM
 70
     0
  3
Phantom ______  __  __  ______  __  __  ______
 72
    65
 73
     6
 40
12.7
 49
6.35
 74
     0
 49
-1.27
 74
     0
 49
1.27
 74
     0
 49
-1.27
 74
     0
 49
1.27
 74
     0
 49
-1.27
 74
     0
  0
LTYPE
  5
70
330
5
100
AcDbSymbolTableRecord
100
AcDbLinetypeTableRecord
  2
CENTER
 70
     0
  3
Center ____ _ ____ _ ____ _ ____ _ ____ _ ____
 72
    65
 73
     4
 40
10.16
 49
6.35
 74
     0
 49
-1.27
 74
     0
 49
1.27
 74
     0
 49
-1.27
 74
     0
  0
LTYPE
  5
71
330
5
100
AcDbSymbolTableRecord
100
AcDbLinetypeTableRecord
  2
CENTERX2
 70
     0
  3
Center (2x) ________  __  ________  __  _____
 72
    65
 73
     4
 40
20.32
 49
12.7
 74
     0
 49
-2.54
 74
     0
 49
2.54
 74
     0
 49
-2.54
 74
     0
  0
LTYPE
  5
72
330
5
100
AcDbSymbolTableRecord
100
AcDbLinetypeTableRecord
  2
DOT2
 70
     0
  3
Dot (.5x) ........................................
 72
    65
 73
     2
 40
0.635
 49
0.0
 74
     0
 49
-0.635
 74
     0
  0
ENDTAB
  0
TABLE
  2
LAYER
  5
2
330
0
100
AcDbSymbolTable
 70
    17
  0
LAYER
  5
10
330
2
100
AcDbSymbolTableRecord
100
AcDbLayerTableRecord
  2
0
 70
     0
 62
     7
  6
Continuous
370
    -3
390
F
  0
LAYER
  5
73
330
2
100
AcDbSymbolTableRecord
100
AcDbLayerTableRecord
  2
FORMAT
 70
     0
 62
     2
  6
Continuous
370
    -3
390
F
  0
LAYER
  5
74
330
2
100
AcDbSymbolTableRecord
100
AcDbLayerTableRecord
  2
외형선
 70
     0
 62
   100
  6
Continuous
370
    35
390
F
  0
LAYER
  5
75
330
2
100
AcDbSymbolTableRecord
100
AcDbLayerTableRecord
  2
숨은선
 70
     0
 62
     2
  6
HIDDEN
370
    25
390
F
  0
LAYER
  5
76
330
2
100
AcDbSymbolTableRecord
100
AcDbLayerTableRecord
  2
중심선
 70
     0
 62
     1
  6
CENTERX2
370
    -3
390
F
  0
LAYER
  5
77
330
2
100
AcDbSymbolTableRecord
100
AcDbLayerTableRecord
  2
파단선
 70
     0
 62
     4
  6
Continuous
370
    -3
390
F
  0
LAYER
  5
78
330
2
100
AcDbSymbolTableRecord
100
AcDbLayerTableRecord
  2
해칭선
 70
     0
 62
   100
  6
Continuous
370
    -3
390
F
  0
LAYER
  5
79
330
2
100
AcDbSymbolTableRecord
100
AcDbLayerTableRecord
  2
가는실선
 70
     0
 62
     4
  6
Continuous
370
    -3
390
F
  0
LAYER
  5
7A
330
2
100
AcDbSymbolTableRecord
100
AcDbLayerTableRecord
  2
치수_보조선
 70
     0
 62
     4
  6
Continuous
370
    -3
390
F
  0
LAYER
  5
7B
330
2
100
AcDbSymbolTableRecord
100
AcDbLayerTableRecord
  2
치수문자_일반주서
 70
     0
 62
     7
  6
Continuous
370
    25
390
F
  0
LAYER
  5
7C
330
2
100
AcDbSymbolTableRecord
100
AcDbLayerTableRecord
  2
개별주서
 70
     0
 62
   100
  6
Continuous
370
    35
390
F
  0
LAYER
  5
7D
330
2
100
AcDbSymbolTableRecord
100
AcDbLayerTableRecord
  2
중간선
 70
     0
 62
     2
  6
Continuous
370
    25
390
F
  0
LAYER
  5
7E
330
2
100
AcDbSymbolTableRecord
100
AcDbLayerTableRecord
  2
윤곽선
 70
     0
 62
     3
  6
Continuous
370
    50
390
F
  0
LAYER
  5
7F
330
2
100
AcDbSymbolTableRecord
100
AcDbLayerTableRecord
  2
중심마크
 70
     0
 62
   100
  6
Continuous
370
    35
390
F
  0
LAYER
  5
80
330
2
100
AcDbSymbolTableRecord
100
AcDbLayerTableRecord
  2
가상선
 70
     0
 62
     4
  6
PHANTOM
370
    -3
390
F
  0
LAYER
  5
81
330
2
100
AcDbSymbolTableRecord
100
AcDbLayerTableRecord
  2
특수지정선
 70
     0
 62
     5
  6
CENTERX2
370
    70
390
F
  0
LAYER
  5
159
330
2
100
AcDbSymbolTableRecord
100
AcDbLayerTableRecord
  2
Defpoints
 70
     0
 62
     7
  6
Continuous
290
     0
370
    -3
390
F
  0
ENDTAB
  0
TABLE
  2
STYLE
  5
3
330
0
100
AcDbSymbolTable
 70
     2
  0
STYLE
  5
11
330
3
100
AcDbSymbolTableRecord
100
AcDbTextStyleTableRecord
  2
Standard
 70
     0
 40
0.0
 41
1.0
 50
0.0
 71
     0
 42
3.5
  3
txt
  4

  0
STYLE
  5
97
330
3
100
AcDbSymbolTableRecord
100
AcDbTextStyleTableRecord
  2
SLDTEXTSTYLE0
 70
     0
 40
0.0
 41
0.75
 50
0.0
 71
     0
 42
3.5
  3
TXT
  4

  0
ENDTAB
  0
TABLE
  2
VIEW
  5
6
330
0
100
AcDbSymbolTable
 70
     0
  0
ENDTAB
  0
TABLE
  2
UCS
  5
7
330
0
100
AcDbSymbolTable
 70
     0
  0
ENDTAB
  0
TABLE
  2
APPID
  5
9
330
0
100
AcDbSymbolTable
 70
     2
  0
APPID
  5
12
330
9
100
AcDbSymbolTableRecord
100
AcDbRegAppTableRecord
  2
ACAD
 70
     0
  0
APPID
  5
15A
330
9
100
AcDbSymbolTableRecord
100
AcDbRegAppTableRecord
  2
PE_URL
 70
     0
  0
ENDTAB
  0
TABLE
  2
DIMSTYLE
  5
A
330
0
100
AcDbSymbolTable
 70
     5
100
AcDbDimStyleTable
  0
DIMSTYLE
105
27
330
A
100
AcDbSymbolTableRecord
100
AcDbDimStyleTableRecord
  2
ISO-25
 70
     0
 41
2.5
 42
0.625
 43
3.75
 44
1.25
 73
     0
 74
     0
 77
     1
 78
     8
140
2.5
141
2.5
143
0.03937007874016
147
0.625
171
     3
172
     1
178
     0
271
     2
272
     2
274
     3
278
    44
283
     0
284
     8
340
11
  0
DIMSTYLE
105
F1
102
{ACAD_REACTORS
330
F0
102
}
330
A
100
AcDbSymbolTableRecord
100
AcDbDimStyleTableRecord
  2
SLDDIMSTYLE0
 70
     0
 41
3.302
 44
0.0
 45
0.000000001
 73
     0
 74
     0
 77
     1
 78
    12
 79
     3
140
3.5
147
0.875
172
     1
173
     1
178
     0
271
     1
272
     1
276
     2
284
    12
289
     0
340
97
  0
DIMSTYLE
105
FF
102
{ACAD_REACTORS
330
FE
102
}
330
A
100
AcDbSymbolTableRecord
100
AcDbDimStyleTableRecord
  2
SLDDIMSTYLE1
 70
     0
 41
3.302
 44
0.0
 45
0.000000001
 73
     0
 74
     0
 77
     1
 78
    12
 79
     3
140
3.5
147
0.875
173
     1
178
     0
271
     2
272
     2
276
     2
284
    12
340
97
  0
DIMSTYLE
105
10A
102
{ACAD_REACTORS
330
109
330
124
102
}
330
A
100
AcDbSymbolTableRecord
100
AcDbDimStyleTableRecord
  2
SLDDIMSTYLE2
 70
     0
 41
3.302
 44
0.0
 45
0.000000001
 73
     0
 74
     0
 77
     1
 78
    12
 79
     3
140
3.5
147
0.875
172
     1
173
     1
178
     0
271
     2
272
     2
276
     2
284
    12
289
     0
340
97
  0
DIMSTYLE
105
118
102
{ACAD_REACTORS
330
117
102
}
330
A
100
AcDbSymbolTableRecord
100
AcDbDimStyleTableRecord
  2
SLDDIMSTYLE3
 70
     0
 41
3.302
 44
0.0
 45
0.000000001
 73
     0
 74
     0
 77
     1
 78
     4
 79
     1
140
3.5
147
0.875
172
     1
173
     1
178
     0
271
     2
272
     2
276
     2
284
    12
289
     0
340
97
  0
ENDTAB
  0
TABLE
  2
BLOCK_RECORD
  5
1
330
0
100
AcDbSymbolTable
 70
     8
  0
BLOCK_RECORD
  5
1F
102
{ACAD_XDICTIONARY
360
191
102
}
330
1
100
AcDbSymbolTableRecord
100
AcDbBlockTableRecord
  2
*Model_Space
340
22
  0
BLOCK_RECORD
  5
1B
330
1
100
AcDbSymbolTableRecord
100
AcDbBlockTableRecord
  2
*Paper_Space
340
1E
  0
BLOCK_RECORD
  5
23
330
1
100
AcDbSymbolTableRecord
100
AcDbBlockTableRecord
  2
*Paper_Space0
340
26
  0
BLOCK_RECORD
  5
82
330
1
100
AcDbSymbolTableRecord
100
AcDbBlockTableRecord
  2
블럭10
340
0
102
{BLKREFS
331
E9
102
}
  0
BLOCK_RECORD
  5
F2
330
1
100
AcDbSymbolTableRecord
100
AcDbBlockTableRecord
  2
_D
340
0
  0
BLOCK_RECORD
  5
100
330
1
100
AcDbSymbolTableRecord
100
AcDbBlockTableRecord
  2
_D_1
340
0
  0
BLOCK_RECORD
  5
10B
330
1
100
AcDbSymbolTableRecord
100
AcDbBlockTableRecord
  2
_D_2
340
0
  0
BLOCK_RECORD
  5
119
330
1
100
AcDbSymbolTableRecord
100
AcDbBlockTableRecord
  2
_D_3
340
0
  0
BLOCK_RECORD
  5
125
330
1
100
AcDbSymbolTableRecord
100
AcDbBlockTableRecord
  2
_D_4
340
0
  0
BLOCK_RECORD
  5
130
330
1
100
AcDbSymbolTableRecord
100
AcDbBlockTableRecord
  2
SW_DOWELSYMBOL_0
340
0
102
{BLKREFS
331
136
102
}
  0
ENDTAB
  0
ENDSEC
  0
SECTION
  2
BLOCKS
  0
BLOCK
  5
20
330
1F
100
AcDbEntity
  8
0
100
AcDbBlockBegin
  2
*Model_Space
 70
     0
 10
0.0
 20
0.0
 30
0.0
  3
*Model_Space
  1

  0
ENDBLK
  5
21
330
1F
100
AcDbEntity
  8
0
100
AcDbBlockEnd
  0
BLOCK
  5
1C
330
1B
100
AcDbEntity
 67
     1
  8
0
100
AcDbBlockBegin
  2
*Paper_Space
 70
     0
 10
0.0
 20
0.0
 30
0.0
  3
*Paper_Space
  1

  0
ENDBLK
  5
1D
330
1B
100
AcDbEntity
 67
     1
  8
0
100
AcDbBlockEnd
  0
BLOCK
  5
24
330
23
100
AcDbEntity
  8
0
100
AcDbBlockBegin
  2
*Paper_Space0
 70
     0
 10
0.0
 20
0.0
 30
0.0
  3
*Paper_Space0
  1

  0
ENDBLK
  5
25
330
23
100
AcDbEntity
  8
0
100
AcDbBlockEnd
  0
BLOCK
  5
83
330
82
100
AcDbEntity
  8
0
100
AcDbBlockBegin
  2
블럭10
 70
     2
 10
0.0
 20
0.0
 30
0.0
  3
블럭10
  1

  0
ELLIPSE
  5
85
330
82
100
AcDbEntity
  8
중심선
100
AcDbEllipse
 10
20.54032771741204
 20
12.0471743016438
 30
0.0
 11
6.600054785286829
 21
-1.261213355974178E-13
 31
0.0
210
0.0
220
0.0
230
1.0
 40
0.636358354079598
 41
0.9219305317359503
 42
6.513795318482858
  0
ELLIPSE
  5
86
330
82
100
AcDbEntity
  8
중심선
100
AcDbEllipse
 10
20.54032771746488
 20
12.04717430159265
 30
0.0
 11
3.960054785062283
 21
1.540847449632565E-10
 31
0.0
210
0.0
220
0.0
230
1.0
 40
0.3939339440162632
 41
1.131841032648279
 42
5.62031148352944
  0
LINE
  5
87
330
82
100
AcDbEntity
  8
중심선
100
AcDbLine
 10
2.268634060543552
 20
16.24717430164393
 30
0.0
 11
5.714909304380834
 21
16.24717430164393
 31
0.0
  0
LINE
  5
88
330
82
100
AcDbEntity
  8
중심선
100
AcDbLine
 10
5.245725140726316
 20
7.84717430164391
 30
0.0
 11
8.692000384563599
 21
7.84717430164391
 31
0.0
  0
LINE
  5
89
330
82
100
AcDbEntity
  8
중심선
100
AcDbLine
 10
15.74043728645272
 20
16.24717430164393
 30
0.0
 11
8.692000384563599
 21
7.84717430164391
 31
0.0
  0
LINE
  5
8A
330
82
100
AcDbEntity
  8
중심선
100
AcDbLine
 10
0.1404042013395286
 20
13.71084872107135
 30
0.0
 11
3.58671253028996
 21
13.71088815037384
 31
0.0
  0
LINE
  5
8B
330
82
100
AcDbEntity
  8
중심선
100
AcDbLine
 10
2.750260043222114
 20
10.84717430164391
 30
0.0
 11
6.196535287059397
 21
10.84717430164391
 31
0.0
  0
LINE
  5
8C
330
82
100
AcDbEntity
  8
중심선
100
AcDbLine
 10
12.29416204261559
 20
16.24717430164393
 30
0.0
 11
5.245725140726316
 21
7.84717430164391
 31
0.0
  0
LINE
  5
8D
330
82
100
AcDbEntity
  8
중심선
100
AcDbLine
 10
10.72767329541681
 20
16.24717430164393
 30
0.0
 11
6.196535287059397
 21
10.84717430164391
 31
0.0
  0
LINE
  5
8E
330
82
100
AcDbEntity
  8
중심선
100
AcDbLine
 10
7.28139805157953
 20
16.24717430164393
 30
0.0
 11
2.750260043222114
 21
10.84717430164391
 31
0.0
  0
LINE
  5
8F
330
82
100
AcDbEntity
  8
중심선
100
AcDbLine
 10
5.714909304380834
 20
16.24717430164393
 30
0.0
 11
3.58671253028996
 21
13.71088815037384
 31
0.0
  0
LINE
  5
90
330
82
100
AcDbEntity
  8
중심선
100
AcDbLine
 10
2.268634060543552
 20
16.24717430164393
 30
0.0
 11
0.1404042013395286
 21
13.71084872107135
 31
0.0
  0
LINE
  5
91
330
82
100
AcDbEntity
  8
중심선
100
AcDbLine
 10
7.28139805157953
 20
16.24717430164393
 30
0.0
 11
10.72767329541681
 21
16.24717430164393
 31
0.0
  0
LINE
  5
92
330
82
100
AcDbEntity
  8
중심선
100
AcDbLine
 10
12.29416204261559
 20
16.24717430164393
 30
0.0
 11
15.74043728645272
 21
16.24717430164393
 31
0.0
  0
LINE
  5
93
330
82
100
AcDbEntity
  8
중심선
100
AcDbLine
 10
19.22036997980202
 20
11.08717430171403
 30
0.0
 11
23.66174974927406
 21
11.08717430171406
 31
0.0
  0
LINE
  5
94
330
82
100
AcDbEntity
  8
중심선
100
AcDbLine
 10
19.22039502424796
 20
13.00717430171391
 30
0.0
 11
19.22036997980202
 21
11.08717430171403
 31
0.0
  0
LINE
  5
95
330
82
100
AcDbEntity
  8
중심선
100
AcDbLine
 10
19.22039502424796
 20
13.00717430171391
 30
0.0
 11
26.96566020931264
 21
13.00717430171391
 31
0.0
  0
LINE
  5
96
330
82
100
AcDbEntity
  8
중심선
100
AcDbLine
 10
22.22332737316547
 20
13.45928029700563
 30
0.0
 11
24.52862924686651
 21
15.39360700705356
 31
0.0
  0
ATTDEF
  5
98
330
82
100
AcDbEntity
  8
FORMAT
 62
     2
100
AcDbText
 10
-16.11926103943555
 20
2.075366912832191
 30
0.0
 40
4.233333333333333
  1
SEME7301508E [ 4 FLUTE ]
 41
0.75
  7
SLDTEXTSTYLE0
 11
-16.11926103943555
 21
-0.0412997538344756
 31
0.0
100
AcDbAttributeDefinition
  3

  2
AUTOATTR0
 70
     0
 74
     1
  0
ENDBLK
  5
84
330
82
100
AcDbEntity
  8
0
100
AcDbBlockEnd
  0
BLOCK
  5
F3
330
F2
100
AcDbEntity
  8
0
100
AcDbBlockBegin
  2
_D
 70
     0
 10
0.0
 20
0.0
 30
0.0
  3
_D
  1

  0
LINE
  5
F5
330
F2
100
AcDbEntity
  8
치수문자_일반주서
 62
     0
370
    -2
100
AcDbLine
 10
12.82086477965031
 20
-0.7348469228349538
 30
0.0
 11
24.34820121929534
 21
-0.7348469228349117
 31
0.0
  0
LINE
  5
F6
330
F2
100
AcDbEntity
  8
치수문자_일반주서
 62
     0
370
    -2
100
AcDbLine
 10
12.82086477965031
 20
0.7263633594381361
 30
0.0
 11
24.34820121929534
 21
0.726363359438178
 31
0.0
  0
LINE
  5
F7
330
F2
100
AcDbEntity
  8
치수문자_일반주서
 62
     0
370
    -2
100
AcDbLine
 10
24.34820121929534
 20
0.726363359438178
 30
0.0
 11
24.3482012192953
 21
16.08036335943818
 31
0.0
  0
LINE
  5
F8
330
F2
100
AcDbEntity
  8
치수문자_일반주서
 62
     0
370
    -2
100
AcDbLine
 10
24.34820121929534
 20
-0.7348469228349117
 30
0.0
 11
24.34820121929534
 21
0.726363359438178
 31
0.0
  0
LINE
  5
F9
330
F2
100
AcDbEntity
  8
치수문자_일반주서
 62
     0
370
    -2
100
AcDbLine
 10
24.34820121929535
 20
-4.036846922834911
 30
0.0
 11
24.34820121929536
 21
-7.338846922834911
 31
0.0
  0
LINE
  5
FA
330
F2
100
AcDbEntity
  8
치수문자_일반주서
 62
     0
370
    -2
100
AcDbLine
 10
24.34820121929533
 20
4.028363359438178
 30
0.0
 11
24.34820121929533
 21
7.330363359438177
 31
0.0
  0
SOLID
  5
FB
330
F2
100
AcDbEntity
  8
치수문자_일반주서
 62
     0
100
AcDbTrace
 10
24.89853455262869
 20
-4.03684692283491
 30
0.0
 11
23.79786788596202
 21
-4.036846922834913
 31
0.0
 12
24.34820121929534
 22
-0.7348469228349117
 32
0.0
 13
24.34820121929534
 23
-0.7348469228349117
 33
0.0
  0
SOLID
  5
FC
330
F2
100
AcDbEntity
  8
치수문자_일반주서
 62
     0
100
AcDbTrace
 10
23.797867885962
 20
4.028363359438176
 30
0.0
 11
24.89853455262867
 21
4.028363359438179
 31
0.0
 12
24.34820121929534
 22
0.726363359438178
 32
0.0
 13
24.34820121929534
 23
0.726363359438178
 33
0.0
  0
MTEXT
  5
FD
330
F2
100
AcDbEntity
  8
치수문자_일반주서
 62
     0
100
AcDbMText
 10
19.97320121929531
 20
11.70536335943817
 30
0.0
 40
3.5
 41
0.0
 71
     2
 72
     1
  1
\A1;%%c1.5
  7
SLDTEXTSTYLE0
 11
-2.431350040374630E-15
 21
1.0
 31
0.0
 73
     1
 44
1.0
  0
POINT
  5
167
330
F2
100
AcDbEntity
  8
Defpoints
 62
     0
100
AcDbPoint
 10
12.75836477965031
 20
-0.734846922834954
 30
0.0
  0
POINT
  5
168
330
F2
100
AcDbEntity
  8
Defpoints
 62
     0
100
AcDbPoint
 10
12.75836477965031
 20
0.7263633594381359
 30
0.0
  0
POINT
  5
169
330
F2
100
AcDbEntity
  8
Defpoints
 62
     0
100
AcDbPoint
 10
24.34820121929534
 20
0.7263633594381792
 30
0.0
  0
ENDBLK
  5
F4
330
F2
100
AcDbEntity
  8
0
100
AcDbBlockEnd
  0
BLOCK
  5
101
330
100
100
AcDbEntity
  8
0
100
AcDbBlockBegin
  2
_D_1
 70
     0
 10
0.0
 20
0.0
 30
0.0
  3
_D_1
  1

  0
LINE
  5
103
330
100
100
AcDbEntity
  8
치수문자_일반주서
 62
     0
370
    -2
100
AcDbLine
 10
-37.2416352203497
 20
1.562499999999992
 30
0.0
 11
-37.24163522034971
 21
36.00000000000003
 31
0.0
  0
LINE
  5
104
330
100
100
AcDbEntity
  8
치수문자_일반주서
 62
     0
370
    -2
100
AcDbLine
 10
12.75836477965031
 20
-0.0125000000000049
 30
0.0
 11
12.7583647796503
 21
36.00000000000003
 31
0.0
  0
LINE
  5
105
330
100
100
AcDbEntity
  8
치수문자_일반주서
 62
     0
370
    -2
100
AcDbLine
 10
-33.93963522034971
 20
36.00000000000003
 30
0.0
 11
9.456364779650304
 21
36.00000000000003
 31
0.0
  0
SOLID
  5
106
330
100
100
AcDbEntity
  8
치수문자_일반주서
 62
     0
100
AcDbTrace
 10
-33.93963522034971
 20
36.55033333333336
 30
0.0
 11
-33.93963522034971
 21
35.44966666666669
 31
0.0
 12
-37.24163522034971
 22
36.00000000000003
 32
0.0
 13
-37.24163522034971
 23
36.00000000000003
 33
0.0
  0
SOLID
  5
107
330
100
100
AcDbEntity
  8
치수문자_일반주서
 62
     0
100
AcDbTrace
 10
9.456364779650304
 20
35.44966666666669
 30
0.0
 11
9.456364779650304
 21
36.55033333333336
 31
0.0
 12
12.7583647796503
 22
36.00000000000003
 32
0.0
 13
12.7583647796503
 23
36.00000000000003
 33
0.0
  0
MTEXT
  5
108
330
100
100
AcDbEntity
  8
치수문자_일반주서
 62
     0
100
AcDbMText
 10
-12.24163522034969
 20
40.37500000000003
 30
0.0
 40
3.5
 41
0.0
 71
     2
 72
     1
  1
\A1;50
  7
SLDTEXTSTYLE0
 73
     1
 44
1.0
  0
POINT
  5
16A
330
100
100
AcDbEntity
  8
Defpoints
 62
     0
100
AcDbPoint
 10
-37.2416352203497
 20
1.499999999999992
 30
0.0
  0
POINT
  5
16B
330
100
100
AcDbEntity
  8
Defpoints
 62
     0
100
AcDbPoint
 10
12.75836477965031
 20
-0.0750000000000049
 30
0.0
  0
POINT
  5
16C
330
100
100
AcDbEntity
  8
Defpoints
 62
     0
100
AcDbPoint
 10
12.75836477965031
 20
36.00000000000003
 30
0.0
  0
ENDBLK
  5
102
330
100
100
AcDbEntity
  8
0
100
AcDbBlockEnd
  0
BLOCK
  5
10C
330
10B
100
AcDbEntity
  8
0
100
AcDbBlockBegin
  2
_D_2
 70
     0
 10
0.0
 20
0.0
 30
0.0
  3
_D_2
  1

  0
LINE
  5
10E
330
10B
100
AcDbEntity
  8
치수문자_일반주서
 62
     0
370
    -2
100
AcDbLine
 10
-36.80413522034971
 20
1.999999999999999
 30
0.0
 11
-50.7342747819696
 21
1.999999999999947
 31
0.0
  0
LINE
  5
10F
330
10B
100
AcDbEntity
  8
치수문자_일반주서
 62
     0
370
    -2
100
AcDbLine
 10
-36.80413522034971
 20
-2.000000000000005
 30
0.0
 11
-50.73427478196958
 21
-2.000000000000057
 31
0.0
  0
LINE
  5
110
330
10B
100
AcDbEntity
  8
치수문자_일반주서
 62
     0
370
    -2
100
AcDbLine
 10
-50.73427478196958
 20
-1.302000000000053
 30
0.0
 11
-50.7342747819696
 21
1.301999999999943
 31
0.0
  0
SOLID
  5
111
330
10B
100
AcDbEntity
  8
치수문자_일반주서
 62
     0
100
AcDbTrace
 10
-50.18394144863625
 20
-1.302000000000051
 30
0.0
 11
-51.28460811530292
 21
-1.302000000000055
 31
0.0
 12
-50.7342747819696
 22
1.999999999999947
 32
0.0
 13
-50.7342747819696
 23
1.999999999999947
 33
0.0
  0
SOLID
  5
112
330
10B
100
AcDbEntity
  8
치수문자_일반주서
 62
     0
100
AcDbTrace
 10
-51.28460811530293
 20
1.301999999999941
 30
0.0
 11
-50.18394144863626
 21
1.301999999999945
 31
0.0
 12
-50.73427478196958
 22
-2.000000000000057
 32
0.0
 13
-50.73427478196958
 23
-2.000000000000057
 33
0.0
  0
MTEXT
  5
113
330
10B
100
AcDbEntity
  8
치수문자_일반주서
 62
     0
100
AcDbMText
 10
-55.10927478196959
 20
-0.7264638992030992
 30
0.0
 40
3.5
 41
0.0
 71
     2
 72
     1
  1
\A1;%%c4
  7
SLDTEXTSTYLE0
 11
-3.552713678800498E-15
 21
1.0
 31
0.0
 73
     1
 44
1.0
  0
POINT
  5
114
330
10B
100
AcDbEntity
  8
Defpoints
 62
     0
100
AcDbPoint
 10
-36.74163522034971
 20
1.999999999999999
 30
0.0
  0
POINT
  5
115
330
10B
100
AcDbEntity
  8
Defpoints
 62
     0
100
AcDbPoint
 10
-36.74163522034971
 20
-2.000000000000004
 30
0.0
  0
POINT
  5
116
330
10B
100
AcDbEntity
  8
Defpoints
 62
     0
100
AcDbPoint
 10
-50.73427478196959
 20
-2.000000000000057
 30
0.0
  0
ENDBLK
  5
10D
330
10B
100
AcDbEntity
  8
0
100
AcDbBlockEnd
  0
BLOCK
  5
11A
330
119
100
AcDbEntity
  8
0
100
AcDbBlockBegin
  2
_D_3
 70
     0
 10
0.0
 20
0.0
 30
0.0
  3
_D_3
  1

  0
LINE
  5
11C
330
119
100
AcDbEntity
  8
치수문자_일반주서
 62
     0
370
    -2
100
AcDbLine
 10
10.45836477965031
 20
0.5981229458249175
 30
0.0
 11
10.45836477965031
 21
17.61973786945578
 31
0.0
  0
LINE
  5
11D
330
119
100
AcDbEntity
  8
치수문자_일반주서
 62
     0
370
    -2
100
AcDbLine
 10
12.75836477965031
 20
0.7973469228349511
 30
0.0
 11
12.75836477965031
 21
17.61973786945578
 31
0.0
  0
LINE
  5
11E
330
119
100
AcDbEntity
  8
치수문자_일반주서
 62
     0
370
    -2
100
AcDbLine
 10
12.75836477965031
 20
17.61973786945578
 30
0.0
 11
28.54986477965031
 21
17.61973786945578
 31
0.0
  0
LINE
  5
11F
330
119
100
AcDbEntity
  8
치수문자_일반주서
 62
     0
370
    -2
100
AcDbLine
 10
10.45836477965031
 20
17.61973786945578
 30
0.0
 11
12.75836477965031
 21
17.61973786945578
 31
0.0
  0
LINE
  5
120
330
119
100
AcDbEntity
  8
치수문자_일반주서
 62
     0
370
    -2
100
AcDbLine
 10
7.15636477965031
 20
17.61973786945578
 30
0.0
 11
3.85436477965031
 21
17.61973786945578
 31
0.0
  0
LINE
  5
121
330
119
100
AcDbEntity
  8
치수문자_일반주서
 62
     0
370
    -2
100
AcDbLine
 10
16.06036477965031
 20
17.61973786945578
 30
0.0
 11
19.36236477965031
 21
17.61973786945578
 31
0.0
  0
SOLID
  5
122
330
119
100
AcDbEntity
  8
치수문자_일반주서
 62
     0
100
AcDbTrace
 10
7.15636477965031
 20
17.06940453612245
 30
0.0
 11
7.15636477965031
 21
18.17007120278912
 31
0.0
 12
10.45836477965031
 22
17.61973786945578
 32
0.0
 13
10.45836477965031
 23
17.61973786945578
 33
0.0
  0
SOLID
  5
123
330
119
100
AcDbEntity
  8
치수문자_일반주서
 62
     0
100
AcDbTrace
 10
16.06036477965031
 20
18.17007120278912
 30
0.0
 11
16.06036477965031
 21
17.06940453612245
 31
0.0
 12
12.75836477965031
 22
17.61973786945578
 32
0.0
 13
12.75836477965031
 23
17.61973786945578
 33
0.0
  0
MTEXT
  5
15B
330
119
100
AcDbEntity
  8
치수문자_일반주서
 62
     0
100
AcDbMText
 10
23.95611477965031
 20
21.99473786945578
 30
0.0
 40
3.5
 41
0.0
 71
     2
 72
     1
  1
\A1;2.30
  7
SLDTEXTSTYLE0
 73
     1
 44
1.0
  0
POINT
  5
164
330
119
100
AcDbEntity
  8
Defpoints
 62
     0
100
AcDbPoint
 10
10.45836477965031
 20
0.5356229458249175
 30
0.0
  0
POINT
  5
165
330
119
100
AcDbEntity
  8
Defpoints
 62
     0
100
AcDbPoint
 10
12.75836477965031
 20
0.7348469228349511
 30
0.0
  0
POINT
  5
166
330
119
100
AcDbEntity
  8
Defpoints
 62
     0
100
AcDbPoint
 10
12.75836477965031
 20
17.61973786945578
 30
0.0
  0
ENDBLK
  5
11B
330
119
100
AcDbEntity
  8
0
100
AcDbBlockEnd
  0
BLOCK
  5
126
330
125
100
AcDbEntity
  8
0
100
AcDbBlockBegin
  2
_D_4
 70
     0
 10
0.0
 20
0.0
 30
0.0
  3
_D_4
  1

  0
LINE
  5
128
330
125
100
AcDbEntity
  8
치수문자_일반주서
 62
     0
370
    -2
100
AcDbLine
 10
12.75836477965031
 20
0.7888633594381359
 30
0.0
 11
12.75836477965031
 21
25.42615288579231
 31
0.0
  0
LINE
  5
129
330
125
100
AcDbEntity
  8
치수문자_일반주서
 62
     0
370
    -2
100
AcDbLine
 10
4.758364779650307
 20
0.7874999999999958
 30
0.0
 11
4.758364779650307
 21
25.42615288579231
 31
0.0
  0
LINE
  5
12A
330
125
100
AcDbEntity
  8
치수문자_일반주서
 62
     0
370
    -2
100
AcDbLine
 10
9.456364779650311
 20
25.42615288579231
 30
0.0
 11
8.060364779650307
 21
25.42615288579231
 31
0.0
  0
SOLID
  5
12B
330
125
100
AcDbEntity
  8
치수문자_일반주서
 62
     0
100
AcDbTrace
 10
9.456364779650311
 20
24.87581955245898
 30
0.0
 11
9.456364779650311
 21
25.97648621912565
 31
0.0
 12
12.75836477965031
 22
25.42615288579231
 32
0.0
 13
12.75836477965031
 23
25.42615288579231
 33
0.0
  0
SOLID
  5
12C
330
125
100
AcDbEntity
  8
치수문자_일반주서
 62
     0
100
AcDbTrace
 10
8.060364779650307
 20
25.97648621912565
 30
0.0
 11
8.060364779650307
 21
24.87581955245898
 31
0.0
 12
4.758364779650307
 22
25.42615288579231
 32
0.0
 13
4.758364779650307
 23
25.42615288579231
 33
0.0
  0
MTEXT
  5
12D
330
125
100
AcDbEntity
  8
치수문자_일반주서
 62
     0
100
AcDbMText
 10
8.938089281240996
 20
29.80115288579231
 30
0.0
 40
3.5
 41
0.0
 71
     2
 72
     1
  1
\A1;8
  7
SLDTEXTSTYLE0
 73
     1
 44
1.0
  0
POINT
  5
12E
330
125
100
AcDbEntity
  8
Defpoints
 62
     0
100
AcDbPoint
 10
12.75836477965031
 20
0.7263633594381359
 30
0.0
  0
POINT
  5
12F
330
125
100
AcDbEntity
  8
Defpoints
 62
     0
100
AcDbPoint
 10
4.758364779650307
 20
0.7249999999999958
 30
0.0
  0
POINT
  5
16D
330
125
100
AcDbEntity
  8
Defpoints
 62
     0
100
AcDbPoint
 10
4.758364779650307
 20
25.42615288579231
 30
0.0
  0
ENDBLK
  5
127
330
125
100
AcDbEntity
  8
0
100
AcDbBlockEnd
  0
BLOCK
  5
131
330
130
100
AcDbEntity
  8
0
100
AcDbBlockBegin
  2
SW_DOWELSYMBOL_0
 70
     0
 10
0.0
 20
0.0
 30
0.0
  3
SW_DOWELSYMBOL_0
  1

  0
CIRCLE
  5
133
330
130
100
AcDbEntity
  8
해칭선
 62
     0
100
AcDbCircle
 10
0.0
 20
0.0
 30
0.0
 40
3.000000000000003
  0
HATCH
  5
134
330
130
100
AcDbEntity
  8
0
  6
Continuous
 62
     0
370
    18
100
AcDbHatch
 10
0.0
 20
0.0
 30
0.0
210
0.0
220
0.0
230
1.0
  2
SOLID
 70
     1
 71
     0
 91
        1
 92
        0
 93
        3
 72
     2
 10
-0.0000000000000017
 20
-0.0000000000000035
 40
3.000000000000003
 50
0.0
 51
90.0
 73
     1
 72
     1
 10
-0.0000000000000017
 20
2.999999999999999
 11
-0.0000000000000017
 21
-0.0000000000000036
 72
     1
 10
-0.0000000000000017
 20
-0.0000000000000035
 11
3.000000000000001
 21
-0.0000000000000035
 97
        0
 75
     0
 76
     1
 98
        1
 10
0.0
 20
0.0
  0
HATCH
  5
135
330
130
100
AcDbEntity
  8
0
  6
Continuous
 62
     0
370
    18
100
AcDbHatch
 10
0.0
 20
0.0
 30
0.0
210
0.0
220
0.0
230
1.0
  2
SOLID
 70
     1
 71
     0
 91
        1
 92
        0
 93
        3
 72
     2
 10
-0.0000000000000017
 20
-0.0000000000000035
 40
3.000000000000003
 50
180.0
 51
270.0000000000007
 73
     1
 72
     1
 10
-0.0000000000000017
 20
-3.000000000000006
 11
-0.0000000000000017
 21
-0.0000000000000036
 72
     1
 10
-0.0000000000000017
 20
-0.0000000000000035
 11
-3.000000000000004
 21
-0.0000000000000035
 97
        0
 75
     0
 76
     1
 98
        1
 10
0.0
 20
0.0
  0
ENDBLK
  5
132
330
130
100
AcDbEntity
  8
0
100
AcDbBlockEnd
  0
ENDSEC
  0
SECTION
  2
ENTITIES
  0
LINE
  5
99
330
1F
100
AcDbEntity
  8
0
  6
Continuous
 62
     4
370
    25
100
AcDbLine
 10
-36.7416352203497
 20
1.999999999999991
 30
0.0
 11
-37.2416352203497
 21
1.499999999999991
 31
0.0
  0
LINE
  5
9A
330
1F
100
AcDbEntity
  8
0
  6
Continuous
 62
     4
370
    25
100
AcDbLine
 10
-37.2416352203497
 20
-1.500000000000009
 30
0.0
 11
-36.7416352203497
 21
-2.000000000000009
 31
0.0
  0
LINE
  5
9B
330
1F
100
AcDbEntity
  8
0
  6
Continuous
 62
     4
370
    25
100
AcDbLine
 10
-0.0000000000000004
 20
2.0
 30
0.0
 11
-36.7416352203497
 21
1.999999999999988
 31
0.0
  0
LINE
  5
9C
330
1F
100
AcDbEntity
  8
0
  6
Continuous
 62
     4
370
    25
100
AcDbLine
 10
-36.7416352203497
 20
-2.000000000000004
 30
0.0
 11
0.0000000000000022
 21
-1.999999999999993
 31
0.0
  0
LINE
  5
9D
330
1F
100
AcDbEntity
  8
0
  6
Continuous
 62
     4
370
    25
100
AcDbLine
 10
0.0000000000000013
 20
-1.999999999999993
 30
0.0
 11
4.758364779650306
 21
-0.7249999999999865
 31
0.0
  0
LINE
  5
9E
330
1F
100
AcDbEntity
  8
0
  6
Continuous
 62
     4
370
    25
100
AcDbLine
 10
4.758364779650307
 20
0.724999999999996
 30
0.0
 11
-0.0000000000000013
 21
1.999999999999993
 31
0.0
  0
LINE
  5
9F
330
1F
100
AcDbEntity
  8
0
  6
Continuous
 62
     4
370
    25
100
AcDbLine
 10
9.85919186268475
 20
0.7249999999999972
 30
0.0
 11
4.758364779650307
 21
0.7249999999999956
 31
0.0
  0
LINE
  5
A0
330
1F
100
AcDbEntity
  8
0
  6
Continuous
 62
     4
370
    25
100
AcDbLine
 10
4.758364779650307
 20
-0.7249999999999864
 30
0.0
 11
9.859191862684746
 21
-0.724999999999985
 31
0.0
  0
LINE
  5
A1
330
1F
100
AcDbEntity
  8
0
  6
Continuous
 62
     1
370
    25
100
AcDbLine
 10
10.99429039418931
 20
0.7499999999999976
 30
0.0
 11
10.97833433828058
 21
0.7499999999999976
 31
0.0
1001
PE_URL
1000

  0
LINE
  5
A2
330
1F
100
AcDbEntity
  8
0
  6
Continuous
 62
     1
370
    25
100
AcDbLine
 10
12.5412018553651
 20
-0.7500000000000029
 30
0.0
 11
12.55794200453673
 21
-0.7500000000000029
 31
0.0
1001
PE_URL
1000

  0
LINE
  5
A3
330
1F
100
AcDbEntity
  8
0
  6
Continuous
 62
     1
370
    25
100
AcDbLine
 10
10.97833433828058
 20
-0.7500000000000029
 30
0.0
 11
10.99458353039012
 21
-0.7500000000000029
 31
0.0
1001
PE_URL
1000

  0
LINE
  5
A4
330
1F
100
AcDbEntity
  8
0
  6
Continuous
 62
     1
370
    25
100
AcDbLine
 10
12.55794200453383
 20
0.7499999999999976
 30
0.0
 11
12.5412018553651
 21
0.7499999999999976
 31
0.0
1001
PE_URL
1000

  0
LINE
  5
A5
330
1F
100
AcDbEntity
  8
0
  6
Continuous
 62
     4
370
    25
100
AcDbLine
 10
-36.7416352203497
 20
1.999999999999991
 30
0.0
 11
-36.7416352203497
 21
-2.000000000000009
 31
0.0
  0
LINE
  5
A6
330
1F
100
AcDbEntity
  8
0
  6
Continuous
 62
     4
370
    25
100
AcDbLine
 10
-37.2416352203497
 20
1.499999999999992
 30
0.0
 11
-37.2416352203497
 21
-1.500000000000009
 31
0.0
  0
LINE
  5
A7
330
1F
100
AcDbEntity
  8
0
  6
Continuous
 62
     4
370
    25
100
AcDbLine
 10
-0.0000000000000013
 20
1.999999999999993
 30
0.0
 11
0.0000000000000013
 21
-1.999999999999993
 31
0.0
  0
LINE
  5
A8
330
1F
100
AcDbEntity
  8
0
  6
Continuous
 62
     4
370
    25
100
AcDbLine
 10
4.758364779650307
 20
0.7249999999999958
 30
0.0
 11
4.758364779650307
 21
-0.7249999999999867
 31
0.0
  0
SPLINE
  5
A9
330
1F
100
AcDbEntity
  8
0
  6
Continuous
 62
     4
370
    25
100
AcDbSpline
210
0.0
220
0.0
230
1.0
 70
     8
 71
     3
 72
     8
 73
     4
 74
     0
 42
0.000000001
 43
0.00000001
 40
0.0
 40
0.0
 40
0.0
 40
0.0
 40
1.0
 40
1.0
 40
1.0
 40
1.0
 10
9.74003297655543
 20
0.0864238264632838
 30
0.0
 10
9.686067348262766
 20
0.1253833905035367
 30
0.0
 10
9.658237296882234
 20
0.1911539885829034
 30
0.0
 10
9.658237296882643
 20
0.2534984516987795
 30
0.0
  0
SPLINE
  5
AA
330
1F
100
AcDbEntity
  8
0
  6
Continuous
 62
     4
370
    25
100
AcDbSpline
210
0.0
220
0.0
230
1.0
 70
     8
 71
     3
 72
    12
 73
     8
 74
     0
 42
0.000000001
 43
0.00000001
 40
0.0
 40
0.0
 40
0.0
 40
0.0
 40
0.25
 40
0.25
 40
0.5
 40
0.5
 40
1.0
 40
1.0
 40
1.0
 40
1.0
 10
9.658237296882643
 20
0.5037534612331352
 30
0.0
 10
9.658237296882643
 20
0.5303143281122472
 30
0.0
 10
9.665856963147863
 20
0.5547032646332019
 30
0.0
 10
9.699714820236245
 20
0.5939773270075158
 30
0.0
 10
9.726057882957717
 20
0.6090395870293458
 30
0.0
 10
9.822350839327832
 20
0.6375384631672517
 30
0.0
 10
9.90647090400952
 20
0.6357012790747029
 30
0.0
 10
9.96641244805527
 20
0.6123794920575705
 30
0.0
  0
SPLINE
  5
AB
330
1F
100
AcDbEntity
  8
0
  6
Continuous
 62
     4
370
    25
100
AcDbSpline
210
0.0
220
0.0
230
1.0
 70
    24
 71
     3
 72
    14
 73
    10
 74
     0
 42
0.000000001
 43
0.00000001
 40
0.0
 40
0.0
 40
0.0
 40
0.0
 40
0.2500000000000002
 40
0.2500000000000002
 40
0.5000000000000001
 40
0.5000000000000001
 40
0.75
 40
0.75
 40
1.0
 40
1.0
 40
1.0
 40
1.0
 10
10.45836477965031
 20
0.3549512845390987
 30
0.0
 10
10.45836477965031
 20
0.3241797386729337
 30
0.0
 10
10.45836477965031
 20
0.2886129473367026
 30
0.0
 10
10.45836477965031
 20
0.1917707802908199
 30
0.0
 10
10.45836477965031
 20
0.1315734961329121
 30
0.0
 10
10.45836477965031
 20
-0.0112377229240415
 30
0.0
 10
10.45836477965031
 20
-0.0941833369564287
 30
0.0
 10
10.45836477965031
 20
-0.2612178677220535
 30
0.0
 10
10.45836477965031
 20
-0.3442798841136307
 30
0.0
 10
10.45836477965031
 20
-0.4098772335009113
 30
0.0
  0
SPLINE
  5
AC
330
1F
100
AcDbEntity
  8
0
  6
Continuous
 62
     4
370
    25
100
AcDbSpline
210
0.0
220
0.0
230
1.0
 70
     8
 71
     3
 72
    10
 73
     6
 74
     0
 42
0.000000001
 43
0.00000001
 40
0.0
 40
0.0
 40
0.0
 40
0.0
 40
0.5
 40
0.5
 40
1.0
 40
1.0
 40
1.0
 40
1.0
 10
10.45836477965031
 20
-0.4098772335009117
 30
0.0
 10
10.33968932550436
 20
-0.3382893451029412
 30
0.0
 10
10.21594795486524
 20
-0.2566497738945532
 30
0.0
 10
9.981596910792838
 20
-0.0887790152760559
 30
0.0
 10
9.859735012918206
 20
0.0000069848741628
 30
0.0
 10
9.740032976555893
 20
0.0864238264629466
 30
0.0
  0
SPLINE
  5
AD
330
1F
100
AcDbEntity
  8
0
  6
Continuous
 62
     4
370
    25
100
AcDbSpline
210
0.0
220
0.0
230
1.0
 70
     8
 71
     3
 72
    10
 73
     6
 74
     0
 42
0.000000001
 43
0.00000001
 40
0.0
 40
0.0
 40
0.0
 40
0.0
 40
0.4999999999999999
 40
0.4999999999999999
 40
1.0
 40
1.0
 40
1.0
 40
1.0
 10
10.45836477965031
 20
0.3549512845324598
 30
0.0
 10
10.37684621011136
 20
0.4069332146722074
 30
0.0
 10
10.29292526663485
 20
0.455762168372012
 30
0.0
 10
10.12787312887037
 20
0.5425848328903786
 30
0.0
 10
10.04868407771772
 20
0.5803696155172622
 30
0.0
 10
9.96641244805527
 20
0.6123794920575728
 30
0.0
  0
SPLINE
  5
AE
330
1F
100
AcDbEntity
  8
0
  6
Continuous
 62
     4
370
    25
100
AcDbSpline
210
0.0
220
0.0
230
1.0
 70
     8
 71
     3
 72
     8
 73
     4
 74
     0
 42
0.000000001
 43
0.00000001
 40
0.0
 40
0.0
 40
0.0
 40
0.0
 40
1.0
 40
1.0
 40
1.0
 40
1.0
 10
9.740032976555419
 20
-0.7198304815854519
 30
0.0
 10
9.686067348262752
 20
-0.7151529433485543
 30
0.0
 10
9.658237296882234
 20
-0.7025050646691481
 30
0.0
 10
9.658237296882643
 20
-0.6792374658293697
 30
0.0
  0
SPLINE
  5
AF
330
1F
100
AcDbEntity
  8
0
  6
Continuous
 62
     4
370
    25
100
AcDbSpline
210
0.0
220
0.0
230
1.0
 70
     8
 71
     3
 72
     9
 73
     5
 74
     0
 42
0.000000001
 43
0.00000001
 40
0.0
 40
0.0
 40
0.0
 40
0.0
 40
0.52706282684506
 40
1.0
 40
1.0
 40
1.0
 40
1.0
 10
10.40969094951721
 20
-0.6116958243384655
 30
0.0
 10
10.29203357351793
 20
-0.6525945659433505
 30
0.0
 10
10.06880140838201
 20
-0.730192035394384
 30
0.0
 10
9.845595396735286
 20
-0.7231574150468169
 30
0.0
 10
9.740032976555893
 20
-0.7198304815854203
 30
0.0
  0
LINE
  5
B0
330
1F
100
AcDbEntity
  8
0
  6
Continuous
 62
     4
370
    25
100
AcDbLine
 10
10.40969094951722
 20
0.6116958243384614
 30
0.0
 11
10.45836477965031
 21
0.6321665805851768
 31
0.0
  0
SPLINE
  5
B1
330
1F
100
AcDbEntity
  8
0
  6
Continuous
 62
     4
370
    25
100
AcDbSpline
210
0.0
220
0.0
230
1.0
 70
     8
 71
     3
 72
     9
 73
     5
 74
     0
 42
0.000000001
 43
0.00000001
 40
0.0
 40
0.0
 40
0.0
 40
0.0
 40
0.6703045792350348
 40
1.0
 40
1.0
 40
1.0
 40
1.0
 10
10.45836477965031
 20
0.5980181046236207
 30
0.0
 10
10.32448171070896
 20
0.646980318199715
 30
0.0
 10
10.12474703323721
 20
0.7200250430798151
 30
0.0
 10
9.925035756199279
 20
0.7173465020523447
 30
0.0
 10
9.85919186268475
 20
0.7164633993412569
 30
0.0
  0
LINE
  5
B2
330
1F
100
AcDbEntity
  8
0
  6
Continuous
 62
     4
370
    25
100
AcDbLine
 10
10.45836477965031
 20
0.5980181046236205
 30
0.0
 11
10.45836477965031
 21
0.3893139630572244
 31
0.0
  0
LINE
  5
B3
330
1F
100
AcDbEntity
  8
0
  6
Continuous
 62
     4
370
    25
100
AcDbLine
 10
9.658237296882643
 20
0.5037534612331351
 30
0.0
 11
9.658237296882643
 21
0.253498451698778
 31
0.0
  0
LINE
  5
B4
330
1F
100
AcDbEntity
  8
0
  6
Continuous
 62
     4
370
    25
100
AcDbLine
 10
10.45836477965031
 20
-0.4098772335009116
 30
0.0
 11
10.45836477965031
 21
-0.6321665805852318
 31
0.0
  0
SPLINE
  5
B5
330
1F
100
AcDbEntity
  8
0
  6
Continuous
 62
     4
370
    25
100
AcDbSpline
210
0.0
220
0.0
230
1.0
 70
     8
 71
     3
 72
    10
 73
     6
 74
     0
 42
0.000000001
 43
0.00000001
 40
0.0
 40
0.0
 40
0.0
 40
0.0
 40
0.5
 40
0.5
 40
1.0
 40
1.0
 40
1.0
 40
1.0
 10
10.45836477965031
 20
-0.6321665805851839
 30
0.0
 10
10.37684621011136
 20
-0.6029795696892583
 30
0.0
 10
10.29292526663485
 20
-0.5669999918253137
 30
0.0
 10
10.12787312887037
 20
-0.4845718150763443
 30
0.0
 10
10.04868407771772
 20
-0.4386022096060864
 30
0.0
 10
9.96641244805527
 20
-0.388093233266588
 30
0.0
  0
SPLINE
  5
B6
330
1F
100
AcDbEntity
  8
0
  6
Continuous
 62
     4
370
    25
100
AcDbSpline
210
0.0
220
0.0
230
1.0
 70
     8
 71
     3
 72
    12
 73
     8
 74
     0
 42
0.000000001
 43
0.00000001
 40
0.0
 40
0.0
 40
0.0
 40
0.0
 40
0.2500000000000001
 40
0.2500000000000001
 40
0.5000000000000002
 40
0.5000000000000002
 40
1.0
 40
1.0
 40
1.0
 40
1.0
 10
9.658237296882643
 20
-0.5213995112153637
 30
0.0
 10
9.658237296882643
 20
-0.4957375603774803
 30
0.0
 10
9.665856963147867
 20
-0.4679366271199772
 30
0.0
 10
9.699714820236249
 20
-0.4169548342400658
 30
0.0
 10
9.72605788295772
 20
-0.3937352000006903
 30
0.0
 10
9.822350839327836
 20
-0.3471256445959913
 30
0.0
 10
9.906470904009524
 20
-0.3512933541055459
 30
0.0
 10
9.96641244805527
 20
-0.3880932332665822
 30
0.0
  0
LINE
  5
B7
330
1F
100
AcDbEntity
  8
0
  6
Continuous
 62
     4
370
    25
100
AcDbLine
 10
9.658237296882643
 20
-0.5213995112153635
 30
0.0
 11
9.658237296882643
 21
-0.6792374658293746
 31
0.0
  0
SPLINE
  5
B8
330
1F
100
AcDbEntity
  8
0
  6
Continuous
 62
     1
370
    25
100
AcDbSpline
210
0.0
220
0.0
230
1.0
 70
     8
 71
     3
 72
    10
 73
     6
 74
     0
 42
0.000000001
 43
0.00000001
 40
0.0
 40
0.0
 40
0.0
 40
0.0
 40
0.1434134289430914
 40
0.5409875891451885
 40
1.0
 40
1.0
 40
1.0
 40
1.0
 10
11.77286323580057
 20
0.5306991646606979
 30
0.0
 10
11.80084062126358
 20
0.5283230785202746
 30
0.0
 10
11.9063775882252
 20
0.519359949180281
 30
0.0
 10
12.10134612661513
 20
0.4724753466085428
 30
0.0
 10
12.26834264697689
 20
0.4122098848956616
 30
0.0
 10
12.3578297788158
 20
0.3799158987338472
 30
0.0
1001
PE_URL
1000

  0
SPLINE
  5
B9
330
1F
100
AcDbEntity
  8
0
  6
Continuous
 62
     1
370
    25
100
AcDbSpline
210
0.0
220
0.0
230
1.0
 70
     8
 71
     3
 72
     8
 73
     4
 74
     0
 42
0.000000001
 43
0.00000001
 40
0.0
 40
0.0
 40
0.0
 40
0.0
 40
1.0
 40
1.0
 40
1.0
 40
1.0
 10
12.13524925191861
 20
0.3613101896932649
 30
0.0
 10
12.20780733101129
 20
0.352610160211018
 30
0.0
 10
12.28416236629073
 20
0.3578758543622004
 30
0.0
 10
12.3578297788158
 20
0.3799158987338475
 30
0.0
1001
PE_URL
1000

  0
SPLINE
  5
BA
330
1F
100
AcDbEntity
  8
0
  6
Continuous
 62
     1
370
    25
100
AcDbSpline
210
0.0
220
0.0
230
1.0
 70
    24
 71
     3
 72
    12
 73
     8
 74
     0
 42
0.000000001
 43
0.00000001
 40
0.0
 40
0.0
 40
0.0
 40
0.0
 40
0.2499999999999997
 40
0.2499999999999997
 40
0.4999999999999993
 40
0.4999999999999993
 40
0.9781477765963856
 40
0.9781477765963856
 40
0.9781477765963856
 40
0.9781477765963856
 10
12.13524925191862
 20
0.3613101896932469
 30
0.0
 10
12.18063846889804
 20
0.3295283178108243
 30
0.0
 10
12.23093714289645
 20
0.294308807115179
 30
0.0
 10
12.33291053758603
 20
0.222906267456702
 30
0.0
 10
12.38524796909175
 20
0.1862592033858662
 30
0.0
 10
12.53988377705137
 20
0.077982044975387
 30
0.0
 10
12.64189812839725
 20
0.0065508271574337
 30
0.0
 10
12.7443196803515
 20
-0.065165515596075
 30
0.0
1001
PE_URL
1000

  0
SPLINE
  5
BC
330
1F
100
AcDbEntity
  8
0
  6
Continuous
 62
     1
370
    25
100
AcDbSpline
210
0.0
220
0.0
230
1.0
 70
     8
 71
     3
 72
    22
 73
    18
 74
     0
 42
0.000000001
 43
0.00000001
 40
0.0098057991566234
 40
0.0098057991566234
 40
0.0098057991566234
 40
0.0098057991566234
 40
0.0750277192026708
 40
0.1514298966474953
 40
0.2344191411412329
 40
0.3256964771806299
 40
0.3911978613813493
 40
0.455124603092902
 40
0.5210634454144749
 40
0.5866108537222328
 40
0.6522549686530961
 40
0.7179018090764382
 40
0.7823534725237852
 40
0.8420866364548013
 40
0.9319235685864402
 40
0.9909140733981646
 40
1.0
 40
1.0
 40
1.0
 40
1.0
 10
12.74111408553192
 20
-0.1370657815207742
 30
0.0
 10
12.70286579188879
 20
-0.1083882888947576
 30
0.0
 10
12.61978190076689
 20
-0.0461007750107011
 30
0.0
 10
12.48719991378181
 20
0.0531253831417032
 30
0.0
 10
12.34000956813003
 20
0.1636341963765484
 30
0.0
 10
12.19931215735431
 20
0.2660537466477538
 30
0.0
 10
12.06952216668969
 20
0.3548261662595997
 30
0.0
 10
11.95377553278403
 20
0.427828596920955
 30
0.0
 10
11.83970956939326
 20
0.4970453616844647
 30
0.0
 10
11.72376521366436
 20
0.5591387844296969
 30
0.0
 10
11.60786381978302
 20
0.6134981765377223
 30
0.0
 10
11.49216062799495
 20
0.6591404359322048
 30
0.0
 10
11.38140791385128
 20
0.6957048018272732
 30
0.0
 10
11.25549687216513
 20
0.7267677923019238
 30
0.0
 10
11.1324717986729
 20
0.7441923809413399
 30
0.0
 10
11.03951328407394
 20
0.7509049743245024
 30
0.0
 10
10.99961542401969
 20
0.7496374324755507
 30
0.0
 10
10.99429039418931
 20
0.7494682580349229
 30
0.0
1001
PE_URL
1000

  0
SPLINE
  5
BD
330
1F
100
AcDbEntity
  8
0
  6
Continuous
 62
     1
370
    25
100
AcDbSpline
210
0.0
220
0.0
230
1.0
 70
     8
 71
     3
 72
    22
 73
    18
 74
     0
 42
0.000000001
 43
0.00000001
 40
0.0078942311582801
 40
0.0078942311582801
 40
0.0078942311582801
 40
0.0078942311582801
 40
0.1250000000000001
 40
0.1250000000000001
 40
0.2500000000000002
 40
0.2500000000000002
 40
0.3750000000000002
 40
0.3750000000000002
 40
0.5000000000000003
 40
0.5000000000000003
 40
0.6250000000000004
 40
0.6250000000000004
 40
0.7500000000000002
 40
0.7500000000000002
 40
0.8750000000000001
 40
0.8750000000000001
 40
1.0
 40
1.0
 40
1.0
 40
1.0
 10
12.74060144400782
 20
-0.148564134862589
 30
0.0
 10
12.65250572820114
 20
-0.0826419402825924
 30
0.0
 10
12.56066515623806
 20
-0.0139818852463348
 30
0.0
 10
12.3732041493364
 20
0.1260316779164486
 30
0.0
 10
12.28052591119902
 20
0.1965527614547878
 30
0.0
 10
12.08766739828551
 20
0.3320388568225816
 30
0.0
 10
11.98924754137474
 20
0.3964517172061916
 30
0.0
 10
11.80049102043962
 20
0.5109136169803995
 30
0.0
 10
11.70444879540387
 20
0.5621765950791873
 30
0.0
 10
11.51043298378085
 20
0.6478991034120339
 30
0.0
 10
11.41725666931508
 20
0.6817738300410674
 30
0.0
 10
11.2253823446149
 20
0.7304801863965583
 30
0.0
 10
11.1268020753238
 20
0.7450102917732981
 30
0.0
 10
10.9364824947959
 20
0.7527984356489542
 30
0.0
 10
10.8420311492969
 20
0.7463183421473971
 30
0.0
 10
10.64784767181979
 20
0.7125855013542889
 30
0.0
 10
10.55367752753457
 20
0.6856789033033827
 30
0.0
 10
10.45836477965029
 20
0.6496467467382642
 30
0.0
1001
PE_URL
1000

  0
SPLINE
  5
C0
330
1F
100
AcDbEntity
  8
0
  6
Continuous
 62
     1
370
    25
100
AcDbSpline
210
0.0
220
0.0
230
1.0
 70
     8
 71
     3
 72
    22
 73
    18
 74
     0
 42
0.000000001
 43
0.00000001
 40
0.0079703344334246
 40
0.0079703344334246
 40
0.0079703344334246
 40
0.0079703344334246
 40
0.125
 40
0.125
 40
0.25
 40
0.25
 40
0.375
 40
0.375
 40
0.5
 40
0.5
 40
0.625
 40
0.625
 40
0.75
 40
0.75
 40
0.875
 40
0.875
 40
1.0
 40
1.0
 40
1.0
 40
1.0
 10
12.74042968754213
 20
-0.1524165667054736
 30
0.0
 10
12.65238636022209
 20
-0.0870614773322238
 30
0.0
 10
12.56060622994031
 20
-0.0189332394096381
 30
0.0
 10
12.37320414933614
 20
0.1201735686149863
 30
0.0
 10
12.2805259111987
 20
0.1903303560126366
 30
0.0
 10
12.08766739828505
 20
0.3252603230006087
 30
0.0
 10
11.98924754137421
 20
0.3894860233373073
 30
0.0
 10
11.800491020439
 20
0.5037744224819124
 30
0.0
 10
11.70444879540314
 20
0.5550481320805734
 30
0.0
 10
11.51043298377999
 20
0.6409914511048671
 30
0.0
 10
11.41725666931419
 20
0.6750727546336744
 30
0.0
 10
11.22538234461384
 20
0.7243747751507754
 30
0.0
 10
11.12680207532267
 20
0.7392963688848925
 30
0.0
 10
10.9364824947947
 20
0.7480053263698115
 30
0.0
 10
10.84203114929557
 20
0.7420572559251676
 30
0.0
 10
10.64784767181833
 20
0.709502403837033
 30
0.0
 10
10.5536775275331
 20
0.6832301810206397
 30
0.0
 10
10.45836477964873
 20
0.6478596836269301
 30
0.0
1001
PE_URL
1000

  0
LINE
  5
C1
330
1F
100
AcDbEntity
  8
0
  6
Continuous
 62
     4
370
    25
100
AcDbLine
 10
10.45836477965031
 20
0.6496467467382718
 30
0.0
 11
10.45836477965031
 21
0.6478596836275179
 31
0.0
  0
SPLINE
  5
C2
330
1F
100
AcDbEntity
  8
0
  6
Continuous
 62
     1
370
    25
100
AcDbSpline
210
0.0
220
0.0
230
1.0
 70
     8
 71
     3
 72
    12
 73
     8
 74
     0
 42
0.000000001
 43
0.00000001
 40
0.1059861169270269
 40
0.1059861169270269
 40
0.1059861169270269
 40
0.1059861169270269
 40
0.2499999999999998
 40
0.2499999999999998
 40
0.4999999999999999
 40
0.4999999999999999
 40
1.0
 40
1.0
 40
1.0
 40
1.0
 10
12.74498790559021
 20
-0.1676512022981859
 30
0.0
 10
12.72974355969566
 20
-0.1659985392517209
 30
0.0
 10
12.71718965600588
 20
-0.1688793949937721
 30
0.0
 10
12.67540257073997
 20
-0.1832169025955225
 30
0.0
 10
12.64081842093714
 20
-0.1996303361012198
 30
0.0
 10
12.52459442748605
 20
-0.2657559500191424
 30
0.0
 10
12.43218974696538
 20
-0.3314862936434391
 30
0.0
 10
12.3578297788158
 20
-0.3928604252055931
 30
0.0
1001
PE_URL
1000

  0
SPLINE
  5
C3
330
1F
100
AcDbEntity
  8
0
  6
Continuous
 62
     1
370
    25
100
AcDbSpline
210
0.0
220
0.0
230
1.0
 70
     8
 71
     3
 72
    20
 73
    16
 74
     0
 42
0.000000001
 43
0.00000001
 40
0.0
 40
0.0
 40
0.0
 40
0.0
 40
0.1249999999999999
 40
0.1249999999999999
 40
0.2499999999999998
 40
0.2499999999999998
 40
0.3749999999999997
 40
0.3749999999999997
 40
0.4999999999999996
 40
0.4999999999999996
 40
0.7499999999999998
 40
0.7499999999999998
 40
0.8749999999999999
 40
0.8749999999999999
 40
1.0
 40
1.0
 40
1.0
 40
1.0
 10
10.45836477964868
 20
0.4889146041263484
 30
0.0
 10
10.53712114928996
 20
0.4695141798624116
 30
0.0
 10
10.61432836328958
 20
0.445644923262273
 30
0.0
 10
10.77443508507442
 20
0.3893027397372207
 30
0.0
 10
10.85524783702333
 20
0.356997084466903
 30
0.0
 10
11.01159596782019
 20
0.2870102933154142
 30
0.0
 10
11.08984812299271
 20
0.2489696972839911
 30
0.0
 10
11.25022784570673
 20
0.1682288062875791
 30
0.0
 10
11.330752047754
 20
0.1257856243342284
 30
0.0
 10
11.56325115725063
 20
-0.0022634226773808
 30
0.0
 10
11.72753707379875
 20
-0.0924303856062123
 30
0.0
 10
11.9606307579929
 20
-0.2153195984400687
 30
0.0
 10
12.04124616726215
 20
-0.2551307672922333
 30
0.0
 10
12.20156956468467
 20
-0.3289581209551261
 30
0.0
 10
12.27948307101801
 20
-0.3627313327696437
 30
0.0
 10
12.35782977881586
 20
-0.3928604252054773
 30
0.0
  0
LINE
  5
C4
330
1F
100
AcDbEntity
  8
0
  6
Continuous
 62
     4
370
    25
100
AcDbLine
 10
10.45836477965031
 20
0.6478596836275166
 30
0.0
 11
10.45836477965031
 21
0.6321665805851768
 31
0.0
  0
SPLINE
  5
C5
330
1F
100
AcDbEntity
  8
0
  6
Continuous
 62
     1
370
    25
100
AcDbSpline
210
0.0
220
0.0
230
1.0
 70
     8
 71
     3
 72
    14
 73
    10
 74
     0
 42
0.000000001
 43
0.00000001
 40
0.0
 40
0.0
 40
0.0
 40
0.0
 40
0.1544170224923019
 40
0.3085637658561881
 40
0.4635143633198326
 40
0.6185817975118107
 40
0.7801656007373423
 40
0.9417823669639311
 40
1.0
 40
1.0
 40
1.0
 40
1.0
 10
10.45836477965029
 20
0.3747787406622487
 30
0.0
 10
10.56556578500332
 20
0.3009746661835471
 30
0.0
 10
10.77978015969734
 20
0.1534956979382291
 30
0.0
 10
11.10106869858123
 20
-0.0951100400778062
 30
0.0
 10
11.4237174406461
 20
-0.329854991483535
 30
0.0
 10
11.75160290624285
 20
-0.5357615412552001
 30
0.0
 10
12.08337088531354
 20
-0.6812781711548289
 30
0.0
 10
12.3479143871035
 20
-0.7527141503636477
 30
0.0
 10
12.50073195192762
 20
-0.7427350370082553
 30
0.0
 10
12.5412018553651
 20
-0.7400923188472299
 30
0.0
1001
PE_URL
1000

  0
LINE
  5
C6
330
1F
100
AcDbEntity
  8
0
  6
Continuous
 62
     4
370
    25
100
AcDbLine
 10
10.45836477965031
 20
0.374778740662234
 30
0.0
 11
10.45836477965031
 21
0.3852296905808945
 31
0.0
  0
SPLINE
  5
C7
330
1F
100
AcDbEntity
  8
0
  6
Continuous
 62
     1
370
    25
100
AcDbSpline
210
0.0
220
0.0
230
1.0
 70
     8
 71
     3
 72
    23
 73
    19
 74
     0
 42
0.000000001
 43
0.00000001
 40
0.0
 40
0.0
 40
0.0
 40
0.0
 40
0.0436060702899957
 40
0.1253022271370904
 40
0.1877024648196962
 40
0.2497976263339845
 40
0.3752737204269859
 40
0.43470813529007
 40
0.500274608970611
 40
0.5627858153566311
 40
0.624845210906973
 40
0.6878136952684024
 40
0.7505881328534867
 40
0.7669060713316064
 40
0.8835857339496719
 40
0.942238161467644
 40
0.9711743739418928
 40
0.9999999999999999
 40
0.9999999999999999
 40
0.9999999999999999
 40
0.9999999999999999
 10
12.75836477965031
 20
-0.7348469228349561
 30
0.0
 10
12.72500968195083
 20
-0.7391428300894389
 30
0.0
 10
12.62916366784487
 20
-0.751487137727831
 30
0.0
 10
12.48466414057035
 20
-0.7512955881414015
 30
0.0
 10
12.32673850886862
 20
-0.7325209998430028
 30
0.0
 10
12.13588964251903
 20
-0.688752414741226
 30
0.0
 10
11.94510354479633
 20
-0.6175693543772774
 30
0.0
 10
11.75391914468101
 20
-0.519711429188798
 30
0.0
 10
11.60977323629966
 20
-0.4363658879280929
 30
0.0
 10
11.46370190418376
 20
-0.3425558974410082
 30
0.0
 10
11.32088383779489
 20
-0.2413259011011837
 30
0.0
 10
11.17630068490919
 20
-0.1368551301010712
 30
0.0
 10
11.06709249334818
 20
-0.0554388886902702
 30
0.0
 10
10.91762714269946
 20
0.0583274639357011
 30
0.0
 10
10.77033419262566
 20
0.1691609729191698
 30
0.0
 10
10.6133554248343
 20
0.2801016733433893
 30
0.0
 10
10.52438221648961
 20
0.3414295371033772
 30
0.0
 10
10.48034248689287
 20
0.3706482830013136
 30
0.0
 10
10.45836477965031
 20
0.3852296859576786
 30
0.0
1001
PE_URL
1000

  0
SPLINE
  5
C8
330
1F
100
AcDbEntity
  8
0
  6
Continuous
 62
     1
370
    25
100
AcDbSpline
210
0.0
220
0.0
230
1.0
 70
     8
 71
     3
 72
     8
 73
     4
 74
     0
 42
0.000000001
 43
0.00000001
 40
0.0
 40
0.0
 40
0.0
 40
0.0
 40
1.0
 40
1.0
 40
1.0
 40
1.0
 10
12.13524925191861
 20
-0.5485170842184494
 30
0.0
 10
12.20780733101129
 20
-0.4943664112344628
 30
0.0
 10
12.28416236629073
 20
-0.4407113886499031
 30
0.0
 10
12.3578297788158
 20
-0.3928604252055894
 30
0.0
1001
PE_URL
1000

  0
SPLINE
  5
C9
330
1F
100
AcDbEntity
  8
0
  6
Continuous
 62
     1
370
    25
100
AcDbSpline
210
0.0
220
0.0
230
1.0
 70
     8
 71
     3
 72
    12
 73
     8
 74
     0
 42
0.000000001
 43
0.00000001
 40
0.0
 40
0.0
 40
0.0
 40
0.0
 40
0.2499999999999997
 40
0.2499999999999997
 40
0.4999999999999993
 40
0.4999999999999993
 40
1.0
 40
1.0
 40
1.0
 40
1.0
 10
12.13524925191862
 20
-0.5485170842184774
 30
0.0
 10
12.18063846889804
 20
-0.5828772979484365
 30
0.0
 10
12.23093714289645
 20
-0.6088048926482786
 30
0.0
 10
12.33291053758603
 20
-0.6468620819230748
 30
0.0
 10
12.38524796909175
 20
-0.6600686293902328
 30
0.0
 10
12.54452450566491
 20
-0.6897383110991809
 30
0.0
 10
12.6512235945274
 20
-0.6944225311113559
 30
0.0
 10
12.75836477965031
 20
-0.686141353345141
 30
0.0
1001
PE_URL
1000

  0
LINE
  5
CA
330
1F
100
AcDbEntity
  8
0
  6
Continuous
 62
     1
370
    25
100
AcDbLine
 10
12.75836477965031
 20
-0.734846922834954
 30
0.0
 11
12.75836477965031
 21
-0.686141353345141
 31
0.0
1001
PE_URL
1000

  0
LINE
  5
CB
330
1F
100
AcDbEntity
  8
0
  6
Continuous
 62
     4
370
    25
100
AcDbLine
 10
10.45836477965031
 20
0.4889146041259996
 30
0.0
 11
10.45836477965031
 21
0.3852296859576784
 31
0.0
  0
SPLINE
  5
CC
330
1F
100
AcDbEntity
  8
0
  6
Continuous
 62
     1
370
    25
100
AcDbSpline
210
0.0
220
0.0
230
1.0
 70
     8
 71
     3
 72
    16
 73
    12
 74
     0
 42
0.000000001
 43
0.00000001
 40
0.0
 40
0.0
 40
0.0
 40
0.0
 40
0.2499999999999999
 40
0.2499999999999999
 40
0.5
 40
0.5
 40
0.7500000000000001
 40
0.7500000000000001
 40
0.875
 40
0.875
 40
1.0
 40
1.0
 40
1.0
 40
1.0
 10
11.77869929666426
 20
-0.5396608224250982
 30
0.0
 10
11.66884092434069
 20
-0.4829078026625548
 30
0.0
 10
11.55521907608042
 20
-0.4153902632739323
 30
0.0
 10
11.33869121184255
 20
-0.269906383092258
 30
0.0
 10
11.22753173116681
 20
-0.1902179400094227
 30
0.0
 10
11.00571351012611
 20
-0.0268209134493738
 30
0.0
 10
10.8991907296742
 20
0.0557853080469371
 30
0.0
 10
10.73225798889771
 20
0.1776789856708179
 30
0.0
 10
10.67634160557348
 20
0.2177372900823918
 30
0.0
 10
10.56626253028505
 20
0.295078353889657
 30
0.0
 10
10.51305289215248
 20
0.3321580163383725
 30
0.0
 10
10.45836477964873
 20
0.3678966715701363
 30
0.0
1001
PE_URL
1000

  0
LINE
  5
CD
330
1F
100
AcDbEntity
  8
0
  6
Continuous
 62
     4
370
    25
100
AcDbLine
 10
10.45836477965031
 20
0.3747787406622343
 30
0.0
 11
10.45836477965031
 21
0.3678966715691157
 31
0.0
  0
SPLINE
  5
CE
330
1F
100
AcDbEntity
  8
0
  6
Continuous
 62
     1
370
    25
100
AcDbSpline
210
0.0
220
0.0
230
1.0
 70
     8
 71
     3
 72
    17
 73
    13
 74
     0
 42
0.000000001
 43
0.00000001
 40
0.0
 40
0.0
 40
0.0
 40
0.0
 40
0.1768685576132122
 40
0.3560028540507277
 40
0.4443315772744091
 40
0.5329434101643693
 40
0.6212702064445415
 40
0.7098740893583129
 40
0.7982028074649874
 40
0.886815635807302
 40
0.9751424670283904
 40
1.0
 40
1.0
 40
1.0
 40
1.0
 10
10.45836477964876
 20
-0.244208750202149
 30
0.0
 10
10.53573217943864
 20
-0.281225208122458
 30
0.0
 10
10.69145807841903
 20
-0.3557323157978487
 30
0.0
 10
10.88701524382896
 20
-0.427983936487221
 30
0.0
 10
11.0423427074768
 20
-0.4756791696410575
 30
0.0
 10
11.15878143902192
 20
-0.503888723257747
 30
0.0
 10
11.27540157813818
 20
-0.5253832767391508
 30
0.0
 10
11.39160479365968
 20
-0.5398706428175615
 30
0.0
 10
11.50753202843677
 20
-0.5471361178607137
 30
0.0
 10
11.62399371238287
 20
-0.546237307579827
 30
0.0
 10
11.71267397243031
 20
-0.5416292538681129
 30
0.0
 10
11.76220185321176
 20
-0.5348474963375609
 30
0.0
 10
11.7730791589096
 20
-0.5333580877728394
 30
0.0
  0
SPLINE
  5
CF
330
1F
100
AcDbEntity
  8
0
  6
Continuous
 62
     4
370
    25
100
AcDbSpline
210
0.0
220
0.0
230
1.0
 70
    24
 71
     3
 72
    14
 73
    10
 74
     0
 42
0.000000001
 43
0.00000001
 40
0.0
 40
0.0
 40
0.0
 40
0.0
 40
0.2499999999999998
 40
0.2499999999999998
 40
0.4999999999999999
 40
0.4999999999999999
 40
0.75
 40
0.75
 40
1.0
 40
1.0
 40
1.0
 40
1.0
 10
10.45836477965031
 20
0.3678966715691777
 30
0.0
 10
10.45836477965031
 20
0.341945050752294
 30
0.0
 10
10.45836477965031
 20
0.3153095779562447
 30
0.0
 10
10.45836477965031
 20
0.2435000308750388
 30
0.0
 10
10.45836477965031
 20
0.1998326983350159
 30
0.0
 10
10.45836477965031
 20
0.094982864781587
 30
0.0
 10
10.45836477965031
 20
0.0335702100023384
 30
0.0
 10
10.45836477965031
 20
-0.101069324115364
 30
0.0
 10
10.45836477965031
 20
-0.1742539394903248
 30
0.0
 10
10.45836477965031
 20
-0.2442087502031063
 30
0.0
  0
SPLINE
  5
D0
330
1F
100
AcDbEntity
  8
0
  6
Continuous
 62
     1
370
    25
100
AcDbSpline
210
0.0
220
0.0
230
1.0
 70
     8
 71
     3
 72
    12
 73
     8
 74
     0
 42
0.000000001
 43
0.00000001
 40
0.0
 40
0.0
 40
0.0
 40
0.0
 40
0.25
 40
0.25
 40
0.5
 40
0.5
 40
1.0
 40
1.0
 40
1.0
 40
1.0
 10
12.75836477965031
 20
0.6452768031352798
 30
0.0
 10
12.74674859390823
 20
0.5950296178075335
 30
0.0
 10
12.72842999827629
 20
0.5466136921989685
 30
0.0
 10
12.67540257073997
 20
0.4603622437443163
 30
0.0
 10
12.64081842093714
 20
0.4238061842412293
 30
0.0
 10
12.52459442748605
 20
0.3484560256587079
 30
0.0
 10
12.43218974696538
 20
0.345536391913861
 30
0.0
 10
12.3578297788158
 20
0.3799158987338486
 30
0.0
1001
PE_URL
1000

  0
LINE
  5
D1
330
1F
100
AcDbEntity
  8
0
  6
Continuous
 62
     1
370
    25
100
AcDbLine
 10
12.75836477965031
 20
0.2498606905713003
 30
0.0
 11
12.75836477965031
 21
0.6452768031352788
 31
0.0
1001
PE_URL
1000

  0
LINE
  5
D2
330
1F
100
AcDbEntity
  8
0
  6
Continuous
 62
     1
370
    25
100
AcDbLine
 10
12.74498790559021
 20
-0.167651202298186
 30
0.0
 11
12.75836477965031
 21
0.2498606905713003
 31
0.0
1001
PE_URL
1000

  0
SPLINE
  5
D6
330
1F
100
AcDbEntity
  8
0
  6
Continuous
 62
     1
370
    25
100
AcDbSpline
210
0.0
220
0.0
230
1.0
 70
     8
 71
     3
 72
    12
 73
     8
 74
     0
 42
0.000000001
 43
0.00000001
 40
0.0
 40
0.0
 40
0.0
 40
0.0
 40
0.2144746728939727
 40
0.432570907197875
 40
0.7105060045731828
 40
0.9884287001650965
 40
1.0
 40
1.0
 40
1.0
 40
1.0
 10
12.75836477965031
 20
0.7263633594381361
 30
0.0
 10
12.68752943256286
 20
0.7349141532349294
 30
0.0
 10
12.54466263184535
 20
0.7521601272235194
 30
0.0
 10
12.30977291881827
 20
0.7335295670718291
 30
0.0
 10
12.0536978148433
 20
0.6659209454601321
 30
0.0
 10
11.86690804927739
 20
0.5911385369677383
 30
0.0
 10
11.77103605883559
 20
0.5352189054938481
 30
0.0
 10
11.76720398091793
 20
0.5329837543934335
 30
0.0
1001
PE_URL
1000

  0
LINE
  5
D7
330
1F
100
AcDbEntity
  8
0
  6
Continuous
 62
     1
370
    25
100
AcDbLine
 10
12.75836477965031
 20
0.6452768031352484
 30
0.0
 11
12.75836477965031
 21
0.7263633594381376
 31
0.0
1001
PE_URL
1000

  0
SPLINE
  5
D8
330
1F
100
AcDbEntity
  8
0
  6
Continuous
 62
     1
370
    25
100
AcDbSpline
210
0.0
220
0.0
230
1.0
 70
     8
 71
     3
 72
    20
 73
    16
 74
     0
 42
0.000000001
 43
0.00000001
 40
0.0
 40
0.0
 40
0.0
 40
0.0
 40
0.0081125632682726
 40
0.1231309912278565
 40
0.2036408067769909
 40
0.2746363518131794
 40
0.3491452379882155
 40
0.4341731053453582
 40
0.5225074657130458
 40
0.5873311885361007
 40
0.6378687040148497
 40
0.7135645806121445
 40
0.8253875536989822
 40
0.9129967380562743
 40
1.0
 40
1.0
 40
1.0
 40
1.0
 10
11.76906079091478
 20
-0.5339355304473191
 30
0.0
 10
11.76552284161004
 20
-0.5359312553887176
 30
0.0
 10
11.71182449863243
 20
-0.566222001004669
 30
0.0
 10
11.62253931007264
 20
-0.6066905657459466
 30
0.0
 10
11.50580826016098
 20
-0.6540373811842267
 30
0.0
 10
11.40744007028247
 20
-0.6874518273493971
 30
0.0
 10
11.30702961880092
 20
-0.7148809587055172
 30
0.0
 10
11.19844274320661
 20
-0.7359263217882611
 30
0.0
 10
11.09429248685527
 20
-0.7475080919079764
 30
0.0
 10
11.00523439698764
 20
-0.7506875358508746
 30
0.0
 10
10.92209482599949
 20
-0.7488534372275027
 30
0.0
 10
10.81799825239171
 20
-0.7400832994643779
 30
0.0
 10
10.69738346717527
 20
-0.7188491264430134
 30
0.0
 10
10.57214069261291
 20
-0.6856115347911427
 30
0.0
 10
10.49620224600424
 20
-0.6575076951889913
 30
0.0
 10
10.45836477965031
 20
-0.6435045369357976
 30
0.0
  0
LINE
  5
D9
330
1F
100
AcDbEntity
  8
0
  6
Continuous
 62
     4
370
    25
100
AcDbLine
 10
10.45836477965031
 20
-0.3953672335009118
 30
0.0
 11
10.45836477965031
 21
-0.6435045369357973
 31
0.0
  0
SPLINE
  5
DA
330
1F
100
AcDbEntity
  8
0
  6
Continuous
 62
     1
370
    25
100
AcDbSpline
210
0.0
220
0.0
230
1.0
 70
     8
 71
     3
 72
     9
 73
     5
 74
     0
 42
0.000000001
 43
0.00000001
 40
0.0
 40
0.0
 40
0.0
 40
0.0
 40
0.6182116106467421
 40
1.0
 40
1.0
 40
1.0
 40
1.0
 10
10.45836477965029
 20
-0.6496467467382684
 30
0.0
 10
10.56555674365538
 20
-0.6859759079585172
 30
0.0
 10
10.73894715263356
 20
-0.7447408366570306
 30
0.0
 10
10.91219161429752
 20
-0.7418752849810772
 30
0.0
 10
10.97833433828058
 20
-0.7407812506221063
 30
0.0
1001
PE_URL
1000

  0
LINE
  5
DB
330
1F
100
AcDbEntity
  8
0
  6
Continuous
 62
     4
370
    25
100
AcDbLine
 10
10.45836477965031
 20
-0.6496467467382765
 30
0.0
 11
10.45836477965031
 21
-0.64350453416814
 31
0.0
  0
LINE
  5
DD
330
1F
100
AcDbEntity
  8
0
  6
Continuous
 62
     1
370
    25
100
AcDbLine
 10
12.74498790559021
 20
-0.1676512022981859
 30
0.0
 11
12.75836477965031
 21
-0.2498606905712976
 31
0.0
1001
PE_URL
1000

  0
LINE
  5
DE
330
1F
100
AcDbEntity
  8
0
  6
Continuous
 62
     1
370
    25
100
AcDbLine
 10
12.75836477965031
 20
-0.2498606905712976
 30
0.0
 11
12.75836477965031
 21
-0.6861413533451413
 31
0.0
1001
PE_URL
1000

  0
SPLINE
  5
DF
330
1F
100
AcDbEntity
  8
0
  6
Continuous
 62
     1
370
    25
100
AcDbSpline
210
0.0
220
0.0
230
1.0
 70
     8
 71
     3
 72
    10
 73
     6
 74
     0
 42
0.000000001
 43
0.00000001
 40
0.0
 40
0.0
 40
0.0
 40
0.0
 40
0.3177358673602116
 40
0.6580737682949138
 40
1.0
 40
1.0
 40
1.0
 40
1.0
 10
11.76922845612527
 20
0.5327294527892681
 30
0.0
 10
11.87394029892823
 20
0.5835298500718246
 30
0.0
 10
12.090812626094
 20
0.6887443137342196
 30
0.0
 10
12.42020808080551
 20
0.7618566865972596
 30
0.0
 10
12.64547107376606
 20
0.7421852040470969
 30
0.0
 10
12.75836477965031
 20
0.7323265648798809
 30
0.0
1001
PE_URL
1000

  0
LINE
  5
E0
330
1F
100
AcDbEntity
  8
0
  6
Continuous
 62
     1
370
    25
100
AcDbLine
 10
12.75836477965031
 20
0.7263633594381359
 30
0.0
 11
12.75836477965031
 21
0.7323265648798807
 31
0.0
1001
PE_URL
1000

  0
SPLINE
  5
E1
330
1F
100
AcDbEntity
  8
0
  6
Continuous
 62
     1
370
    25
100
AcDbSpline
210
0.0
220
0.0
230
1.0
 70
     8
 71
     3
 72
    10
 73
     6
 74
     0
 42
0.000000001
 43
0.00000001
 40
0.0
 40
0.0
 40
0.0
 40
0.0
 40
0.5002847041256292
 40
0.8486041496149085
 40
1.0
 40
1.0
 40
1.0
 40
1.0
 10
12.75836477965031
 20
0.7348469228349509
 30
0.0
 10
12.72500679564133
 20
0.739105328878437
 30
0.0
 10
12.66842356729281
 20
0.7463286179565302
 30
0.0
 10
12.60152207763817
 20
0.7501006255580019
 30
0.0
 10
12.56807520877305
 20
0.7495368666901623
 30
0.0
 10
12.55794200453383
 20
0.749366067929521
 30
0.0
1001
PE_URL
1000

  0
LINE
  5
E2
330
1F
100
AcDbEntity
  8
0
  6
Continuous
 62
     1
370
    25
100
AcDbLine
 10
12.75836477965031
 20
0.7323265648798799
 30
0.0
 11
12.75836477965031
 21
0.7348469228349511
 31
0.0
1001
PE_URL
1000

  0
LINE
  5
E7
330
1F
100
AcDbEntity
  8
중심선
100
AcDbLine
 10
-40.24163522034969
 20
-0.0000000000000075
 30
0.0
 11
14.23743608517999
 21
-0.0000000000000003
 31
0.0
  0
CIRCLE
  5
E8
330
1F
100
AcDbEntity
  8
해칭선
100
AcDbCircle
 10
0.0000000000000004
 20
0.0
 30
0.0
 40
3.000000000000003
  0
INSERT
  5
E9
330
1F
100
AcDbEntity
  8
0
  6
Continuous
 62
     7
100
AcDbBlockReference
 66
     1
  2
블럭10
 10
-29.91527293212521
 20
-52.04717430164394
 30
0.0
  0
ATTRIB
  5
EA
330
E9
100
AcDbEntity
  8
FORMAT
 62
     2
100
AcDbText
 10
-46.03453397156076
 20
-49.97180738881174
 30
0.0
 40
4.233333333333333
  1
SEME7301508E [ 4 FLUTE ]
 41
0.75
  7
SLDTEXTSTYLE0
 11
-46.03453397156076
 21
-52.08847405547841
 31
0.0
100
AcDbAttribute
  2
AUTOATTR0
 70
     0
 74
     1
  0
SEQEND
  5
EB
330
E9
100
AcDbEntity
  8
0
  6
Continuous
 62
     7
  0
HATCH
  5
EC
330
1F
100
AcDbEntity
  8
중심선
100
AcDbHatch
 10
0.0
 20
0.0
 30
0.0
210
0.0
220
0.0
230
1.0
  2
SOLID
 70
     1
 71
     0
 91
        1
 92
        0
 93
        4
 72
     1
 10
-24.20036362774436
 20
-35.8
 11
-27.64663887158164
 21
-35.8
 72
     1
 10
-27.64663887158164
 20
-35.8
 11
-29.77486873078569
 21
-38.3363255805726
 72
     1
 10
-29.77486873078569
 20
-38.3363255805726
 11
-26.32856040183523
 21
-38.33628615127011
 72
     1
 10
-26.32856040183523
 20
-38.33628615127011
 11
-24.20036362774436
 21
-35.8
 97
        0
 75
     0
 76
     1
 98
        1
 10
-4.525054920989815
 20
-0.0000000000000078
  0
HATCH
  5
ED
330
1F
100
AcDbEntity
  8
중심선
100
AcDbHatch
 10
0.0
 20
0.0
 30
0.0
210
0.0
220
0.0
230
1.0
  2
SOLID
 70
     1
 71
     0
 91
        1
 92
        0
 93
        4
 72
     1
 10
-19.18759963670838
 20
-35.8
 11
-22.63387488054567
 21
-35.8
 72
     1
 10
-22.63387488054566
 20
-35.8
 11
-27.16501288890308
 21
-41.20000000000002
 72
     1
 10
-27.16501288890308
 20
-41.20000000000002
 11
-23.7187376450658
 21
-41.20000000000002
 72
     1
 10
-23.7187376450658
 20
-41.20000000000002
 11
-19.18759963670838
 21
-35.8
 97
        0
 75
     0
 76
     1
 98
        1
 10
-4.525054920989815
 20
-0.0000000000000078
  0
HATCH
  5
EE
330
1F
100
AcDbEntity
  8
중심선
100
AcDbHatch
 10
0.0
 20
0.0
 30
0.0
210
0.0
220
0.0
230
1.0
  2
SOLID
 70
     1
 71
     0
 91
        1
 92
        0
 93
        4
 72
     1
 10
-14.17483564567251
 20
-35.8
 11
-17.62111088950963
 21
-35.8
 72
     1
 10
-17.62111088950963
 20
-35.8
 11
-24.66954779139888
 21
-44.20000000000002
 72
     1
 10
-24.66954779139888
 20
-44.20000000000002
 11
-21.2232725475616
 21
-44.20000000000002
 72
     1
 10
-21.2232725475616
 20
-44.20000000000002
 11
-14.17483564567252
 21
-35.8
 97
        0
 75
     0
 76
     1
 98
        1
 10
-4.525054920989815
 20
-0.0000000000000078
  0
HATCH
  5
EF
330
1F
100
AcDbEntity
  8
중심선
100
AcDbHatch
 10
0.0
 20
0.0
 30
0.0
210
0.0
220
0.0
230
1.0
  2
SOLID
 70
     1
 71
     0
 91
        1
 92
        0
 93
        6
 72
     3
 10
-9.374945214660315
 20
-40.00000000005128
 11
3.960054785062283
 21
1.540882976769353E-10
 40
0.3939339440162628
 50
17.09539180608436
 51
320.0019657685077
 73
     0
 72
     1
 10
-7.691945558959747
 20
-38.58789400463831
 11
-5.386643685258682
 21
-36.65356729459039
 72
     3
 10
-9.374945214713161
 20
-40.00000000000016
 11
6.600054785286829
 21
-1.278976924368180E-13
 40
0.636358354079598
 50
39.99873849337411
 51
368.4976242363724
 73
     1
 72
     1
 10
-2.949612722812552
 20
-39.03999999993002
 11
-10.69487790787724
 21
-39.03999999993002
 72
     1
 10
-10.69487790787724
 20
-39.03999999993002
 11
-10.69490295232317
 21
-40.95999999992992
 72
     1
 10
-10.69490295232317
 20
-40.95999999992992
 11
-6.253523182851136
 21
-40.95999999992989
 97
        0
 75
     0
 76
     1
 98
        1
 10
-4.525054920989815
 20
-0.0000000000000078
  0
DIMENSION
  5
F0
330
1F
100
AcDbEntity
  8
치수문자_일반주서
100
AcDbDimension
  2
_D
 10
24.34820121929534
 20
0.726363359438178
 30
0.0
 11
24.34820121929531
 21
11.70536335943818
 31
0.0
 70
   160
  1
%%c<>
 71
     2
 42
1.46121028227309
 52
-270.0
  3
SLDDIMSTYLE0
100
AcDbAlignedDimension
 13
12.75836477965031
 23
-0.734846922834954
 33
0.0
 14
12.75836477965031
 24
0.7263633594381359
 34
0.0
 50
90.0000000000002
100
AcDbRotatedDimension
  0
DIMENSION
  5
FE
330
1F
100
AcDbEntity
  8
치수문자_일반주서
100
AcDbDimension
  2
_D_1
 10
12.7583647796503
 20
36.00000000000003
 30
0.0
 11
-12.24163522034969
 21
36.00000000000003
 31
0.0
 70
   160
  1
<>
 71
     2
 42
50.00000000000001
  3
SLDDIMSTYLE1
100
AcDbAlignedDimension
 13
-37.2416352203497
 23
1.499999999999992
 33
0.0
 14
12.75836477965031
 24
-0.0750000000000049
 34
0.0
100
AcDbRotatedDimension
  0
DIMENSION
  5
109
330
1F
100
AcDbEntity
  8
치수문자_일반주서
100
AcDbDimension
  2
_D_2
 10
-50.73427478196958
 20
-2.000000000000057
 30
0.0
 11
-50.73427478196959
 21
-0.7264638992030837
 31
0.0
 70
   160
  1
%%c<>
 71
     2
 42
4.000000000000004
 52
-270.0
  3
SLDDIMSTYLE2
100
AcDbAlignedDimension
 13
-36.74163522034971
 23
1.999999999999999
 33
0.0
 14
-36.74163522034971
 24
-2.000000000000004
 34
0.0
 50
90.0000000000002
100
AcDbRotatedDimension
  0
DIMENSION
  5
117
330
1F
100
AcDbEntity
  8
치수문자_일반주서
100
AcDbDimension
  2
_D_3
 10
12.75836477965031
 20
17.61973786945578
 30
0.0
 11
23.95611477965031
 21
17.61973786945578
 31
0.0
 70
   160
  1
<>
 71
     2
 42
2.3
  3
SLDDIMSTYLE3
100
AcDbAlignedDimension
 13
10.45836477965031
 23
0.5356229458249175
 33
0.0
 14
12.75836477965031
 24
0.7348469228349511
 34
0.0
 50
-0.0000000000002262
100
AcDbRotatedDimension
  0
DIMENSION
  5
124
330
1F
100
AcDbEntity
  8
치수문자_일반주서
100
AcDbDimension
  2
_D_4
 10
4.758364779650307
 20
25.42615288579231
 30
0.0
 11
8.938089281240996
 21
25.42615288579231
 31
0.0
 70
   160
  1
<>
 71
     2
 42
8.000000000000004
  3
SLDDIMSTYLE2
100
AcDbAlignedDimension
 13
12.75836477965031
 23
0.7263633594381359
 33
0.0
 14
4.758364779650307
 24
0.7249999999999958
 34
0.0
100
AcDbRotatedDimension
  0
INSERT
  5
136
330
1F
100
AcDbEntity
  8
해칭선
100
AcDbBlockReference
  2
SW_DOWELSYMBOL_0
 10
0.0000000000000004
 20
0.0
 30
0.0
  0
ENDSEC
  0
SECTION
  2
OBJECTS
  0
DICTIONARY
  5
C
330
0
100
AcDbDictionary
281
     1
  3
ACAD_DETAILVIEWSTYLE
350
162
  3
ACAD_GROUP
350
D
  3
ACAD_LAYOUT
350
1A
  3
ACAD_MLINESTYLE
350
17
  3
ACAD_PLOTSETTINGS
350
19
  3
ACAD_PLOTSTYLENAME
350
E
  3
ACAD_SCALELIST
350
47
  3
ACAD_SECTIONVIEWSTYLE
350
163
  3
AcDbVariableDictionary
350
15D
  3
APPDATA
350
158
  3
DWGPROPS
350
193
  0
DICTIONARY
  5
191
330
1F
100
AcDbDictionary
280
     1
281
     1
  3
DIM_BOUNDING_BOXES_V1
360
192
  0
DICTIONARY
  5
162
102
{ACAD_REACTORS
330
C
102
}
330
C
100
AcDbDictionary
281
     1
  0
DICTIONARY
  5
D
102
{ACAD_REACTORS
330
C
102
}
330
C
100
AcDbDictionary
281
     1
  0
DICTIONARY
  5
1A
102
{ACAD_REACTORS
330
C
102
}
330
C
100
AcDbDictionary
281
     1
  3
Layout1
350
1E
  3
Layout2
350
26
  3
Model
350
22
  0
DICTIONARY
  5
17
102
{ACAD_REACTORS
330
C
102
}
330
C
100
AcDbDictionary
281
     1
  3
Standard
350
18
  0
DICTIONARY
  5
19
102
{ACAD_REACTORS
330
C
102
}
330
C
100
AcDbDictionary
281
     1
  0
ACDBDICTIONARYWDFLT
  5
E
102
{ACAD_REACTORS
330
C
102
}
330
C
100
AcDbDictionary
281
     1
  3
Normal
350
F
100
AcDbDictionaryWithDefault
340
F
  0
DICTIONARY
  5
47
102
{ACAD_REACTORS
330
C
102
}
330
C
100
AcDbDictionary
281
     1
  3
A0
350
48
  3
A1
350
49
  3
A2
350
4A
  3
A3
350
4B
  3
A4
350
4C
  3
A5
350
4D
  3
A6
350
4E
  3
A7
350
4F
  3
A8
350
50
  3
A9
350
51
  3
B0
350
52
  3
B1
350
53
  3
B2
350
54
  3
B3
350
55
  3
B4
350
56
  3
B5
350
57
  3
B6
350
58
  3
B7
350
59
  3
B8
350
5A
  3
B9
350
5B
  3
C0
350
5C
  3
C1
350
5D
  3
C2
350
5E
  3
C3
350
5F
  3
C4
350
60
  3
C5
350
61
  3
C6
350
62
  3
C7
350
63
  3
C8
350
64
  3
C9
350
65
  3
D0
350
66
  3
D1
350
67
  3
D2
350
68
  0
DICTIONARY
  5
163
102
{ACAD_REACTORS
330
C
102
}
330
C
100
AcDbDictionary
281
     1
  0
DICTIONARY
  5
15D
102
{ACAD_REACTORS
330
C
102
}
330
C
100
AcDbDictionary
281
     1
  0
DICTIONARY
  5
158
102
{ACAD_REACTORS
330
C
102
}
330
C
100
AcDbDictionary
281
     1
  0
XRECORD
  5
193
102
{ACAD_REACTORS
330
C
102
}
330
C
100
AcDbXrecord
280
     1
  1
DWGPROPS COOKIE
  2

  3

  4

  6

  7

  8
12016016
  9

300
=
301
=
302
=
303
=
304
=
305
=
306
=
307
=
308
=
309
=
 40
0.0
 41
2458260.401103102
 42
2459677.367949259
  1

 90
        0
  0
DICTIONARY
  5
192
102
{ACAD_REACTORS
330
191
102
}
330
191
100
AcDbDictionary
281
     1
  0
LAYOUT
  5
1E
102
{ACAD_REACTORS
330
1A
102
}
330
1A
100
AcDbPlotSettings
  1

  2
none_device
  4

  6

 40
0.0
 41
0.0
 42
0.0
 43
0.0
 44
0.0
 45
0.0
 46
0.0
 47
0.0
 48
0.0
 49
0.0
140
0.0
141
0.0
142
1.0
143
1.0
 70
   688
 72
     1
 73
     0
 74
     5
  7

 75
    16
147
1.0
148
0.0
149
0.0
100
AcDbLayout
  1
Layout1
 70
     1
 71
     1
 10
0.0
 20
0.0
 11
420.0
 21
297.0
 12
0.0
 22
0.0
 32
0.0
 14
1.000000000000000E+20
 24
1.000000000000000E+20
 34
1.000000000000000E+20
 15
-1.000000000000000E+20
 25
-1.000000000000000E+20
 35
-1.000000000000000E+20
146
0.0
 13
0.0
 23
0.0
 33
0.0
 16
1.0
 26
0.0
 36
0.0
 17
0.0
 27
1.0
 37
0.0
 76
     0
330
1B
  0
LAYOUT
  5
26
102
{ACAD_REACTORS
330
1A
102
}
330
1A
100
AcDbPlotSettings
  1

  2
none_device
  4

  6

 40
0.0
 41
0.0
 42
0.0
 43
0.0
 44
0.0
 45
0.0
 46
0.0
 47
0.0
 48
0.0
 49
0.0
140
0.0
141
0.0
142
1.0
143
1.0
 70
   688
 72
     1
 73
     0
 74
     5
  7

 75
    16
147
1.0
148
0.0
149
0.0
100
AcDbLayout
  1
Layout2
 70
     1
 71
     2
 10
0.0
 20
0.0
 11
0.0
 21
0.0
 12
0.0
 22
0.0
 32
0.0
 14
0.0
 24
0.0
 34
0.0
 15
0.0
 25
0.0
 35
0.0
146
0.0
 13
0.0
 23
0.0
 33
0.0
 16
1.0
 26
0.0
 36
0.0
 17
0.0
 27
1.0
 37
0.0
 76
     0
330
23
  0
LAYOUT
  5
22
102
{ACAD_REACTORS
330
1A
102
}
330
1A
100
AcDbPlotSettings
  1

  2
none_device
  4
ANSI_A_(11.00_x_8.50_Inches)
  6

 40
6.35
 41
19.05
 42
6.35000508
 43
19.05000254
 44
279.4
 45
215.9
 46
161.0545882195552
 47
100.8537443875621
 48
0.0
 49
0.0
140
0.0
141
0.0
142
0.0922419125129433
143
1.0
 70
  1696
 72
     0
 73
     0
 74
     0
  7

 75
     0
147
0.0235690232323232
148
0.0
149
0.0
100
AcDbLayout
  1
Model
 70
     1
 71
     0
 10
0.0
 20
0.0
 11
420.0
 21
297.0
 12
0.0
 22
0.0
 32
0.0
 14
-55.1092747819696
 24
-49.97180738881173
 34
0.0
 15
28.54986477965033
 25
40.37500000000002
 35
0.0
146
0.0
 13
0.0
 23
0.0
 33
0.0
 16
1.0
 26
0.0
 36
0.0
 17
0.0
 27
1.0
 37
0.0
 76
     0
330
1F
331
29
  0
MLINESTYLE
  5
18
102
{ACAD_REACTORS
330
17
102
}
330
17
100
AcDbMlineStyle
  2
Standard
 70
     0
  3

 62
   256
 51
90.0
 52
90.0
 71
     2
 49
0.5
 62
   256
  6
BYLAYER
 49
-0.5
 62
   256
  6
BYLAYER
  0
ACDBPLACEHOLDER
  5
F
102
{ACAD_REACTORS
330
E
102
}
330
E
  0
SCALE
  5
48
102
{ACAD_REACTORS
330
47
102
}
330
47
100
AcDbScale
 70
     0
300
1:1
140
1.0
141
1.0
290
     1
  0
SCALE
  5
49
102
{ACAD_REACTORS
330
47
102
}
330
47
100
AcDbScale
 70
     0
300
1:2
140
1.0
141
2.0
290
     0
  0
SCALE
  5
4A
102
{ACAD_REACTORS
330
47
102
}
330
47
100
AcDbScale
 70
     0
300
1:4
140
1.0
141
4.0
290
     0
  0
SCALE
  5
4B
102
{ACAD_REACTORS
330
47
102
}
330
47
100
AcDbScale
 70
     0
300
1:5
140
1.0
141
5.0
290
     0
  0
SCALE
  5
4C
102
{ACAD_REACTORS
330
47
102
}
330
47
100
AcDbScale
 70
     0
300
1:8
140
1.0
141
8.0
290
     0
  0
SCALE
  5
4D
102
{ACAD_REACTORS
330
47
102
}
330
47
100
AcDbScale
 70
     0
300
1:10
140
1.0
141
10.0
290
     0
  0
SCALE
  5
4E
102
{ACAD_REACTORS
330
47
102
}
330
47
100
AcDbScale
 70
     0
300
1:16
140
1.0
141
16.0
290
     0
  0
SCALE
  5
4F
102
{ACAD_REACTORS
330
47
102
}
330
47
100
AcDbScale
 70
     0
300
1:20
140
1.0
141
20.0
290
     0
  0
SCALE
  5
50
102
{ACAD_REACTORS
330
47
102
}
330
47
100
AcDbScale
 70
     0
300
1:30
140
1.0
141
30.0
290
     0
  0
SCALE
  5
51
102
{ACAD_REACTORS
330
47
102
}
330
47
100
AcDbScale
 70
     0
300
1:40
140
1.0
141
40.0
290
     0
  0
SCALE
  5
52
102
{ACAD_REACTORS
330
47
102
}
330
47
100
AcDbScale
 70
     0
300
1:50
140
1.0
141
50.0
290
     0
  0
SCALE
  5
53
102
{ACAD_REACTORS
330
47
102
}
330
47
100
AcDbScale
 70
     0
300
1:100
140
1.0
141
100.0
290
     0
  0
SCALE
  5
54
102
{ACAD_REACTORS
330
47
102
}
330
47
100
AcDbScale
 70
     0
300
2:1
140
2.0
141
1.0
290
     0
  0
SCALE
  5
55
102
{ACAD_REACTORS
330
47
102
}
330
47
100
AcDbScale
 70
     0
300
4:1
140
4.0
141
1.0
290
     0
  0
SCALE
  5
56
102
{ACAD_REACTORS
330
47
102
}
330
47
100
AcDbScale
 70
     0
300
8:1
140
8.0
141
1.0
290
     0
  0
SCALE
  5
57
102
{ACAD_REACTORS
330
47
102
}
330
47
100
AcDbScale
 70
     0
300
10:1
140
10.0
141
1.0
290
     0
  0
SCALE
  5
58
102
{ACAD_REACTORS
330
47
102
}
330
47
100
AcDbScale
 70
     0
300
100:1
140
100.0
141
1.0
290
     0
  0
SCALE
  5
59
102
{ACAD_REACTORS
330
47
102
}
330
47
100
AcDbScale
 70
     0
300
1/128" = 1'-0"
140
0.0078125
141
12.0
290
     0
  0
SCALE
  5
5A
102
{ACAD_REACTORS
330
47
102
}
330
47
100
AcDbScale
 70
     0
300
1/64" = 1'-0"
140
0.015625
141
12.0
290
     0
  0
SCALE
  5
5B
102
{ACAD_REACTORS
330
47
102
}
330
47
100
AcDbScale
 70
     0
300
1/32" = 1'-0"
140
0.03125
141
12.0
290
     0
  0
SCALE
  5
5C
102
{ACAD_REACTORS
330
47
102
}
330
47
100
AcDbScale
 70
     0
300
1/16" = 1'-0"
140
0.0625
141
12.0
290
     0
  0
SCALE
  5
5D
102
{ACAD_REACTORS
330
47
102
}
330
47
100
AcDbScale
 70
     0
300
3/32" = 1'-0"
140
0.09375
141
12.0
290
     0
  0
SCALE
  5
5E
102
{ACAD_REACTORS
330
47
102
}
330
47
100
AcDbScale
 70
     0
300
1/8" = 1'-0"
140
0.125
141
12.0
290
     0
  0
SCALE
  5
5F
102
{ACAD_REACTORS
330
47
102
}
330
47
100
AcDbScale
 70
     0
300
3/16" = 1'-0"
140
0.1875
141
12.0
290
     0
  0
SCALE
  5
60
102
{ACAD_REACTORS
330
47
102
}
330
47
100
AcDbScale
 70
     0
300
1/4" = 1'-0"
140
0.25
141
12.0
290
     0
  0
SCALE
  5
61
102
{ACAD_REACTORS
330
47
102
}
330
47
100
AcDbScale
 70
     0
300
3/8" = 1'-0"
140
0.375
141
12.0
290
     0
  0
SCALE
  5
62
102
{ACAD_REACTORS
330
47
102
}
330
47
100
AcDbScale
 70
     0
300
1/2" = 1'-0"
140
0.5
141
12.0
290
     0
  0
SCALE
  5
63
102
{ACAD_REACTORS
330
47
102
}
330
47
100
AcDbScale
 70
     0
300
3/4" = 1'-0"
140
0.75
141
12.0
290
     0
  0
SCALE
  5
64
102
{ACAD_REACTORS
330
47
102
}
330
47
100
AcDbScale
 70
     0
300
1" = 1'-0"
140
1.0
141
12.0
290
     0
  0
SCALE
  5
65
102
{ACAD_REACTORS
330
47
102
}
330
47
100
AcDbScale
 70
     0
300
1-1/2" = 1'-0"
140
1.5
141
12.0
290
     0
  0
SCALE
  5
66
102
{ACAD_REACTORS
330
47
102
}
330
47
100
AcDbScale
 70
     0
300
3" = 1'-0"
140
3.0
141
12.0
290
     0
  0
SCALE
  5
67
102
{ACAD_REACTORS
330
47
102
}
330
47
100
AcDbScale
 70
     0
300
6" = 1'-0"
140
6.0
141
12.0
290
     0
  0
SCALE
  5
68
102
{ACAD_REACTORS
330
47
102
}
330
47
100
AcDbScale
 70
     0
300
1'-0" = 1'-0"
140
12.0
141
12.0
290
     0
  0
ENDSEC
  0
EOF
