  0
SECTION
  2
HEADER
  9
$ACADVER
  1
AC1015
  9
$ACADMAINTVER
 70
     6
  9
$DWGCODEPAGE
  3
ANSI_949
  9
$INSBASE
 10
0.0
 20
0.0
 30
0.0
  9
$EXTMIN
 10
-58.10927478196959
 20
-49.97180738881174
 30
0.0
  9
$EXTMAX
 10
25.54502667886857
 20
40.37500000000004
 30
0.0
  9
$LIMMIN
 10
0.0
 20
0.0
  9
$LIMMAX
 10
420.0
 20
297.0
  9
$ORTHOMODE
 70
     0
  9
$REGENMODE
 70
     1
  9
$FILLMODE
 70
     1
  9
$QTEXTMODE
 70
     0
  9
$MIRRTEXT
 70
     1
  9
$LTSCALE
 40
1.0
  9
$ATTMODE
 70
     1
  9
$TEXTSIZE
 40
3.5
  9
$TRACEWID
 40
1.0
  9
$TEXTSTYLE
  7
Standard
  9
$CLAYER
  8
0
  9
$CELTYPE
  6
ByLayer
  9
$CECOLOR
 62
   256
  9
$CELTSCALE
 40
1.0
  9
$DISPSILH
 70
     0
  9
$DIMSCALE
 40
1.0
  9
$DIMASZ
 40
3.302
  9
$DIMEXO
 40
1.0
  9
$DIMDLI
 40
3.75
  9
$DIMRND
 40
0.0
  9
$DIMDLE
 40
0.0
  9
$DIMEXE
 40
1.0
  9
$DIMTP
 40
0.0
  9
$DIMTM
 40
0.0
  9
$DIMTXT
 40
3.5
  9
$DIMCEN
 40
2.5
  9
$DIMTSZ
 40
0.0
  9
$DIMTOL
 70
     0
  9
$DIMLIM
 70
     0
  9
$DIMTIH
 70
     1
  9
$DIMTOH
 70
     1
  9
$DIMSE1
 70
     0
  9
$DIMSE2
 70
     0
  9
$DIMTAD
 70
     1
  9
$DIMZIN
 70
     0
  9
$DIMBLK
  1

  9
$DIMASO
 70
     1
  9
$DIMSHO
 70
     1
  9
$DIMPOST
  1

  9
$DIMAPOST
  1

  9
$DIMALT
 70
     0
  9
$DIMALTD
 70
     3
  9
$DIMALTF
 40
0.0393700787401575
  9
$DIMLFAC
 40
1.0
  9
$DIMTOFL
 70
     1
  9
$DIMTVP
 40
0.0
  9
$DIMTIX
 70
     0
  9
$DIMSOXD
 70
     0
  9
$DIMSAH
 70
     0
  9
$DIMBLK1
  1

  9
$DIMBLK2
  1

  9
$DIMSTYLE
  2
ISO-25
  9
$DIMCLRD
 70
     0
  9
$DIMCLRE
 70
     0
  9
$DIMCLRT
 70
     0
  9
$DIMTFAC
 40
1.0
  9
$DIMGAP
 40
1.524
  9
$DIMJUST
 70
     0
  9
$DIMSD1
 70
     0
  9
$DIMSD2
 70
     0
  9
$DIMTOLJ
 70
     0
  9
$DIMTZIN
 70
     0
  9
$DIMALTZ
 70
     0
  9
$DIMALTTZ
 70
     0
  9
$DIMUPT
 70
     0
  9
$DIMDEC
 70
     2
  9
$DIMTDEC
 70
     2
  9
$DIMALTU
 70
     2
  9
$DIMALTTD
 70
     3
  9
$DIMTXSTY
  7
Standard
  9
$DIMAUNIT
 70
     0
  9
$DIMADEC
 70
     2
  9
$DIMALTRND
 40
0.0
  9
$DIMAZIN
 70
     0
  9
$DIMDSEP
 70
    44
  9
$DIMATFIT
 70
     3
  9
$DIMFRAC
 70
     0
  9
$DIMLDRBLK
  1

  9
$DIMLUNIT
 70
     2
  9
$DIMLWD
 70
    -2
  9
$DIMLWE
 70
    -2
  9
$DIMTMOVE
 70
     0
  9
$LUNITS
 70
     2
  9
$LUPREC
 70
     2
  9
$SKETCHINC
 40
1.0
  9
$FILLETRAD
 40
10.0
  9
$AUNITS
 70
     0
  9
$AUPREC
 70
     2
  9
$MENU
  1
.
  9
$ELEVATION
 40
0.0
  9
$PELEVATION
 40
0.0
  9
$THICKNESS
 40
0.0
  9
$LIMCHECK
 70
     0
  9
$CHAMFERA
 40
0.0
  9
$CHAMFERB
 40
0.0
  9
$CHAMFERC
 40
0.0
  9
$CHAMFERD
 40
0.0
  9
$SKPOLY
 70
     0
  9
$TDCREATE
 40
2458260.775535775
  9
$TDUCREATE
 40
2458260.400535775
  9
$TDUPDATE
 40
2459677.741727917
  9
$TDUUPDATE
 40
2459677.366727917
  9
$TDINDWG
 40
0.0031965972
  9
$TDUSRTIMER
 40
0.0004548843
  9
$USRTIMER
 70
     1
  9
$ANGBASE
 50
0.0
  9
$ANGDIR
 70
     0
  9
$PDMODE
 70
     0
  9
$PDSIZE
 40
-1.0
  9
$PLINEWID
 40
0.0
  9
$SPLFRAME
 70
     0
  9
$SPLINETYPE
 70
     6
  9
$SPLINESEGS
 70
     8
  9
$HANDSEED
  5
19F
  9
$SURFTAB1
 70
     6
  9
$SURFTAB2
 70
     6
  9
$SURFTYPE
 70
     6
  9
$SURFU
 70
     6
  9
$SURFV
 70
     6
  9
$UCSBASE
  2

  9
$UCSNAME
  2

  9
$UCSORG
 10
0.0
 20
0.0
 30
0.0
  9
$UCSXDIR
 10
1.0
 20
0.0
 30
0.0
  9
$UCSYDIR
 10
0.0
 20
1.0
 30
0.0
  9
$UCSORTHOREF
  2

  9
$UCSORTHOVIEW
 70
     0
  9
$UCSORGTOP
 10
0.0
 20
0.0
 30
0.0
  9
$UCSORGBOTTOM
 10
0.0
 20
0.0
 30
0.0
  9
$UCSORGLEFT
 10
0.0
 20
0.0
 30
0.0
  9
$UCSORGRIGHT
 10
0.0
 20
0.0
 30
0.0
  9
$UCSORGFRONT
 10
0.0
 20
0.0
 30
0.0
  9
$UCSORGBACK
 10
0.0
 20
0.0
 30
0.0
  9
$PUCSBASE
  2

  9
$PUCSNAME
  2

  9
$PUCSORG
 10
0.0
 20
0.0
 30
0.0
  9
$PUCSXDIR
 10
1.0
 20
0.0
 30
0.0
  9
$PUCSYDIR
 10
0.0
 20
1.0
 30
0.0
  9
$PUCSORTHOREF
  2

  9
$PUCSORTHOVIEW
 70
     0
  9
$PUCSORGTOP
 10
0.0
 20
0.0
 30
0.0
  9
$PUCSORGBOTTOM
 10
0.0
 20
0.0
 30
0.0
  9
$PUCSORGLEFT
 10
0.0
 20
0.0
 30
0.0
  9
$PUCSORGRIGHT
 10
0.0
 20
0.0
 30
0.0
  9
$PUCSORGFRONT
 10
0.0
 20
0.0
 30
0.0
  9
$PUCSORGBACK
 10
0.0
 20
0.0
 30
0.0
  9
$USERI1
 70
     0
  9
$USERI2
 70
     0
  9
$USERI3
 70
     0
  9
$USERI4
 70
     0
  9
$USERI5
 70
     0
  9
$USERR1
 40
0.0
  9
$USERR2
 40
0.0
  9
$USERR3
 40
0.0
  9
$USERR4
 40
0.0
  9
$USERR5
 40
0.0
  9
$WORLDVIEW
 70
     1
  9
$SHADEDGE
 70
     3
  9
$SHADEDIF
 70
    70
  9
$TILEMODE
 70
     1
  9
$MAXACTVP
 70
    64
  9
$PINSBASE
 10
0.0
 20
0.0
 30
0.0
  9
$PLIMCHECK
 70
     0
  9
$PEXTMIN
 10
1.000000000000000E+20
 20
1.000000000000000E+20
 30
1.000000000000000E+20
  9
$PEXTMAX
 10
-1.000000000000000E+20
 20
-1.000000000000000E+20
 30
-1.000000000000000E+20
  9
$PLIMMIN
 10
0.0
 20
0.0
  9
$PLIMMAX
 10
0.0
 20
0.0
  9
$UNITMODE
 70
     0
  9
$VISRETAIN
 70
     1
  9
$PLINEGEN
 70
     0
  9
$PSLTSCALE
 70
     1
  9
$TREEDEPTH
 70
  3020
  9
$CMLSTYLE
  2
Standard
  9
$CMLJUST
 70
     0
  9
$CMLSCALE
 40
20.0
  9
$PROXYGRAPHICS
 70
     1
  9
$MEASUREMENT
 70
     1
  9
$CELWEIGHT
370
    -1
  9
$ENDCAPS
280
     0
  9
$JOINSTYLE
280
     0
  9
$LWDISPLAY
290
     1
  9
$INSUNITS
 70
     4
  9
$HYPERLINKBASE
  1

  9
$STYLESHEET
  1

  9
$XEDIT
290
     1
  9
$CEPSNTYPE
380
     0
  9
$PSTYLEMODE
290
     1
  9
$FINGERPRINTGUID
  2
{387D4B62-5A68-4DD4-A86F-D2610E7855A9}
  9
$VERSIONGUID
  2
{FAEB1C32-E019-11D5-929B-00C0DF256EC4}
  9
$EXTNAMES
290
     1
  9
$PSVPSCALE
 40
0.0
  9
$OLESTARTUP
290
     0
  0
ENDSEC
  0
SECTION
  2
CLASSES
  0
CLASS
  1
ACDBDICTIONARYWDFLT
  2
AcDbDictionaryWithDefault
  3
ObjectDBX Classes
 90
        0
280
     0
281
     0
  0
CLASS
  1
VISUALSTYLE
  2
AcDbVisualStyle
  3
ObjectDBX Classes
 90
     4095
280
     0
281
     0
  0
CLASS
  1
MATERIAL
  2
AcDbMaterial
  3
ObjectDBX Classes
 90
     1153
280
     0
281
     0
  0
CLASS
  1
SCALE
  2
AcDbScale
  3
ObjectDBX Classes
 90
     1153
280
     0
281
     0
  0
CLASS
  1
TABLESTYLE
  2
AcDbTableStyle
  3
ObjectDBX Classes
 90
     4095
280
     0
281
     0
  0
CLASS
  1
MLEADERSTYLE
  2
AcDbMLeaderStyle
  3
ACDB_MLEADERSTYLE_CLASS
 90
     4095
280
     0
281
     0
  0
CLASS
  1
SUN
  2
AcDbSun
  3
SCENEOE
 90
     1153
280
     0
281
     0
  0
CLASS
  1
ACDBPLACEHOLDER
  2
AcDbPlaceHolder
  3
ObjectDBX Classes
 90
        0
280
     0
281
     0
  0
CLASS
  1
LAYOUT
  2
AcDbLayout
  3
ObjectDBX Classes
 90
        0
280
     0
281
     0
  0
CLASS
  1
DICTIONARYVAR
  2
AcDbDictionaryVar
  3
ObjectDBX Classes
 90
        0
280
     0
281
     0
  0
CLASS
  1
SORTENTSTABLE
  2
AcDbSortentsTable
  3
ObjectDBX Classes
 90
        0
280
     0
281
     0
  0
ENDSEC
  0
SECTION
  2
TABLES
  0
TABLE
  2
VPORT
  5
8
330
0
100
AcDbSymbolTable
 70
     1
  0
VPORT
  5
29
330
8
100
AcDbSymbolTableRecord
100
AcDbViewportTableRecord
  2
*Active
 70
     0
 10
0.0
 20
0.0
 11
1.0
 21
1.0
 12
4.045291783837301
 22
-4.00794596697634
 13
0.0
 23
0.0
 14
10.0
 24
10.0
 15
10.0
 25
10.0
 16
0.0
 26
0.0
 36
1.0
 17
0.0
 27
0.0
 37
0.0
 40
55.43855498797826
 41
1.531481481481481
 42
50.0
 43
0.0
 44
0.0
 50
0.0
 51
0.0
 71
    16
 72
  2000
 73
     1
 74
     3
 75
     0
 76
     0
 77
     0
 78
     0
281
     0
 65
     1
110
0.0
120
0.0
130
0.0
111
1.0
121
0.0
131
0.0
112
0.0
122
1.0
132
0.0
 79
     0
146
0.0
  0
ENDTAB
  0
TABLE
  2
LTYPE
  5
5
330
0
100
AcDbSymbolTable
 70
     6
  0
LTYPE
  5
14
330
5
100
AcDbSymbolTableRecord
100
AcDbLinetypeTableRecord
  2
ByBlock
 70
     0
  3

 72
    65
 73
     0
 40
0.0
  0
LTYPE
  5
15
330
5
100
AcDbSymbolTableRecord
100
AcDbLinetypeTableRecord
  2
ByLayer
 70
     0
  3

 72
    65
 73
     0
 40
0.0
  0
LTYPE
  5
16
330
5
100
AcDbSymbolTableRecord
100
AcDbLinetypeTableRecord
  2
Continuous
 70
     0
  3
Solid line
 72
    65
 73
     0
 40
0.0
  0
LTYPE
  5
6E
330
5
100
AcDbSymbolTableRecord
100
AcDbLinetypeTableRecord
  2
HIDDEN
 70
     0
  3
Hidden __ __ __ __ __ __ __ __ __ __ __ __ __ __
 72
    65
 73
     2
 40
1.905
 49
1.27
 74
     0
 49
-0.635
 74
     0
  0
LTYPE
  5
6F
330
5
100
AcDbSymbolTableRecord
100
AcDbLinetypeTableRecord
  2
PHANTOM
 70
     0
  3
Phantom ______  __  __  ______  __  __  ______
 72
    65
 73
     6
 40
12.7
 49
6.35
 74
     0
 49
-1.27
 74
     0
 49
1.27
 74
     0
 49
-1.27
 74
     0
 49
1.27
 74
     0
 49
-1.27
 74
     0
  0
LTYPE
  5
70
330
5
100
AcDbSymbolTableRecord
100
AcDbLinetypeTableRecord
  2
CENTER
 70
     0
  3
Center ____ _ ____ _ ____ _ ____ _ ____ _ ____
 72
    65
 73
     4
 40
10.16
 49
6.35
 74
     0
 49
-1.27
 74
     0
 49
1.27
 74
     0
 49
-1.27
 74
     0
  0
LTYPE
  5
71
330
5
100
AcDbSymbolTableRecord
100
AcDbLinetypeTableRecord
  2
CENTERX2
 70
     0
  3
Center (2x) ________  __  ________  __  _____
 72
    65
 73
     4
 40
20.32
 49
12.7
 74
     0
 49
-2.54
 74
     0
 49
2.54
 74
     0
 49
-2.54
 74
     0
  0
LTYPE
  5
72
330
5
100
AcDbSymbolTableRecord
100
AcDbLinetypeTableRecord
  2
DOT2
 70
     0
  3
Dot (.5x) ........................................
 72
    65
 73
     2
 40
0.635
 49
0.0
 74
     0
 49
-0.635
 74
     0
  0
ENDTAB
  0
TABLE
  2
LAYER
  5
2
330
0
100
AcDbSymbolTable
 70
    17
  0
LAYER
  5
10
330
2
100
AcDbSymbolTableRecord
100
AcDbLayerTableRecord
  2
0
 70
     0
 62
     7
  6
Continuous
370
    -3
390
F
  0
LAYER
  5
73
330
2
100
AcDbSymbolTableRecord
100
AcDbLayerTableRecord
  2
FORMAT
 70
     0
 62
     2
  6
Continuous
370
    -3
390
F
  0
LAYER
  5
74
330
2
100
AcDbSymbolTableRecord
100
AcDbLayerTableRecord
  2
외형선
 70
     0
 62
   100
  6
Continuous
370
    35
390
F
  0
LAYER
  5
75
330
2
100
AcDbSymbolTableRecord
100
AcDbLayerTableRecord
  2
숨은선
 70
     0
 62
     2
  6
HIDDEN
370
    25
390
F
  0
LAYER
  5
76
330
2
100
AcDbSymbolTableRecord
100
AcDbLayerTableRecord
  2
중심선
 70
     0
 62
     1
  6
CENTERX2
370
    -3
390
F
  0
LAYER
  5
77
330
2
100
AcDbSymbolTableRecord
100
AcDbLayerTableRecord
  2
파단선
 70
     0
 62
     4
  6
Continuous
370
    -3
390
F
  0
LAYER
  5
78
330
2
100
AcDbSymbolTableRecord
100
AcDbLayerTableRecord
  2
해칭선
 70
     0
 62
   100
  6
Continuous
370
    -3
390
F
  0
LAYER
  5
79
330
2
100
AcDbSymbolTableRecord
100
AcDbLayerTableRecord
  2
가는실선
 70
     0
 62
     4
  6
Continuous
370
    -3
390
F
  0
LAYER
  5
7A
330
2
100
AcDbSymbolTableRecord
100
AcDbLayerTableRecord
  2
치수_보조선
 70
     0
 62
     4
  6
Continuous
370
    -3
390
F
  0
LAYER
  5
7B
330
2
100
AcDbSymbolTableRecord
100
AcDbLayerTableRecord
  2
치수문자_일반주서
 70
     0
 62
     7
  6
Continuous
370
    25
390
F
  0
LAYER
  5
7C
330
2
100
AcDbSymbolTableRecord
100
AcDbLayerTableRecord
  2
개별주서
 70
     0
 62
   100
  6
Continuous
370
    35
390
F
  0
LAYER
  5
7D
330
2
100
AcDbSymbolTableRecord
100
AcDbLayerTableRecord
  2
중간선
 70
     0
 62
     2
  6
Continuous
370
    25
390
F
  0
LAYER
  5
7E
330
2
100
AcDbSymbolTableRecord
100
AcDbLayerTableRecord
  2
윤곽선
 70
     0
 62
     3
  6
Continuous
370
    50
390
F
  0
LAYER
  5
7F
330
2
100
AcDbSymbolTableRecord
100
AcDbLayerTableRecord
  2
중심마크
 70
     0
 62
   100
  6
Continuous
370
    35
390
F
  0
LAYER
  5
80
330
2
100
AcDbSymbolTableRecord
100
AcDbLayerTableRecord
  2
가상선
 70
     0
 62
     4
  6
PHANTOM
370
    -3
390
F
  0
LAYER
  5
81
330
2
100
AcDbSymbolTableRecord
100
AcDbLayerTableRecord
  2
특수지정선
 70
     0
 62
     5
  6
CENTERX2
370
    70
390
F
  0
LAYER
  5
157
330
2
100
AcDbSymbolTableRecord
100
AcDbLayerTableRecord
  2
Defpoints
 70
     0
 62
     7
  6
Continuous
290
     0
370
    -3
390
F
  0
ENDTAB
  0
TABLE
  2
STYLE
  5
3
330
0
100
AcDbSymbolTable
 70
     2
  0
STYLE
  5
11
330
3
100
AcDbSymbolTableRecord
100
AcDbTextStyleTableRecord
  2
Standard
 70
     0
 40
0.0
 41
1.0
 50
0.0
 71
     0
 42
3.5
  3
txt
  4

  0
STYLE
  5
97
330
3
100
AcDbSymbolTableRecord
100
AcDbTextStyleTableRecord
  2
SLDTEXTSTYLE0
 70
     0
 40
0.0
 41
0.75
 50
0.0
 71
     0
 42
3.5
  3
TXT
  4

  0
ENDTAB
  0
TABLE
  2
VIEW
  5
6
330
0
100
AcDbSymbolTable
 70
     0
  0
ENDTAB
  0
TABLE
  2
UCS
  5
7
330
0
100
AcDbSymbolTable
 70
     0
  0
ENDTAB
  0
TABLE
  2
APPID
  5
9
330
0
100
AcDbSymbolTable
 70
     2
  0
APPID
  5
12
330
9
100
AcDbSymbolTableRecord
100
AcDbRegAppTableRecord
  2
ACAD
 70
     0
  0
APPID
  5
159
330
9
100
AcDbSymbolTableRecord
100
AcDbRegAppTableRecord
  2
PE_URL
 70
     0
  0
ENDTAB
  0
TABLE
  2
DIMSTYLE
  5
A
330
0
100
AcDbSymbolTable
 70
     5
100
AcDbDimStyleTable
  0
DIMSTYLE
105
27
330
A
100
AcDbSymbolTableRecord
100
AcDbDimStyleTableRecord
  2
ISO-25
 70
     0
 41
2.5
 42
0.625
 43
3.75
 44
1.25
 73
     0
 74
     0
 77
     1
 78
     8
140
2.5
141
2.5
143
0.03937007874016
147
0.625
171
     3
172
     1
178
     0
271
     2
272
     2
274
     3
278
    44
283
     0
284
     8
340
11
  0
DIMSTYLE
105
EF
102
{ACAD_REACTORS
330
EE
102
}
330
A
100
AcDbSymbolTableRecord
100
AcDbDimStyleTableRecord
  2
SLDDIMSTYLE0
 70
     0
 41
3.302
 44
0.0
 45
0.000000001
 73
     0
 74
     0
 77
     1
 78
    12
 79
     3
140
3.5
147
0.875
172
     1
173
     1
178
     0
271
     1
272
     1
276
     2
284
    12
289
     0
340
97
  0
DIMSTYLE
105
FD
102
{ACAD_REACTORS
330
FC
102
}
330
A
100
AcDbSymbolTableRecord
100
AcDbDimStyleTableRecord
  2
SLDDIMSTYLE1
 70
     0
 41
3.302
 44
0.0
 45
0.000000001
 73
     0
 74
     0
 77
     1
 78
    12
 79
     3
140
3.5
147
0.875
173
     1
178
     0
271
     2
272
     2
276
     2
284
    12
340
97
  0
DIMSTYLE
105
108
102
{ACAD_REACTORS
330
107
330
122
102
}
330
A
100
AcDbSymbolTableRecord
100
AcDbDimStyleTableRecord
  2
SLDDIMSTYLE2
 70
     0
 41
3.302
 44
0.0
 45
0.000000001
 73
     0
 74
     0
 77
     1
 78
    12
 79
     3
140
3.5
147
0.875
172
     1
173
     1
178
     0
271
     2
272
     2
276
     2
284
    12
289
     0
340
97
  0
DIMSTYLE
105
116
102
{ACAD_REACTORS
330
115
102
}
330
A
100
AcDbSymbolTableRecord
100
AcDbDimStyleTableRecord
  2
SLDDIMSTYLE3
 70
     0
 41
3.302
 44
0.0
 45
0.000000001
 73
     0
 74
     0
 77
     1
 78
     4
 79
     1
140
3.5
147
0.875
172
     1
173
     1
178
     0
271
     2
272
     2
276
     2
284
    12
289
     0
340
97
  0
ENDTAB
  0
TABLE
  2
BLOCK_RECORD
  5
1
330
0
100
AcDbSymbolTable
 70
     8
  0
BLOCK_RECORD
  5
1F
102
{ACAD_XDICTIONARY
360
19C
102
}
330
1
100
AcDbSymbolTableRecord
100
AcDbBlockTableRecord
  2
*Model_Space
340
22
  0
BLOCK_RECORD
  5
1B
330
1
100
AcDbSymbolTableRecord
100
AcDbBlockTableRecord
  2
*Paper_Space
340
1E
  0
BLOCK_RECORD
  5
23
330
1
100
AcDbSymbolTableRecord
100
AcDbBlockTableRecord
  2
*Paper_Space0
340
26
  0
BLOCK_RECORD
  5
82
330
1
100
AcDbSymbolTableRecord
100
AcDbBlockTableRecord
  2
블럭10
340
0
102
{BLKREFS
331
E7
102
}
  0
BLOCK_RECORD
  5
F0
330
1
100
AcDbSymbolTableRecord
100
AcDbBlockTableRecord
  2
_D
340
0
  0
BLOCK_RECORD
  5
FE
330
1
100
AcDbSymbolTableRecord
100
AcDbBlockTableRecord
  2
_D_1
340
0
  0
BLOCK_RECORD
  5
109
330
1
100
AcDbSymbolTableRecord
100
AcDbBlockTableRecord
  2
_D_2
340
0
  0
BLOCK_RECORD
  5
117
330
1
100
AcDbSymbolTableRecord
100
AcDbBlockTableRecord
  2
_D_3
340
0
  0
BLOCK_RECORD
  5
123
330
1
100
AcDbSymbolTableRecord
100
AcDbBlockTableRecord
  2
_D_4
340
0
  0
BLOCK_RECORD
  5
12E
330
1
100
AcDbSymbolTableRecord
100
AcDbBlockTableRecord
  2
SW_DOWELSYMBOL_0
340
0
102
{BLKREFS
331
134
102
}
  0
ENDTAB
  0
ENDSEC
  0
SECTION
  2
BLOCKS
  0
BLOCK
  5
20
330
1F
100
AcDbEntity
  8
0
100
AcDbBlockBegin
  2
*Model_Space
 70
     0
 10
0.0
 20
0.0
 30
0.0
  3
*Model_Space
  1

  0
ENDBLK
  5
21
330
1F
100
AcDbEntity
  8
0
100
AcDbBlockEnd
  0
BLOCK
  5
1C
330
1B
100
AcDbEntity
 67
     1
  8
0
100
AcDbBlockBegin
  2
*Paper_Space
 70
     0
 10
0.0
 20
0.0
 30
0.0
  3
*Paper_Space
  1

  0
ENDBLK
  5
1D
330
1B
100
AcDbEntity
 67
     1
  8
0
100
AcDbBlockEnd
  0
BLOCK
  5
24
330
23
100
AcDbEntity
  8
0
100
AcDbBlockBegin
  2
*Paper_Space0
 70
     0
 10
0.0
 20
0.0
 30
0.0
  3
*Paper_Space0
  1

  0
ENDBLK
  5
25
330
23
100
AcDbEntity
  8
0
100
AcDbBlockEnd
  0
BLOCK
  5
83
330
82
100
AcDbEntity
  8
0
100
AcDbBlockBegin
  2
블럭10
 70
     2
 10
0.0
 20
0.0
 30
0.0
  3
블럭10
  1

  0
ELLIPSE
  5
85
330
82
100
AcDbEntity
  8
중심선
100
AcDbEllipse
 10
20.54032771741204
 20
12.0471743016438
 30
0.0
 11
6.600054785286829
 21
-1.261213355974178E-13
 31
0.0
210
0.0
220
0.0
230
1.0
 40
0.636358354079598
 41
0.9219305317359503
 42
6.513795318482858
  0
ELLIPSE
  5
86
330
82
100
AcDbEntity
  8
중심선
100
AcDbEllipse
 10
20.54032771746488
 20
12.04717430159265
 30
0.0
 11
3.960054785062283
 21
1.540847449632565E-10
 31
0.0
210
0.0
220
0.0
230
1.0
 40
0.3939339440162632
 41
1.131841032648279
 42
5.62031148352944
  0
LINE
  5
87
330
82
100
AcDbEntity
  8
중심선
100
AcDbLine
 10
2.268634060543552
 20
16.24717430164393
 30
0.0
 11
5.714909304380834
 21
16.24717430164393
 31
0.0
  0
LINE
  5
88
330
82
100
AcDbEntity
  8
중심선
100
AcDbLine
 10
5.245725140726316
 20
7.84717430164391
 30
0.0
 11
8.692000384563599
 21
7.84717430164391
 31
0.0
  0
LINE
  5
89
330
82
100
AcDbEntity
  8
중심선
100
AcDbLine
 10
15.74043728645272
 20
16.24717430164393
 30
0.0
 11
8.692000384563599
 21
7.84717430164391
 31
0.0
  0
LINE
  5
8A
330
82
100
AcDbEntity
  8
중심선
100
AcDbLine
 10
0.1404042013395286
 20
13.71084872107135
 30
0.0
 11
3.58671253028996
 21
13.71088815037384
 31
0.0
  0
LINE
  5
8B
330
82
100
AcDbEntity
  8
중심선
100
AcDbLine
 10
2.750260043222114
 20
10.84717430164391
 30
0.0
 11
6.196535287059397
 21
10.84717430164391
 31
0.0
  0
LINE
  5
8C
330
82
100
AcDbEntity
  8
중심선
100
AcDbLine
 10
12.29416204261559
 20
16.24717430164393
 30
0.0
 11
5.245725140726316
 21
7.84717430164391
 31
0.0
  0
LINE
  5
8D
330
82
100
AcDbEntity
  8
중심선
100
AcDbLine
 10
10.72767329541681
 20
16.24717430164393
 30
0.0
 11
6.196535287059397
 21
10.84717430164391
 31
0.0
  0
LINE
  5
8E
330
82
100
AcDbEntity
  8
중심선
100
AcDbLine
 10
7.28139805157953
 20
16.24717430164393
 30
0.0
 11
2.750260043222114
 21
10.84717430164391
 31
0.0
  0
LINE
  5
8F
330
82
100
AcDbEntity
  8
중심선
100
AcDbLine
 10
5.714909304380834
 20
16.24717430164393
 30
0.0
 11
3.58671253028996
 21
13.71088815037384
 31
0.0
  0
LINE
  5
90
330
82
100
AcDbEntity
  8
중심선
100
AcDbLine
 10
2.268634060543552
 20
16.24717430164393
 30
0.0
 11
0.1404042013395286
 21
13.71084872107135
 31
0.0
  0
LINE
  5
91
330
82
100
AcDbEntity
  8
중심선
100
AcDbLine
 10
7.28139805157953
 20
16.24717430164393
 30
0.0
 11
10.72767329541681
 21
16.24717430164393
 31
0.0
  0
LINE
  5
92
330
82
100
AcDbEntity
  8
중심선
100
AcDbLine
 10
12.29416204261559
 20
16.24717430164393
 30
0.0
 11
15.74043728645272
 21
16.24717430164393
 31
0.0
  0
LINE
  5
93
330
82
100
AcDbEntity
  8
중심선
100
AcDbLine
 10
19.22036997980202
 20
11.08717430171403
 30
0.0
 11
23.66174974927406
 21
11.08717430171406
 31
0.0
  0
LINE
  5
94
330
82
100
AcDbEntity
  8
중심선
100
AcDbLine
 10
19.22039502424796
 20
13.00717430171391
 30
0.0
 11
19.22036997980202
 21
11.08717430171403
 31
0.0
  0
LINE
  5
95
330
82
100
AcDbEntity
  8
중심선
100
AcDbLine
 10
19.22039502424796
 20
13.00717430171391
 30
0.0
 11
26.96566020931264
 21
13.00717430171391
 31
0.0
  0
LINE
  5
96
330
82
100
AcDbEntity
  8
중심선
100
AcDbLine
 10
22.22332737316547
 20
13.45928029700563
 30
0.0
 11
24.52862924686651
 21
15.39360700705356
 31
0.0
  0
ATTDEF
  5
98
330
82
100
AcDbEntity
  8
FORMAT
 62
     2
100
AcDbText
 10
-16.11926103943555
 20
2.075366912832191
 30
0.0
 40
4.233333333333333
  1
SEME7301505E [ 4 FLUTE ]
 41
0.75
  7
SLDTEXTSTYLE0
 11
-16.11926103943555
 21
-0.0412997538344756
 31
0.0
100
AcDbAttributeDefinition
  3

  2
AUTOATTR0
 70
     0
 74
     1
  0
ENDBLK
  5
84
330
82
100
AcDbEntity
  8
0
100
AcDbBlockEnd
  0
BLOCK
  5
F1
330
F0
100
AcDbEntity
  8
0
100
AcDbBlockBegin
  2
_D
 70
     0
 10
0.0
 20
0.0
 30
0.0
  3
_D
  1

  0
LINE
  5
F3
330
F0
100
AcDbEntity
  8
치수문자_일반주서
 62
     0
370
    -2
100
AcDbLine
 10
9.820864779650313
 20
-0.7302174782406625
 30
0.0
 11
22.75836477965031
 21
-0.7302174782406148
 31
0.0
  0
LINE
  5
F4
330
F0
100
AcDbEntity
  8
치수문자_일반주서
 62
     0
370
    -2
100
AcDbLine
 10
9.804779903348962
 20
0.7340011856951462
 30
0.0
 11
22.75836477965031
 21
0.7340011856951936
 31
0.0
  0
LINE
  5
F5
330
F0
100
AcDbEntity
  8
치수문자_일반주서
 62
     0
370
    -2
100
AcDbLine
 10
22.75836477965031
 20
0.7340011856951936
 30
0.0
 11
22.75836477965028
 21
16.08800118569519
 31
0.0
  0
LINE
  5
F6
330
F0
100
AcDbEntity
  8
치수문자_일반주서
 62
     0
370
    -2
100
AcDbLine
 10
22.75836477965031
 20
-0.7302174782406148
 30
0.0
 11
22.75836477965031
 21
0.7340011856951936
 31
0.0
  0
LINE
  5
F7
330
F0
100
AcDbEntity
  8
치수문자_일반주서
 62
     0
370
    -2
100
AcDbLine
 10
22.75836477965032
 20
-4.032217478240614
 30
0.0
 11
22.75836477965033
 21
-7.334217478240614
 31
0.0
  0
LINE
  5
F8
330
F0
100
AcDbEntity
  8
치수문자_일반주서
 62
     0
370
    -2
100
AcDbLine
 10
22.7583647796503
 20
4.036001185695193
 30
0.0
 11
22.7583647796503
 21
7.338001185695193
 31
0.0
  0
SOLID
  5
F9
330
F0
100
AcDbEntity
  8
치수문자_일반주서
 62
     0
100
AcDbTrace
 10
23.30869811298366
 20
-4.032217478240613
 30
0.0
 11
22.20803144631699
 21
-4.032217478240616
 31
0.0
 12
22.75836477965031
 22
-0.7302174782406148
 32
0.0
 13
22.75836477965031
 23
-0.7302174782406148
 33
0.0
  0
SOLID
  5
FA
330
F0
100
AcDbEntity
  8
치수문자_일반주서
 62
     0
100
AcDbTrace
 10
22.20803144631697
 20
4.036001185695191
 30
0.0
 11
23.30869811298364
 21
4.036001185695195
 31
0.0
 12
22.75836477965031
 22
0.7340011856951936
 32
0.0
 13
22.75836477965031
 23
0.7340011856951936
 33
0.0
  0
MTEXT
  5
FB
330
F0
100
AcDbEntity
  8
치수문자_일반주서
 62
     0
100
AcDbMText
 10
18.38336477965029
 20
11.71300118569518
 30
0.0
 40
3.5
 41
0.0
 71
     2
 72
     1
  1
\A1;%%c1.5
  7
SLDTEXTSTYLE0
 11
-2.426354591909677E-15
 21
1.0
 31
0.0
 73
     1
 44
1.0
  0
POINT
  5
166
330
F0
100
AcDbEntity
  8
Defpoints
 62
     0
100
AcDbPoint
 10
9.758364779650313
 20
-0.7302174782406627
 30
0.0
  0
POINT
  5
167
330
F0
100
AcDbEntity
  8
Defpoints
 62
     0
100
AcDbPoint
 10
9.742279903348962
 20
0.7340011856951459
 30
0.0
  0
POINT
  5
168
330
F0
100
AcDbEntity
  8
Defpoints
 62
     0
100
AcDbPoint
 10
22.75836477965031
 20
0.7340011856951946
 30
0.0
  0
ENDBLK
  5
F2
330
F0
100
AcDbEntity
  8
0
100
AcDbBlockEnd
  0
BLOCK
  5
FF
330
FE
100
AcDbEntity
  8
0
100
AcDbBlockBegin
  2
_D_1
 70
     0
 10
0.0
 20
0.0
 30
0.0
  3
_D_1
  1

  0
LINE
  5
101
330
FE
100
AcDbEntity
  8
치수문자_일반주서
 62
     0
370
    -2
100
AcDbLine
 10
-40.24163522034969
 20
1.562499999999993
 30
0.0
 11
-40.24163522034969
 21
36.00000000000003
 31
0.0
  0
LINE
  5
102
330
FE
100
AcDbEntity
  8
치수문자_일반주서
 62
     0
370
    -2
100
AcDbLine
 10
9.758364779650313
 20
0.7927174782406613
 30
0.0
 11
9.758364779650314
 21
36.00000000000003
 31
0.0
  0
LINE
  5
103
330
FE
100
AcDbEntity
  8
치수문자_일반주서
 62
     0
370
    -2
100
AcDbLine
 10
-36.93963522034969
 20
36.00000000000003
 30
0.0
 11
6.456364779650315
 21
36.00000000000003
 31
0.0
  0
SOLID
  5
104
330
FE
100
AcDbEntity
  8
치수문자_일반주서
 62
     0
100
AcDbTrace
 10
-36.93963522034969
 20
36.55033333333336
 30
0.0
 11
-36.93963522034969
 21
35.44966666666669
 31
0.0
 12
-40.24163522034969
 22
36.00000000000003
 32
0.0
 13
-40.24163522034969
 23
36.00000000000003
 33
0.0
  0
SOLID
  5
105
330
FE
100
AcDbEntity
  8
치수문자_일반주서
 62
     0
100
AcDbTrace
 10
6.456364779650315
 20
35.44966666666669
 30
0.0
 11
6.456364779650315
 21
36.55033333333336
 31
0.0
 12
9.758364779650314
 22
36.00000000000003
 32
0.0
 13
9.758364779650314
 23
36.00000000000003
 33
0.0
  0
MTEXT
  5
106
330
FE
100
AcDbEntity
  8
치수문자_일반주서
 62
     0
100
AcDbMText
 10
-15.24163522034969
 20
40.37500000000003
 30
0.0
 40
3.5
 41
0.0
 71
     2
 72
     1
  1
\A1;50
  7
SLDTEXTSTYLE0
 73
     1
 44
1.0
  0
POINT
  5
16C
330
FE
100
AcDbEntity
  8
Defpoints
 62
     0
100
AcDbPoint
 10
-40.24163522034969
 20
1.499999999999993
 30
0.0
  0
POINT
  5
16D
330
FE
100
AcDbEntity
  8
Defpoints
 62
     0
100
AcDbPoint
 10
9.758364779650313
 20
0.7302174782406613
 30
0.0
  0
POINT
  5
16E
330
FE
100
AcDbEntity
  8
Defpoints
 62
     0
100
AcDbPoint
 10
9.758364779650313
 20
36.00000000000003
 30
0.0
  0
ENDBLK
  5
100
330
FE
100
AcDbEntity
  8
0
100
AcDbBlockEnd
  0
BLOCK
  5
10A
330
109
100
AcDbEntity
  8
0
100
AcDbBlockBegin
  2
_D_2
 70
     0
 10
0.0
 20
0.0
 30
0.0
  3
_D_2
  1

  0
LINE
  5
10C
330
109
100
AcDbEntity
  8
치수문자_일반주서
 62
     0
370
    -2
100
AcDbLine
 10
-39.80413522034971
 20
2.0
 30
0.0
 11
-53.73427478196959
 21
1.999999999999948
 31
0.0
  0
LINE
  5
10D
330
109
100
AcDbEntity
  8
치수문자_일반주서
 62
     0
370
    -2
100
AcDbLine
 10
-39.80413522034971
 20
-2.000000000000004
 30
0.0
 11
-53.73427478196957
 21
-2.000000000000056
 31
0.0
  0
LINE
  5
10E
330
109
100
AcDbEntity
  8
치수문자_일반주서
 62
     0
370
    -2
100
AcDbLine
 10
-53.73427478196957
 20
-1.302000000000052
 30
0.0
 11
-53.73427478196959
 21
1.301999999999944
 31
0.0
  0
SOLID
  5
10F
330
109
100
AcDbEntity
  8
치수문자_일반주서
 62
     0
100
AcDbTrace
 10
-53.18394144863624
 20
-1.30200000000005
 30
0.0
 11
-54.28460811530291
 21
-1.302000000000054
 31
0.0
 12
-53.73427478196959
 22
1.999999999999948
 32
0.0
 13
-53.73427478196959
 23
1.999999999999948
 33
0.0
  0
SOLID
  5
110
330
109
100
AcDbEntity
  8
치수문자_일반주서
 62
     0
100
AcDbTrace
 10
-54.28460811530292
 20
1.301999999999942
 30
0.0
 11
-53.18394144863625
 21
1.301999999999946
 31
0.0
 12
-53.73427478196957
 22
-2.000000000000056
 32
0.0
 13
-53.73427478196957
 23
-2.000000000000056
 33
0.0
  0
MTEXT
  5
111
330
109
100
AcDbEntity
  8
치수문자_일반주서
 62
     0
100
AcDbMText
 10
-58.10927478196958
 20
-0.7264638992030985
 30
0.0
 40
3.5
 41
0.0
 71
     2
 72
     1
  1
\A1;%%c4
  7
SLDTEXTSTYLE0
 11
-3.552713678800497E-15
 21
1.0
 31
0.0
 73
     1
 44
1.0
  0
POINT
  5
112
330
109
100
AcDbEntity
  8
Defpoints
 62
     0
100
AcDbPoint
 10
-39.74163522034971
 20
2.0
 30
0.0
  0
POINT
  5
113
330
109
100
AcDbEntity
  8
Defpoints
 62
     0
100
AcDbPoint
 10
-39.74163522034971
 20
-2.000000000000004
 30
0.0
  0
POINT
  5
114
330
109
100
AcDbEntity
  8
Defpoints
 62
     0
100
AcDbPoint
 10
-53.73427478196958
 20
-2.000000000000056
 30
0.0
  0
ENDBLK
  5
10B
330
109
100
AcDbEntity
  8
0
100
AcDbBlockEnd
  0
BLOCK
  5
118
330
117
100
AcDbEntity
  8
0
100
AcDbBlockBegin
  2
_D_3
 70
     0
 10
0.0
 20
0.0
 30
0.0
  3
_D_3
  1

  0
LINE
  5
11A
330
117
100
AcDbEntity
  8
치수문자_일반주서
 62
     0
370
    -2
100
AcDbLine
 10
7.458364779650312
 20
0.5981229458249187
 30
0.0
 11
7.458364779650312
 21
18.98053372348392
 31
0.0
  0
LINE
  5
11B
330
117
100
AcDbEntity
  8
치수문자_일반주서
 62
     0
370
    -2
100
AcDbLine
 10
9.753526678868575
 20
0.7980791774493883
 30
0.0
 11
9.753526678868575
 21
18.98053372348392
 31
0.0
  0
LINE
  5
11C
330
117
100
AcDbEntity
  8
치수문자_일반주서
 62
     0
370
    -2
100
AcDbLine
 10
9.753526678868575
 20
18.98053372348392
 30
0.0
 11
25.54502667886858
 21
18.98053372348392
 31
0.0
  0
LINE
  5
11D
330
117
100
AcDbEntity
  8
치수문자_일반주서
 62
     0
370
    -2
100
AcDbLine
 10
7.458364779650312
 20
18.98053372348392
 30
0.0
 11
9.753526678868575
 21
18.98053372348392
 31
0.0
  0
LINE
  5
11E
330
117
100
AcDbEntity
  8
치수문자_일반주서
 62
     0
370
    -2
100
AcDbLine
 10
4.156364779650312
 20
18.98053372348392
 30
0.0
 11
0.8543647796503122
 21
18.98053372348392
 31
0.0
  0
LINE
  5
11F
330
117
100
AcDbEntity
  8
치수문자_일반주서
 62
     0
370
    -2
100
AcDbLine
 10
13.05552667886857
 20
18.98053372348392
 30
0.0
 11
16.35752667886857
 21
18.98053372348392
 31
0.0
  0
SOLID
  5
120
330
117
100
AcDbEntity
  8
치수문자_일반주서
 62
     0
100
AcDbTrace
 10
4.156364779650312
 20
18.43020039015058
 30
0.0
 11
4.156364779650312
 21
19.53086705681725
 31
0.0
 12
7.458364779650312
 22
18.98053372348392
 32
0.0
 13
7.458364779650312
 23
18.98053372348392
 33
0.0
  0
SOLID
  5
121
330
117
100
AcDbEntity
  8
치수문자_일반주서
 62
     0
100
AcDbTrace
 10
13.05552667886857
 20
19.53086705681725
 30
0.0
 11
13.05552667886857
 21
18.43020039015058
 31
0.0
 12
9.753526678868575
 22
18.98053372348392
 32
0.0
 13
9.753526678868575
 23
18.98053372348392
 33
0.0
  0
MTEXT
  5
158
330
117
100
AcDbEntity
  8
치수문자_일반주서
 62
     0
100
AcDbMText
 10
20.95127667886858
 20
23.35553372348392
 30
0.0
 40
3.5
 41
0.0
 71
     2
 72
     1
  1
\A1;2.30
  7
SLDTEXTSTYLE0
 73
     1
 44
1.0
  0
POINT
  5
169
330
117
100
AcDbEntity
  8
Defpoints
 62
     0
100
AcDbPoint
 10
7.458364779650312
 20
0.5356229458249187
 30
0.0
  0
POINT
  5
16A
330
117
100
AcDbEntity
  8
Defpoints
 62
     0
100
AcDbPoint
 10
9.753526678868575
 20
0.7355791774493883
 30
0.0
  0
POINT
  5
16B
330
117
100
AcDbEntity
  8
Defpoints
 62
     0
100
AcDbPoint
 10
9.753526678868575
 20
18.98053372348392
 30
0.0
  0
ENDBLK
  5
119
330
117
100
AcDbEntity
  8
0
100
AcDbBlockEnd
  0
BLOCK
  5
124
330
123
100
AcDbEntity
  8
0
100
AcDbBlockBegin
  2
_D_4
 70
     0
 10
0.0
 20
0.0
 30
0.0
  3
_D_4
  1

  0
LINE
  5
126
330
123
100
AcDbEntity
  8
치수문자_일반주서
 62
     0
370
    -2
100
AcDbLine
 10
9.75836477965031
 20
0.7927174782406613
 30
0.0
 11
9.75836477965031
 21
25.43000700459484
 31
0.0
  0
LINE
  5
127
330
123
100
AcDbEntity
  8
치수문자_일반주서
 62
     0
370
    -2
100
AcDbLine
 10
4.758364779650311
 20
0.7874999999999978
 30
0.0
 11
4.758364779650311
 21
25.43000700459484
 31
0.0
  0
LINE
  5
128
330
123
100
AcDbEntity
  8
치수문자_일반주서
 62
     0
370
    -2
100
AcDbLine
 10
6.456364779650311
 20
25.43000700459484
 30
0.0
 11
8.06036477965031
 21
25.43000700459484
 31
0.0
  0
SOLID
  5
129
330
123
100
AcDbEntity
  8
치수문자_일반주서
 62
     0
100
AcDbTrace
 10
6.456364779650311
 20
24.8796736712615
 30
0.0
 11
6.456364779650311
 21
25.98034033792817
 31
0.0
 12
9.75836477965031
 22
25.43000700459484
 32
0.0
 13
9.75836477965031
 23
25.43000700459484
 33
0.0
  0
SOLID
  5
12A
330
123
100
AcDbEntity
  8
치수문자_일반주서
 62
     0
100
AcDbTrace
 10
8.06036477965031
 20
25.98034033792817
 30
0.0
 11
8.06036477965031
 21
24.8796736712615
 31
0.0
 12
4.758364779650311
 22
25.43000700459484
 32
0.0
 13
4.758364779650311
 23
25.43000700459484
 33
0.0
  0
MTEXT
  5
12B
330
123
100
AcDbEntity
  8
치수문자_일반주서
 62
     0
100
AcDbMText
 10
7.370692593144481
 20
29.80500700459484
 30
0.0
 40
3.5
 41
0.0
 71
     2
 72
     1
  1
\A1;5
  7
SLDTEXTSTYLE0
 73
     1
 44
1.0
  0
POINT
  5
12C
330
123
100
AcDbEntity
  8
Defpoints
 62
     0
100
AcDbPoint
 10
9.75836477965031
 20
0.7302174782406613
 30
0.0
  0
POINT
  5
12D
330
123
100
AcDbEntity
  8
Defpoints
 62
     0
100
AcDbPoint
 10
4.758364779650311
 20
0.7249999999999978
 30
0.0
  0
POINT
  5
16F
330
123
100
AcDbEntity
  8
Defpoints
 62
     0
100
AcDbPoint
 10
4.758364779650311
 20
25.43000700459484
 30
0.0
  0
ENDBLK
  5
125
330
123
100
AcDbEntity
  8
0
100
AcDbBlockEnd
  0
BLOCK
  5
12F
330
12E
100
AcDbEntity
  8
0
100
AcDbBlockBegin
  2
SW_DOWELSYMBOL_0
 70
     0
 10
0.0
 20
0.0
 30
0.0
  3
SW_DOWELSYMBOL_0
  1

  0
CIRCLE
  5
131
330
12E
100
AcDbEntity
  8
해칭선
 62
     0
100
AcDbCircle
 10
0.0
 20
0.0
 30
0.0
 40
3.000000000000003
  0
HATCH
  5
132
330
12E
100
AcDbEntity
  8
0
  6
Continuous
 62
     0
370
    18
100
AcDbHatch
 10
0.0
 20
0.0
 30
0.0
210
0.0
220
0.0
230
1.0
  2
SOLID
 70
     1
 71
     0
 91
        1
 92
        0
 93
        3
 72
     2
 10
-0.0000000000000017
 20
-0.0000000000000035
 40
3.000000000000003
 50
0.0
 51
90.0
 73
     1
 72
     1
 10
-0.0000000000000017
 20
2.999999999999999
 11
-0.0000000000000017
 21
-0.0000000000000036
 72
     1
 10
-0.0000000000000017
 20
-0.0000000000000035
 11
3.000000000000001
 21
-0.0000000000000035
 97
        0
 75
     0
 76
     1
 98
        1
 10
0.0
 20
0.0
  0
HATCH
  5
133
330
12E
100
AcDbEntity
  8
0
  6
Continuous
 62
     0
370
    18
100
AcDbHatch
 10
0.0
 20
0.0
 30
0.0
210
0.0
220
0.0
230
1.0
  2
SOLID
 70
     1
 71
     0
 91
        1
 92
        0
 93
        3
 72
     2
 10
-0.0000000000000017
 20
-0.0000000000000035
 40
3.000000000000003
 50
180.0
 51
270.0000000000007
 73
     1
 72
     1
 10
-0.0000000000000017
 20
-3.000000000000006
 11
-0.0000000000000017
 21
-0.0000000000000036
 72
     1
 10
-0.0000000000000017
 20
-0.0000000000000035
 11
-3.000000000000004
 21
-0.0000000000000035
 97
        0
 75
     0
 76
     1
 98
        1
 10
0.0
 20
0.0
  0
ENDBLK
  5
130
330
12E
100
AcDbEntity
  8
0
100
AcDbBlockEnd
  0
ENDSEC
  0
SECTION
  2
ENTITIES
  0
LINE
  5
99
330
1F
100
AcDbEntity
  8
0
  6
Continuous
 62
     4
370
    25
100
AcDbLine
 10
-0.0000000000000013
 20
2.000000000000002
 30
0.0
 11
-39.74163522034969
 21
1.99999999999999
 31
0.0
  0
LINE
  5
9A
330
1F
100
AcDbEntity
  8
0
  6
Continuous
 62
     4
370
    25
100
AcDbLine
 10
-39.74163522034969
 20
-2.000000000000004
 30
0.0
 11
0.0
 21
-1.999999999999992
 31
0.0
  0
LINE
  5
9B
330
1F
100
AcDbEntity
  8
0
  6
Continuous
 62
     4
370
    25
100
AcDbLine
 10
-39.74163522034969
 20
1.999999999999993
 30
0.0
 11
-40.24163522034969
 21
1.499999999999992
 31
0.0
  0
LINE
  5
9C
330
1F
100
AcDbEntity
  8
0
  6
Continuous
 62
     4
370
    25
100
AcDbLine
 10
-40.24163522034969
 20
-1.500000000000009
 30
0.0
 11
-39.74163522034969
 21
-2.000000000000008
 31
0.0
  0
LINE
  5
9D
330
1F
100
AcDbEntity
  8
0
  6
Continuous
 62
     4
370
    25
100
AcDbLine
 10
0.0
 20
-1.999999999999992
 30
0.0
 11
4.758364779650313
 21
-0.7249999999999845
 31
0.0
  0
LINE
  5
9E
330
1F
100
AcDbEntity
  8
0
  6
Continuous
 62
     4
370
    25
100
AcDbLine
 10
4.758364779650311
 20
0.7249999999999978
 30
0.0
 11
-0.0000000000000013
 21
2.000000000000002
 31
0.0
  0
LINE
  5
9F
330
1F
100
AcDbEntity
  8
0
  6
Continuous
 62
     4
370
    25
100
AcDbLine
 10
6.859191862684751
 20
0.7249999999999983
 30
0.0
 11
4.758364779650311
 21
0.7249999999999976
 31
0.0
  0
LINE
  5
A0
330
1F
100
AcDbEntity
  8
0
  6
Continuous
 62
     4
370
    25
100
AcDbLine
 10
4.758364779650311
 20
-0.7249999999999845
 30
0.0
 11
6.859191862684748
 21
-0.7249999999999839
 31
0.0
  0
LINE
  5
A2
330
1F
100
AcDbEntity
  8
0
  6
Continuous
 62
     1
370
    25
100
AcDbLine
 10
9.641049724114424
 20
-0.0786548660020145
 30
0.0
 11
9.627034962198383
 21
-0.0679550616929529
 31
0.0
1001
PE_URL
1000

  0
SPLINE
  5
A3
330
1F
100
AcDbEntity
  8
0
  6
Continuous
 62
     1
370
    25
100
AcDbSpline
210
0.0
220
0.0
230
1.0
 70
     8
 71
     3
 72
     9
 73
     5
 74
     0
 42
0.000000001
 43
0.00000001
 40
0.0
 40
0.0
 40
0.0
 40
0.0
 40
0.4485799095546385
 40
1.0
 40
1.0
 40
1.0
 40
1.0
 10
9.732873958491481
 20
-0.147394190790809
 30
0.0
 10
9.719224185247036
 20
-0.1375302674260178
 30
0.0
 10
9.68879532975505
 20
-0.1155410450941833
 30
0.0
 10
9.658019909264706
 20
-0.0917652932399064
 30
0.0
 10
9.641049724114424
 20
-0.0786548660020145
 30
0.0
1001
PE_URL
1000

  0
LINE
  5
A4
330
1F
100
AcDbEntity
  8
0
  6
Continuous
 62
     1
370
    25
100
AcDbLine
 10
7.994287344810839
 20
0.7499999999999987
 30
0.0
 11
7.97253180502654
 21
0.7499999999999987
 31
0.0
  0
LINE
  5
A5
330
1F
100
AcDbEntity
  8
0
  6
Continuous
 62
     1
370
    25
100
AcDbLine
 10
9.535567127186027
 20
-0.7500000000000018
 30
0.0
 11
9.557932048488563
 21
-0.7500000000000018
 31
0.0
1001
PE_URL
1000

  0
LINE
  5
A6
330
1F
100
AcDbEntity
  8
0
  6
Continuous
 62
     1
370
    25
100
AcDbLine
 10
7.972531805026533
 20
-0.7500000000000018
 30
0.0
 11
7.994585517306543
 21
-0.7500000000000018
 31
0.0
  0
LINE
  5
A7
330
1F
100
AcDbEntity
  8
0
  6
Continuous
 62
     1
370
    25
100
AcDbLine
 10
9.557932048488052
 20
0.7499999999999987
 30
0.0
 11
9.5354883755832
 21
0.7464211127692933
 31
0.0
1001
PE_URL
1000

  0
LINE
  5
A8
330
1F
100
AcDbEntity
  8
0
  6
Continuous
 62
     4
370
    25
100
AcDbLine
 10
0.0
 20
1.999999999999992
 30
0.0
 11
0.0
 21
-1.999999999999992
 31
0.0
  0
LINE
  5
A9
330
1F
100
AcDbEntity
  8
0
  6
Continuous
 62
     4
370
    25
100
AcDbLine
 10
-39.74163522034969
 20
1.999999999999993
 30
0.0
 11
-39.74163522034969
 21
-2.000000000000007
 31
0.0
  0
LINE
  5
AA
330
1F
100
AcDbEntity
  8
0
  6
Continuous
 62
     4
370
    25
100
AcDbLine
 10
-40.24163522034969
 20
1.499999999999993
 30
0.0
 11
-40.24163522034969
 21
-1.500000000000009
 31
0.0
  0
LINE
  5
AB
330
1F
100
AcDbEntity
  8
0
  6
Continuous
 62
     4
370
    25
100
AcDbLine
 10
4.758364779650311
 20
0.7249999999999978
 30
0.0
 11
4.758364779650311
 21
-0.7249999999999848
 31
0.0
  0
SPLINE
  5
AC
330
1F
100
AcDbEntity
  8
0
  6
Continuous
 62
     4
370
    25
100
AcDbSpline
210
0.0
220
0.0
230
1.0
 70
     8
 71
     3
 72
     8
 73
     4
 74
     0
 42
0.000000001
 43
0.00000001
 40
0.0
 40
0.0
 40
0.0
 40
0.0
 40
1.0
 40
1.0
 40
1.0
 40
1.0
 10
6.740032976555431
 20
0.0864238264632849
 30
0.0
 10
6.686067348262767
 20
0.1253833905035378
 30
0.0
 10
6.658237296882236
 20
0.1911539885829044
 30
0.0
 10
6.658237296882644
 20
0.2534984516987806
 30
0.0
  0
SPLINE
  5
AD
330
1F
100
AcDbEntity
  8
0
  6
Continuous
 62
     4
370
    25
100
AcDbSpline
210
0.0
220
0.0
230
1.0
 70
     8
 71
     3
 72
    12
 73
     8
 74
     0
 42
0.000000001
 43
0.00000001
 40
0.0
 40
0.0
 40
0.0
 40
0.0
 40
0.2499999999999999
 40
0.2499999999999999
 40
0.4999999999999998
 40
0.4999999999999998
 40
1.0
 40
1.0
 40
1.0
 40
1.0
 10
6.658237296882644
 20
0.5037534612331364
 30
0.0
 10
6.658237296882644
 20
0.5303143281122485
 30
0.0
 10
6.665856963147865
 20
0.5547032646332031
 30
0.0
 10
6.699714820236247
 20
0.5939773270075168
 30
0.0
 10
6.726057882957718
 20
0.6090395870293469
 30
0.0
 10
6.822350839327834
 20
0.6375384631672528
 30
0.0
 10
6.906470904009522
 20
0.6357012790747042
 30
0.0
 10
6.966412448055271
 20
0.6123794920575716
 30
0.0
  0
SPLINE
  5
AE
330
1F
100
AcDbEntity
  8
0
  6
Continuous
 62
     4
370
    25
100
AcDbSpline
210
0.0
220
0.0
230
1.0
 70
    24
 71
     3
 72
    14
 73
    10
 74
     0
 42
0.000000001
 43
0.00000001
 40
0.0
 40
0.0
 40
0.0
 40
0.0
 40
0.2499999999999998
 40
0.2499999999999998
 40
0.4999999999999999
 40
0.4999999999999999
 40
0.75
 40
0.75
 40
1.0
 40
1.0
 40
1.0
 40
1.0
 10
7.458364779650312
 20
0.3549512845390998
 30
0.0
 10
7.458364779650312
 20
0.3241797386729349
 30
0.0
 10
7.458364779650312
 20
0.2886129473367038
 30
0.0
 10
7.458364779650312
 20
0.1917707802908209
 30
0.0
 10
7.458364779650312
 20
0.1315734961329133
 30
0.0
 10
7.458364779650312
 20
-0.0112377229240403
 30
0.0
 10
7.458364779650312
 20
-0.0941833369564283
 30
0.0
 10
7.458364779650312
 20
-0.2612178677220531
 30
0.0
 10
7.458364779650312
 20
-0.3442798841136304
 30
0.0
 10
7.458364779650312
 20
-0.4098772335009108
 30
0.0
  0
SPLINE
  5
AF
330
1F
100
AcDbEntity
  8
0
  6
Continuous
 62
     4
370
    25
100
AcDbSpline
210
0.0
220
0.0
230
1.0
 70
     8
 71
     3
 72
    10
 73
     6
 74
     0
 42
0.000000001
 43
0.00000001
 40
0.0
 40
0.0
 40
0.0
 40
0.0
 40
0.5
 40
0.5
 40
1.0
 40
1.0
 40
1.0
 40
1.0
 10
7.458364779650312
 20
-0.409877233500911
 30
0.0
 10
7.339689325504363
 20
-0.3382893451029406
 30
0.0
 10
7.215947954865243
 20
-0.2566497738945527
 30
0.0
 10
6.98159691079284
 20
-0.0887790152760553
 30
0.0
 10
6.859735012918208
 20
0.0000069848741638
 30
0.0
 10
6.740032976555895
 20
0.0864238264629477
 30
0.0
  0
SPLINE
  5
B0
330
1F
100
AcDbEntity
  8
0
  6
Continuous
 62
     4
370
    25
100
AcDbSpline
210
0.0
220
0.0
230
1.0
 70
     8
 71
     3
 72
    10
 73
     6
 74
     0
 42
0.000000001
 43
0.00000001
 40
0.0
 40
0.0
 40
0.0
 40
0.0
 40
0.4999999999999999
 40
0.4999999999999999
 40
1.0
 40
1.0
 40
1.0
 40
1.0
 10
7.458364779650312
 20
0.3549512845324602
 30
0.0
 10
7.376846210111358
 20
0.406933214672208
 30
0.0
 10
7.292925266634851
 20
0.4557621683720128
 30
0.0
 10
7.12787312887037
 20
0.5425848328903794
 30
0.0
 10
7.048684077717725
 20
0.5803696155172628
 30
0.0
 10
6.966412448055271
 20
0.6123794920575738
 30
0.0
  0
SPLINE
  5
B1
330
1F
100
AcDbEntity
  8
0
  6
Continuous
 62
     4
370
    25
100
AcDbSpline
210
0.0
220
0.0
230
1.0
 70
     8
 71
     3
 72
     8
 73
     4
 74
     0
 42
0.000000001
 43
0.00000001
 40
0.0
 40
0.0
 40
0.0
 40
0.0
 40
1.0
 40
1.0
 40
1.0
 40
1.0
 10
6.740032976555421
 20
-0.7198304815854508
 30
0.0
 10
6.686067348262753
 20
-0.7151529433485532
 30
0.0
 10
6.658237296882236
 20
-0.7025050646691471
 30
0.0
 10
6.658237296882644
 20
-0.6792374658293687
 30
0.0
  0
SPLINE
  5
B2
330
1F
100
AcDbEntity
  8
0
  6
Continuous
 62
     4
370
    25
100
AcDbSpline
210
0.0
220
0.0
230
1.0
 70
     8
 71
     3
 72
     9
 73
     5
 74
     0
 42
0.000000001
 43
0.00000001
 40
0.0
 40
0.0
 40
0.0
 40
0.0
 40
0.5270628268450592
 40
1.0
 40
1.0
 40
1.0
 40
1.0
 10
7.409690949517211
 20
-0.6116958243384643
 30
0.0
 10
7.292033573517932
 20
-0.6525945659433492
 30
0.0
 10
7.068801408382008
 20
-0.7301920353943826
 30
0.0
 10
6.845595396735288
 20
-0.7231574150468156
 30
0.0
 10
6.740032976555895
 20
-0.7198304815854191
 30
0.0
  0
LINE
  5
B3
330
1F
100
AcDbEntity
  8
0
  6
Continuous
 62
     4
370
    25
100
AcDbLine
 10
7.409690949517222
 20
0.6116958243384625
 30
0.0
 11
7.458364779650312
 21
0.6321665805851783
 31
0.0
  0
SPLINE
  5
B4
330
1F
100
AcDbEntity
  8
0
  6
Continuous
 62
     4
370
    25
100
AcDbSpline
210
0.0
220
0.0
230
1.0
 70
     8
 71
     3
 72
     9
 73
     5
 74
     0
 42
0.000000001
 43
0.00000001
 40
0.0
 40
0.0
 40
0.0
 40
0.0
 40
0.6703045792350346
 40
1.0
 40
1.0
 40
1.0
 40
1.0
 10
7.458364779650312
 20
0.5980181046236213
 30
0.0
 10
7.324481710708962
 20
0.6469803181997158
 30
0.0
 10
7.12474703323721
 20
0.7200250430798162
 30
0.0
 10
6.92503575619928
 20
0.717346502052346
 30
0.0
 10
6.859191862684751
 20
0.716463399341258
 30
0.0
  0
LINE
  5
B5
330
1F
100
AcDbEntity
  8
0
  6
Continuous
 62
     4
370
    25
100
AcDbLine
 10
7.458364779650312
 20
0.5980181046236214
 30
0.0
 11
7.458364779650312
 21
0.3852296905808956
 31
0.0
  0
LINE
  5
B6
330
1F
100
AcDbEntity
  8
0
  6
Continuous
 62
     4
370
    25
100
AcDbLine
 10
6.658237296882644
 20
0.5037534612331362
 30
0.0
 11
6.658237296882644
 21
0.2534984516987791
 31
0.0
  0
LINE
  5
B7
330
1F
100
AcDbEntity
  8
0
  6
Continuous
 62
     4
370
    25
100
AcDbLine
 10
7.458364779650312
 20
-0.409877233500911
 30
0.0
 11
7.458364779650312
 21
-0.6321665805852307
 31
0.0
  0
SPLINE
  5
B8
330
1F
100
AcDbEntity
  8
0
  6
Continuous
 62
     4
370
    25
100
AcDbSpline
210
0.0
220
0.0
230
1.0
 70
     8
 71
     3
 72
    10
 73
     6
 74
     0
 42
0.000000001
 43
0.00000001
 40
0.0
 40
0.0
 40
0.0
 40
0.0
 40
0.5
 40
0.5
 40
1.0
 40
1.0
 40
1.0
 40
1.0
 10
7.458364779650312
 20
-0.6321665805851833
 30
0.0
 10
7.376846210111358
 20
-0.6029795696892574
 30
0.0
 10
7.292925266634851
 20
-0.5669999918253129
 30
0.0
 10
7.12787312887037
 20
-0.4845718150763434
 30
0.0
 10
7.048684077717725
 20
-0.4386022096060853
 30
0.0
 10
6.966412448055271
 20
-0.3880932332665868
 30
0.0
  0
SPLINE
  5
B9
330
1F
100
AcDbEntity
  8
0
  6
Continuous
 62
     4
370
    25
100
AcDbSpline
210
0.0
220
0.0
230
1.0
 70
     8
 71
     3
 72
    12
 73
     8
 74
     0
 42
0.000000001
 43
0.00000001
 40
0.0
 40
0.0
 40
0.0
 40
0.0
 40
0.2500000000000001
 40
0.2500000000000001
 40
0.5000000000000001
 40
0.5000000000000001
 40
1.0
 40
1.0
 40
1.0
 40
1.0
 10
6.658237296882644
 20
-0.5213995112153625
 30
0.0
 10
6.658237296882644
 20
-0.495737560377479
 30
0.0
 10
6.665856963147869
 20
-0.4679366271199761
 30
0.0
 10
6.699714820236251
 20
-0.4169548342400646
 30
0.0
 10
6.726057882957722
 20
-0.3937352000006889
 30
0.0
 10
6.822350839327838
 20
-0.34712564459599
 30
0.0
 10
6.906470904009526
 20
-0.3512933541055448
 30
0.0
 10
6.966412448055271
 20
-0.3880932332665809
 30
0.0
  0
LINE
  5
BA
330
1F
100
AcDbEntity
  8
0
  6
Continuous
 62
     4
370
    25
100
AcDbLine
 10
6.658237296882644
 20
-0.5213995112153624
 30
0.0
 11
6.658237296882644
 21
-0.6792374658293735
 31
0.0
  0
SPLINE
  5
BB
330
1F
100
AcDbEntity
  8
0
  6
Continuous
 62
     1
370
    25
100
AcDbSpline
210
0.0
220
0.0
230
1.0
 70
     8
 71
     3
 72
    10
 73
     6
 74
     0
 42
0.000000001
 43
0.00000001
 40
0.0
 40
0.0
 40
0.0
 40
0.0
 40
0.206362713831032
 40
0.7699919167691391
 40
1.0
 40
1.0
 40
1.0
 40
1.0
 10
8.720805096165241
 20
0.557160917056529
 30
0.0
 10
8.76117195881683
 20
0.5531876793727443
 30
0.0
 10
8.911791018675203
 20
0.5383625162261598
 30
0.0
 10
9.107715243961684
 20
0.481682296185972
 30
0.0
 10
9.262618473814593
 20
0.4213714001634308
 30
0.0
 10
9.30751177155357
 20
0.4038923907546829
 30
0.0
1001
PE_URL
1000

  0
SPLINE
  5
BC
330
1F
100
AcDbEntity
  8
0
  6
Continuous
 62
     1
370
    25
100
AcDbSpline
210
0.0
220
0.0
230
1.0
 70
     8
 71
     3
 72
     8
 73
     4
 74
     0
 42
0.000000001
 43
0.00000001
 40
0.0
 40
0.0
 40
0.0
 40
0.0
 40
1.0
 40
1.0
 40
1.0
 40
1.0
 10
9.10479016352593
 20
0.3826378729928627
 30
0.0
 10
9.17145220352175
 20
0.3767972117909701
 30
0.0
 10
9.24085682795341
 20
0.3833193383235239
 30
0.0
 10
9.307511771553253
 20
0.4038923907549045
 30
0.0
1001
PE_URL
1000

  0
SPLINE
  5
BD
330
1F
100
AcDbEntity
  8
0
  6
Continuous
 62
     1
370
    25
100
AcDbSpline
210
0.0
220
0.0
230
1.0
 70
    24
 71
     3
 72
    12
 73
     8
 74
     0
 42
0.000000001
 43
0.00000001
 40
0.0
 40
0.0
 40
0.0
 40
0.0
 40
0.25
 40
0.25
 40
0.5
 40
0.5
 40
0.9699556833352001
 40
0.9699556833352001
 40
0.9699556833352001
 40
0.9699556833352001
 10
9.104790163526115
 20
0.3826378729926775
 30
0.0
 10
9.152122396249633
 20
0.3494954868393751
 30
0.0
 10
9.204544712656132
 20
0.3127889857207771
 30
0.0
 10
9.31183631516614
 20
0.2376625968566679
 30
0.0
 10
9.36659101772476
 20
0.1993229413738155
 30
0.0
 10
9.525887735139616
 20
0.0877821790278706
 30
0.0
 10
9.63225257303468
 20
0.0133047177326123
 30
0.0
 10
9.738076226970675
 20
-0.0607938024743481
 30
0.0
1001
PE_URL
1000

  0
SPLINE
  5
C0
330
1F
100
AcDbEntity
  8
0
  6
Continuous
 62
     1
370
    25
100
AcDbSpline
210
0.0
220
0.0
230
1.0
 70
     8
 71
     3
 72
    22
 73
    18
 74
     0
 42
0.000000001
 43
0.00000001
 40
0.010809923025196
 40
0.010809923025196
 40
0.010809923025196
 40
0.010809923025196
 40
0.0755265049718469
 40
0.1512469428926378
 40
0.2350195222605231
 40
0.3259481399482886
 40
0.391499750729517
 40
0.4542337350859517
 40
0.5212337757603421
 40
0.5870255948254856
 40
0.6527111787897084
 40
0.7183856640011649
 40
0.7826641743631623
 40
0.843108095493099
 40
0.932701651659639
 40
0.9913551636778124
 40
1.0
 40
1.0
 40
1.0
 40
1.0
 10
9.734555285845596
 20
-0.1321443587240826
 30
0.0
 10
9.696694548341574
 20
-0.103761053622656
 30
0.0
 10
9.614504734165475
 20
-0.0421510541256159
 30
0.0
 10
9.482541519576886
 20
0.0566297223148596
 30
0.0
 10
9.335912271914632
 20
0.1666800815023857
 30
0.0
 10
9.19531553965848
 20
0.2688758116921064
 30
0.0
 10
9.06674300614041
 20
0.3566394850608879
 30
0.0
 10
8.951366154385854
 20
0.4293037935200369
 30
0.0
 10
8.837575516596225
 20
0.4983010406512322
 30
0.0
 10
8.721130896432697
 20
0.5604501413960071
 30
0.0
 10
8.605372707691473
 20
0.6145736901945844
 30
0.0
 10
8.490038574126645
 20
0.6598878605355307
 30
0.0
 10
8.379307653653989
 20
0.6963322198638471
 30
0.0
 10
8.253517101628871
 20
0.7271437335032843
 30
0.0
 10
8.130774131142879
 20
0.7443363758125252
 30
0.0
 10
8.038673725682077
 20
0.7509208081105971
 30
0.0
 10
7.999339977239554
 20
0.7496533563151552
 30
0.0
 10
7.994287344810836
 20
0.7494905452865331
 30
0.0
  0
SPLINE
  5
C3
330
1F
100
AcDbEntity
  8
0
  6
Continuous
 62
     1
370
    25
100
AcDbSpline
210
0.0
220
0.0
230
1.0
 70
     8
 71
     3
 72
    20
 73
    16
 74
     0
 42
0.000000001
 43
0.00000001
 40
0.0
 40
0.0
 40
0.0
 40
0.0
 40
0.1250000000000002
 40
0.1250000000000002
 40
0.2500000000000006
 40
0.2500000000000006
 40
0.3750000000000009
 40
0.3750000000000009
 40
0.5000000000000012
 40
0.5000000000000012
 40
0.6250000000000011
 40
0.6250000000000011
 40
0.7500000000000009
 40
0.7500000000000009
 40
1.0
 40
1.0
 40
1.0
 40
1.0
 10
7.458364779648514
 20
0.5022159225415751
 30
0.0
 10
7.53499791405458
 20
0.4810555320111391
 30
0.0
 10
7.610056736574345
 20
0.4555721955931997
 30
0.0
 10
7.765761011394495
 20
0.3962371767229169
 30
0.0
 10
7.844423212648
 20
0.3625629180436964
 30
0.0
 10
7.997085651472002
 20
0.2900309038748861
 30
0.0
 10
8.072640306267921
 20
0.2509798305173275
 30
0.0
 10
8.228539514035981
 20
0.1682364100123159
 30
0.0
 10
8.307077618370112
 20
0.1248433462890715
 30
0.0
 10
8.459080843242123
 20
0.0375510911488958
 30
0.0
 10
8.535270567991613
 20
-0.0068588055610868
 30
0.0
 10
8.691305256298941
 20
-0.0954580914934504
 30
0.0
 10
8.76968880883438
 20
-0.1393474560063395
 30
0.0
 10
8.996622972929494
 20
-0.2646241016966977
 30
0.0
 10
9.156989800747564
 20
-0.3429330269266078
 30
0.0
 10
9.307511771553362
 20
-0.4050023617581614
 30
0.0
  0
LINE
  5
C4
330
1F
100
AcDbEntity
  8
0
  6
Continuous
 62
     4
370
    25
100
AcDbLine
 10
7.458364779650312
 20
0.651812217973655
 30
0.0
 11
7.458364779650312
 21
0.632166580585178
 31
0.0
  0
SPLINE
  5
C6
330
1F
100
AcDbEntity
  8
0
  6
Continuous
 62
     1
370
    25
100
AcDbSpline
210
0.0
220
0.0
230
1.0
 70
     8
 71
     3
 72
    14
 73
    10
 74
     0
 42
0.000000001
 43
0.00000001
 40
0.0
 40
0.0
 40
0.0
 40
0.0
 40
0.1537197155620549
 40
0.3071790858431122
 40
0.4615148357900392
 40
0.6158184248389095
 40
0.7766458307226879
 40
0.9375890012389778
 40
1.0
 40
1.0
 40
1.0
 40
1.0
 10
7.45836477964875
 20
0.3709997742915751
 30
0.0
 10
7.564789853253052
 20
0.2975606272680479
 30
0.0
 10
7.777459755100198
 20
0.1508067124217887
 30
0.0
 10
8.096463797796716
 20
-0.0960193427497472
 30
0.0
 10
8.416904463666206
 20
-0.3289371093128278
 30
0.0
 10
8.742320535393034
 20
-0.5336864894265261
 30
0.0
 10
9.071648383534002
 20
-0.6793007897828705
 30
0.0
 10
9.337396135090898
 20
-0.7517248593296577
 30
0.0
 10
9.492286661525982
 20
-0.7425043631632724
 30
0.0
 10
9.535567127186027
 20
-0.7399279152882307
 30
0.0
  0
LINE
  5
C7
330
1F
100
AcDbEntity
  8
0
  6
Continuous
 62
     4
370
    25
100
AcDbLine
 10
7.458364779650312
 20
0.3709997742933685
 30
0.0
 11
7.458364779650312
 21
0.3852296905808956
 31
0.0
  0
SPLINE
  5
C8
330
1F
100
AcDbEntity
  8
0
  6
Continuous
 62
     1
370
    25
100
AcDbSpline
210
0.0
220
0.0
230
1.0
 70
     8
 71
     3
 72
    23
 73
    19
 74
     0
 42
0.000000001
 43
0.00000001
 40
0.0
 40
0.0
 40
0.0
 40
0.0
 40
0.0425044819823427
 40
0.1253498543725868
 40
0.1877064684899544
 40
0.2498334773536235
 40
0.375282660844347
 40
0.4330447512824919
 40
0.5003044676199809
 40
0.5628079035968648
 40
0.6248602503220501
 40
0.6878331812856164
 40
0.7505963261463423
 40
0.7664149331935244
 40
0.8833315151129243
 40
0.9421120459102803
 40
0.97111144567851
 40
1.0
 40
1.0
 40
1.0
 40
1.0
 10
9.753526678410992
 20
-0.7355791775177599
 30
0.0
 10
9.721070484648521
 20
-0.7396540853952344
 30
0.0
 10
9.625354010246955
 20
-0.7516713853410454
 30
0.0
 10
9.481151685397375
 20
-0.7511497876512138
 30
0.0
 10
9.322754013140138
 20
-0.7317911452516506
 30
0.0
 10
9.132267924656134
 20
-0.6876127067587867
 30
0.0
 10
8.943215263402152
 20
-0.6166207710310536
 30
0.0
 10
8.752432598938338
 20
-0.5188843166169205
 30
0.0
 10
8.608558625394195
 20
-0.4356636251348561
 30
0.0
 10
8.461520111571888
 20
-0.3410843241504246
 30
0.0
 10
8.319018399022747
 20
-0.2399806238224265
 30
0.0
 10
8.174737926111016
 20
-0.135712332887231
 30
0.0
 10
8.066165105966192
 20
-0.0547255091863342
 30
0.0
 10
7.917206429761494
 20
0.0586182823260948
 30
0.0
 10
7.77034267818888
 20
0.169160066389821
 30
0.0
 10
7.613364937863619
 20
0.2800946013419839
 30
0.0
 10
7.524386358701323
 20
0.3414268193126523
 30
0.0
 10
7.480343861405569
 20
0.3706473811878741
 30
0.0
 10
7.458364779650312
 20
0.3852296859576797
 30
0.0
  0
SPLINE
  5
C9
330
1F
100
AcDbEntity
  8
0
  6
Continuous
 62
     1
370
    25
100
AcDbSpline
210
0.0
220
0.0
230
1.0
 70
     8
 71
     3
 72
    12
 73
     8
 74
     0
 42
0.000000001
 43
0.00000001
 40
0.0
 40
0.0
 40
0.0
 40
0.0
 40
0.25
 40
0.25
 40
0.5
 40
0.5
 40
1.0
 40
1.0
 40
1.0
 40
1.0
 10
9.104790163526118
 20
-0.545391579246641
 30
0.0
 10
9.152122396249633
 20
-0.581467691966065
 30
0.0
 10
9.204544712656132
 20
-0.6090765868765073
 30
0.0
 10
9.31183631516614
 20
-0.6502240005061007
 30
0.0
 10
9.36659101772476
 20
-0.6640669220979246
 30
0.0
 10
9.532535312389793
 20
-0.6953973241063724
 30
0.0
 10
9.645862142755368
 20
-0.7005918982597218
 30
0.0
 10
9.758364779650313
 20
-0.6915456526457314
 30
0.0
1001
PE_URL
1000

  0
LINE
  5
CA
330
1F
100
AcDbEntity
  8
0
  6
Continuous
 62
     1
370
    25
100
AcDbLine
 10
9.758364779650313
 20
-0.7302174782406624
 30
0.0
 11
9.758364779650313
 21
-0.6915456526457312
 31
0.0
1001
PE_URL
1000

  0
SPLINE
  5
CB
330
1F
100
AcDbEntity
  8
0
  6
Continuous
 62
     1
370
    25
100
AcDbSpline
210
0.0
220
0.0
230
1.0
 70
     8
 71
     3
 72
     8
 73
     4
 74
     0
 42
0.000000001
 43
0.00000001
 40
0.0
 40
0.0
 40
0.0
 40
0.0
 40
0.0000084490423052
 40
0.0000084490423052
 40
0.0000084490423052
 40
0.0000084490423052
 10
9.753526678410992
 20
-0.7355791775177574
 30
0.0
 10
9.75513267608897
 20
-0.7337832838615913
 30
0.0
 10
9.756745376363737
 20
-0.7319959865583153
 30
0.0
 10
9.758364779650313
 20
-0.7302174782406627
 30
0.0
1001
PE_URL
1000

  0
LINE
  5
CC
330
1F
100
AcDbEntity
  8
0
  6
Continuous
 62
     4
370
    25
100
AcDbLine
 10
7.458364779650312
 20
0.5022159225407153
 30
0.0
 11
7.458364779650312
 21
0.4002396905808956
 31
0.0
  0
SPLINE
  5
CD
330
1F
100
AcDbEntity
  8
0
  6
Continuous
 62
     1
370
    25
100
AcDbSpline
210
0.0
220
0.0
230
1.0
 70
     8
 71
     3
 72
     8
 73
     4
 74
     0
 42
0.000000001
 43
0.00000001
 40
0.0
 40
0.0
 40
0.0
 40
0.0
 40
1.0
 40
1.0
 40
1.0
 40
1.0
 10
9.10479016352593
 20
-0.5453915792463646
 30
0.0
 10
9.17145220352175
 20
-0.4969643781548686
 30
0.0
 10
9.24085682795341
 20
-0.448767066870263
 30
0.0
 10
9.307511771553253
 20
-0.4050023617570371
 30
0.0
1001
PE_URL
1000

  0
SPLINE
  5
CE
330
1F
100
AcDbEntity
  8
0
  6
Continuous
 62
     1
370
    25
100
AcDbSpline
210
0.0
220
0.0
230
1.0
 70
     8
 71
     3
 72
    12
 73
     8
 74
     0
 42
0.000000001
 43
0.00000001
 40
0.0
 40
0.0
 40
0.0
 40
0.0
 40
0.3452548242187431
 40
0.5170165670795346
 40
0.6887699799399697
 40
0.8605323925213336
 40
0.9999999999999999
 40
0.9999999999999999
 40
0.9999999999999999
 40
0.9999999999999999
 10
7.45836477964875
 20
-0.273742841887743
 30
0.0
 10
7.612963318207035
 20
-0.3460299593779819
 30
0.0
 10
7.844473495832459
 20
-0.4542793876472293
 30
0.0
 10
8.151302324542455
 20
-0.5371174265264417
 30
0.0
 10
8.38195945335549
 20
-0.5706174510926483
 30
0.0
 10
8.597168133272788
 20
-0.5764745585663456
 30
0.0
 10
8.736298072713382
 20
-0.5569288741239948
 30
0.0
 10
8.798644628417389
 20
-0.5481701115689502
 30
0.0
  0
SPLINE
  5
CF
330
1F
100
AcDbEntity
  8
0
  6
Continuous
 62
     4
370
    25
100
AcDbSpline
210
0.0
220
0.0
230
1.0
 70
    24
 71
     3
 72
    14
 73
    10
 74
     0
 42
0.000000001
 43
0.00000001
 40
0.0
 40
0.0
 40
0.0
 40
0.0
 40
0.2499999999999999
 40
0.2499999999999999
 40
0.4999999999999998
 40
0.4999999999999998
 40
0.7499999999999999
 40
0.7499999999999999
 40
1.0
 40
1.0
 40
1.0
 40
1.0
 10
7.458364779650312
 20
0.3709997743045037
 30
0.0
 10
7.458364779650312
 20
0.3439581850734045
 30
0.0
 10
7.458364779650312
 20
0.3164326314306852
 30
0.0
 10
7.458364779650312
 20
0.2411827928072786
 30
0.0
 10
7.458364779650312
 20
0.1950373359346708
 30
0.0
 10
7.458364779650312
 20
0.0836044369616972
 30
0.0
 10
7.458364779650312
 20
0.0180337846268144
 30
0.0
 10
7.458364779650312
 20
-0.1247835091506904
 30
0.0
 10
7.458364779650312
 20
-0.2019067110586179
 30
0.0
 10
7.458364779650312
 20
-0.2737428418885293
 30
0.0
  0
SPLINE
  5
D0
330
1F
100
AcDbEntity
  8
0
  6
Continuous
 62
     1
370
    25
100
AcDbSpline
210
0.0
220
0.0
230
1.0
 70
     8
 71
     3
 72
    14
 73
    10
 74
     0
 42
0.000000001
 43
0.00000001
 40
0.0
 40
0.0
 40
0.0
 40
0.0
 40
0.25
 40
0.25
 40
0.5
 40
0.5
 40
0.75
 40
0.75
 40
1.0
 40
1.0
 40
1.0
 40
1.0
 10
9.742279903348955
 20
0.7340011856951449
 30
0.0
 10
9.737585552087051
 20
0.6728194995896015
 30
0.0
 10
9.724751618893253
 20
0.6114274143658291
 30
0.0
 10
9.67661693370844
 20
0.4997789209509553
 30
0.0
 10
9.640775316289083
 20
0.4501355180224797
 30
0.0
 10
9.551032056195151
 20
0.3817831665731223
 30
0.0
 10
9.49987328215973
 20
0.3646025822351005
 30
0.0
 10
9.399283802287956
 20
0.3624244182015997
 30
0.0
 10
9.35025740977494
 20
0.3773725981465525
 30
0.0
 10
9.307511771549875
 20
0.4038923907569742
 30
0.0
1001
PE_URL
1000

  0
ELLIPSE
  5
D1
330
1F
100
AcDbEntity
  8
0
  6
Continuous
 62
     1
370
    25
100
AcDbEllipse
 10
9.776964427061017
 20
-0.0000000000000014
 30
0.0
 11
1.058965353313621
 21
0.2396733134298763
 31
0.0
210
0.0
220
0.0
230
1.0
 40
0.6711016680627183
 41
1.441942950567695
 42
1.452446968073043
1001
PE_URL
1000

  0
SPLINE
  5
D2
330
1F
100
AcDbEntity
  8
0
  6
Continuous
 62
     1
370
    25
100
AcDbSpline
210
0.0
220
0.0
230
1.0
 70
     8
 71
     3
 72
     8
 73
     4
 74
     0
 42
0.000000001
 43
0.00000001
 40
0.0
 40
0.0
 40
0.0
 40
0.0
 40
0.0000084490423052
 40
0.0000084490423052
 40
0.0000084490423052
 40
0.0000084490423052
 10
9.753526678410992
 20
0.7355791775177563
 30
0.0
 10
9.75513267608897
 20
0.7337832838615902
 30
0.0
 10
9.756745376363737
 20
0.7319959865583142
 30
0.0
 10
9.758364779650313
 20
0.7302174782406616
 30
0.0
1001
PE_URL
1000

  0
LINE
  5
D3
330
1F
100
AcDbEntity
  8
0
  6
Continuous
 62
     1
370
    25
100
AcDbLine
 10
9.758364779650313
 20
0.3503461364713117
 30
0.0
 11
9.758364779650313
 21
0.7302174782406613
 31
0.0
1001
PE_URL
1000

  0
LINE
  5
D4
330
1F
100
AcDbEntity
  8
0
  6
Continuous
 62
     1
370
    25
100
AcDbLine
 10
9.733577337935253
 20
-0.1519621077031208
 30
0.0
 11
9.758364779650313
 21
0.3503461364713117
 31
0.0
1001
PE_URL
1000

  0
SPLINE
  5
D8
330
1F
100
AcDbEntity
  8
0
  6
Continuous
 62
     1
370
    25
100
AcDbSpline
210
0.0
220
0.0
230
1.0
 70
     8
 71
     3
 72
    10
 73
     6
 74
     0
 42
0.000000001
 43
0.00000001
 40
0.0
 40
0.0
 40
0.0
 40
0.0
 40
0.2894433364888206
 40
0.6437837210453135
 40
1.0
 40
1.0
 40
1.0
 40
1.0
 10
8.798644628417389
 20
0.5481701115689495
 30
0.0
 10
8.889622424198365
 20
0.5922942664954465
 30
0.0
 10
9.091976448343042
 20
0.6904357991047391
 30
0.0
 10
9.406201249536384
 20
0.7605778195944032
 30
0.0
 10
9.630056690018776
 20
0.7428756417840405
 30
0.0
 10
9.742279903348962
 20
0.7340011856951459
 30
0.0
1001
PE_URL
1000

  0
SPLINE
  5
DA
330
1F
100
AcDbEntity
  8
0
  6
Continuous
 62
     1
370
    25
100
AcDbSpline
210
0.0
220
0.0
230
1.0
 70
     8
 71
     3
 72
    19
 73
    15
 74
     0
 42
0.000000001
 43
0.00000001
 40
0.0
 40
0.0
 40
0.0
 40
0.0
 40
0.0886524683315479
 40
0.1721451121775013
 40
0.2451857604039727
 40
0.322328355803173
 40
0.4109473473269923
 40
0.5019880516598104
 40
0.5697807378287324
 40
0.6235186775306847
 40
0.702098581599366
 40
0.8185231854002553
 40
0.9095764907773357
 40
1.0
 40
1.0
 40
1.0
 40
1.0
 10
8.716682626353924
 20
-0.5598106461662326
 30
0.0
 10
8.679441720718339
 20
-0.5782763450239444
 30
0.0
 10
8.607127435522646
 20
-0.614132986819958
 30
0.0
 10
8.503983656561275
 20
-0.6544418459881622
 30
0.0
 10
8.406370897194357
 20
-0.6878364411419557
 30
0.0
 10
8.306495959243104
 20
-0.714976210880576
 30
0.0
 10
8.198483862574626
 20
-0.7359086738880528
 30
0.0
 10
8.094599874856275
 20
-0.7474704527367552
 30
0.0
 10
8.005377769587556
 20
-0.750703007788493
 30
0.0
 10
7.921776051422248
 20
-0.7488448612165013
 30
0.0
 10
7.817344031628346
 20
-0.7399907961178879
 30
0.0
 10
7.696945733520515
 20
-0.7187482474946706
 30
0.0
 10
7.571891134377784
 20
-0.6855256867510681
 30
0.0
 10
7.496119245108099
 20
-0.6574791426826802
 30
0.0
 10
7.458364779650312
 20
-0.6435045369357965
 30
0.0
  0
LINE
  5
DB
330
1F
100
AcDbEntity
  8
0
  6
Continuous
 62
     4
370
    25
100
AcDbLine
 10
7.458364779650312
 20
-0.3953672335009113
 30
0.0
 11
7.458364779650312
 21
-0.643504536935796
 31
0.0
  0
SPLINE
  5
DC
330
1F
100
AcDbEntity
  8
0
  6
Continuous
 62
     1
370
    25
100
AcDbSpline
210
0.0
220
0.0
230
1.0
 70
     8
 71
     3
 72
     9
 73
     5
 74
     0
 42
0.000000001
 43
0.00000001
 40
0.0
 40
0.0
 40
0.0
 40
0.0
 40
0.6206606011401775
 40
1.0
 40
1.0
 40
1.0
 40
1.0
 10
7.45836477964875
 20
-0.6518122179551425
 30
0.0
 10
7.564779037208185
 20
-0.6875157625803874
 30
0.0
 10
7.736232255543527
 20
-0.7450408327389505
 30
0.0
 10
7.907545820340076
 20
-0.7420061179042311
 30
0.0
 10
7.972531805026533
 20
-0.7408549310031178
 30
0.0
  0
LINE
  5
DE
330
1F
100
AcDbEntity
  8
0
  6
Continuous
 62
     1
370
    25
100
AcDbLine
 10
9.733577337935253
 20
-0.1519621077031208
 30
0.0
 11
9.758364779650313
 21
-0.3503461364713017
 31
0.0
1001
PE_URL
1000

  0
LINE
  5
DF
330
1F
100
AcDbEntity
  8
0
  6
Continuous
 62
     1
370
    25
100
AcDbLine
 10
9.758364779650313
 20
-0.3503461364713017
 30
0.0
 11
9.758364779650313
 21
-0.6915456526457314
 31
0.0
1001
PE_URL
1000

  0
SPLINE
  5
E0
330
1F
100
AcDbEntity
  8
0
  6
Continuous
 62
     1
370
    25
100
AcDbSpline
210
0.0
220
0.0
230
1.0
 70
     8
 71
     3
 72
    10
 73
     6
 74
     0
 42
0.000000001
 43
0.00000001
 40
0.0
 40
0.0
 40
0.0
 40
0.0
 40
0.49871993355437
 40
0.9257423141523918
 40
1.0
 40
1.0
 40
1.0
 40
1.0
 10
9.753526678868575
 20
0.7355791774493883
 30
0.0
 10
9.72106623343621
 20
0.739548447002533
 30
0.0
 10
9.660811958739771
 20
0.7469163513801149
 30
0.0
 10
9.595523079990096
 20
0.7507628912078872
 30
0.0
 10
9.562782161268395
 20
0.7496605180233679
 30
0.0
 10
9.557932048488052
 20
0.7494972167331266
 30
0.0
1001
PE_URL
1000

  0
LINE
  5
E5
330
1F
100
AcDbEntity
  8
중심선
100
AcDbLine
 10
-43.24163522034969
 20
-0.0000000000000064
 30
0.0
 11
11.2429014629221
 21
0.0000000000000008
 31
0.0
  0
CIRCLE
  5
E6
330
1F
100
AcDbEntity
  8
해칭선
100
AcDbCircle
 10
0.0
 20
0.0
 30
0.0
 40
3.000000000000003
  0
INSERT
  5
E7
330
1F
100
AcDbEntity
  8
0
  6
Continuous
 62
     7
100
AcDbBlockReference
 66
     1
  2
블럭10
 10
-32.91527293212521
 20
-52.04717430164394
 30
0.0
  0
ATTRIB
  5
E8
330
E7
100
AcDbEntity
  8
FORMAT
 62
     2
100
AcDbText
 10
-49.03453397156076
 20
-49.97180738881174
 30
0.0
 40
4.233333333333333
  1
SEME7301505E [ 4 FLUTE ]
 41
0.75
  7
SLDTEXTSTYLE0
 11
-49.03453397156076
 21
-52.08847405547841
 31
0.0
100
AcDbAttribute
  2
AUTOATTR0
 70
     0
 74
     1
  0
SEQEND
  5
E9
330
E7
100
AcDbEntity
  8
0
  6
Continuous
 62
     7
  0
HATCH
  5
EA
330
1F
100
AcDbEntity
  8
중심선
100
AcDbHatch
 10
0.0
 20
0.0
 30
0.0
210
0.0
220
0.0
230
1.0
  2
SOLID
 70
     1
 71
     0
 91
        1
 92
        0
 93
        4
 72
     1
 10
-27.20036362774437
 20
-35.8
 11
-30.64663887158165
 21
-35.8
 72
     1
 10
-30.64663887158164
 20
-35.8
 11
-32.7748687307857
 21
-38.3363255805726
 72
     1
 10
-32.7748687307857
 20
-38.3363255805726
 11
-29.32856040183524
 21
-38.33628615127011
 72
     1
 10
-29.32856040183524
 20
-38.33628615127011
 11
-27.20036362774437
 21
-35.8
 97
        0
 75
     0
 76
     1
 98
        1
 10
-7.525054920989819
 20
-0.0000000000000087
  0
HATCH
  5
EB
330
1F
100
AcDbEntity
  8
중심선
100
AcDbHatch
 10
0.0
 20
0.0
 30
0.0
210
0.0
220
0.0
230
1.0
  2
SOLID
 70
     1
 71
     0
 91
        1
 92
        0
 93
        4
 72
     1
 10
-22.18759963670838
 20
-35.8
 11
-25.63387488054567
 21
-35.8
 72
     1
 10
-25.63387488054567
 20
-35.8
 11
-30.16501288890309
 21
-41.20000000000002
 72
     1
 10
-30.16501288890309
 20
-41.20000000000002
 11
-26.7187376450658
 21
-41.20000000000002
 72
     1
 10
-26.7187376450658
 20
-41.20000000000002
 11
-22.18759963670838
 21
-35.8
 97
        0
 75
     0
 76
     1
 98
        1
 10
-7.525054920989819
 20
-0.0000000000000087
  0
HATCH
  5
EC
330
1F
100
AcDbEntity
  8
중심선
100
AcDbHatch
 10
0.0
 20
0.0
 30
0.0
210
0.0
220
0.0
230
1.0
  2
SOLID
 70
     1
 71
     0
 91
        1
 92
        0
 93
        4
 72
     1
 10
-17.17483564567252
 20
-35.8
 11
-20.62111088950963
 21
-35.8
 72
     1
 10
-20.62111088950963
 20
-35.8
 11
-27.66954779139888
 21
-44.20000000000002
 72
     1
 10
-27.66954779139888
 20
-44.20000000000002
 11
-24.2232725475616
 21
-44.20000000000002
 72
     1
 10
-24.2232725475616
 20
-44.20000000000002
 11
-17.17483564567252
 21
-35.8
 97
        0
 75
     0
 76
     1
 98
        1
 10
-7.525054920989819
 20
-0.0000000000000087
  0
HATCH
  5
ED
330
1F
100
AcDbEntity
  8
중심선
100
AcDbHatch
 10
0.0
 20
0.0
 30
0.0
210
0.0
220
0.0
230
1.0
  2
SOLID
 70
     1
 71
     0
 91
        1
 92
        0
 93
        6
 72
     3
 10
-12.37494521466032
 20
-40.00000000005128
 11
3.960054785062283
 21
1.540882976769353E-10
 40
0.3939339440162628
 50
17.09539180608436
 51
320.0019657685075
 73
     0
 72
     1
 10
-10.69194555895975
 20
-38.58789400463831
 11
-8.386643685258687
 21
-36.65356729459039
 72
     3
 10
-12.37494521471316
 20
-40.00000000000016
 11
6.600054785286829
 21
-1.278976924368180E-13
 40
0.636358354079598
 50
39.99873849337411
 51
368.4976242363724
 73
     1
 72
     1
 10
-5.949612722812556
 20
-39.03999999993002
 11
-13.69487790787724
 21
-39.03999999993002
 72
     1
 10
-13.69487790787724
 20
-39.03999999993002
 11
-13.69490295232318
 21
-40.95999999992992
 72
     1
 10
-13.69490295232318
 20
-40.95999999992992
 11
-9.25352318285114
 21
-40.95999999992989
 97
        0
 75
     0
 76
     1
 98
        1
 10
-7.525054920989819
 20
-0.0000000000000087
  0
DIMENSION
  5
EE
330
1F
100
AcDbEntity
  8
치수문자_일반주서
100
AcDbDimension
  2
_D
 10
22.75836477965031
 20
0.7340011856951936
 30
0.0
 11
22.75836477965029
 21
11.71300118569519
 31
0.0
 70
   160
  1
%%c<>
 71
     2
 42
1.464218663935809
 52
-270.0
  3
SLDDIMSTYLE0
100
AcDbAlignedDimension
 13
9.758364779650313
 23
-0.7302174782406627
 33
0.0
 14
9.742279903348962
 24
0.7340011856951459
 34
0.0
 50
90.0000000000002
100
AcDbRotatedDimension
  0
DIMENSION
  5
FC
330
1F
100
AcDbEntity
  8
치수문자_일반주서
100
AcDbDimension
  2
_D_1
 10
9.758364779650314
 20
36.00000000000003
 30
0.0
 11
-15.24163522034969
 21
36.00000000000003
 31
0.0
 70
   160
  1
<>
 71
     2
 42
50.00000000000001
  3
SLDDIMSTYLE1
100
AcDbAlignedDimension
 13
-40.24163522034969
 23
1.499999999999993
 33
0.0
 14
9.758364779650313
 24
0.7302174782406613
 34
0.0
100
AcDbRotatedDimension
  0
DIMENSION
  5
107
330
1F
100
AcDbEntity
  8
치수문자_일반주서
100
AcDbDimension
  2
_D_2
 10
-53.73427478196957
 20
-2.000000000000056
 30
0.0
 11
-53.73427478196958
 21
-0.7264638992030831
 31
0.0
 70
   160
  1
%%c<>
 71
     2
 42
4.000000000000004
 52
-270.0
  3
SLDDIMSTYLE2
100
AcDbAlignedDimension
 13
-39.74163522034971
 23
2.0
 33
0.0
 14
-39.74163522034971
 24
-2.000000000000004
 34
0.0
 50
90.0000000000002
100
AcDbRotatedDimension
  0
DIMENSION
  5
115
330
1F
100
AcDbEntity
  8
치수문자_일반주서
100
AcDbDimension
  2
_D_3
 10
9.753526678868575
 20
18.98053372348392
 30
0.0
 11
20.95127667886858
 21
18.98053372348392
 31
0.0
 70
   160
  1
<>
 71
     2
 42
2.295161899218262
  3
SLDDIMSTYLE3
100
AcDbAlignedDimension
 13
7.458364779650312
 23
0.5356229458249187
 33
0.0
 14
9.753526678868575
 24
0.7355791774493883
 34
0.0
 50
-0.0000000000002262
100
AcDbRotatedDimension
  0
DIMENSION
  5
122
330
1F
100
AcDbEntity
  8
치수문자_일반주서
100
AcDbDimension
  2
_D_4
 10
4.758364779650311
 20
25.43000700459484
 30
0.0
 11
7.370692593144481
 21
25.43000700459484
 31
0.0
 70
   160
  1
<>
 71
     2
 42
5.0
  3
SLDDIMSTYLE2
100
AcDbAlignedDimension
 13
9.75836477965031
 23
0.7302174782406613
 33
0.0
 14
4.758364779650311
 24
0.7249999999999978
 34
0.0
100
AcDbRotatedDimension
  0
INSERT
  5
134
330
1F
100
AcDbEntity
  8
해칭선
100
AcDbBlockReference
  2
SW_DOWELSYMBOL_0
 10
0.0
 20
0.0
 30
0.0
  0
SPLINE
  5
162
330
1F
100
AcDbEntity
  8
0
  6
Continuous
 62
     1
370
    25
100
AcDbSpline
210
0.0
220
0.0
230
1.0
 70
     8
 71
     3
 72
    14
 73
    10
 74
     0
 42
0.000000001
 43
0.00000001
 40
0.0911154832824955
 40
0.0911154832824955
 40
0.0911154832824955
 40
0.0911154832824955
 40
0.25
 40
0.25
 40
0.5
 40
0.5
 40
0.75
 40
0.75
 40
1.0
 40
1.0
 40
1.0
 40
1.0
 10
9.733753783691949
 20
-0.148386500375163
 30
0.0
 10
9.726738430022293
 20
-0.1465871350849053
 30
0.0
 10
9.715979988686723
 20
-0.1475841411389454
 30
0.0
 10
9.67661693370844
 20
-0.159472515996183
 30
0.0
 10
9.640775316289083
 20
-0.1762027704002063
 30
0.0
 10
9.551032056195151
 20
-0.227958705299131
 30
0.0
 10
9.49987328215973
 20
-0.2613036723378058
 30
0.0
 10
9.399283802287956
 20
-0.3324396657755672
 30
0.0
 10
9.350257409774944
 20
-0.3699336575752599
 30
0.0
 10
9.307511771549878
 20
-0.405002361760465
 30
0.0
  0
SPLINE
  5
163
330
1F
100
AcDbEntity
  8
0
  6
Continuous
 62
     1
370
    25
100
AcDbSpline
210
0.0
220
0.0
230
1.0
 70
     8
 71
     3
 72
    22
 73
    18
 74
     0
 42
0.000000001
 43
0.00000001
 40
0.0037880026532134
 40
0.0037880026532134
 40
0.0037880026532134
 40
0.0037880026532134
 40
0.125
 40
0.125
 40
0.2500000000000001
 40
0.2500000000000001
 40
0.375
 40
0.375
 40
0.5
 40
0.5
 40
0.625
 40
0.625
 40
0.75
 40
0.75
 40
0.8750000000000001
 40
0.8750000000000001
 40
1.0
 40
1.0
 40
1.0
 40
1.0
 10
9.733785849974293
 20
-0.147736689145376
 30
0.0
 10
9.643063993765349
 20
-0.0799305500496345
 30
0.0
 10
9.548504497555752
 20
-0.0092667643271184
 30
0.0
 10
9.359524351281092
 20
0.1319357361549223
 30
0.0
 10
9.267574177323063
 20
0.2018088556555649
 30
0.0
 10
9.075774969201534
 20
0.3360624868903544
 30
0.0
 10
8.978175347717343
 20
0.3997750375359907
 30
0.0
 10
8.791348458352676
 20
0.5129156225220824
 30
0.0
 10
8.695387211532863
 20
0.5637364594000358
 30
0.0
 10
8.502850441637442
 20
0.6485429324338373
 30
0.0
 10
8.41050257942748
 20
0.6820650923612162
 30
0.0
 10
8.219781130572864
 20
0.7303883157060008
 30
0.0
 10
8.121943713726429
 20
0.7448497325544526
 30
0.0
 10
7.933179653162783
 20
0.7528202748527347
 30
0.0
 10
7.839252792438759
 20
0.7465817094228608
 30
0.0
 10
7.646460471554526
 20
0.7136133999381199
 30
0.0
 10
7.552995984499795
 20
0.6872260018561459
 30
0.0
 10
7.458364779648729
 20
0.6518122179551299
 30
0.0
  0
ENDSEC
  0
SECTION
  2
OBJECTS
  0
DICTIONARY
  5
C
330
0
100
AcDbDictionary
281
     1
  3
ACAD_DETAILVIEWSTYLE
350
15F
  3
ACAD_GROUP
350
D
  3
ACAD_LAYOUT
350
1A
  3
ACAD_MLINESTYLE
350
17
  3
ACAD_PLOTSETTINGS
350
19
  3
ACAD_PLOTSTYLENAME
350
E
  3
ACAD_SCALELIST
350
47
  3
ACAD_SECTIONVIEWSTYLE
350
160
  3
AcDbVariableDictionary
350
15A
  3
APPDATA
350
156
  3
DWGPROPS
350
19E
  0
DICTIONARY
  5
19C
330
1F
100
AcDbDictionary
280
     1
281
     1
  3
DIM_BOUNDING_BOXES_V1
360
19D
  0
DICTIONARY
  5
15F
102
{ACAD_REACTORS
330
C
102
}
330
C
100
AcDbDictionary
281
     1
  0
DICTIONARY
  5
D
102
{ACAD_REACTORS
330
C
102
}
330
C
100
AcDbDictionary
281
     1
  0
DICTIONARY
  5
1A
102
{ACAD_REACTORS
330
C
102
}
330
C
100
AcDbDictionary
281
     1
  3
Layout1
350
1E
  3
Layout2
350
26
  3
Model
350
22
  0
DICTIONARY
  5
17
102
{ACAD_REACTORS
330
C
102
}
330
C
100
AcDbDictionary
281
     1
  3
Standard
350
18
  0
DICTIONARY
  5
19
102
{ACAD_REACTORS
330
C
102
}
330
C
100
AcDbDictionary
281
     1
  0
ACDBDICTIONARYWDFLT
  5
E
102
{ACAD_REACTORS
330
C
102
}
330
C
100
AcDbDictionary
281
     1
  3
Normal
350
F
100
AcDbDictionaryWithDefault
340
F
  0
DICTIONARY
  5
47
102
{ACAD_REACTORS
330
C
102
}
330
C
100
AcDbDictionary
281
     1
  3
A0
350
48
  3
A1
350
49
  3
A2
350
4A
  3
A3
350
4B
  3
A4
350
4C
  3
A5
350
4D
  3
A6
350
4E
  3
A7
350
4F
  3
A8
350
50
  3
A9
350
51
  3
B0
350
52
  3
B1
350
53
  3
B2
350
54
  3
B3
350
55
  3
B4
350
56
  3
B5
350
57
  3
B6
350
58
  3
B7
350
59
  3
B8
350
5A
  3
B9
350
5B
  3
C0
350
5C
  3
C1
350
5D
  3
C2
350
5E
  3
C3
350
5F
  3
C4
350
60
  3
C5
350
61
  3
C6
350
62
  3
C7
350
63
  3
C8
350
64
  3
C9
350
65
  3
D0
350
66
  3
D1
350
67
  3
D2
350
68
  0
DICTIONARY
  5
160
102
{ACAD_REACTORS
330
C
102
}
330
C
100
AcDbDictionary
281
     1
  0
DICTIONARY
  5
15A
102
{ACAD_REACTORS
330
C
102
}
330
C
100
AcDbDictionary
281
     1
  0
DICTIONARY
  5
156
102
{ACAD_REACTORS
330
C
102
}
330
C
100
AcDbDictionary
281
     1
  0
XRECORD
  5
19E
102
{ACAD_REACTORS
330
C
102
}
330
C
100
AcDbXrecord
280
     1
  1
DWGPROPS COOKIE
  2

  3

  4

  6

  7

  8
12016016
  9

300
=
301
=
302
=
303
=
304
=
305
=
306
=
307
=
308
=
309
=
 40
0.0
 41
2458260.400535775
 42
2459677.366727917
  1

 90
        0
  0
DICTIONARY
  5
19D
102
{ACAD_REACTORS
330
19C
102
}
330
19C
100
AcDbDictionary
281
     1
  0
LAYOUT
  5
1E
102
{ACAD_REACTORS
330
1A
102
}
330
1A
100
AcDbPlotSettings
  1

  2
none_device
  4

  6

 40
0.0
 41
0.0
 42
0.0
 43
0.0
 44
0.0
 45
0.0
 46
0.0
 47
0.0
 48
0.0
 49
0.0
140
0.0
141
0.0
142
1.0
143
1.0
 70
   688
 72
     1
 73
     0
 74
     5
  7

 75
    16
147
1.0
148
0.0
149
0.0
100
AcDbLayout
  1
Layout1
 70
     1
 71
     1
 10
0.0
 20
0.0
 11
420.0
 21
297.0
 12
0.0
 22
0.0
 32
0.0
 14
1.000000000000000E+20
 24
1.000000000000000E+20
 34
1.000000000000000E+20
 15
-1.000000000000000E+20
 25
-1.000000000000000E+20
 35
-1.000000000000000E+20
146
0.0
 13
0.0
 23
0.0
 33
0.0
 16
1.0
 26
0.0
 36
0.0
 17
0.0
 27
1.0
 37
0.0
 76
     0
330
1B
  0
LAYOUT
  5
26
102
{ACAD_REACTORS
330
1A
102
}
330
1A
100
AcDbPlotSettings
  1

  2
none_device
  4

  6

 40
0.0
 41
0.0
 42
0.0
 43
0.0
 44
0.0
 45
0.0
 46
0.0
 47
0.0
 48
0.0
 49
0.0
140
0.0
141
0.0
142
1.0
143
1.0
 70
   688
 72
     1
 73
     0
 74
     5
  7

 75
    16
147
1.0
148
0.0
149
0.0
100
AcDbLayout
  1
Layout2
 70
     1
 71
     2
 10
0.0
 20
0.0
 11
0.0
 21
0.0
 12
0.0
 22
0.0
 32
0.0
 14
0.0
 24
0.0
 34
0.0
 15
0.0
 25
0.0
 35
0.0
146
0.0
 13
0.0
 23
0.0
 33
0.0
 16
1.0
 26
0.0
 36
0.0
 17
0.0
 27
1.0
 37
0.0
 76
     0
330
23
  0
LAYOUT
  5
22
102
{ACAD_REACTORS
330
1A
102
}
330
1A
100
AcDbPlotSettings
  1

  2
none_device
  4
ANSI_A_(11.00_x_8.50_Inches)
  6

 40
6.35
 41
19.05
 42
6.35000508
 43
19.05000254
 44
279.4
 45
215.9
 46
161.0545882195552
 47
100.8537443875621
 48
0.0
 49
0.0
140
0.0
141
0.0
142
0.0922419125129433
143
1.0
 70
  1696
 72
     0
 73
     0
 74
     0
  7

 75
     0
147
0.0235690232323232
148
0.0
149
0.0
100
AcDbLayout
  1
Model
 70
     1
 71
     0
 10
0.0
 20
0.0
 11
420.0
 21
297.0
 12
0.0
 22
0.0
 32
0.0
 14
-58.10927478196959
 24
-49.97180738881174
 34
0.0
 15
25.54502667886857
 25
40.37500000000004
 35
0.0
146
0.0
 13
0.0
 23
0.0
 33
0.0
 16
1.0
 26
0.0
 36
0.0
 17
0.0
 27
1.0
 37
0.0
 76
     0
330
1F
331
29
  0
MLINESTYLE
  5
18
102
{ACAD_REACTORS
330
17
102
}
330
17
100
AcDbMlineStyle
  2
Standard
 70
     0
  3

 62
   256
 51
90.0
 52
90.0
 71
     2
 49
0.5
 62
   256
  6
BYLAYER
 49
-0.5
 62
   256
  6
BYLAYER
  0
ACDBPLACEHOLDER
  5
F
102
{ACAD_REACTORS
330
E
102
}
330
E
  0
SCALE
  5
48
102
{ACAD_REACTORS
330
47
102
}
330
47
100
AcDbScale
 70
     0
300
1:1
140
1.0
141
1.0
290
     1
  0
SCALE
  5
49
102
{ACAD_REACTORS
330
47
102
}
330
47
100
AcDbScale
 70
     0
300
1:2
140
1.0
141
2.0
290
     0
  0
SCALE
  5
4A
102
{ACAD_REACTORS
330
47
102
}
330
47
100
AcDbScale
 70
     0
300
1:4
140
1.0
141
4.0
290
     0
  0
SCALE
  5
4B
102
{ACAD_REACTORS
330
47
102
}
330
47
100
AcDbScale
 70
     0
300
1:5
140
1.0
141
5.0
290
     0
  0
SCALE
  5
4C
102
{ACAD_REACTORS
330
47
102
}
330
47
100
AcDbScale
 70
     0
300
1:8
140
1.0
141
8.0
290
     0
  0
SCALE
  5
4D
102
{ACAD_REACTORS
330
47
102
}
330
47
100
AcDbScale
 70
     0
300
1:10
140
1.0
141
10.0
290
     0
  0
SCALE
  5
4E
102
{ACAD_REACTORS
330
47
102
}
330
47
100
AcDbScale
 70
     0
300
1:16
140
1.0
141
16.0
290
     0
  0
SCALE
  5
4F
102
{ACAD_REACTORS
330
47
102
}
330
47
100
AcDbScale
 70
     0
300
1:20
140
1.0
141
20.0
290
     0
  0
SCALE
  5
50
102
{ACAD_REACTORS
330
47
102
}
330
47
100
AcDbScale
 70
     0
300
1:30
140
1.0
141
30.0
290
     0
  0
SCALE
  5
51
102
{ACAD_REACTORS
330
47
102
}
330
47
100
AcDbScale
 70
     0
300
1:40
140
1.0
141
40.0
290
     0
  0
SCALE
  5
52
102
{ACAD_REACTORS
330
47
102
}
330
47
100
AcDbScale
 70
     0
300
1:50
140
1.0
141
50.0
290
     0
  0
SCALE
  5
53
102
{ACAD_REACTORS
330
47
102
}
330
47
100
AcDbScale
 70
     0
300
1:100
140
1.0
141
100.0
290
     0
  0
SCALE
  5
54
102
{ACAD_REACTORS
330
47
102
}
330
47
100
AcDbScale
 70
     0
300
2:1
140
2.0
141
1.0
290
     0
  0
SCALE
  5
55
102
{ACAD_REACTORS
330
47
102
}
330
47
100
AcDbScale
 70
     0
300
4:1
140
4.0
141
1.0
290
     0
  0
SCALE
  5
56
102
{ACAD_REACTORS
330
47
102
}
330
47
100
AcDbScale
 70
     0
300
8:1
140
8.0
141
1.0
290
     0
  0
SCALE
  5
57
102
{ACAD_REACTORS
330
47
102
}
330
47
100
AcDbScale
 70
     0
300
10:1
140
10.0
141
1.0
290
     0
  0
SCALE
  5
58
102
{ACAD_REACTORS
330
47
102
}
330
47
100
AcDbScale
 70
     0
300
100:1
140
100.0
141
1.0
290
     0
  0
SCALE
  5
59
102
{ACAD_REACTORS
330
47
102
}
330
47
100
AcDbScale
 70
     0
300
1/128" = 1'-0"
140
0.0078125
141
12.0
290
     0
  0
SCALE
  5
5A
102
{ACAD_REACTORS
330
47
102
}
330
47
100
AcDbScale
 70
     0
300
1/64" = 1'-0"
140
0.015625
141
12.0
290
     0
  0
SCALE
  5
5B
102
{ACAD_REACTORS
330
47
102
}
330
47
100
AcDbScale
 70
     0
300
1/32" = 1'-0"
140
0.03125
141
12.0
290
     0
  0
SCALE
  5
5C
102
{ACAD_REACTORS
330
47
102
}
330
47
100
AcDbScale
 70
     0
300
1/16" = 1'-0"
140
0.0625
141
12.0
290
     0
  0
SCALE
  5
5D
102
{ACAD_REACTORS
330
47
102
}
330
47
100
AcDbScale
 70
     0
300
3/32" = 1'-0"
140
0.09375
141
12.0
290
     0
  0
SCALE
  5
5E
102
{ACAD_REACTORS
330
47
102
}
330
47
100
AcDbScale
 70
     0
300
1/8" = 1'-0"
140
0.125
141
12.0
290
     0
  0
SCALE
  5
5F
102
{ACAD_REACTORS
330
47
102
}
330
47
100
AcDbScale
 70
     0
300
3/16" = 1'-0"
140
0.1875
141
12.0
290
     0
  0
SCALE
  5
60
102
{ACAD_REACTORS
330
47
102
}
330
47
100
AcDbScale
 70
     0
300
1/4" = 1'-0"
140
0.25
141
12.0
290
     0
  0
SCALE
  5
61
102
{ACAD_REACTORS
330
47
102
}
330
47
100
AcDbScale
 70
     0
300
3/8" = 1'-0"
140
0.375
141
12.0
290
     0
  0
SCALE
  5
62
102
{ACAD_REACTORS
330
47
102
}
330
47
100
AcDbScale
 70
     0
300
1/2" = 1'-0"
140
0.5
141
12.0
290
     0
  0
SCALE
  5
63
102
{ACAD_REACTORS
330
47
102
}
330
47
100
AcDbScale
 70
     0
300
3/4" = 1'-0"
140
0.75
141
12.0
290
     0
  0
SCALE
  5
64
102
{ACAD_REACTORS
330
47
102
}
330
47
100
AcDbScale
 70
     0
300
1" = 1'-0"
140
1.0
141
12.0
290
     0
  0
SCALE
  5
65
102
{ACAD_REACTORS
330
47
102
}
330
47
100
AcDbScale
 70
     0
300
1-1/2" = 1'-0"
140
1.5
141
12.0
290
     0
  0
SCALE
  5
66
102
{ACAD_REACTORS
330
47
102
}
330
47
100
AcDbScale
 70
     0
300
3" = 1'-0"
140
3.0
141
12.0
290
     0
  0
SCALE
  5
67
102
{ACAD_REACTORS
330
47
102
}
330
47
100
AcDbScale
 70
     0
300
6" = 1'-0"
140
6.0
141
12.0
290
     0
  0
SCALE
  5
68
102
{ACAD_REACTORS
330
47
102
}
330
47
100
AcDbScale
 70
     0
300
1'-0" = 1'-0"
140
12.0
141
12.0
290
     0
  0
ENDSEC
  0
EOF
