  0
SECTION
  2
HEADER
  9
$ACADVER
  1
AC1015
  9
$ACADMAINTVER
 70
     6
  9
$DWGCODEPAGE
  3
ANSI_949
  9
$INSBASE
 10
0.0
 20
0.0
 30
0.0
  9
$EXTMIN
 10
-46.54946716083425
 20
-49.97180738881174
 30
0.0
  9
$EXTMAX
 10
46.60815763942839
 20
40.37500000000003
 30
0.0
  9
$LIMMIN
 10
0.0
 20
0.0
  9
$LIMMAX
 10
420.0
 20
297.0
  9
$ORTHOMODE
 70
     0
  9
$REGENMODE
 70
     1
  9
$FILLMODE
 70
     1
  9
$QTEXTMODE
 70
     0
  9
$MIRRTEXT
 70
     1
  9
$LTSCALE
 40
1.0
  9
$ATTMODE
 70
     1
  9
$TEXTSIZE
 40
3.5
  9
$TRACEWID
 40
1.0
  9
$TEXTSTYLE
  7
Standard
  9
$CLAYER
  8
0
  9
$CELTYPE
  6
ByLayer
  9
$CECOLOR
 62
   256
  9
$CELTSCALE
 40
1.0
  9
$DISPSILH
 70
     0
  9
$DIMSCALE
 40
1.0
  9
$DIMASZ
 40
3.302
  9
$DIMEXO
 40
1.0
  9
$DIMDLI
 40
3.75
  9
$DIMRND
 40
0.0
  9
$DIMDLE
 40
0.0
  9
$DIMEXE
 40
1.0
  9
$DIMTP
 40
0.0
  9
$DIMTM
 40
0.0
  9
$DIMTXT
 40
3.5
  9
$DIMCEN
 40
2.5
  9
$DIMTSZ
 40
0.0
  9
$DIMTOL
 70
     0
  9
$DIMLIM
 70
     0
  9
$DIMTIH
 70
     1
  9
$DIMTOH
 70
     1
  9
$DIMSE1
 70
     0
  9
$DIMSE2
 70
     0
  9
$DIMTAD
 70
     1
  9
$DIMZIN
 70
     0
  9
$DIMBLK
  1

  9
$DIMASO
 70
     1
  9
$DIMSHO
 70
     1
  9
$DIMPOST
  1

  9
$DIMAPOST
  1

  9
$DIMALT
 70
     0
  9
$DIMALTD
 70
     3
  9
$DIMALTF
 40
0.0393700787401575
  9
$DIMLFAC
 40
1.0
  9
$DIMTOFL
 70
     1
  9
$DIMTVP
 40
0.0
  9
$DIMTIX
 70
     0
  9
$DIMSOXD
 70
     0
  9
$DIMSAH
 70
     0
  9
$DIMBLK1
  1

  9
$DIMBLK2
  1

  9
$DIMSTYLE
  2
ISO-25
  9
$DIMCLRD
 70
     0
  9
$DIMCLRE
 70
     0
  9
$DIMCLRT
 70
     0
  9
$DIMTFAC
 40
1.0
  9
$DIMGAP
 40
1.524
  9
$DIMJUST
 70
     0
  9
$DIMSD1
 70
     0
  9
$DIMSD2
 70
     0
  9
$DIMTOLJ
 70
     0
  9
$DIMTZIN
 70
     0
  9
$DIMALTZ
 70
     0
  9
$DIMALTTZ
 70
     0
  9
$DIMUPT
 70
     0
  9
$DIMDEC
 70
     2
  9
$DIMTDEC
 70
     2
  9
$DIMALTU
 70
     2
  9
$DIMALTTD
 70
     3
  9
$DIMTXSTY
  7
Standard
  9
$DIMAUNIT
 70
     0
  9
$DIMADEC
 70
     2
  9
$DIMALTRND
 40
0.0
  9
$DIMAZIN
 70
     0
  9
$DIMDSEP
 70
    44
  9
$DIMATFIT
 70
     3
  9
$DIMFRAC
 70
     0
  9
$DIMLDRBLK
  1

  9
$DIMLUNIT
 70
     2
  9
$DIMLWD
 70
    -2
  9
$DIMLWE
 70
    -2
  9
$DIMTMOVE
 70
     0
  9
$LUNITS
 70
     2
  9
$LUPREC
 70
     2
  9
$SKETCHINC
 40
1.0
  9
$FILLETRAD
 40
10.0
  9
$AUNITS
 70
     0
  9
$AUPREC
 70
     2
  9
$MENU
  1
.
  9
$ELEVATION
 40
0.0
  9
$PELEVATION
 40
0.0
  9
$THICKNESS
 40
0.0
  9
$LIMCHECK
 70
     0
  9
$CHAMFERA
 40
0.0
  9
$CHAMFERB
 40
0.0
  9
$CHAMFERC
 40
0.0
  9
$CHAMFERD
 40
0.0
  9
$SKPOLY
 70
     0
  9
$TDCREATE
 40
2458260.774968657
  9
$TDUCREATE
 40
2458260.399968657
  9
$TDUPDATE
 40
2459677.751235926
  9
$TDUUPDATE
 40
2459677.376235926
  9
$TDINDWG
 40
0.0019047454
  9
$TDUSRTIMER
 40
0.0004206134
  9
$USRTIMER
 70
     1
  9
$ANGBASE
 50
0.0
  9
$ANGDIR
 70
     0
  9
$PDMODE
 70
     0
  9
$PDSIZE
 40
-1.0
  9
$PLINEWID
 40
0.0
  9
$SPLFRAME
 70
     0
  9
$SPLINETYPE
 70
     6
  9
$SPLINESEGS
 70
     8
  9
$HANDSEED
  5
18C
  9
$SURFTAB1
 70
     6
  9
$SURFTAB2
 70
     6
  9
$SURFTYPE
 70
     6
  9
$SURFU
 70
     6
  9
$SURFV
 70
     6
  9
$UCSBASE
  2

  9
$UCSNAME
  2

  9
$UCSORG
 10
0.0
 20
0.0
 30
0.0
  9
$UCSXDIR
 10
1.0
 20
0.0
 30
0.0
  9
$UCSYDIR
 10
0.0
 20
1.0
 30
0.0
  9
$UCSORTHOREF
  2

  9
$UCSORTHOVIEW
 70
     0
  9
$UCSORGTOP
 10
0.0
 20
0.0
 30
0.0
  9
$UCSORGBOTTOM
 10
0.0
 20
0.0
 30
0.0
  9
$UCSORGLEFT
 10
0.0
 20
0.0
 30
0.0
  9
$UCSORGRIGHT
 10
0.0
 20
0.0
 30
0.0
  9
$UCSORGFRONT
 10
0.0
 20
0.0
 30
0.0
  9
$UCSORGBACK
 10
0.0
 20
0.0
 30
0.0
  9
$PUCSBASE
  2

  9
$PUCSNAME
  2

  9
$PUCSORG
 10
0.0
 20
0.0
 30
0.0
  9
$PUCSXDIR
 10
1.0
 20
0.0
 30
0.0
  9
$PUCSYDIR
 10
0.0
 20
1.0
 30
0.0
  9
$PUCSORTHOREF
  2

  9
$PUCSORTHOVIEW
 70
     0
  9
$PUCSORGTOP
 10
0.0
 20
0.0
 30
0.0
  9
$PUCSORGBOTTOM
 10
0.0
 20
0.0
 30
0.0
  9
$PUCSORGLEFT
 10
0.0
 20
0.0
 30
0.0
  9
$PUCSORGRIGHT
 10
0.0
 20
0.0
 30
0.0
  9
$PUCSORGFRONT
 10
0.0
 20
0.0
 30
0.0
  9
$PUCSORGBACK
 10
0.0
 20
0.0
 30
0.0
  9
$USERI1
 70
     0
  9
$USERI2
 70
     0
  9
$USERI3
 70
     0
  9
$USERI4
 70
     0
  9
$USERI5
 70
     0
  9
$USERR1
 40
0.0
  9
$USERR2
 40
0.0
  9
$USERR3
 40
0.0
  9
$USERR4
 40
0.0
  9
$USERR5
 40
0.0
  9
$WORLDVIEW
 70
     1
  9
$SHADEDGE
 70
     3
  9
$SHADEDIF
 70
    70
  9
$TILEMODE
 70
     1
  9
$MAXACTVP
 70
    64
  9
$PINSBASE
 10
0.0
 20
0.0
 30
0.0
  9
$PLIMCHECK
 70
     0
  9
$PEXTMIN
 10
1.000000000000000E+20
 20
1.000000000000000E+20
 30
1.000000000000000E+20
  9
$PEXTMAX
 10
-1.000000000000000E+20
 20
-1.000000000000000E+20
 30
-1.000000000000000E+20
  9
$PLIMMIN
 10
0.0
 20
0.0
  9
$PLIMMAX
 10
0.0
 20
0.0
  9
$UNITMODE
 70
     0
  9
$VISRETAIN
 70
     1
  9
$PLINEGEN
 70
     0
  9
$PSLTSCALE
 70
     1
  9
$TREEDEPTH
 70
  3020
  9
$CMLSTYLE
  2
Standard
  9
$CMLJUST
 70
     0
  9
$CMLSCALE
 40
20.0
  9
$PROXYGRAPHICS
 70
     1
  9
$MEASUREMENT
 70
     1
  9
$CELWEIGHT
370
    -1
  9
$ENDCAPS
280
     0
  9
$JOINSTYLE
280
     0
  9
$LWDISPLAY
290
     1
  9
$INSUNITS
 70
     4
  9
$HYPERLINKBASE
  1

  9
$STYLESHEET
  1

  9
$XEDIT
290
     1
  9
$CEPSNTYPE
380
     0
  9
$PSTYLEMODE
290
     1
  9
$FINGERPRINTGUID
  2
{F8F1B583-363B-44A9-97B0-79ED0C9DD616}
  9
$VERSIONGUID
  2
{FAEB1C32-E019-11D5-929B-00C0DF256EC4}
  9
$EXTNAMES
290
     1
  9
$PSVPSCALE
 40
0.0
  9
$OLESTARTUP
290
     0
  0
ENDSEC
  0
SECTION
  2
CLASSES
  0
CLASS
  1
ACDBDICTIONARYWDFLT
  2
AcDbDictionaryWithDefault
  3
ObjectDBX Classes
 90
        0
280
     0
281
     0
  0
CLASS
  1
VISUALSTYLE
  2
AcDbVisualStyle
  3
ObjectDBX Classes
 90
     4095
280
     0
281
     0
  0
CLASS
  1
MATERIAL
  2
AcDbMaterial
  3
ObjectDBX Classes
 90
     1153
280
     0
281
     0
  0
CLASS
  1
SCALE
  2
AcDbScale
  3
ObjectDBX Classes
 90
     1153
280
     0
281
     0
  0
CLASS
  1
TABLESTYLE
  2
AcDbTableStyle
  3
ObjectDBX Classes
 90
     4095
280
     0
281
     0
  0
CLASS
  1
MLEADERSTYLE
  2
AcDbMLeaderStyle
  3
ACDB_MLEADERSTYLE_CLASS
 90
     4095
280
     0
281
     0
  0
CLASS
  1
SUN
  2
AcDbSun
  3
SCENEOE
 90
     1153
280
     0
281
     0
  0
CLASS
  1
ACDBPLACEHOLDER
  2
AcDbPlaceHolder
  3
ObjectDBX Classes
 90
        0
280
     0
281
     0
  0
CLASS
  1
LAYOUT
  2
AcDbLayout
  3
ObjectDBX Classes
 90
        0
280
     0
281
     0
  0
ENDSEC
  0
SECTION
  2
TABLES
  0
TABLE
  2
VPORT
  5
8
330
0
100
AcDbSymbolTable
 70
     1
  0
VPORT
  5
29
330
8
100
AcDbSymbolTableRecord
100
AcDbViewportTableRecord
  2
*Active
 70
     0
 10
0.0
 20
0.0
 11
1.0
 21
1.0
 12
-13.60419160828531
 22
1.769928963854026
 13
0.0
 23
0.0
 14
10.0
 24
10.0
 15
10.0
 25
10.0
 16
0.0
 26
0.0
 36
1.0
 17
0.0
 27
0.0
 37
0.0
 40
55.43855498797829
 41
1.531481481481481
 42
50.0
 43
0.0
 44
0.0
 50
0.0
 51
0.0
 71
    16
 72
  2000
 73
     1
 74
     3
 75
     0
 76
     0
 77
     0
 78
     0
281
     0
 65
     1
110
0.0
120
0.0
130
0.0
111
1.0
121
0.0
131
0.0
112
0.0
122
1.0
132
0.0
 79
     0
146
0.0
  0
ENDTAB
  0
TABLE
  2
LTYPE
  5
5
330
0
100
AcDbSymbolTable
 70
     6
  0
LTYPE
  5
14
330
5
100
AcDbSymbolTableRecord
100
AcDbLinetypeTableRecord
  2
ByBlock
 70
     0
  3

 72
    65
 73
     0
 40
0.0
  0
LTYPE
  5
15
330
5
100
AcDbSymbolTableRecord
100
AcDbLinetypeTableRecord
  2
ByLayer
 70
     0
  3

 72
    65
 73
     0
 40
0.0
  0
LTYPE
  5
16
330
5
100
AcDbSymbolTableRecord
100
AcDbLinetypeTableRecord
  2
Continuous
 70
     0
  3
Solid line
 72
    65
 73
     0
 40
0.0
  0
LTYPE
  5
6E
330
5
100
AcDbSymbolTableRecord
100
AcDbLinetypeTableRecord
  2
HIDDEN
 70
     0
  3
Hidden __ __ __ __ __ __ __ __ __ __ __ __ __ __
 72
    65
 73
     2
 40
1.905
 49
1.27
 74
     0
 49
-0.635
 74
     0
  0
LTYPE
  5
6F
330
5
100
AcDbSymbolTableRecord
100
AcDbLinetypeTableRecord
  2
PHANTOM
 70
     0
  3
Phantom ______  __  __  ______  __  __  ______
 72
    65
 73
     6
 40
12.7
 49
6.35
 74
     0
 49
-1.27
 74
     0
 49
1.27
 74
     0
 49
-1.27
 74
     0
 49
1.27
 74
     0
 49
-1.27
 74
     0
  0
LTYPE
  5
70
330
5
100
AcDbSymbolTableRecord
100
AcDbLinetypeTableRecord
  2
CENTER
 70
     0
  3
Center ____ _ ____ _ ____ _ ____ _ ____ _ ____
 72
    65
 73
     4
 40
10.16
 49
6.35
 74
     0
 49
-1.27
 74
     0
 49
1.27
 74
     0
 49
-1.27
 74
     0
  0
LTYPE
  5
71
330
5
100
AcDbSymbolTableRecord
100
AcDbLinetypeTableRecord
  2
CENTERX2
 70
     0
  3
Center (2x) ________  __  ________  __  _____
 72
    65
 73
     4
 40
20.32
 49
12.7
 74
     0
 49
-2.54
 74
     0
 49
2.54
 74
     0
 49
-2.54
 74
     0
  0
LTYPE
  5
72
330
5
100
AcDbSymbolTableRecord
100
AcDbLinetypeTableRecord
  2
DOT2
 70
     0
  3
Dot (.5x) ........................................
 72
    65
 73
     2
 40
0.635
 49
0.0
 74
     0
 49
-0.635
 74
     0
  0
ENDTAB
  0
TABLE
  2
LAYER
  5
2
330
0
100
AcDbSymbolTable
 70
    17
  0
LAYER
  5
10
330
2
100
AcDbSymbolTableRecord
100
AcDbLayerTableRecord
  2
0
 70
     0
 62
     7
  6
Continuous
370
    -3
390
F
  0
LAYER
  5
73
330
2
100
AcDbSymbolTableRecord
100
AcDbLayerTableRecord
  2
FORMAT
 70
     0
 62
     2
  6
Continuous
370
    -3
390
F
  0
LAYER
  5
74
330
2
100
AcDbSymbolTableRecord
100
AcDbLayerTableRecord
  2
외형선
 70
     0
 62
   100
  6
Continuous
370
    35
390
F
  0
LAYER
  5
75
330
2
100
AcDbSymbolTableRecord
100
AcDbLayerTableRecord
  2
숨은선
 70
     0
 62
     2
  6
HIDDEN
370
    25
390
F
  0
LAYER
  5
76
330
2
100
AcDbSymbolTableRecord
100
AcDbLayerTableRecord
  2
중심선
 70
     0
 62
     1
  6
CENTERX2
370
    -3
390
F
  0
LAYER
  5
77
330
2
100
AcDbSymbolTableRecord
100
AcDbLayerTableRecord
  2
파단선
 70
     0
 62
     4
  6
Continuous
370
    -3
390
F
  0
LAYER
  5
78
330
2
100
AcDbSymbolTableRecord
100
AcDbLayerTableRecord
  2
해칭선
 70
     0
 62
   100
  6
Continuous
370
    -3
390
F
  0
LAYER
  5
79
330
2
100
AcDbSymbolTableRecord
100
AcDbLayerTableRecord
  2
가는실선
 70
     0
 62
     4
  6
Continuous
370
    -3
390
F
  0
LAYER
  5
7A
330
2
100
AcDbSymbolTableRecord
100
AcDbLayerTableRecord
  2
치수_보조선
 70
     0
 62
     4
  6
Continuous
370
    -3
390
F
  0
LAYER
  5
7B
330
2
100
AcDbSymbolTableRecord
100
AcDbLayerTableRecord
  2
치수문자_일반주서
 70
     0
 62
     7
  6
Continuous
370
    25
390
F
  0
LAYER
  5
7C
330
2
100
AcDbSymbolTableRecord
100
AcDbLayerTableRecord
  2
개별주서
 70
     0
 62
   100
  6
Continuous
370
    35
390
F
  0
LAYER
  5
7D
330
2
100
AcDbSymbolTableRecord
100
AcDbLayerTableRecord
  2
중간선
 70
     0
 62
     2
  6
Continuous
370
    25
390
F
  0
LAYER
  5
7E
330
2
100
AcDbSymbolTableRecord
100
AcDbLayerTableRecord
  2
윤곽선
 70
     0
 62
     3
  6
Continuous
370
    50
390
F
  0
LAYER
  5
7F
330
2
100
AcDbSymbolTableRecord
100
AcDbLayerTableRecord
  2
중심마크
 70
     0
 62
   100
  6
Continuous
370
    35
390
F
  0
LAYER
  5
80
330
2
100
AcDbSymbolTableRecord
100
AcDbLayerTableRecord
  2
가상선
 70
     0
 62
     4
  6
PHANTOM
370
    -3
390
F
  0
LAYER
  5
81
330
2
100
AcDbSymbolTableRecord
100
AcDbLayerTableRecord
  2
특수지정선
 70
     0
 62
     5
  6
CENTERX2
370
    70
390
F
  0
LAYER
  5
159
330
2
100
AcDbSymbolTableRecord
100
AcDbLayerTableRecord
  2
Defpoints
 70
     0
 62
     7
  6
Continuous
290
     0
370
    -3
390
F
  0
ENDTAB
  0
TABLE
  2
STYLE
  5
3
330
0
100
AcDbSymbolTable
 70
     2
  0
STYLE
  5
11
330
3
100
AcDbSymbolTableRecord
100
AcDbTextStyleTableRecord
  2
Standard
 70
     0
 40
0.0
 41
1.0
 50
0.0
 71
     0
 42
3.5
  3
txt
  4

  0
STYLE
  5
97
330
3
100
AcDbSymbolTableRecord
100
AcDbTextStyleTableRecord
  2
SLDTEXTSTYLE0
 70
     0
 40
0.0
 41
0.75
 50
0.0
 71
     0
 42
3.5
  3
TXT
  4

  0
ENDTAB
  0
TABLE
  2
VIEW
  5
6
330
0
100
AcDbSymbolTable
 70
     0
  0
ENDTAB
  0
TABLE
  2
UCS
  5
7
330
0
100
AcDbSymbolTable
 70
     0
  0
ENDTAB
  0
TABLE
  2
APPID
  5
9
330
0
100
AcDbSymbolTable
 70
     2
  0
APPID
  5
12
330
9
100
AcDbSymbolTableRecord
100
AcDbRegAppTableRecord
  2
ACAD
 70
     0
  0
APPID
  5
157
330
9
100
AcDbSymbolTableRecord
100
AcDbRegAppTableRecord
  2
PE_URL
 70
     0
  0
ENDTAB
  0
TABLE
  2
DIMSTYLE
  5
A
330
0
100
AcDbSymbolTable
 70
     5
100
AcDbDimStyleTable
  0
DIMSTYLE
105
27
330
A
100
AcDbSymbolTableRecord
100
AcDbDimStyleTableRecord
  2
ISO-25
 70
     0
 41
2.5
 42
0.625
 43
3.75
 44
1.25
 73
     0
 74
     0
 77
     1
 78
     8
140
2.5
141
2.5
143
0.03937007874016
147
0.625
171
     3
172
     1
178
     0
271
     2
272
     2
274
     3
278
    44
283
     0
284
     8
340
11
  0
DIMSTYLE
105
F1
102
{ACAD_REACTORS
330
F0
102
}
330
A
100
AcDbSymbolTableRecord
100
AcDbDimStyleTableRecord
  2
SLDDIMSTYLE0
 70
     0
 41
3.302
 44
0.0
 45
0.000000001
 73
     0
 74
     0
 77
     1
 78
    12
 79
     3
140
3.5
147
0.875
172
     1
173
     1
178
     0
271
     1
272
     1
276
     2
284
    12
289
     0
340
97
  0
DIMSTYLE
105
FF
102
{ACAD_REACTORS
330
FE
330
124
102
}
330
A
100
AcDbSymbolTableRecord
100
AcDbDimStyleTableRecord
  2
SLDDIMSTYLE1
 70
     0
 41
3.302
 44
0.0
 45
0.000000001
 73
     0
 74
     0
 77
     1
 78
    12
 79
     3
140
3.5
147
0.875
173
     1
178
     0
271
     2
272
     2
276
     2
284
    12
340
97
  0
DIMSTYLE
105
10A
102
{ACAD_REACTORS
330
109
102
}
330
A
100
AcDbSymbolTableRecord
100
AcDbDimStyleTableRecord
  2
SLDDIMSTYLE2
 70
     0
 41
3.302
 44
0.0
 45
0.000000001
 73
     0
 74
     0
 77
     1
 78
    12
 79
     3
140
3.5
147
0.875
172
     1
173
     1
178
     0
271
     2
272
     2
276
     2
284
    12
289
     0
340
97
  0
DIMSTYLE
105
118
102
{ACAD_REACTORS
330
117
102
}
330
A
100
AcDbSymbolTableRecord
100
AcDbDimStyleTableRecord
  2
SLDDIMSTYLE3
 70
     0
 41
3.302
 44
0.0
 45
0.000000001
 73
     0
 74
     0
 77
     1
 78
     4
 79
     1
140
3.5
147
0.875
172
     1
173
     1
178
     0
271
     2
272
     2
276
     2
284
    12
289
     0
340
97
  0
ENDTAB
  0
TABLE
  2
BLOCK_RECORD
  5
1
330
0
100
AcDbSymbolTable
 70
     8
  0
BLOCK_RECORD
  5
1F
102
{ACAD_XDICTIONARY
360
189
102
}
330
1
100
AcDbSymbolTableRecord
100
AcDbBlockTableRecord
  2
*Model_Space
340
22
  0
BLOCK_RECORD
  5
1B
330
1
100
AcDbSymbolTableRecord
100
AcDbBlockTableRecord
  2
*Paper_Space
340
1E
  0
BLOCK_RECORD
  5
23
330
1
100
AcDbSymbolTableRecord
100
AcDbBlockTableRecord
  2
*Paper_Space0
340
26
  0
BLOCK_RECORD
  5
82
330
1
100
AcDbSymbolTableRecord
100
AcDbBlockTableRecord
  2
블럭10
340
0
102
{BLKREFS
331
E9
102
}
  0
BLOCK_RECORD
  5
F2
330
1
100
AcDbSymbolTableRecord
100
AcDbBlockTableRecord
  2
_D
340
0
  0
BLOCK_RECORD
  5
100
330
1
100
AcDbSymbolTableRecord
100
AcDbBlockTableRecord
  2
_D_1
340
0
  0
BLOCK_RECORD
  5
10B
330
1
100
AcDbSymbolTableRecord
100
AcDbBlockTableRecord
  2
_D_2
340
0
  0
BLOCK_RECORD
  5
119
330
1
100
AcDbSymbolTableRecord
100
AcDbBlockTableRecord
  2
_D_3
340
0
  0
BLOCK_RECORD
  5
125
330
1
100
AcDbSymbolTableRecord
100
AcDbBlockTableRecord
  2
_D_4
340
0
  0
BLOCK_RECORD
  5
12E
330
1
100
AcDbSymbolTableRecord
100
AcDbBlockTableRecord
  2
SW_DOWELSYMBOL_0
340
0
102
{BLKREFS
331
134
102
}
  0
ENDTAB
  0
ENDSEC
  0
SECTION
  2
BLOCKS
  0
BLOCK
  5
20
330
1F
100
AcDbEntity
  8
0
100
AcDbBlockBegin
  2
*Model_Space
 70
     0
 10
0.0
 20
0.0
 30
0.0
  3
*Model_Space
  1

  0
ENDBLK
  5
21
330
1F
100
AcDbEntity
  8
0
100
AcDbBlockEnd
  0
BLOCK
  5
1C
330
1B
100
AcDbEntity
 67
     1
  8
0
100
AcDbBlockBegin
  2
*Paper_Space
 70
     0
 10
0.0
 20
0.0
 30
0.0
  3
*Paper_Space
  1

  0
ENDBLK
  5
1D
330
1B
100
AcDbEntity
 67
     1
  8
0
100
AcDbBlockEnd
  0
BLOCK
  5
24
330
23
100
AcDbEntity
  8
0
100
AcDbBlockBegin
  2
*Paper_Space0
 70
     0
 10
0.0
 20
0.0
 30
0.0
  3
*Paper_Space0
  1

  0
ENDBLK
  5
25
330
23
100
AcDbEntity
  8
0
100
AcDbBlockEnd
  0
BLOCK
  5
83
330
82
100
AcDbEntity
  8
0
100
AcDbBlockBegin
  2
블럭10
 70
     2
 10
0.0
 20
0.0
 30
0.0
  3
블럭10
  1

  0
ELLIPSE
  5
85
330
82
100
AcDbEntity
  8
중심선
100
AcDbEllipse
 10
20.54032771741204
 20
12.0471743016438
 30
0.0
 11
6.600054785286829
 21
-1.261213355974178E-13
 31
0.0
210
0.0
220
0.0
230
1.0
 40
0.636358354079598
 41
0.9219305317359503
 42
6.513795318482858
  0
ELLIPSE
  5
86
330
82
100
AcDbEntity
  8
중심선
100
AcDbEllipse
 10
20.54032771746488
 20
12.04717430159265
 30
0.0
 11
3.960054785062283
 21
1.540847449632565E-10
 31
0.0
210
0.0
220
0.0
230
1.0
 40
0.3939339440162632
 41
1.131841032648279
 42
5.62031148352944
  0
LINE
  5
87
330
82
100
AcDbEntity
  8
중심선
100
AcDbLine
 10
2.268634060543552
 20
16.24717430164393
 30
0.0
 11
5.714909304380834
 21
16.24717430164393
 31
0.0
  0
LINE
  5
88
330
82
100
AcDbEntity
  8
중심선
100
AcDbLine
 10
5.245725140726316
 20
7.84717430164391
 30
0.0
 11
8.692000384563599
 21
7.84717430164391
 31
0.0
  0
LINE
  5
89
330
82
100
AcDbEntity
  8
중심선
100
AcDbLine
 10
15.74043728645272
 20
16.24717430164393
 30
0.0
 11
8.692000384563599
 21
7.84717430164391
 31
0.0
  0
LINE
  5
8A
330
82
100
AcDbEntity
  8
중심선
100
AcDbLine
 10
0.1404042013395286
 20
13.71084872107135
 30
0.0
 11
3.58671253028996
 21
13.71088815037384
 31
0.0
  0
LINE
  5
8B
330
82
100
AcDbEntity
  8
중심선
100
AcDbLine
 10
2.750260043222114
 20
10.84717430164391
 30
0.0
 11
6.196535287059397
 21
10.84717430164391
 31
0.0
  0
LINE
  5
8C
330
82
100
AcDbEntity
  8
중심선
100
AcDbLine
 10
12.29416204261559
 20
16.24717430164393
 30
0.0
 11
5.245725140726316
 21
7.84717430164391
 31
0.0
  0
LINE
  5
8D
330
82
100
AcDbEntity
  8
중심선
100
AcDbLine
 10
10.72767329541681
 20
16.24717430164393
 30
0.0
 11
6.196535287059397
 21
10.84717430164391
 31
0.0
  0
LINE
  5
8E
330
82
100
AcDbEntity
  8
중심선
100
AcDbLine
 10
7.28139805157953
 20
16.24717430164393
 30
0.0
 11
2.750260043222114
 21
10.84717430164391
 31
0.0
  0
LINE
  5
8F
330
82
100
AcDbEntity
  8
중심선
100
AcDbLine
 10
5.714909304380834
 20
16.24717430164393
 30
0.0
 11
3.58671253028996
 21
13.71088815037384
 31
0.0
  0
LINE
  5
90
330
82
100
AcDbEntity
  8
중심선
100
AcDbLine
 10
2.268634060543552
 20
16.24717430164393
 30
0.0
 11
0.1404042013395286
 21
13.71084872107135
 31
0.0
  0
LINE
  5
91
330
82
100
AcDbEntity
  8
중심선
100
AcDbLine
 10
7.28139805157953
 20
16.24717430164393
 30
0.0
 11
10.72767329541681
 21
16.24717430164393
 31
0.0
  0
LINE
  5
92
330
82
100
AcDbEntity
  8
중심선
100
AcDbLine
 10
12.29416204261559
 20
16.24717430164393
 30
0.0
 11
15.74043728645272
 21
16.24717430164393
 31
0.0
  0
LINE
  5
93
330
82
100
AcDbEntity
  8
중심선
100
AcDbLine
 10
19.22036997980202
 20
11.08717430171403
 30
0.0
 11
23.66174974927406
 21
11.08717430171406
 31
0.0
  0
LINE
  5
94
330
82
100
AcDbEntity
  8
중심선
100
AcDbLine
 10
19.22039502424796
 20
13.00717430171391
 30
0.0
 11
19.22036997980202
 21
11.08717430171403
 31
0.0
  0
LINE
  5
95
330
82
100
AcDbEntity
  8
중심선
100
AcDbLine
 10
19.22039502424796
 20
13.00717430171391
 30
0.0
 11
26.96566020931264
 21
13.00717430171391
 31
0.0
  0
LINE
  5
96
330
82
100
AcDbEntity
  8
중심선
100
AcDbLine
 10
22.22332737316547
 20
13.45928029700563
 30
0.0
 11
24.52862924686651
 21
15.39360700705356
 31
0.0
  0
ATTDEF
  5
98
330
82
100
AcDbEntity
  8
FORMAT
 62
     2
100
AcDbText
 10
-16.11926103943555
 20
2.075366912832191
 30
0.0
 40
4.233333333333333
  1
SEME7301226E [ 4 FLUTE ]
 41
0.75
  7
SLDTEXTSTYLE0
 11
-16.11926103943555
 21
-0.0412997538344756
 31
0.0
100
AcDbAttributeDefinition
  3

  2
AUTOATTR0
 70
     0
 74
     1
  0
ENDBLK
  5
84
330
82
100
AcDbEntity
  8
0
100
AcDbBlockEnd
  0
BLOCK
  5
F3
330
F2
100
AcDbEntity
  8
0
100
AcDbBlockBegin
  2
_D
 70
     0
 10
0.0
 20
0.0
 30
0.0
  3
_D
  1

  0
LINE
  5
F5
330
F2
100
AcDbEntity
  8
치수문자_일반주서
 62
     0
370
    -2
100
AcDbLine
 10
31.38067240078566
 20
-0.6000000000000033
 30
0.0
 11
46.05782430609504
 21
-0.5999999999999481
 31
0.0
  0
LINE
  5
F6
330
F2
100
AcDbEntity
  8
치수문자_일반주서
 62
     0
370
    -2
100
AcDbLine
 10
31.38067240078566
 20
0.6000000000000042
 30
0.0
 11
46.05782430609503
 21
0.6000000000000583
 31
0.0
  0
LINE
  5
F7
330
F2
100
AcDbEntity
  8
치수문자_일반주서
 62
     0
370
    -2
100
AcDbLine
 10
46.05782430609503
 20
0.6000000000000583
 30
0.0
 11
46.05782430609494
 21
15.95400000000006
 31
0.0
  0
LINE
  5
F8
330
F2
100
AcDbEntity
  8
치수문자_일반주서
 62
     0
370
    -2
100
AcDbLine
 10
46.05782430609504
 20
-0.5999999999999481
 30
0.0
 11
46.05782430609503
 21
0.6000000000000583
 31
0.0
  0
LINE
  5
F9
330
F2
100
AcDbEntity
  8
치수문자_일반주서
 62
     0
370
    -2
100
AcDbLine
 10
46.05782430609506
 20
-3.901999999999948
 30
0.0
 11
46.05782430609508
 21
-7.203999999999948
 31
0.0
  0
LINE
  5
FA
330
F2
100
AcDbEntity
  8
치수문자_일반주서
 62
     0
370
    -2
100
AcDbLine
 10
46.05782430609501
 20
3.902000000000058
 30
0.0
 11
46.05782430609499
 21
7.204000000000058
 31
0.0
  0
SOLID
  5
FB
330
F2
100
AcDbEntity
  8
치수문자_일반주서
 62
     0
100
AcDbTrace
 10
46.60815763942839
 20
-3.901999999999945
 30
0.0
 11
45.50749097276172
 21
-3.901999999999951
 31
0.0
 12
46.05782430609504
 22
-0.5999999999999481
 32
0.0
 13
46.05782430609504
 23
-0.5999999999999481
 33
0.0
  0
SOLID
  5
FC
330
F2
100
AcDbEntity
  8
치수문자_일반주서
 62
     0
100
AcDbTrace
 10
45.50749097276167
 20
3.902000000000055
 30
0.0
 11
46.60815763942834
 21
3.902000000000061
 31
0.0
 12
46.05782430609503
 22
0.6000000000000583
 32
0.0
 13
46.05782430609503
 23
0.6000000000000583
 33
0.0
  0
MTEXT
  5
FD
330
F2
100
AcDbEntity
  8
치수문자_일반주서
 62
     0
100
AcDbMText
 10
41.68282430609496
 20
11.57900000000003
 30
0.0
 40
3.5
 41
0.0
 71
     2
 72
     1
  1
\A1;%%c1.2
  7
SLDTEXTSTYLE0
 11
-5.921189464667465E-15
 21
1.0
 31
0.0
 73
     1
 44
1.0
  0
POINT
  5
15A
330
F2
100
AcDbEntity
  8
Defpoints
 62
     0
100
AcDbPoint
 10
31.31817240078566
 20
-0.6000000000000035
 30
0.0
  0
POINT
  5
15B
330
F2
100
AcDbEntity
  8
Defpoints
 62
     0
100
AcDbPoint
 10
31.31817240078566
 20
0.600000000000004
 30
0.0
  0
POINT
  5
15C
330
F2
100
AcDbEntity
  8
Defpoints
 62
     0
100
AcDbPoint
 10
46.05782430609503
 20
0.600000000000059
 30
0.0
  0
ENDBLK
  5
F4
330
F2
100
AcDbEntity
  8
0
100
AcDbBlockEnd
  0
BLOCK
  5
101
330
100
100
AcDbEntity
  8
0
100
AcDbBlockBegin
  2
_D_1
 70
     0
 10
0.0
 20
0.0
 30
0.0
  3
_D_1
  1

  0
LINE
  5
103
330
100
100
AcDbEntity
  8
치수문자_일반주서
 62
     0
370
    -2
100
AcDbLine
 10
-28.68182759921435
 20
1.562499999999994
 30
0.0
 11
-28.68182759921434
 21
36.00000000000003
 31
0.0
  0
LINE
  5
104
330
100
100
AcDbEntity
  8
치수문자_일반주서
 62
     0
370
    -2
100
AcDbLine
 10
31.31817240078565
 20
0.0024999999999999
 30
0.0
 11
31.31817240078566
 21
36.00000000000003
 31
0.0
  0
LINE
  5
105
330
100
100
AcDbEntity
  8
치수문자_일반주서
 62
     0
370
    -2
100
AcDbLine
 10
-25.37982759921434
 20
36.00000000000003
 30
0.0
 11
28.01617240078566
 21
36.00000000000003
 31
0.0
  0
SOLID
  5
106
330
100
100
AcDbEntity
  8
치수문자_일반주서
 62
     0
100
AcDbTrace
 10
-25.37982759921434
 20
36.55033333333336
 30
0.0
 11
-25.37982759921434
 21
35.44966666666669
 31
0.0
 12
-28.68182759921434
 22
36.00000000000003
 32
0.0
 13
-28.68182759921434
 23
36.00000000000003
 33
0.0
  0
SOLID
  5
107
330
100
100
AcDbEntity
  8
치수문자_일반주서
 62
     0
100
AcDbTrace
 10
28.01617240078566
 20
35.44966666666669
 30
0.0
 11
28.01617240078566
 21
36.55033333333336
 31
0.0
 12
31.31817240078566
 22
36.00000000000003
 32
0.0
 13
31.31817240078566
 23
36.00000000000003
 33
0.0
  0
MTEXT
  5
108
330
100
100
AcDbEntity
  8
치수문자_일반주서
 62
     0
100
AcDbMText
 10
1.318172400785658
 20
40.37500000000003
 30
0.0
 40
3.5
 41
0.0
 71
     2
 72
     1
  1
\A1;60
  7
SLDTEXTSTYLE0
 73
     1
 44
1.0
  0
POINT
  5
161
330
100
100
AcDbEntity
  8
Defpoints
 62
     0
100
AcDbPoint
 10
-28.68182759921435
 20
1.499999999999994
 30
0.0
  0
POINT
  5
162
330
100
100
AcDbEntity
  8
Defpoints
 62
     0
100
AcDbPoint
 10
31.31817240078565
 20
-0.0600000000000001
 30
0.0
  0
POINT
  5
163
330
100
100
AcDbEntity
  8
Defpoints
 62
     0
100
AcDbPoint
 10
31.31817240078565
 20
36.00000000000003
 30
0.0
  0
ENDBLK
  5
102
330
100
100
AcDbEntity
  8
0
100
AcDbBlockEnd
  0
BLOCK
  5
10C
330
10B
100
AcDbEntity
  8
0
100
AcDbBlockBegin
  2
_D_2
 70
     0
 10
0.0
 20
0.0
 30
0.0
  3
_D_2
  1

  0
LINE
  5
10E
330
10B
100
AcDbEntity
  8
치수문자_일반주서
 62
     0
370
    -2
100
AcDbLine
 10
-28.24432759921435
 20
2.000000000000003
 30
0.0
 11
-42.17446716083425
 21
1.999999999999951
 31
0.0
  0
LINE
  5
10F
330
10B
100
AcDbEntity
  8
치수문자_일반주서
 62
     0
370
    -2
100
AcDbLine
 10
-28.24432759921435
 20
-2.000000000000001
 30
0.0
 11
-42.17446716083423
 21
-2.000000000000053
 31
0.0
  0
LINE
  5
110
330
10B
100
AcDbEntity
  8
치수문자_일반주서
 62
     0
370
    -2
100
AcDbLine
 10
-42.17446716083423
 20
-1.302000000000049
 30
0.0
 11
-42.17446716083425
 21
1.301999999999947
 31
0.0
  0
SOLID
  5
111
330
10B
100
AcDbEntity
  8
치수문자_일반주서
 62
     0
100
AcDbTrace
 10
-41.6241338275009
 20
-1.302000000000047
 30
0.0
 11
-42.72480049416757
 21
-1.302000000000051
 31
0.0
 12
-42.17446716083425
 22
1.999999999999951
 32
0.0
 13
-42.17446716083425
 23
1.999999999999951
 33
0.0
  0
SOLID
  5
112
330
10B
100
AcDbEntity
  8
치수문자_일반주서
 62
     0
100
AcDbTrace
 10
-42.72480049416758
 20
1.301999999999945
 30
0.0
 11
-41.62413382750091
 21
1.301999999999949
 31
0.0
 12
-42.17446716083423
 22
-2.000000000000053
 32
0.0
 13
-42.17446716083423
 23
-2.000000000000053
 33
0.0
  0
MTEXT
  5
113
330
10B
100
AcDbEntity
  8
치수문자_일반주서
 62
     0
100
AcDbMText
 10
-46.54946716083424
 20
-0.7264638992030966
 30
0.0
 40
3.5
 41
0.0
 71
     2
 72
     1
  1
\A1;%%c4
  7
SLDTEXTSTYLE0
 11
-3.552713678800497E-15
 21
1.0
 31
0.0
 73
     1
 44
1.0
  0
POINT
  5
114
330
10B
100
AcDbEntity
  8
Defpoints
 62
     0
100
AcDbPoint
 10
-28.18182759921435
 20
2.000000000000003
 30
0.0
  0
POINT
  5
115
330
10B
100
AcDbEntity
  8
Defpoints
 62
     0
100
AcDbPoint
 10
-28.18182759921435
 20
-2.000000000000001
 30
0.0
  0
POINT
  5
116
330
10B
100
AcDbEntity
  8
Defpoints
 62
     0
100
AcDbPoint
 10
-42.17446716083423
 20
-2.000000000000053
 30
0.0
  0
ENDBLK
  5
10D
330
10B
100
AcDbEntity
  8
0
100
AcDbBlockEnd
  0
BLOCK
  5
11A
330
119
100
AcDbEntity
  8
0
100
AcDbBlockBegin
  2
_D_3
 70
     0
 10
0.0
 20
0.0
 30
0.0
  3
_D_3
  1

  0
LINE
  5
11C
330
119
100
AcDbEntity
  8
치수문자_일반주서
 62
     0
370
    -2
100
AcDbLine
 10
29.51817240078566
 20
0.5981229458249213
 30
0.0
 11
29.51817240078566
 21
15.89327816299097
 31
0.0
  0
LINE
  5
11D
330
119
100
AcDbEntity
  8
치수문자_일반주서
 62
     0
370
    -2
100
AcDbLine
 10
31.31817240078565
 20
0.0672536779203753
 30
0.0
 11
31.31817240078565
 21
15.89327816299097
 31
0.0
  0
LINE
  5
11E
330
119
100
AcDbEntity
  8
치수문자_일반주서
 62
     0
370
    -2
100
AcDbLine
 10
29.51817240078566
 20
15.89327816299097
 30
0.0
 11
14.60167240078566
 21
15.89327816299097
 31
0.0
  0
LINE
  5
11F
330
119
100
AcDbEntity
  8
치수문자_일반주서
 62
     0
370
    -2
100
AcDbLine
 10
29.51817240078566
 20
15.89327816299097
 30
0.0
 11
31.31817240078565
 21
15.89327816299097
 31
0.0
  0
LINE
  5
120
330
119
100
AcDbEntity
  8
치수문자_일반주서
 62
     0
370
    -2
100
AcDbLine
 10
26.21617240078566
 20
15.89327816299097
 30
0.0
 11
22.91417240078566
 21
15.89327816299097
 31
0.0
  0
LINE
  5
121
330
119
100
AcDbEntity
  8
치수문자_일반주서
 62
     0
370
    -2
100
AcDbLine
 10
34.62017240078566
 20
15.89327816299097
 30
0.0
 11
37.92217240078566
 21
15.89327816299097
 31
0.0
  0
SOLID
  5
122
330
119
100
AcDbEntity
  8
치수문자_일반주서
 62
     0
100
AcDbTrace
 10
26.21617240078566
 20
15.34294482965764
 30
0.0
 11
26.21617240078566
 21
16.44361149632431
 31
0.0
 12
29.51817240078566
 22
15.89327816299097
 32
0.0
 13
29.51817240078566
 23
15.89327816299097
 33
0.0
  0
SOLID
  5
123
330
119
100
AcDbEntity
  8
치수문자_일반주서
 62
     0
100
AcDbTrace
 10
34.62017240078566
 20
16.44361149632431
 30
0.0
 11
34.62017240078566
 21
15.34294482965764
 31
0.0
 12
31.31817240078565
 22
15.89327816299097
 32
0.0
 13
31.31817240078565
 23
15.89327816299097
 33
0.0
  0
MTEXT
  5
15D
330
119
100
AcDbEntity
  8
치수문자_일반주서
 62
     0
100
AcDbMText
 10
18.75792240078566
 20
20.26827816299097
 30
0.0
 40
3.5
 41
0.0
 71
     2
 72
     1
  1
\A1;1.80
  7
SLDTEXTSTYLE0
 73
     1
 44
1.0
  0
POINT
  5
15E
330
119
100
AcDbEntity
  8
Defpoints
 62
     0
100
AcDbPoint
 10
29.51817240078566
 20
0.5356229458249213
 30
0.0
  0
POINT
  5
15F
330
119
100
AcDbEntity
  8
Defpoints
 62
     0
100
AcDbPoint
 10
31.31817240078565
 20
0.0047536779203753
 30
0.0
  0
POINT
  5
160
330
119
100
AcDbEntity
  8
Defpoints
 62
     0
100
AcDbPoint
 10
31.31817240078565
 20
15.89327816299097
 30
0.0
  0
ENDBLK
  5
11B
330
119
100
AcDbEntity
  8
0
100
AcDbBlockEnd
  0
BLOCK
  5
126
330
125
100
AcDbEntity
  8
0
100
AcDbBlockBegin
  2
_D_4
 70
     0
 10
0.0
 20
0.0
 30
0.0
  3
_D_4
  1

  0
LINE
  5
128
330
125
100
AcDbEntity
  8
치수문자_일반주서
 62
     0
370
    -2
100
AcDbLine
 10
31.31817240078565
 20
0.6198060112982984
 30
0.0
 11
31.31817240078565
 21
25.25709553765248
 31
0.0
  0
LINE
  5
129
330
125
100
AcDbEntity
  8
치수문자_일반주서
 62
     0
370
    -2
100
AcDbLine
 10
5.318172400785651
 20
0.6374999999999951
 30
0.0
 11
5.318172400785647
 21
25.25709553765248
 31
0.0
  0
LINE
  5
12A
330
125
100
AcDbEntity
  8
치수문자_일반주서
 62
     0
370
    -2
100
AcDbLine
 10
28.01617240078565
 20
25.25709553765248
 30
0.0
 11
8.620172400785647
 21
25.25709553765248
 31
0.0
  0
SOLID
  5
12B
330
125
100
AcDbEntity
  8
치수문자_일반주서
 62
     0
100
AcDbTrace
 10
28.01617240078565
 20
24.70676220431914
 30
0.0
 11
28.01617240078565
 21
25.80742887098581
 31
0.0
 12
31.31817240078565
 22
25.25709553765248
 32
0.0
 13
31.31817240078565
 23
25.25709553765248
 33
0.0
  0
SOLID
  5
12C
330
125
100
AcDbEntity
  8
치수문자_일반주서
 62
     0
100
AcDbTrace
 10
8.620172400785647
 20
25.80742887098581
 30
0.0
 11
8.620172400785647
 21
24.70676220431914
 31
0.0
 12
5.318172400785647
 22
25.25709553765248
 32
0.0
 13
5.318172400785647
 23
25.25709553765248
 33
0.0
  0
MTEXT
  5
12D
330
125
100
AcDbEntity
  8
치수문자_일반주서
 62
     0
100
AcDbMText
 10
18.90227703095539
 20
29.63209553765248
 30
0.0
 40
3.5
 41
0.0
 71
     2
 72
     1
  1
\A1;26
  7
SLDTEXTSTYLE0
 73
     1
 44
1.0
  0
POINT
  5
164
330
125
100
AcDbEntity
  8
Defpoints
 62
     0
100
AcDbPoint
 10
31.31817240078565
 20
0.5573060112982984
 30
0.0
  0
POINT
  5
165
330
125
100
AcDbEntity
  8
Defpoints
 62
     0
100
AcDbPoint
 10
5.318172400785651
 20
0.5749999999999951
 30
0.0
  0
POINT
  5
166
330
125
100
AcDbEntity
  8
Defpoints
 62
     0
100
AcDbPoint
 10
5.318172400785651
 20
25.25709553765248
 30
0.0
  0
ENDBLK
  5
127
330
125
100
AcDbEntity
  8
0
100
AcDbBlockEnd
  0
BLOCK
  5
12F
330
12E
100
AcDbEntity
  8
0
100
AcDbBlockBegin
  2
SW_DOWELSYMBOL_0
 70
     0
 10
0.0
 20
0.0
 30
0.0
  3
SW_DOWELSYMBOL_0
  1

  0
CIRCLE
  5
131
330
12E
100
AcDbEntity
  8
해칭선
 62
     0
100
AcDbCircle
 10
0.0
 20
0.0
 30
0.0
 40
3.000000000000003
  0
HATCH
  5
132
330
12E
100
AcDbEntity
  8
0
  6
Continuous
 62
     0
370
    18
100
AcDbHatch
 10
0.0
 20
0.0
 30
0.0
210
0.0
220
0.0
230
1.0
  2
SOLID
 70
     1
 71
     0
 91
        1
 92
        0
 93
        3
 72
     2
 10
-0.0000000000000017
 20
-0.0000000000000035
 40
3.000000000000003
 50
0.0
 51
90.0
 73
     1
 72
     1
 10
-0.0000000000000017
 20
2.999999999999999
 11
-0.0000000000000017
 21
-0.0000000000000036
 72
     1
 10
-0.0000000000000017
 20
-0.0000000000000035
 11
3.000000000000001
 21
-0.0000000000000035
 97
        0
 75
     0
 76
     1
 98
        1
 10
0.0
 20
0.0
  0
HATCH
  5
133
330
12E
100
AcDbEntity
  8
0
  6
Continuous
 62
     0
370
    18
100
AcDbHatch
 10
0.0
 20
0.0
 30
0.0
210
0.0
220
0.0
230
1.0
  2
SOLID
 70
     1
 71
     0
 91
        1
 92
        0
 93
        3
 72
     2
 10
-0.0000000000000017
 20
-0.0000000000000035
 40
3.000000000000003
 50
180.0
 51
270.0000000000007
 73
     1
 72
     1
 10
-0.0000000000000017
 20
-3.000000000000006
 11
-0.0000000000000017
 21
-0.0000000000000036
 72
     1
 10
-0.0000000000000017
 20
-0.0000000000000035
 11
-3.000000000000004
 21
-0.0000000000000035
 97
        0
 75
     0
 76
     1
 98
        1
 10
0.0
 20
0.0
  0
ENDBLK
  5
130
330
12E
100
AcDbEntity
  8
0
100
AcDbBlockEnd
  0
ENDSEC
  0
SECTION
  2
ENTITIES
  0
LINE
  5
99
330
1F
100
AcDbEntity
  8
0
  6
Continuous
 62
     4
370
    25
100
AcDbLine
 10
-0.0000000000000009
 20
2.0
 30
0.0
 11
-28.18182759921435
 21
1.999999999999991
 31
0.0
  0
LINE
  5
9A
330
1F
100
AcDbEntity
  8
0
  6
Continuous
 62
     4
370
    25
100
AcDbLine
 10
-28.18182759921434
 20
-2.000000000000003
 30
0.0
 11
-0.0000000000000036
 21
-1.999999999999994
 31
0.0
  0
LINE
  5
9B
330
1F
100
AcDbEntity
  8
0
  6
Continuous
 62
     4
370
    25
100
AcDbLine
 10
-28.18182759921434
 20
1.999999999999994
 30
0.0
 11
-28.68182759921435
 21
1.499999999999994
 31
0.0
  0
LINE
  5
9C
330
1F
100
AcDbEntity
  8
0
  6
Continuous
 62
     4
370
    25
100
AcDbLine
 10
-28.68182759921435
 20
-1.500000000000006
 30
0.0
 11
-28.18182759921434
 21
-2.000000000000006
 31
0.0
  0
LINE
  5
9D
330
1F
100
AcDbEntity
  8
0
  6
Continuous
 62
     4
370
    25
100
AcDbLine
 10
0.0
 20
-1.999999999999994
 30
0.0
 11
5.318172400785651
 21
-0.5749999999999855
 31
0.0
  0
LINE
  5
9E
330
1F
100
AcDbEntity
  8
0
  6
Continuous
 62
     4
370
    25
100
AcDbLine
 10
5.318172400785651
 20
0.5749999999999953
 30
0.0
 11
0.0
 21
1.999999999999994
 31
0.0
  0
LINE
  5
9F
330
1F
100
AcDbEntity
  8
0
  6
Continuous
 62
     4
370
    25
100
AcDbLine
 10
29.00171391019625
 20
0.5750000000000017
 30
0.0
 11
5.318172400785651
 21
0.5749999999999945
 31
0.0
  0
LINE
  5
A0
330
1F
100
AcDbEntity
  8
0
  6
Continuous
 62
     4
370
    25
100
AcDbLine
 10
5.318172400785651
 20
-0.5749999999999851
 30
0.0
 11
29.00171391019624
 21
-0.5749999999999779
 31
0.0
  0
LINE
  5
A1
330
1F
100
AcDbEntity
  8
0
  6
Continuous
 62
     1
370
    25
100
AcDbLine
 10
31.14131649953464
 20
-0.5999999999999988
 30
0.0
 11
31.15815596830576
 21
-0.5999999999999988
 31
0.0
1001
PE_URL
1000

  0
LINE
  5
A2
330
1F
100
AcDbEntity
  8
0
  6
Continuous
 62
     1
370
    25
100
AcDbLine
 10
31.1581606444121
 20
-0.0144982064393342
 30
0.0
 11
31.11555103860175
 21
0.0187360633863869
 31
0.0
1001
PE_URL
1000

  0
SPLINE
  5
A3
330
1F
100
AcDbEntity
  8
0
  6
Continuous
 62
     1
370
    25
100
AcDbSpline
210
0.0
220
0.0
230
1.0
 70
     8
 71
     3
 72
     9
 73
     5
 74
     0
 42
0.000000001
 43
0.00000001
 40
0.0112067029481266
 40
0.0112067029481266
 40
0.0112067029481266
 40
0.0112067029481266
 40
0.6523657237720358
 40
1.0
 40
1.0
 40
1.0
 40
1.0
 10
31.29066568985595
 20
-0.1137559255378069
 30
0.0
 10
31.26201416715265
 20
-0.0932276305210065
 30
0.0
 10
31.21782831966671
 20
-0.0615343456919514
 30
0.0
 10
31.17368152224796
 20
-0.026733343271712
 30
0.0
 10
31.1581606444121
 20
-0.0144982064393342
 30
0.0
1001
PE_URL
1000

  0
LINE
  5
A4
330
1F
100
AcDbEntity
  8
0
  6
Continuous
 62
     1
370
    25
100
AcDbLine
 10
29.90748075494591
 20
0.600000000000001
 30
0.0
 11
29.88900232072368
 21
0.600000000000001
 31
0.0
  0
LINE
  5
A5
330
1F
100
AcDbEntity
  8
0
  6
Continuous
 62
     4
370
    25
100
AcDbLine
 10
30.4433629163999
 20
0.4693240688971137
 30
0.0
 11
30.44335244034114
 21
0.469329817070287
 31
0.0
  0
LINE
  5
A6
330
1F
100
AcDbEntity
  8
0
  6
Continuous
 62
     4
370
    25
100
AcDbLine
 10
30.44335244034114
 20
-0.4693298170702837
 30
0.0
 11
30.4433629163999
 21
-0.4693240688971103
 31
0.0
  0
LINE
  5
A7
330
1F
100
AcDbEntity
  8
0
  6
Continuous
 62
     1
370
    25
100
AcDbLine
 10
29.88900232072367
 20
-0.5999999999999988
 30
0.0
 11
29.90778594464234
 21
-0.5999999999999988
 31
0.0
  0
LINE
  5
A8
330
1F
100
AcDbEntity
  8
0
  6
Continuous
 62
     1
370
    25
100
AcDbLine
 10
31.15816325898137
 20
0.600000000000001
 30
0.0
 11
31.14131649953464
 21
0.600000000000001
 31
0.0
1001
PE_URL
1000

  0
LINE
  5
A9
330
1F
100
AcDbEntity
  8
0
  6
Continuous
 62
     4
370
    25
100
AcDbLine
 10
0.0
 20
1.999999999999994
 30
0.0
 11
0.0
 21
-1.999999999999994
 31
0.0
  0
LINE
  5
AA
330
1F
100
AcDbEntity
  8
0
  6
Continuous
 62
     4
370
    25
100
AcDbLine
 10
-28.18182759921434
 20
1.999999999999995
 30
0.0
 11
-28.18182759921434
 21
-2.000000000000006
 31
0.0
  0
LINE
  5
AB
330
1F
100
AcDbEntity
  8
0
  6
Continuous
 62
     4
370
    25
100
AcDbLine
 10
-28.68182759921435
 20
1.499999999999994
 30
0.0
 11
-28.68182759921435
 21
-1.500000000000006
 31
0.0
  0
LINE
  5
AC
330
1F
100
AcDbEntity
  8
0
  6
Continuous
 62
     4
370
    25
100
AcDbLine
 10
5.318172400785651
 20
0.5749999999999951
 30
0.0
 11
5.318172400785651
 21
-0.5749999999999855
 31
0.0
  0
SPLINE
  5
AD
330
1F
100
AcDbEntity
  8
0
  6
Continuous
 62
     4
370
    25
100
AcDbSpline
210
0.0
220
0.0
230
1.0
 70
    24
 71
     3
 72
    14
 73
    10
 74
     0
 42
0.000000001
 43
0.00000001
 40
0.0
 40
0.0
 40
0.0
 40
0.0
 40
0.25
 40
0.25
 40
0.5
 40
0.5
 40
0.75
 40
0.75
 40
1.0
 40
1.0
 40
1.0
 40
1.0
 10
29.51817240078565
 20
0.2551953505319373
 30
0.0
 10
29.51817240078566
 20
0.2323553370329256
 30
0.0
 10
29.51817240078565
 20
0.2047725751375777
 30
0.0
 10
29.51817240078565
 20
0.1301481146340811
 30
0.0
 10
29.51817240078565
 20
0.0835518423951882
 30
0.0
 10
29.51817240078566
 20
-0.0278576955571515
 30
0.0
 10
29.51817240078566
 20
-0.0929376589825595
 30
0.0
 10
29.51817240078566
 20
-0.2258322464924039
 30
0.0
 10
29.51817240078565
 20
-0.29292808544969
 30
0.0
 10
29.51817240078566
 20
-0.3475363252148635
 30
0.0
  0
SPLINE
  5
AE
330
1F
100
AcDbEntity
  8
0
  6
Continuous
 62
     4
370
    25
100
AcDbSpline
210
0.0
220
0.0
230
1.0
 70
     8
 71
     3
 72
    14
 73
    10
 74
     0
 42
0.000000001
 43
0.00000001
 40
0.0
 40
0.0
 40
0.0
 40
0.0
 40
0.25
 40
0.25
 40
0.5
 40
0.5
 40
0.75
 40
0.75
 40
1.0
 40
1.0
 40
1.0
 40
1.0
 10
29.51817240078206
 20
-0.3475363252128095
 30
0.0
 10
29.4563445665473
 20
-0.3122124645152886
 30
0.0
 10
29.39349934272569
 20
-0.273558997354206
 30
0.0
 10
29.27075398938326
 20
-0.1926949569765803
 30
0.0
 10
29.21241621204066
 20
-0.150893316149517
 30
0.0
 10
29.09022117345366
 20
-0.0641220155684351
 30
0.0
 10
29.02743766342099
 20
-0.0193781303223829
 30
0.0
 10
28.90346271827749
 20
0.0692928713921132
 30
0.0
 10
28.84374912107653
 20
0.1128553798487178
 30
0.0
 10
28.78372838354679
 20
0.1551323463115847
 30
0.0
  0
SPLINE
  5
AF
330
1F
100
AcDbEntity
  8
0
  6
Continuous
 62
     4
370
    25
100
AcDbSpline
210
0.0
220
0.0
230
1.0
 70
     8
 71
     3
 72
    10
 73
     6
 74
     0
 42
0.000000001
 43
0.00000001
 40
0.0
 40
0.0
 40
0.0
 40
0.0
 40
0.5
 40
0.5
 40
1.0
 40
1.0
 40
1.0
 40
1.0
 10
29.51817240078206
 20
0.2551953505341435
 30
0.0
 10
29.42518024888868
 20
0.3149559849016526
 30
0.0
 10
29.32994149251511
 20
0.3698450928877374
 30
0.0
 10
29.15152961669438
 20
0.4608217268373918
 30
0.0
 10
29.05715657587483
 20
0.4988068042130255
 30
0.0
 10
28.96394406728809
 20
0.5258151383839698
 30
0.0
  0
SPLINE
  5
B0
330
1F
100
AcDbEntity
  8
0
  6
Continuous
 62
     4
370
    25
100
AcDbSpline
210
0.0
220
0.0
230
1.0
 70
     8
 71
     3
 72
    14
 73
    10
 74
     0
 42
0.000000001
 43
0.00000001
 40
0.0000000000000004
 40
0.0000000000000004
 40
0.0000000000000004
 40
0.0000000000000004
 40
0.0000514808473846
 40
0.0000514808473846
 40
0.0000514808473846
 40
0.0001028875534114
 40
0.0001028875534114
 40
0.0001028875534114
 40
0.0001587596474825
 40
0.0001587596474825
 40
0.0001587596474825
 40
0.0001587596474825
 10
28.78372838354741
 20
-0.5536776635624652
 30
0.0
 10
28.76987813582984
 20
-0.5509442497275387
 30
0.0
 10
28.75759817348594
 20
-0.5472540893291289
 30
0.0
 10
28.74787654533259
 20
-0.542572376162087
 30
0.0
 10
28.7381621121411
 20
-0.5378941279236629
 30
0.0
 10
28.73075051072428
 20
-0.5320893499338256
 30
0.0
 10
28.72595433758992
 20
-0.5254003605788409
 30
0.0
 10
28.72073777667419
 20
-0.5181250768354314
 30
0.0
 10
28.71847874682674
 20
-0.5096381692440982
 30
0.0
 10
28.71847874682655
 20
-0.5004541639252422
 30
0.0
  0
SPLINE
  5
B1
330
1F
100
AcDbEntity
  8
0
  6
Continuous
 62
     4
370
    25
100
AcDbSpline
210
0.0
220
0.0
230
1.0
 70
     8
 71
     3
 72
    10
 73
     6
 74
     0
 42
0.000000001
 43
0.00000001
 40
0.0
 40
0.0
 40
0.0
 40
0.0
 40
0.2017538131684472
 40
0.5104930599028756
 40
1.0
 40
1.0
 40
1.0
 40
1.0
 10
29.44352000296712
 20
-0.4845579389253361
 30
0.0
 10
29.39898628864512
 20
-0.5014693834069769
 30
0.0
 10
29.28630364966025
 20
-0.5442600246604458
 30
0.0
 10
29.06783959263711
 20
-0.5851333007955489
 30
0.0
 10
28.89172610896547
 20
-0.5656347323582509
 30
0.0
 10
28.78372838354679
 20
-0.5536776635623427
 30
0.0
  0
LINE
  5
B2
330
1F
100
AcDbEntity
  8
0
  6
Continuous
 62
     4
370
    25
100
AcDbLine
 10
29.44352000296712
 20
0.484557938925339
 30
0.0
 11
29.51817240078206
 21
0.5152672443167329
 31
0.0
  0
SPLINE
  5
B3
330
1F
100
AcDbEntity
  8
0
  6
Continuous
 62
     4
370
    25
100
AcDbSpline
210
0.0
220
0.0
230
1.0
 70
     8
 71
     3
 72
    10
 73
     6
 74
     0
 42
0.000000001
 43
0.00000001
 40
0.0
 40
0.0
 40
0.0
 40
0.0
 40
0.4019009455211389
 40
0.7962636628288661
 40
1.0
 40
1.0
 40
1.0
 40
1.0
 10
29.51817240078206
 20
0.4580867850719624
 30
0.0
 10
29.44868013034104
 20
0.4843962800842801
 30
0.0
 10
29.31099901658324
 20
0.5365217978247805
 30
0.0
 10
29.14008255837295
 20
0.5766085764687393
 30
0.0
 10
29.03687165186294
 20
0.5676854532851655
 30
0.0
 10
29.00171391019625
 20
0.564645882465024
 30
0.0
  0
LINE
  5
B4
330
1F
100
AcDbEntity
  8
0
  6
Continuous
 62
     4
370
    25
100
AcDbLine
 10
29.51817240078565
 20
0.4580867850704049
 30
0.0
 11
29.51817240078565
 21
0.2820866916901767
 31
0.0
  0
SPLINE
  5
B5
330
1F
100
AcDbEntity
  8
0
  6
Continuous
 62
     4
370
    25
100
AcDbSpline
210
0.0
220
0.0
230
1.0
 70
     8
 71
     3
 72
    12
 73
     8
 74
     0
 42
0.000000001
 43
0.00000001
 40
0.0
 40
0.0
 40
0.0
 40
0.0
 40
0.2500000000000001
 40
0.2500000000000001
 40
0.5000000000000002
 40
0.5000000000000002
 40
1.0
 40
1.0
 40
1.0
 40
1.0
 10
28.71847874683227
 20
0.4541502815804936
 30
0.0
 10
28.71847874683227
 20
0.4722717580322776
 30
0.0
 10
28.72431732585541
 20
0.4884416559679442
 30
0.0
 10
28.75088900999765
 20
0.5138131109992743
 30
0.0
 10
28.77162717049368
 20
0.5231305177744351
 30
0.0
 10
28.84844448066584
 20
0.5406230752730046
 30
0.0
 10
28.91572326770896
 20
0.5397871201358759
 30
0.0
 10
28.96394406728809
 20
0.5258151383839684
 30
0.0
  0
LINE
  5
B6
330
1F
100
AcDbEntity
  8
0
  6
Continuous
 62
     4
370
    25
100
AcDbLine
 10
28.71847874683227
 20
0.454150281580494
 30
0.0
 11
28.71847874683227
 21
0.2831441855498595
 31
0.0
  0
SPLINE
  5
B7
330
1F
100
AcDbEntity
  8
0
  6
Continuous
 62
     4
370
    25
100
AcDbSpline
210
0.0
220
0.0
230
1.0
 70
     8
 71
     3
 72
    14
 73
    10
 74
     0
 42
0.000000001
 43
0.00000001
 40
0.0000000000000004
 40
0.0000000000000004
 40
0.0000000000000004
 40
0.0000000000000004
 40
0.0000514808473846
 40
0.0000514808473846
 40
0.0000514808473846
 40
0.0001028875534114
 40
0.0001028875534114
 40
0.0001028875534114
 40
0.0001587596474825
 40
0.0001587596474825
 40
0.0001587596474825
 40
0.0001587596474825
 10
28.78372838354741
 20
0.1551323463111472
 30
0.0
 10
28.76987813582984
 20
0.1648880821177595
 30
0.0
 10
28.75759817348594
 20
0.1770252155844796
 30
0.0
 10
28.74787654533259
 20
0.1903686335135203
 30
0.0
 10
28.7381621121411
 20
0.2037021759997492
 30
0.0
 10
28.73075051072428
 20
0.2185794134503223
 30
0.0
 10
28.72595433758992
 20
0.2336224755959973
 30
0.0
 10
28.72073777667419
 20
0.2499840721947403
 30
0.0
 10
28.71847874682674
 20
0.2669115594239036
 30
0.0
 10
28.71847874682655
 20
0.2831441855484058
 30
0.0
  0
LINE
  5
B8
330
1F
100
AcDbEntity
  8
0
  6
Continuous
 62
     4
370
    25
100
AcDbLine
 10
29.51817240078565
 20
-0.3475363252148626
 30
0.0
 11
29.51817240078566
 21
-0.5152672443178812
 31
0.0
  0
SPLINE
  5
B9
330
1F
100
AcDbEntity
  8
0
  6
Continuous
 62
     4
370
    25
100
AcDbSpline
210
0.0
220
0.0
230
1.0
 70
     8
 71
     3
 72
    10
 73
     6
 74
     0
 42
0.000000001
 43
0.00000001
 40
0.0
 40
0.0
 40
0.0
 40
0.0
 40
0.5
 40
0.5
 40
1.0
 40
1.0
 40
1.0
 40
1.0
 10
29.51817240078206
 20
-0.515267244316732
 30
0.0
 10
29.42518024888869
 20
-0.485669717589059
 30
0.0
 10
29.32994149251511
 20
-0.4451585554817965
 30
0.0
 10
29.15152961669438
 20
-0.3501354999516375
 30
0.0
 10
29.05715657587483
 20
-0.2937194807254574
 30
0.0
 10
28.96394406728809
 20
-0.2326874303572305
 30
0.0
  0
SPLINE
  5
BA
330
1F
100
AcDbEntity
  8
0
  6
Continuous
 62
     4
370
    25
100
AcDbSpline
210
0.0
220
0.0
230
1.0
 70
     8
 71
     3
 72
    12
 73
     8
 74
     0
 42
0.000000001
 43
0.00000001
 40
0.0
 40
0.0
 40
0.0
 40
0.0
 40
0.25
 40
0.25
 40
0.5
 40
0.5
 40
1.0
 40
1.0
 40
1.0
 40
1.0
 10
28.71847874683227
 20
-0.352664885890756
 30
0.0
 10
28.71847874683227
 20
-0.3293286424412703
 30
0.0
 10
28.72431732585542
 20
-0.3044980235448451
 30
0.0
 10
28.75088900999766
 20
-0.259403902423757
 30
0.0
 10
28.77162717049369
 20
-0.2391247164272132
 30
0.0
 10
28.84844448066584
 20
-0.1980817129765755
 30
0.0
 10
28.91572326770896
 20
-0.2011142615483297
 30
0.0
 10
28.96394406728809
 20
-0.2326874303572267
 30
0.0
  0
LINE
  5
BB
330
1F
100
AcDbEntity
  8
0
  6
Continuous
 62
     4
370
    25
100
AcDbLine
 10
28.71847874683227
 20
-0.3526648858907564
 30
0.0
 11
28.71847874683227
 21
-0.5004541639244209
 31
0.0
  0
SPLINE
  5
BC
330
1F
100
AcDbEntity
  8
0
  6
Continuous
 62
     4
370
    25
100
AcDbSpline
210
0.0
220
0.0
230
1.0
 70
    24
 71
     3
 72
     9
 73
     5
 74
     0
 42
0.000000001
 43
0.00000001
 40
0.0
 40
0.0
 40
0.0
 40
0.0
 40
0.7466732061114247
 40
1.0
 40
1.0
 40
1.0
 40
1.0
 10
29.51817240078565
 20
0.5152672443178822
 30
0.0
 10
29.51817240078565
 20
0.4986454242943013
 30
0.0
 10
29.51817240078565
 20
0.4763842531587451
 30
0.0
 10
29.51817240078565
 20
0.461785133298483
 30
0.0
 10
29.51817240078565
 20
0.4580867850706877
 30
0.0
  0
SPLINE
  5
BD
330
1F
100
AcDbEntity
  8
0
  6
Continuous
 62
     1
370
    25
100
AcDbSpline
210
0.0
220
0.0
230
1.0
 70
     8
 71
     3
 72
    12
 73
     8
 74
     0
 42
0.000000001
 43
0.00000001
 40
0.0
 40
0.0
 40
0.0
 40
0.0
 40
0.202278282836972
 40
0.4046671313225039
 40
0.6079179644381687
 40
0.8472285852089018
 40
1.0
 40
1.0
 40
1.0
 40
1.0
 10
29.51817240078069
 20
0.2703850216423402
 30
0.0
 10
29.62747364099343
 20
0.1922370762421835
 30
0.0
 10
29.84613586566008
 20
0.0358984696438831
 30
0.0
 10
30.17456350933215
 20
-0.2183900271555294
 30
0.0
 10
30.52362659206421
 20
-0.4401989933922481
 30
0.0
 10
30.84622121211117
 20
-0.5867400596045085
 30
0.0
 10
31.05857475580765
 20
-0.5845066848796453
 30
0.0
 10
31.14131649953464
 20
-0.5836364695024295
 30
0.0
  0
SPLINE
  5
BE
330
1F
100
AcDbEntity
  8
0
  6
Continuous
 62
     1
370
    25
100
AcDbSpline
210
0.0
220
0.0
230
1.0
 70
     8
 71
     3
 72
    11
 73
     7
 74
     0
 42
0.000000001
 43
0.00000001
 40
0.0
 40
0.0
 40
0.0
 40
0.0
 40
0.3465156511484742
 40
0.5932953934362515
 40
0.8400631296687504
 40
1.0
 40
1.0
 40
1.0
 40
1.0
 10
29.51817240078069
 20
-0.2586302312276726
 30
0.0
 10
29.64003118610718
 20
-0.3146898158185201
 30
0.0
 10
29.84867473725508
 20
-0.410673628340306
 30
0.0
 10
30.14266877260592
 20
-0.4722652197769675
 30
0.0
 10
30.3730904371503
 20
-0.4841499954658581
 30
0.0
 10
30.51555697729895
 20
-0.4561362784736319
 30
0.0
 10
30.57158204362612
 20
-0.4451198647183581
 30
0.0
  0
SPLINE
  5
BF
330
1F
100
AcDbEntity
  8
0
  6
Continuous
 62
     4
370
    25
100
AcDbSpline
210
0.0
220
0.0
230
1.0
 70
    24
 71
     3
 72
    14
 73
    10
 74
     0
 42
0.000000001
 43
0.00000001
 40
0.0
 40
0.0
 40
0.0
 40
0.0
 40
0.25
 40
0.25
 40
0.5
 40
0.5
 40
0.75
 40
0.75
 40
1.0
 40
1.0
 40
1.0
 40
1.0
 10
29.51817240078566
 20
0.2703850216533491
 30
0.0
 10
29.51817240078566
 20
0.2495955066352726
 30
0.0
 10
29.51817240078566
 20
0.2280392354730296
 30
0.0
 10
29.51817240078566
 20
0.1678290678081806
 30
0.0
 10
29.51817240078566
 20
0.1303842169918936
 30
0.0
 10
29.51817240078566
 20
0.0387288981802526
 30
0.0
 10
29.51817240078566
 20
-0.015747794372125
 30
0.0
 10
29.51817240078566
 20
-0.1347797043405055
 30
0.0
 10
29.51817240078566
 20
-0.1991864207954326
 30
0.0
 10
29.51817240078566
 20
-0.2586302312287732
 30
0.0
  0
LINE
  5
C0
330
1F
100
AcDbEntity
  8
0
  6
Continuous
 62
     4
370
    25
100
AcDbLine
 10
29.51817240078565
 20
0.270385021642063
 30
0.0
 11
29.51817240078565
 21
0.2820866916901767
 31
0.0
  0
SPLINE
  5
C1
330
1F
100
AcDbEntity
  8
0
  6
Continuous
 62
     1
370
    25
100
AcDbSpline
210
0.0
220
0.0
230
1.0
 70
     8
 71
     3
 72
    20
 73
    16
 74
     0
 42
0.000000001
 43
0.00000001
 40
0.0
 40
0.0
 40
0.0
 40
0.0
 40
0.0459647783358522
 40
0.1256819239740966
 40
0.1884415813040348
 40
0.2499373651446429
 40
0.3758525073470117
 40
0.4997707370280556
 40
0.5627663461880195
 40
0.6259752976056631
 40
0.6880050772019844
 40
0.7499135886858328
 40
0.780293770656524
 40
0.8905060370543493
 40
1.0
 40
1.0
 40
1.0
 40
1.0
 10
31.29079521762826
 20
-0.5917200282295285
 30
0.0
 10
31.26368296060255
 20
-0.594490722196341
 30
0.0
 10
31.18954966224582
 20
-0.6020666566639898
 30
0.0
 10
31.07773390150094
 20
-0.5993241360141871
 30
0.0
 10
30.95687137342715
 20
-0.5831902199288977
 30
0.0
 10
30.81054421710737
 20
-0.5472692734993793
 30
0.0
 10
30.62462407172143
 20
-0.4776591334803117
 30
0.0
 10
30.4411306225805
 20
-0.3745978840996448
 30
0.0
 10
30.29292406952435
 20
-0.2801658433044564
 30
0.0
 10
30.18114346156093
 20
-0.2040249369464192
 30
0.0
 10
30.07102118913715
 20
-0.1231542134683895
 30
0.0
 10
29.98035442801409
 20
-0.0542423683530519
 30
0.0
 10
29.86036702643889
 20
0.0352413132383587
 30
0.0
 10
29.71216690220524
 20
0.1471201411250908
 30
0.0
 10
29.5826961381544
 20
0.2371960056194447
 30
0.0
 10
29.51817240078069
 20
0.2820866916901768
 30
0.0
  0
SPLINE
  5
C2
330
1F
100
AcDbEntity
  8
0
  6
Continuous
 62
     1
370
    25
100
AcDbSpline
210
0.0
220
0.0
230
1.0
 70
     8
 71
     3
 72
    22
 73
    18
 74
     0
 42
0.000000001
 43
0.00000001
 40
0.0
 40
0.0
 40
0.0
 40
0.0
 40
0.1249999999999998
 40
0.1249999999999998
 40
0.2499999999999996
 40
0.2499999999999996
 40
0.3749999999999993
 40
0.3749999999999993
 40
0.4999999999999991
 40
0.4999999999999991
 40
0.6249999999999993
 40
0.6249999999999993
 40
0.7499999999999996
 40
0.7499999999999996
 40
0.8749999999999998
 40
0.8749999999999998
 40
1.0
 40
1.0
 40
1.0
 40
1.0
 10
31.28179476938202
 20
-0.1055520557230565
 30
0.0
 10
31.20959911279942
 20
-0.0513554442180855
 30
0.0
 10
31.13410526403572
 20
0.0050129445075937
 30
0.0
 10
30.98500999738027
 20
0.1157364918897149
 30
0.0
 10
30.91401672420476
 20
0.1694358716315425
 30
0.0
 10
30.768301732908
 20
0.2721304281746662
 30
0.0
 10
30.6925884923737
 20
0.3212763660850014
 30
0.0
 10
30.544018662172
 20
0.4094486331355121
 30
0.0
 10
30.47374714505885
 20
0.4481065801886492
 30
0.0
 10
30.32689799814421
 20
0.514252195873436
 30
0.0
 10
30.25107306295295
 20
0.5414123124823085
 30
0.0
 10
30.10323109243471
 20
0.5807340561049815
 30
0.0
 10
30.03321057604846
 20
0.5929747512467722
 30
0.0
 10
29.88542188442537
 20
0.6025495238661788
 30
0.0
 10
29.80959349056793
 20
0.5995630227657495
 30
0.0
 10
29.66267848470248
 20
0.5784703504498101
 30
0.0
 10
29.59243708752084
 20
0.5606668105250184
 30
0.0
 10
29.51817240078401
 20
0.5356229458048541
 30
0.0
  0
SPLINE
  5
C3
330
1F
100
AcDbEntity
  8
0
  6
Continuous
 62
     1
370
    25
100
AcDbSpline
210
0.0
220
0.0
230
1.0
 70
     8
 71
     3
 72
    14
 73
    10
 74
     0
 42
0.000000001
 43
0.00000001
 40
0.0
 40
0.0
 40
0.0
 40
0.0
 40
0.25
 40
0.25
 40
0.5
 40
0.5
 40
0.75
 40
0.75
 40
1.0
 40
1.0
 40
1.0
 40
1.0
 10
31.28179476938206
 20
-0.1055520557230877
 30
0.0
 10
31.27865964143536
 20
-0.1014658902556234
 30
0.0
 10
31.26860061709262
 20
-0.1022743538984204
 30
0.0
 10
31.22852548138417
 20
-0.1192031700753085
 30
0.0
 10
31.19721161044859
 20
-0.1362795618923885
 30
0.0
 10
31.12201867709952
 20
-0.1830880274205361
 30
0.0
 10
31.07811029632146
 20
-0.2127525336394348
 30
0.0
 10
30.99500120122828
 20
-0.2721922855707969
 30
0.0
 10
30.9552073747758
 20
-0.3022923384272567
 30
0.0
 10
30.9204595335977
 20
-0.3300313988310364
 30
0.0
1001
PE_URL
1000

  0
SPLINE
  5
C4
330
1F
100
AcDbEntity
  8
0
  6
Continuous
 62
     1
370
    25
100
AcDbSpline
210
0.0
220
0.0
230
1.0
 70
     8
 71
     3
 72
    18
 73
    14
 74
     0
 42
0.000000001
 43
0.00000001
 40
0.0
 40
0.0
 40
0.0
 40
0.0
 40
0.1249999999999999
 40
0.1249999999999999
 40
0.2499999999999999
 40
0.2499999999999999
 40
0.4999999999999997
 40
0.4999999999999997
 40
0.6249999999999998
 40
0.6249999999999998
 40
0.7499999999999998
 40
0.7499999999999998
 40
1.0
 40
1.0
 40
1.0
 40
1.0
 10
29.51817240078067
 20
0.3994344676637922
 30
0.0
 10
29.57728783605367
 20
0.3803659670147307
 30
0.0
 10
29.63393379144519
 20
0.3583379021342447
 30
0.0
 10
29.74908610298052
 20
0.3087267726194327
 30
0.0
 10
29.80869172838154
 20
0.2809269168193419
 30
0.0
 10
29.9872159126929
 20
0.1913177478947535
 30
0.0
 10
30.09956388004676
 20
0.1245504516272599
 30
0.0
 10
30.27741596781667
 20
0.0198985238830417
 30
0.0
 10
30.33740439046323
 20
-0.0155717736627927
 30
0.0
 10
30.45444627525242
 20
-0.0851123068156969
 30
0.0
 10
30.51021016684946
 20
-0.1189376733057658
 30
0.0
 10
30.68556327477535
 20
-0.2182978832793935
 30
0.0
 10
30.8063847486678
 20
-0.280077978776825
 30
0.0
 10
30.92045953359313
 20
-0.3300313988346833
 30
0.0
  0
SPLINE
  5
C5
330
1F
100
AcDbEntity
  8
0
  6
Continuous
 62
     4
370
    25
100
AcDbSpline
210
0.0
220
0.0
230
1.0
 70
    24
 71
     3
 72
     9
 73
     5
 74
     0
 42
0.000000001
 43
0.00000001
 40
0.0
 40
0.0
 40
0.0
 40
0.0
 40
0.533312384960573
 40
1.0
 40
1.0
 40
1.0
 40
1.0
 10
29.51817240078566
 20
0.5356229458258679
 30
0.0
 10
29.51817240078566
 20
0.5193496905973235
 30
0.0
 10
29.51817240078566
 20
0.4888361385264345
 30
0.0
 10
29.51817240078566
 20
0.4678709697062692
 30
0.0
 10
29.51817240078566
 20
0.4580867850706873
 30
0.0
  0
SPLINE
  5
C6
330
1F
100
AcDbEntity
  8
0
  6
Continuous
 62
     1
370
    25
100
AcDbSpline
210
0.0
220
0.0
230
1.0
 70
     8
 71
     3
 72
    17
 73
    13
 74
     0
 42
0.000000001
 43
0.00000001
 40
0.000876144255016
 40
0.000876144255016
 40
0.000876144255016
 40
0.000876144255016
 40
0.1068570548313326
 40
0.2140332332932378
 40
0.3207264922769268
 40
0.4273720549049037
 40
0.5322354299440728
 40
0.6318858205479972
 40
0.7478228684808659
 40
0.8547594852337479
 40
0.9612732806434559
 40
1.0
 40
1.0
 40
1.0
 40
1.0
 10
31.28958353490955
 20
-0.0984256912111557
 30
0.0
 10
31.24072733094351
 20
-0.0617684035824026
 30
0.0
 10
31.14246260775539
 20
0.0119592380141668
 30
0.0
 10
30.99453118937626
 20
0.1224579417403632
 30
0.0
 10
30.84680204603887
 20
0.2294636361910385
 30
0.0
 10
30.70084060398854
 20
0.328599773829864
 30
0.0
 10
30.55597606778779
 20
0.4125280300887278
 30
0.0
 10
30.4098498451528
 20
0.4881514670582993
 30
0.0
 10
30.26022107431885
 20
0.5453808236736859
 30
0.0
 10
30.1082938182373
 20
0.5836762782396019
 30
0.0
 10
29.99236883861468
 20
0.5998778594989947
 30
0.0
 10
29.92535044249452
 20
0.5988211237873523
 30
0.0
 10
29.90748075494591
 20
0.5985393573160293
 30
0.0
  0
ELLIPSE
  5
C7
330
1F
100
AcDbEntity
  8
0
  6
Continuous
 62
     1
370
    25
100
AcDbEllipse
 10
31.32861524837767
 20
0.0000000000000014
 30
0.0
 11
0.8561999034030771
 21
0.5979804102358817
 31
0.0
210
0.0
220
0.0
230
1.0
 40
0.0574488400329247
 41
4.617620210589465
 42
4.626606274590074
1001
PE_URL
1000

  0
SPLINE
  5
C8
330
1F
100
AcDbEntity
  8
0
  6
Continuous
 62
     1
370
    25
100
AcDbSpline
210
0.0
220
0.0
230
1.0
 70
     8
 71
     3
 72
    10
 73
     6
 74
     0
 42
0.000000001
 43
0.00000001
 40
0.0
 40
0.0
 40
0.0
 40
0.0
 40
0.4500150432747816
 40
0.7216008744718905
 40
0.9999999999999999
 40
0.9999999999999999
 40
0.9999999999999999
 40
0.9999999999999999
 10
30.44803943934004
 20
0.4653698415184432
 30
0.0
 10
30.5187926869631
 20
0.4563002616346913
 30
0.0
 10
30.63224579507476
 20
0.4417571549696728
 30
0.0
 10
30.79050195259818
 20
0.394414345162008
 30
0.0
 10
30.87678404817538
 20
0.3601510580836311
 30
0.0
 10
30.92045953359312
 20
0.3428071852309333
 30
0.0
  0
SPLINE
  5
C9
330
1F
100
AcDbEntity
  8
0
  6
Continuous
 62
     1
370
    25
100
AcDbSpline
210
0.0
220
0.0
230
1.0
 70
     8
 71
     3
 72
     8
 73
     4
 74
     0
 42
0.000000001
 43
0.00000001
 40
0.0
 40
0.0
 40
0.0
 40
0.0
 40
1.0
 40
1.0
 40
1.0
 40
1.0
 10
30.77103259763559
 20
0.3231114146203195
 30
0.0
 10
30.82059014123113
 20
0.3204529001191985
 30
0.0
 10
30.87168361077115
 20
0.3265399067177356
 30
0.0
 10
30.92045953359313
 20
0.3428071852309277
 30
0.0
1001
PE_URL
1000

  0
SPLINE
  5
CA
330
1F
100
AcDbEntity
  8
0
  6
Continuous
 62
     1
370
    25
100
AcDbSpline
210
0.0
220
0.0
230
1.0
 70
    24
 71
     3
 72
    10
 73
     6
 74
     0
 42
0.000000001
 43
0.00000001
 40
0.0
 40
0.0
 40
0.0
 40
0.0
 40
0.5
 40
0.5
 40
0.9548514485037946
 40
0.9548514485037946
 40
0.9548514485037946
 40
0.9548514485037946
 10
30.77103259763583
 20
0.3231114146200806
 30
0.0
 10
30.85000502985467
 20
0.267814322269693
 30
0.0
 10
30.94394797776788
 20
0.2020347619792233
 30
0.0
 10
31.12171541622073
 20
0.0775606615263077
 30
0.0
 10
31.20693449420921
 20
0.0178896207194938
 30
0.0
 10
31.29263750810732
 20
-0.0421202756592578
 30
0.0
1001
PE_URL
1000

  0
SPLINE
  5
CD
330
1F
100
AcDbEntity
  8
0
  6
Continuous
 62
     1
370
    25
100
AcDbSpline
210
0.0
220
0.0
230
1.0
 70
     8
 71
     3
 72
    10
 73
     6
 74
     0
 42
0.000000001
 43
0.00000001
 40
0.0
 40
0.0
 40
0.0
 40
0.0
 40
0.5
 40
0.5
 40
1.0
 40
1.0
 40
1.0
 40
1.0
 10
30.77103259763583
 20
-0.4330286812967326
 30
0.0
 10
30.85000502985467
 20
-0.4938194697004193
 30
0.0
 10
30.94394797776788
 20
-0.5245432711397121
 30
0.0
 10
31.13012085181169
 20
-0.5610304488818518
 30
0.0
 10
31.22385748576569
 20
-0.5653570644118716
 30
0.0
 10
31.31817240078565
 20
-0.5573060112982945
 30
0.0
1001
PE_URL
1000

  0
LINE
  5
CE
330
1F
100
AcDbEntity
  8
0
  6
Continuous
 62
     1
370
    25
100
AcDbLine
 10
31.31817240078565
 20
-0.5658914144916406
 30
0.0
 11
31.31817240078565
 21
-0.5573060112982945
 31
0.0
1001
PE_URL
1000

  0
SPLINE
  5
CF
330
1F
100
AcDbEntity
  8
0
  6
Continuous
 62
     1
370
    25
100
AcDbSpline
210
0.0
220
0.0
230
1.0
 70
     8
 71
     3
 72
     8
 73
     4
 74
     0
 42
0.000000001
 43
0.00000001
 40
0.0
 40
0.0
 40
0.0
 40
0.0
 40
0.0000438429452504
 40
0.0000438429452504
 40
0.0000438429452504
 40
0.0000438429452504
 10
31.29079521762826
 20
-0.5917200282295271
 30
0.0
 10
31.29969707715263
 20
-0.5827809556239092
 30
0.0
 10
31.30882503650789
 20
-0.57415624813137
 30
0.0
 10
31.31817240078565
 20
-0.5658914144916384
 30
0.0
1001
PE_URL
1000

  0
LINE
  5
D0
330
1F
100
AcDbEntity
  8
0
  6
Continuous
 62
     4
370
    25
100
AcDbLine
 10
29.51817240078566
 20
0.3994344676621852
 30
0.0
 11
29.51817240078566
 21
0.2940966916901766
 31
0.0
  0
SPLINE
  5
D1
330
1F
100
AcDbEntity
  8
0
  6
Continuous
 62
     1
370
    25
100
AcDbSpline
210
0.0
220
0.0
230
1.0
 70
     8
 71
     3
 72
     8
 73
     4
 74
     0
 42
0.000000001
 43
0.00000001
 40
0.0
 40
0.0
 40
0.0
 40
0.0
 40
1.0
 40
1.0
 40
1.0
 40
1.0
 10
30.77103259763559
 20
-0.433028681296382
 30
0.0
 10
30.82059014123113
 20
-0.3977410959689704
 30
0.0
 10
30.87168361077115
 20
-0.3624437821163025
 30
0.0
 10
30.92045953359313
 20
-0.3300313988346799
 30
0.0
1001
PE_URL
1000

  0
SPLINE
  5
D3
330
1F
100
AcDbEntity
  8
0
  6
Continuous
 62
     1
370
    25
100
AcDbSpline
210
0.0
220
0.0
230
1.0
 70
     8
 71
     3
 72
    22
 73
    18
 74
     0
 42
0.000000001
 43
0.00000001
 40
0.0
 40
0.0
 40
0.0
 40
0.0
 40
0.0415785105818752
 40
0.0554094242174923
 40
0.1937755373532241
 40
0.2998241888816873
 40
0.4092164445993485
 40
0.5206814962260082
 40
0.5809936197886428
 40
0.6413997081671068
 40
0.7018998432611426
 40
0.7624941065891502
 40
0.77550168829985
 40
0.7995259145858495
 40
0.83456657951488
 40
0.8806231854061084
 40
1.0
 40
1.0
 40
1.0
 40
1.0
 10
30.44311374132486
 20
-0.4688259048521649
 30
0.0
 10
30.43039552438552
 20
-0.4750113777143332
 30
0.0
 10
30.41344664700101
 20
-0.4832544216572079
 30
0.0
 10
30.35383777904085
 20
-0.5092450559066185
 30
0.0
 10
30.27367294630378
 20
-0.5393206988266787
 30
0.0
 10
30.16412122533525
 20
-0.5701817423352304
 30
0.0
 10
30.06383252234472
 20
-0.5900937437464988
 30
0.0
 10
29.97747278304725
 20
-0.5987548332797163
 30
0.0
 10
29.90571468061144
 20
-0.6004841113130054
 30
0.0
 10
29.84969747776978
 20
-0.5989147642429906
 30
0.0
 10
29.79358386757469
 20
-0.5944050384812066
 30
0.0
 10
29.75194263601365
 20
-0.588981599791754
 30
0.0
 10
29.72185688157816
 20
-0.5840345047737869
 30
0.0
 10
29.69973977228941
 20
-0.5800029172431064
 30
0.0
 10
29.66748087358712
 20
-0.573271952525559
 30
0.0
 10
29.60608571841285
 20
-0.5584625712451443
 30
0.0
 10
29.55502083713129
 20
-0.5416706992310084
 30
0.0
 10
29.51817240078069
 20
-0.5295536784607332
 30
0.0
  0
LINE
  5
D4
330
1F
100
AcDbEntity
  8
0
  6
Continuous
 62
     4
370
    25
100
AcDbLine
 10
29.51817240078566
 20
-0.3360263252148628
 30
0.0
 11
29.51817240078566
 21
-0.3681121323800277
 31
0.0
  0
LINE
  5
D5
330
1F
100
AcDbEntity
  8
0
  6
Continuous
 62
     4
370
    25
100
AcDbLine
 10
29.51817240078566
 20
-0.4913745472389774
 30
0.0
 11
29.51817240078566
 21
-0.5295536784624797
 31
0.0
  0
SPLINE
  5
D6
330
1F
100
AcDbEntity
  8
0
  6
Continuous
 62
     1
370
    25
100
AcDbSpline
210
0.0
220
0.0
230
1.0
 70
     8
 71
     3
 72
     9
 73
     5
 74
     0
 42
0.000000001
 43
0.00000001
 40
0.0
 40
0.0
 40
0.0
 40
0.0
 40
0.4526435687448959
 40
1.0
 40
1.0
 40
1.0
 40
1.0
 10
30.57158204362612
 20
0.4451198647183623
 30
0.0
 10
30.67874923629309
 20
0.4954714242888927
 30
0.0
 10
30.91550769276277
 20
0.6067102953285207
 30
0.0
 10
31.15222566492523
 20
0.5963263753202208
 30
0.0
 10
31.28179476938202
 20
0.5906426699220393
 30
0.0
1001
PE_URL
1000

  0
SPLINE
  5
D7
330
1F
100
AcDbEntity
  8
0
  6
Continuous
 62
     1
370
    25
100
AcDbSpline
210
0.0
220
0.0
230
1.0
 70
     8
 71
     3
 72
    14
 73
    10
 74
     0
 42
0.000000001
 43
0.00000001
 40
0.0
 40
0.0
 40
0.0
 40
0.0
 40
0.25
 40
0.25
 40
0.5
 40
0.5
 40
0.75
 40
0.75
 40
1.0
 40
1.0
 40
1.0
 40
1.0
 10
31.28179476938206
 20
0.5906426699220334
 30
0.0
 10
31.27865964143536
 20
0.5393504592923883
 30
0.0
 10
31.26860061709262
 20
0.4881401464902824
 30
0.0
 10
31.22852548138417
 20
0.3957602217688396
 30
0.0
 10
31.19721161044859
 20
0.3549205703600742
 30
0.0
 10
31.12201867709952
 20
0.3041194726111518
 30
0.0
 10
31.07811029632146
 20
0.2934392828248374
 30
0.0
 10
30.99500120122827
 20
0.3000289807218752
 30
0.0
 10
30.9552073747758
 20
0.3165364494128389
 30
0.0
 10
30.9204595335977
 20
0.3428071852274723
 30
0.0
1001
PE_URL
1000

  0
ELLIPSE
  5
D8
330
1F
100
AcDbEntity
  8
0
  6
Continuous
 62
     1
370
    25
100
AcDbEllipse
 10
31.32861524837767
 20
0.0000000000000012
 30
0.0
 11
0.8515918281079015
 21
0.1387840649234243
 31
0.0
210
0.0
220
0.0
230
1.0
 40
0.6854557538535722
 41
1.50369949769279
 42
1.514216016416122
1001
PE_URL
1000

  0
SPLINE
  5
D9
330
1F
100
AcDbEntity
  8
0
  6
Continuous
 62
     1
370
    25
100
AcDbSpline
210
0.0
220
0.0
230
1.0
 70
     8
 71
     3
 72
     8
 73
     4
 74
     0
 42
0.000000001
 43
0.00000001
 40
0.0
 40
0.0
 40
0.0
 40
0.0
 40
0.0000438429452504
 40
0.0000438429452504
 40
0.0000438429452504
 40
0.0000438429452504
 10
31.29079521762826
 20
0.5917200282295311
 30
0.0
 10
31.29969707715263
 20
0.5827809556239131
 30
0.0
 10
31.30882503650789
 20
0.5741562481313739
 30
0.0
 10
31.31817240078565
 20
0.5658914144916423
 30
0.0
1001
PE_URL
1000

  0
LINE
  5
DA
330
1F
100
AcDbEntity
  8
0
  6
Continuous
 62
     1
370
    25
100
AcDbLine
 10
31.31817240078565
 20
0.428660785678451
 30
0.0
 11
31.31817240078565
 21
0.5658914144916445
 31
0.0
1001
PE_URL
1000

  0
LINE
  5
DB
330
1F
100
AcDbEntity
  8
0
  6
Continuous
 62
     1
370
    25
100
AcDbLine
 10
31.28948511088779
 20
-0.100240312718547
 30
0.0
 11
31.31817240078565
 21
0.428660785678451
 31
0.0
1001
PE_URL
1000

  0
LINE
  5
DF
330
1F
100
AcDbEntity
  8
0
  6
Continuous
 62
     1
370
    25
100
AcDbLine
 10
31.28948511088779
 20
-0.100240312718547
 30
0.0
 11
31.31817240078565
 21
-0.4286607856784229
 31
0.0
1001
PE_URL
1000

  0
LINE
  5
E0
330
1F
100
AcDbEntity
  8
0
  6
Continuous
 62
     1
370
    25
100
AcDbLine
 10
31.31817240078565
 20
-0.4286607856784229
 30
0.0
 11
31.31817240078565
 21
-0.5573060112982949
 31
0.0
1001
PE_URL
1000

  0
SPLINE
  5
E1
330
1F
100
AcDbEntity
  8
0
  6
Continuous
 62
     1
370
    25
100
AcDbSpline
210
0.0
220
0.0
230
1.0
 70
     8
 71
     3
 72
     9
 73
     5
 74
     0
 42
0.000000001
 43
0.00000001
 40
0.0
 40
0.0
 40
0.0
 40
0.0
 40
0.8842333500604524
 40
1.0
 40
1.0
 40
1.0
 40
1.0
 10
29.51817240078069
 20
-0.5356229458037348
 30
0.0
 10
29.62746175685154
 20
-0.5716273383031728
 30
0.0
 10
29.75105962393422
 20
-0.6123455406837732
 30
0.0
 10
29.87469004145649
 20
-0.5961124685731329
 30
0.0
 10
29.88900232072367
 20
-0.5942332201966569
 30
0.0
  0
SPLINE
  5
E2
330
1F
100
AcDbEntity
  8
0
  6
Continuous
 62
     1
370
    25
100
AcDbSpline
210
0.0
220
0.0
230
1.0
 70
     8
 71
     3
 72
     9
 73
     5
 74
     0
 42
0.000000001
 43
0.00000001
 40
0.0
 40
0.0
 40
0.0
 40
0.0
 40
0.6140054536312485
 40
1.0
 40
1.0
 40
1.0
 40
1.0
 10
31.29079521762821
 20
0.5917200282295368
 30
0.0
 10
31.26370466740842
 20
0.5946706468680846
 30
0.0
 10
31.21958364200125
 20
0.5994761719999828
 30
0.0
 10
31.17526861696685
 20
0.5995076448848458
 30
0.0
 10
31.15816325898137
 20
0.5995197932467612
 30
0.0
1001
PE_URL
1000

  0
LINE
  5
E7
330
1F
100
AcDbEntity
  8
중심선
100
AcDbLine
 10
-31.68182759921435
 20
-0.0000000000000037
 30
0.0
 11
32.79712690328952
 21
0.0000000000000034
 31
0.0
  0
CIRCLE
  5
E8
330
1F
100
AcDbEntity
  8
해칭선
100
AcDbCircle
 10
0.0
 20
0.0
 30
0.0
 40
3.000000000000003
  0
INSERT
  5
E9
330
1F
100
AcDbEntity
  8
0
  6
Continuous
 62
     7
100
AcDbBlockReference
 66
     1
  2
블럭10
 10
-16.5152729321252
 20
-52.04717430164394
 30
0.0
  0
ATTRIB
  5
EA
330
E9
100
AcDbEntity
  8
FORMAT
 62
     2
100
AcDbText
 10
-32.63453397156076
 20
-49.97180738881174
 30
0.0
 40
4.233333333333333
  1
SEME7301226E [ 4 FLUTE ]
 41
0.75
  7
SLDTEXTSTYLE0
 11
-32.63453397156076
 21
-52.08847405547841
 31
0.0
100
AcDbAttribute
  2
AUTOATTR0
 70
     0
 74
     1
  0
SEQEND
  5
EB
330
E9
100
AcDbEntity
  8
0
  6
Continuous
 62
     7
  0
HATCH
  5
EC
330
1F
100
AcDbEntity
  8
중심선
100
AcDbHatch
 10
0.0
 20
0.0
 30
0.0
210
0.0
220
0.0
230
1.0
  2
SOLID
 70
     1
 71
     0
 91
        1
 92
        0
 93
        4
 72
     1
 10
-10.80036362774436
 20
-35.8
 11
-14.24663887158164
 21
-35.8
 72
     1
 10
-14.24663887158164
 20
-35.8
 11
-16.37486873078566
 21
-38.3363255805726
 72
     1
 10
-16.37486873078566
 20
-38.3363255805726
 11
-12.9285604018352
 21
-38.33628615127011
 72
     1
 10
-12.9285604018352
 20
-38.33628615127011
 11
-10.80036362774436
 21
-35.8
 97
        0
 75
     0
 76
     1
 98
        1
 10
14.12494507901019
 20
-0.000000000000004
  0
HATCH
  5
ED
330
1F
100
AcDbEntity
  8
중심선
100
AcDbHatch
 10
0.0
 20
0.0
 30
0.0
210
0.0
220
0.0
230
1.0
  2
SOLID
 70
     1
 71
     0
 91
        1
 92
        0
 93
        4
 72
     1
 10
-5.78759963670838
 20
-35.8
 11
-9.233874880545665
 21
-35.8
 72
     1
 10
-9.233874880545665
 20
-35.8
 11
-13.76501288890308
 21
-41.20000000000002
 72
     1
 10
-13.76501288890308
 20
-41.20000000000002
 11
-10.3187376450658
 21
-41.20000000000002
 72
     1
 10
-10.3187376450658
 20
-41.20000000000002
 11
-5.78759963670838
 21
-35.8
 97
        0
 75
     0
 76
     1
 98
        1
 10
14.12494507901019
 20
-0.000000000000004
  0
HATCH
  5
EE
330
1F
100
AcDbEntity
  8
중심선
100
AcDbHatch
 10
0.0
 20
0.0
 30
0.0
210
0.0
220
0.0
230
1.0
  2
SOLID
 70
     1
 71
     0
 91
        1
 92
        0
 93
        4
 72
     1
 10
-0.7748356456724856
 20
-35.8
 11
-4.221110889509658
 21
-35.8
 72
     1
 10
-4.221110889509658
 20
-35.8
 11
-11.26954779139888
 21
-44.20000000000002
 72
     1
 10
-11.26954779139888
 20
-44.20000000000002
 11
-7.823272547561595
 21
-44.20000000000002
 72
     1
 10
-7.823272547561595
 20
-44.20000000000002
 11
-0.7748356456724856
 21
-35.8
 97
        0
 75
     0
 76
     1
 98
        1
 10
14.12494507901019
 20
-0.000000000000004
  0
HATCH
  5
EF
330
1F
100
AcDbEntity
  8
중심선
100
AcDbHatch
 10
0.0
 20
0.0
 30
0.0
210
0.0
220
0.0
230
1.0
  2
SOLID
 70
     1
 71
     0
 91
        1
 92
        0
 93
        6
 72
     3
 10
4.025054785339686
 20
-40.00000000005128
 11
3.960054785062283
 21
1.540882976769353E-10
 40
0.3939339440162628
 50
17.09539180608436
 51
320.0019657685086
 73
     0
 72
     1
 10
5.70805444104028
 20
-38.58789400463834
 11
8.01335631474132
 21
-36.65356729459039
 72
     3
 10
4.025054785286839
 20
-40.00000000000016
 11
6.600054785286829
 21
-1.278976924368180E-13
 40
0.636358354079598
 50
39.99873849337411
 51
368.4976242363724
 73
     1
 72
     1
 10
10.45038727718745
 20
-39.03999999993002
 11
2.705122092122789
 21
-39.03999999993
 72
     1
 10
2.705122092122789
 20
-39.03999999993
 11
2.705097047676828
 21
-40.95999999992992
 72
     1
 10
2.705097047676828
 20
-40.95999999992992
 11
7.146476817148865
 21
-40.95999999992989
 97
        0
 75
     0
 76
     1
 98
        1
 10
14.12494507901019
 20
-0.000000000000004
  0
DIMENSION
  5
F0
330
1F
100
AcDbEntity
  8
치수문자_일반주서
100
AcDbDimension
  2
_D
 10
46.05782430609503
 20
0.6000000000000583
 30
0.0
 11
46.05782430609496
 21
11.57900000000006
 31
0.0
 70
   160
  1
%%c<>
 71
     2
 42
1.200000000000008
 52
-270.0
  3
SLDDIMSTYLE0
100
AcDbAlignedDimension
 13
31.31817240078566
 23
-0.6000000000000035
 33
0.0
 14
31.31817240078566
 24
0.600000000000004
 34
0.0
 50
90.0000000000002
100
AcDbRotatedDimension
  0
DIMENSION
  5
FE
330
1F
100
AcDbEntity
  8
치수문자_일반주서
100
AcDbDimension
  2
_D_1
 10
31.31817240078566
 20
36.00000000000003
 30
0.0
 11
1.318172400785658
 21
36.00000000000003
 31
0.0
 70
   160
  1
<>
 71
     2
 42
60.0
  3
SLDDIMSTYLE1
100
AcDbAlignedDimension
 13
-28.68182759921435
 23
1.499999999999994
 33
0.0
 14
31.31817240078565
 24
-0.0600000000000001
 34
0.0
100
AcDbRotatedDimension
  0
DIMENSION
  5
109
330
1F
100
AcDbEntity
  8
치수문자_일반주서
100
AcDbDimension
  2
_D_2
 10
-42.17446716083423
 20
-2.000000000000053
 30
0.0
 11
-42.17446716083424
 21
-0.7264638992030812
 31
0.0
 70
   160
  1
%%c<>
 71
     2
 42
4.000000000000004
 52
-270.0
  3
SLDDIMSTYLE2
100
AcDbAlignedDimension
 13
-28.18182759921435
 23
2.000000000000003
 33
0.0
 14
-28.18182759921435
 24
-2.000000000000001
 34
0.0
 50
90.0000000000002
100
AcDbRotatedDimension
  0
DIMENSION
  5
117
330
1F
100
AcDbEntity
  8
치수문자_일반주서
100
AcDbDimension
  2
_D_3
 10
31.31817240078565
 20
15.89327816299097
 30
0.0
 11
18.75792240078566
 21
15.89327816299097
 31
0.0
 70
   160
  1
<>
 71
     2
 42
1.799999999999992
  3
SLDDIMSTYLE3
100
AcDbAlignedDimension
 13
29.51817240078566
 23
0.5356229458249213
 33
0.0
 14
31.31817240078565
 24
0.0047536779203753
 34
0.0
 50
-0.0000000000002262
100
AcDbRotatedDimension
  0
DIMENSION
  5
124
330
1F
100
AcDbEntity
  8
치수문자_일반주서
100
AcDbDimension
  2
_D_4
 10
5.318172400785647
 20
25.25709553765248
 30
0.0
 11
18.90227703095539
 21
25.25709553765248
 31
0.0
 70
   160
  1
<>
 71
     2
 42
26.0
  3
SLDDIMSTYLE1
100
AcDbAlignedDimension
 13
31.31817240078565
 23
0.5573060112982984
 33
0.0
 14
5.318172400785651
 24
0.5749999999999951
 34
0.0
100
AcDbRotatedDimension
  0
INSERT
  5
134
330
1F
100
AcDbEntity
  8
해칭선
100
AcDbBlockReference
  2
SW_DOWELSYMBOL_0
 10
0.0
 20
0.0
 30
0.0
  0
ENDSEC
  0
SECTION
  2
OBJECTS
  0
DICTIONARY
  5
C
330
0
100
AcDbDictionary
281
     1
  3
ACAD_GROUP
350
D
  3
ACAD_LAYOUT
350
1A
  3
ACAD_MLINESTYLE
350
17
  3
ACAD_PLOTSETTINGS
350
19
  3
ACAD_PLOTSTYLENAME
350
E
  3
ACAD_SCALELIST
350
47
  3
APPDATA
350
156
  3
DWGPROPS
350
18B
  0
DICTIONARY
  5
189
330
1F
100
AcDbDictionary
280
     1
281
     1
  3
DIM_BOUNDING_BOXES_V1
360
18A
  0
DICTIONARY
  5
D
102
{ACAD_REACTORS
330
C
102
}
330
C
100
AcDbDictionary
281
     1
  0
DICTIONARY
  5
1A
102
{ACAD_REACTORS
330
C
102
}
330
C
100
AcDbDictionary
281
     1
  3
Layout1
350
1E
  3
Layout2
350
26
  3
Model
350
22
  0
DICTIONARY
  5
17
102
{ACAD_REACTORS
330
C
102
}
330
C
100
AcDbDictionary
281
     1
  3
Standard
350
18
  0
DICTIONARY
  5
19
102
{ACAD_REACTORS
330
C
102
}
330
C
100
AcDbDictionary
281
     1
  0
ACDBDICTIONARYWDFLT
  5
E
102
{ACAD_REACTORS
330
C
102
}
330
C
100
AcDbDictionary
281
     1
  3
Normal
350
F
100
AcDbDictionaryWithDefault
340
F
  0
DICTIONARY
  5
47
102
{ACAD_REACTORS
330
C
102
}
330
C
100
AcDbDictionary
281
     1
  3
A0
350
48
  3
A1
350
49
  3
A2
350
4A
  3
A3
350
4B
  3
A4
350
4C
  3
A5
350
4D
  3
A6
350
4E
  3
A7
350
4F
  3
A8
350
50
  3
A9
350
51
  3
B0
350
52
  3
B1
350
53
  3
B2
350
54
  3
B3
350
55
  3
B4
350
56
  3
B5
350
57
  3
B6
350
58
  3
B7
350
59
  3
B8
350
5A
  3
B9
350
5B
  3
C0
350
5C
  3
C1
350
5D
  3
C2
350
5E
  3
C3
350
5F
  3
C4
350
60
  3
C5
350
61
  3
C6
350
62
  3
C7
350
63
  3
C8
350
64
  3
C9
350
65
  3
D0
350
66
  3
D1
350
67
  3
D2
350
68
  0
DICTIONARY
  5
156
102
{ACAD_REACTORS
330
C
102
}
330
C
100
AcDbDictionary
281
     1
  0
XRECORD
  5
18B
102
{ACAD_REACTORS
330
C
102
}
330
C
100
AcDbXrecord
280
     1
  1
DWGPROPS COOKIE
  2

  3

  4

  6

  7

  8
12016016
  9

300
=
301
=
302
=
303
=
304
=
305
=
306
=
307
=
308
=
309
=
 40
0.0
 41
2458260.399968657
 42
2459677.376235926
  1

 90
        0
  0
DICTIONARY
  5
18A
102
{ACAD_REACTORS
330
189
102
}
330
189
100
AcDbDictionary
281
     1
  0
LAYOUT
  5
1E
102
{ACAD_REACTORS
330
1A
102
}
330
1A
100
AcDbPlotSettings
  1

  2
none_device
  4

  6

 40
0.0
 41
0.0
 42
0.0
 43
0.0
 44
0.0
 45
0.0
 46
0.0
 47
0.0
 48
0.0
 49
0.0
140
0.0
141
0.0
142
1.0
143
1.0
 70
   688
 72
     1
 73
     0
 74
     5
  7

 75
    16
147
1.0
148
0.0
149
0.0
100
AcDbLayout
  1
Layout1
 70
     1
 71
     1
 10
0.0
 20
0.0
 11
420.0
 21
297.0
 12
0.0
 22
0.0
 32
0.0
 14
1.000000000000000E+20
 24
1.000000000000000E+20
 34
1.000000000000000E+20
 15
-1.000000000000000E+20
 25
-1.000000000000000E+20
 35
-1.000000000000000E+20
146
0.0
 13
0.0
 23
0.0
 33
0.0
 16
1.0
 26
0.0
 36
0.0
 17
0.0
 27
1.0
 37
0.0
 76
     0
330
1B
  0
LAYOUT
  5
26
102
{ACAD_REACTORS
330
1A
102
}
330
1A
100
AcDbPlotSettings
  1

  2
none_device
  4

  6

 40
0.0
 41
0.0
 42
0.0
 43
0.0
 44
0.0
 45
0.0
 46
0.0
 47
0.0
 48
0.0
 49
0.0
140
0.0
141
0.0
142
1.0
143
1.0
 70
   688
 72
     1
 73
     0
 74
     5
  7

 75
    16
147
1.0
148
0.0
149
0.0
100
AcDbLayout
  1
Layout2
 70
     1
 71
     2
 10
0.0
 20
0.0
 11
0.0
 21
0.0
 12
0.0
 22
0.0
 32
0.0
 14
0.0
 24
0.0
 34
0.0
 15
0.0
 25
0.0
 35
0.0
146
0.0
 13
0.0
 23
0.0
 33
0.0
 16
1.0
 26
0.0
 36
0.0
 17
0.0
 27
1.0
 37
0.0
 76
     0
330
23
  0
LAYOUT
  5
22
102
{ACAD_REACTORS
330
1A
102
}
330
1A
100
AcDbPlotSettings
  1

  2
none_device
  4
ANSI_A_(11.00_x_8.50_Inches)
  6

 40
6.35
 41
19.05
 42
6.35000508
 43
19.05000254
 44
279.4
 45
215.9
 46
173.9407833976134
 47
100.8537443875621
 48
0.0
 49
0.0
140
0.0
141
0.0
142
0.0922419125129433
143
1.0
 70
  1696
 72
     0
 73
     0
 74
     0
  7

 75
     0
147
0.0235690232323232
148
0.0
149
0.0
100
AcDbLayout
  1
Model
 70
     1
 71
     0
 10
0.0
 20
0.0
 11
420.0
 21
297.0
 12
0.0
 22
0.0
 32
0.0
 14
-46.54946716083425
 24
-49.97180738881174
 34
0.0
 15
46.60815763942839
 25
40.37500000000003
 35
0.0
146
0.0
 13
0.0
 23
0.0
 33
0.0
 16
1.0
 26
0.0
 36
0.0
 17
0.0
 27
1.0
 37
0.0
 76
     0
330
1F
331
29
  0
MLINESTYLE
  5
18
102
{ACAD_REACTORS
330
17
102
}
330
17
100
AcDbMlineStyle
  2
Standard
 70
     0
  3

 62
   256
 51
90.0
 52
90.0
 71
     2
 49
0.5
 62
   256
  6
BYLAYER
 49
-0.5
 62
   256
  6
BYLAYER
  0
ACDBPLACEHOLDER
  5
F
102
{ACAD_REACTORS
330
E
102
}
330
E
  0
SCALE
  5
48
102
{ACAD_REACTORS
330
47
102
}
330
47
100
AcDbScale
 70
     0
300
1:1
140
1.0
141
1.0
290
     1
  0
SCALE
  5
49
102
{ACAD_REACTORS
330
47
102
}
330
47
100
AcDbScale
 70
     0
300
1:2
140
1.0
141
2.0
290
     0
  0
SCALE
  5
4A
102
{ACAD_REACTORS
330
47
102
}
330
47
100
AcDbScale
 70
     0
300
1:4
140
1.0
141
4.0
290
     0
  0
SCALE
  5
4B
102
{ACAD_REACTORS
330
47
102
}
330
47
100
AcDbScale
 70
     0
300
1:5
140
1.0
141
5.0
290
     0
  0
SCALE
  5
4C
102
{ACAD_REACTORS
330
47
102
}
330
47
100
AcDbScale
 70
     0
300
1:8
140
1.0
141
8.0
290
     0
  0
SCALE
  5
4D
102
{ACAD_REACTORS
330
47
102
}
330
47
100
AcDbScale
 70
     0
300
1:10
140
1.0
141
10.0
290
     0
  0
SCALE
  5
4E
102
{ACAD_REACTORS
330
47
102
}
330
47
100
AcDbScale
 70
     0
300
1:16
140
1.0
141
16.0
290
     0
  0
SCALE
  5
4F
102
{ACAD_REACTORS
330
47
102
}
330
47
100
AcDbScale
 70
     0
300
1:20
140
1.0
141
20.0
290
     0
  0
SCALE
  5
50
102
{ACAD_REACTORS
330
47
102
}
330
47
100
AcDbScale
 70
     0
300
1:30
140
1.0
141
30.0
290
     0
  0
SCALE
  5
51
102
{ACAD_REACTORS
330
47
102
}
330
47
100
AcDbScale
 70
     0
300
1:40
140
1.0
141
40.0
290
     0
  0
SCALE
  5
52
102
{ACAD_REACTORS
330
47
102
}
330
47
100
AcDbScale
 70
     0
300
1:50
140
1.0
141
50.0
290
     0
  0
SCALE
  5
53
102
{ACAD_REACTORS
330
47
102
}
330
47
100
AcDbScale
 70
     0
300
1:100
140
1.0
141
100.0
290
     0
  0
SCALE
  5
54
102
{ACAD_REACTORS
330
47
102
}
330
47
100
AcDbScale
 70
     0
300
2:1
140
2.0
141
1.0
290
     0
  0
SCALE
  5
55
102
{ACAD_REACTORS
330
47
102
}
330
47
100
AcDbScale
 70
     0
300
4:1
140
4.0
141
1.0
290
     0
  0
SCALE
  5
56
102
{ACAD_REACTORS
330
47
102
}
330
47
100
AcDbScale
 70
     0
300
8:1
140
8.0
141
1.0
290
     0
  0
SCALE
  5
57
102
{ACAD_REACTORS
330
47
102
}
330
47
100
AcDbScale
 70
     0
300
10:1
140
10.0
141
1.0
290
     0
  0
SCALE
  5
58
102
{ACAD_REACTORS
330
47
102
}
330
47
100
AcDbScale
 70
     0
300
100:1
140
100.0
141
1.0
290
     0
  0
SCALE
  5
59
102
{ACAD_REACTORS
330
47
102
}
330
47
100
AcDbScale
 70
     0
300
1/128" = 1'-0"
140
0.0078125
141
12.0
290
     0
  0
SCALE
  5
5A
102
{ACAD_REACTORS
330
47
102
}
330
47
100
AcDbScale
 70
     0
300
1/64" = 1'-0"
140
0.015625
141
12.0
290
     0
  0
SCALE
  5
5B
102
{ACAD_REACTORS
330
47
102
}
330
47
100
AcDbScale
 70
     0
300
1/32" = 1'-0"
140
0.03125
141
12.0
290
     0
  0
SCALE
  5
5C
102
{ACAD_REACTORS
330
47
102
}
330
47
100
AcDbScale
 70
     0
300
1/16" = 1'-0"
140
0.0625
141
12.0
290
     0
  0
SCALE
  5
5D
102
{ACAD_REACTORS
330
47
102
}
330
47
100
AcDbScale
 70
     0
300
3/32" = 1'-0"
140
0.09375
141
12.0
290
     0
  0
SCALE
  5
5E
102
{ACAD_REACTORS
330
47
102
}
330
47
100
AcDbScale
 70
     0
300
1/8" = 1'-0"
140
0.125
141
12.0
290
     0
  0
SCALE
  5
5F
102
{ACAD_REACTORS
330
47
102
}
330
47
100
AcDbScale
 70
     0
300
3/16" = 1'-0"
140
0.1875
141
12.0
290
     0
  0
SCALE
  5
60
102
{ACAD_REACTORS
330
47
102
}
330
47
100
AcDbScale
 70
     0
300
1/4" = 1'-0"
140
0.25
141
12.0
290
     0
  0
SCALE
  5
61
102
{ACAD_REACTORS
330
47
102
}
330
47
100
AcDbScale
 70
     0
300
3/8" = 1'-0"
140
0.375
141
12.0
290
     0
  0
SCALE
  5
62
102
{ACAD_REACTORS
330
47
102
}
330
47
100
AcDbScale
 70
     0
300
1/2" = 1'-0"
140
0.5
141
12.0
290
     0
  0
SCALE
  5
63
102
{ACAD_REACTORS
330
47
102
}
330
47
100
AcDbScale
 70
     0
300
3/4" = 1'-0"
140
0.75
141
12.0
290
     0
  0
SCALE
  5
64
102
{ACAD_REACTORS
330
47
102
}
330
47
100
AcDbScale
 70
     0
300
1" = 1'-0"
140
1.0
141
12.0
290
     0
  0
SCALE
  5
65
102
{ACAD_REACTORS
330
47
102
}
330
47
100
AcDbScale
 70
     0
300
1-1/2" = 1'-0"
140
1.5
141
12.0
290
     0
  0
SCALE
  5
66
102
{ACAD_REACTORS
330
47
102
}
330
47
100
AcDbScale
 70
     0
300
3" = 1'-0"
140
3.0
141
12.0
290
     0
  0
SCALE
  5
67
102
{ACAD_REACTORS
330
47
102
}
330
47
100
AcDbScale
 70
     0
300
6" = 1'-0"
140
6.0
141
12.0
290
     0
  0
SCALE
  5
68
102
{ACAD_REACTORS
330
47
102
}
330
47
100
AcDbScale
 70
     0
300
1'-0" = 1'-0"
140
12.0
141
12.0
290
     0
  0
ENDSEC
  0
EOF
