  0
SECTION
  2
HEADER
  9
$ACADVER
  1
AC1015
  9
$ACADMAINTVER
 70
     6
  9
$DWGCODEPAGE
  3
ANSI_949
  9
$INSBASE
 10
0.0
 20
0.0
 30
0.0
  9
$EXTMIN
 10
-42.54946716083423
 20
-49.97180738881174
 30
0.0
  9
$EXTMAX
 10
37.81430877653168
 20
40.37500000000004
 30
0.0
  9
$LIMMIN
 10
0.0
 20
0.0
  9
$LIMMAX
 10
420.0
 20
297.0
  9
$ORTHOMODE
 70
     0
  9
$REGENMODE
 70
     1
  9
$FILLMODE
 70
     1
  9
$QTEXTMODE
 70
     0
  9
$MIRRTEXT
 70
     1
  9
$LTSCALE
 40
1.0
  9
$ATTMODE
 70
     1
  9
$TEXTSIZE
 40
3.5
  9
$TRACEWID
 40
1.0
  9
$TEXTSTYLE
  7
Standard
  9
$CLAYER
  8
0
  9
$CELTYPE
  6
ByLayer
  9
$CECOLOR
 62
   256
  9
$CELTSCALE
 40
1.0
  9
$DISPSILH
 70
     0
  9
$DIMSCALE
 40
1.0
  9
$DIMASZ
 40
3.302
  9
$DIMEXO
 40
1.0
  9
$DIMDLI
 40
3.75
  9
$DIMRND
 40
0.0
  9
$DIMDLE
 40
0.0
  9
$DIMEXE
 40
1.0
  9
$DIMTP
 40
0.0
  9
$DIMTM
 40
0.0
  9
$DIMTXT
 40
3.5
  9
$DIMCEN
 40
2.5
  9
$DIMTSZ
 40
0.0
  9
$DIMTOL
 70
     0
  9
$DIMLIM
 70
     0
  9
$DIMTIH
 70
     1
  9
$DIMTOH
 70
     1
  9
$DIMSE1
 70
     0
  9
$DIMSE2
 70
     0
  9
$DIMTAD
 70
     1
  9
$DIMZIN
 70
     0
  9
$DIMBLK
  1

  9
$DIMASO
 70
     1
  9
$DIMSHO
 70
     1
  9
$DIMPOST
  1

  9
$DIMAPOST
  1

  9
$DIMALT
 70
     0
  9
$DIMALTD
 70
     3
  9
$DIMALTF
 40
0.0393700787401575
  9
$DIMLFAC
 40
1.0
  9
$DIMTOFL
 70
     1
  9
$DIMTVP
 40
0.0
  9
$DIMTIX
 70
     0
  9
$DIMSOXD
 70
     0
  9
$DIMSAH
 70
     0
  9
$DIMBLK1
  1

  9
$DIMBLK2
  1

  9
$DIMSTYLE
  2
ISO-25
  9
$DIMCLRD
 70
     0
  9
$DIMCLRE
 70
     0
  9
$DIMCLRT
 70
     0
  9
$DIMTFAC
 40
1.0
  9
$DIMGAP
 40
1.524
  9
$DIMJUST
 70
     0
  9
$DIMSD1
 70
     0
  9
$DIMSD2
 70
     0
  9
$DIMTOLJ
 70
     0
  9
$DIMTZIN
 70
     0
  9
$DIMALTZ
 70
     0
  9
$DIMALTTZ
 70
     0
  9
$DIMUPT
 70
     0
  9
$DIMDEC
 70
     2
  9
$DIMTDEC
 70
     2
  9
$DIMALTU
 70
     2
  9
$DIMALTTD
 70
     3
  9
$DIMTXSTY
  7
Standard
  9
$DIMAUNIT
 70
     0
  9
$DIMADEC
 70
     2
  9
$DIMALTRND
 40
0.0
  9
$DIMAZIN
 70
     0
  9
$DIMDSEP
 70
    44
  9
$DIMATFIT
 70
     3
  9
$DIMFRAC
 70
     0
  9
$DIMLDRBLK
  1

  9
$DIMLUNIT
 70
     2
  9
$DIMLWD
 70
    -2
  9
$DIMLWE
 70
    -2
  9
$DIMTMOVE
 70
     0
  9
$LUNITS
 70
     2
  9
$LUPREC
 70
     2
  9
$SKETCHINC
 40
1.0
  9
$FILLETRAD
 40
10.0
  9
$AUNITS
 70
     0
  9
$AUPREC
 70
     2
  9
$MENU
  1
.
  9
$ELEVATION
 40
0.0
  9
$PELEVATION
 40
0.0
  9
$THICKNESS
 40
0.0
  9
$LIMCHECK
 70
     0
  9
$CHAMFERA
 40
0.0
  9
$CHAMFERB
 40
0.0
  9
$CHAMFERC
 40
0.0
  9
$CHAMFERD
 40
0.0
  9
$SKPOLY
 70
     0
  9
$TDCREATE
 40
2458260.774779791
  9
$TDUCREATE
 40
2458260.399779791
  9
$TDUPDATE
 40
2459677.750801331
  9
$TDUUPDATE
 40
2459677.375801331
  9
$TDINDWG
 40
0.002121875
  9
$TDUSRTIMER
 40
0.000542662
  9
$USRTIMER
 70
     1
  9
$ANGBASE
 50
0.0
  9
$ANGDIR
 70
     0
  9
$PDMODE
 70
     0
  9
$PDSIZE
 40
-1.0
  9
$PLINEWID
 40
0.0
  9
$SPLFRAME
 70
     0
  9
$SPLINETYPE
 70
     6
  9
$SPLINESEGS
 70
     8
  9
$HANDSEED
  5
18F
  9
$SURFTAB1
 70
     6
  9
$SURFTAB2
 70
     6
  9
$SURFTYPE
 70
     6
  9
$SURFU
 70
     6
  9
$SURFV
 70
     6
  9
$UCSBASE
  2

  9
$UCSNAME
  2

  9
$UCSORG
 10
0.0
 20
0.0
 30
0.0
  9
$UCSXDIR
 10
1.0
 20
0.0
 30
0.0
  9
$UCSYDIR
 10
0.0
 20
1.0
 30
0.0
  9
$UCSORTHOREF
  2

  9
$UCSORTHOVIEW
 70
     0
  9
$UCSORGTOP
 10
0.0
 20
0.0
 30
0.0
  9
$UCSORGBOTTOM
 10
0.0
 20
0.0
 30
0.0
  9
$UCSORGLEFT
 10
0.0
 20
0.0
 30
0.0
  9
$UCSORGRIGHT
 10
0.0
 20
0.0
 30
0.0
  9
$UCSORGFRONT
 10
0.0
 20
0.0
 30
0.0
  9
$UCSORGBACK
 10
0.0
 20
0.0
 30
0.0
  9
$PUCSBASE
  2

  9
$PUCSNAME
  2

  9
$PUCSORG
 10
0.0
 20
0.0
 30
0.0
  9
$PUCSXDIR
 10
1.0
 20
0.0
 30
0.0
  9
$PUCSYDIR
 10
0.0
 20
1.0
 30
0.0
  9
$PUCSORTHOREF
  2

  9
$PUCSORTHOVIEW
 70
     0
  9
$PUCSORGTOP
 10
0.0
 20
0.0
 30
0.0
  9
$PUCSORGBOTTOM
 10
0.0
 20
0.0
 30
0.0
  9
$PUCSORGLEFT
 10
0.0
 20
0.0
 30
0.0
  9
$PUCSORGRIGHT
 10
0.0
 20
0.0
 30
0.0
  9
$PUCSORGFRONT
 10
0.0
 20
0.0
 30
0.0
  9
$PUCSORGBACK
 10
0.0
 20
0.0
 30
0.0
  9
$USERI1
 70
     0
  9
$USERI2
 70
     0
  9
$USERI3
 70
     0
  9
$USERI4
 70
     0
  9
$USERI5
 70
     0
  9
$USERR1
 40
0.0
  9
$USERR2
 40
0.0
  9
$USERR3
 40
0.0
  9
$USERR4
 40
0.0
  9
$USERR5
 40
0.0
  9
$WORLDVIEW
 70
     1
  9
$SHADEDGE
 70
     3
  9
$SHADEDIF
 70
    70
  9
$TILEMODE
 70
     1
  9
$MAXACTVP
 70
    64
  9
$PINSBASE
 10
0.0
 20
0.0
 30
0.0
  9
$PLIMCHECK
 70
     0
  9
$PEXTMIN
 10
1.000000000000000E+20
 20
1.000000000000000E+20
 30
1.000000000000000E+20
  9
$PEXTMAX
 10
-1.000000000000000E+20
 20
-1.000000000000000E+20
 30
-1.000000000000000E+20
  9
$PLIMMIN
 10
0.0
 20
0.0
  9
$PLIMMAX
 10
0.0
 20
0.0
  9
$UNITMODE
 70
     0
  9
$VISRETAIN
 70
     1
  9
$PLINEGEN
 70
     0
  9
$PSLTSCALE
 70
     1
  9
$TREEDEPTH
 70
  3020
  9
$CMLSTYLE
  2
Standard
  9
$CMLJUST
 70
     0
  9
$CMLSCALE
 40
20.0
  9
$PROXYGRAPHICS
 70
     1
  9
$MEASUREMENT
 70
     1
  9
$CELWEIGHT
370
    -1
  9
$ENDCAPS
280
     0
  9
$JOINSTYLE
280
     0
  9
$LWDISPLAY
290
     1
  9
$INSUNITS
 70
     4
  9
$HYPERLINKBASE
  1

  9
$STYLESHEET
  1

  9
$XEDIT
290
     1
  9
$CEPSNTYPE
380
     0
  9
$PSTYLEMODE
290
     1
  9
$FINGERPRINTGUID
  2
{B8E522BD-D0C9-4AB0-A723-87C9604C1644}
  9
$VERSIONGUID
  2
{FAEB1C32-E019-11D5-929B-00C0DF256EC4}
  9
$EXTNAMES
290
     1
  9
$PSVPSCALE
 40
0.0
  9
$OLESTARTUP
290
     0
  0
ENDSEC
  0
SECTION
  2
CLASSES
  0
CLASS
  1
ACDBDICTIONARYWDFLT
  2
AcDbDictionaryWithDefault
  3
ObjectDBX Classes
 90
        0
280
     0
281
     0
  0
CLASS
  1
VISUALSTYLE
  2
AcDbVisualStyle
  3
ObjectDBX Classes
 90
     4095
280
     0
281
     0
  0
CLASS
  1
MATERIAL
  2
AcDbMaterial
  3
ObjectDBX Classes
 90
     1153
280
     0
281
     0
  0
CLASS
  1
SCALE
  2
AcDbScale
  3
ObjectDBX Classes
 90
     1153
280
     0
281
     0
  0
CLASS
  1
TABLESTYLE
  2
AcDbTableStyle
  3
ObjectDBX Classes
 90
     4095
280
     0
281
     0
  0
CLASS
  1
MLEADERSTYLE
  2
AcDbMLeaderStyle
  3
ACDB_MLEADERSTYLE_CLASS
 90
     4095
280
     0
281
     0
  0
CLASS
  1
SUN
  2
AcDbSun
  3
SCENEOE
 90
     1153
280
     0
281
     0
  0
CLASS
  1
ACDBPLACEHOLDER
  2
AcDbPlaceHolder
  3
ObjectDBX Classes
 90
        0
280
     0
281
     0
  0
CLASS
  1
LAYOUT
  2
AcDbLayout
  3
ObjectDBX Classes
 90
        0
280
     0
281
     0
  0
ENDSEC
  0
SECTION
  2
TABLES
  0
TABLE
  2
VPORT
  5
8
330
0
100
AcDbSymbolTable
 70
     1
  0
VPORT
  5
29
330
8
100
AcDbSymbolTableRecord
100
AcDbViewportTableRecord
  2
*Active
 70
     0
 10
0.0
 20
0.0
 11
1.0
 21
1.0
 12
-8.896395666768406
 22
-3.646132233363192
 13
0.0
 23
0.0
 14
10.0
 24
10.0
 15
10.0
 25
10.0
 16
0.0
 26
0.0
 36
1.0
 17
0.0
 27
0.0
 37
0.0
 40
22.70763212307591
 41
1.531481481481482
 42
50.0
 43
0.0
 44
0.0
 50
0.0
 51
0.0
 71
    16
 72
  2000
 73
     1
 74
     3
 75
     0
 76
     0
 77
     0
 78
     0
281
     0
 65
     1
110
0.0
120
0.0
130
0.0
111
1.0
121
0.0
131
0.0
112
0.0
122
1.0
132
0.0
 79
     0
146
0.0
  0
ENDTAB
  0
TABLE
  2
LTYPE
  5
5
330
0
100
AcDbSymbolTable
 70
     6
  0
LTYPE
  5
14
330
5
100
AcDbSymbolTableRecord
100
AcDbLinetypeTableRecord
  2
ByBlock
 70
     0
  3

 72
    65
 73
     0
 40
0.0
  0
LTYPE
  5
15
330
5
100
AcDbSymbolTableRecord
100
AcDbLinetypeTableRecord
  2
ByLayer
 70
     0
  3

 72
    65
 73
     0
 40
0.0
  0
LTYPE
  5
16
330
5
100
AcDbSymbolTableRecord
100
AcDbLinetypeTableRecord
  2
Continuous
 70
     0
  3
Solid line
 72
    65
 73
     0
 40
0.0
  0
LTYPE
  5
6E
330
5
100
AcDbSymbolTableRecord
100
AcDbLinetypeTableRecord
  2
HIDDEN
 70
     0
  3
Hidden __ __ __ __ __ __ __ __ __ __ __ __ __ __
 72
    65
 73
     2
 40
1.905
 49
1.27
 74
     0
 49
-0.635
 74
     0
  0
LTYPE
  5
6F
330
5
100
AcDbSymbolTableRecord
100
AcDbLinetypeTableRecord
  2
PHANTOM
 70
     0
  3
Phantom ______  __  __  ______  __  __  ______
 72
    65
 73
     6
 40
12.7
 49
6.35
 74
     0
 49
-1.27
 74
     0
 49
1.27
 74
     0
 49
-1.27
 74
     0
 49
1.27
 74
     0
 49
-1.27
 74
     0
  0
LTYPE
  5
70
330
5
100
AcDbSymbolTableRecord
100
AcDbLinetypeTableRecord
  2
CENTER
 70
     0
  3
Center ____ _ ____ _ ____ _ ____ _ ____ _ ____
 72
    65
 73
     4
 40
10.16
 49
6.35
 74
     0
 49
-1.27
 74
     0
 49
1.27
 74
     0
 49
-1.27
 74
     0
  0
LTYPE
  5
71
330
5
100
AcDbSymbolTableRecord
100
AcDbLinetypeTableRecord
  2
CENTERX2
 70
     0
  3
Center (2x) ________  __  ________  __  _____
 72
    65
 73
     4
 40
20.32
 49
12.7
 74
     0
 49
-2.54
 74
     0
 49
2.54
 74
     0
 49
-2.54
 74
     0
  0
LTYPE
  5
72
330
5
100
AcDbSymbolTableRecord
100
AcDbLinetypeTableRecord
  2
DOT2
 70
     0
  3
Dot (.5x) ........................................
 72
    65
 73
     2
 40
0.635
 49
0.0
 74
     0
 49
-0.635
 74
     0
  0
ENDTAB
  0
TABLE
  2
LAYER
  5
2
330
0
100
AcDbSymbolTable
 70
    17
  0
LAYER
  5
10
330
2
100
AcDbSymbolTableRecord
100
AcDbLayerTableRecord
  2
0
 70
     0
 62
     7
  6
Continuous
370
    -3
390
F
  0
LAYER
  5
73
330
2
100
AcDbSymbolTableRecord
100
AcDbLayerTableRecord
  2
FORMAT
 70
     0
 62
     2
  6
Continuous
370
    -3
390
F
  0
LAYER
  5
74
330
2
100
AcDbSymbolTableRecord
100
AcDbLayerTableRecord
  2
외형선
 70
     0
 62
   100
  6
Continuous
370
    35
390
F
  0
LAYER
  5
75
330
2
100
AcDbSymbolTableRecord
100
AcDbLayerTableRecord
  2
숨은선
 70
     0
 62
     2
  6
HIDDEN
370
    25
390
F
  0
LAYER
  5
76
330
2
100
AcDbSymbolTableRecord
100
AcDbLayerTableRecord
  2
중심선
 70
     0
 62
     1
  6
CENTERX2
370
    -3
390
F
  0
LAYER
  5
77
330
2
100
AcDbSymbolTableRecord
100
AcDbLayerTableRecord
  2
파단선
 70
     0
 62
     4
  6
Continuous
370
    -3
390
F
  0
LAYER
  5
78
330
2
100
AcDbSymbolTableRecord
100
AcDbLayerTableRecord
  2
해칭선
 70
     0
 62
   100
  6
Continuous
370
    -3
390
F
  0
LAYER
  5
79
330
2
100
AcDbSymbolTableRecord
100
AcDbLayerTableRecord
  2
가는실선
 70
     0
 62
     4
  6
Continuous
370
    -3
390
F
  0
LAYER
  5
7A
330
2
100
AcDbSymbolTableRecord
100
AcDbLayerTableRecord
  2
치수_보조선
 70
     0
 62
     4
  6
Continuous
370
    -3
390
F
  0
LAYER
  5
7B
330
2
100
AcDbSymbolTableRecord
100
AcDbLayerTableRecord
  2
치수문자_일반주서
 70
     0
 62
     7
  6
Continuous
370
    25
390
F
  0
LAYER
  5
7C
330
2
100
AcDbSymbolTableRecord
100
AcDbLayerTableRecord
  2
개별주서
 70
     0
 62
   100
  6
Continuous
370
    35
390
F
  0
LAYER
  5
7D
330
2
100
AcDbSymbolTableRecord
100
AcDbLayerTableRecord
  2
중간선
 70
     0
 62
     2
  6
Continuous
370
    25
390
F
  0
LAYER
  5
7E
330
2
100
AcDbSymbolTableRecord
100
AcDbLayerTableRecord
  2
윤곽선
 70
     0
 62
     3
  6
Continuous
370
    50
390
F
  0
LAYER
  5
7F
330
2
100
AcDbSymbolTableRecord
100
AcDbLayerTableRecord
  2
중심마크
 70
     0
 62
   100
  6
Continuous
370
    35
390
F
  0
LAYER
  5
80
330
2
100
AcDbSymbolTableRecord
100
AcDbLayerTableRecord
  2
가상선
 70
     0
 62
     4
  6
PHANTOM
370
    -3
390
F
  0
LAYER
  5
81
330
2
100
AcDbSymbolTableRecord
100
AcDbLayerTableRecord
  2
특수지정선
 70
     0
 62
     5
  6
CENTERX2
370
    70
390
F
  0
LAYER
  5
157
330
2
100
AcDbSymbolTableRecord
100
AcDbLayerTableRecord
  2
Defpoints
 70
     0
 62
     7
  6
Continuous
290
     0
370
    -3
390
F
  0
ENDTAB
  0
TABLE
  2
STYLE
  5
3
330
0
100
AcDbSymbolTable
 70
     2
  0
STYLE
  5
11
330
3
100
AcDbSymbolTableRecord
100
AcDbTextStyleTableRecord
  2
Standard
 70
     0
 40
0.0
 41
1.0
 50
0.0
 71
     0
 42
3.5
  3
txt
  4

  0
STYLE
  5
97
330
3
100
AcDbSymbolTableRecord
100
AcDbTextStyleTableRecord
  2
SLDTEXTSTYLE0
 70
     0
 40
0.0
 41
0.75
 50
0.0
 71
     0
 42
3.5
  3
TXT
  4

  0
ENDTAB
  0
TABLE
  2
VIEW
  5
6
330
0
100
AcDbSymbolTable
 70
     0
  0
ENDTAB
  0
TABLE
  2
UCS
  5
7
330
0
100
AcDbSymbolTable
 70
     0
  0
ENDTAB
  0
TABLE
  2
APPID
  5
9
330
0
100
AcDbSymbolTable
 70
     2
  0
APPID
  5
12
330
9
100
AcDbSymbolTableRecord
100
AcDbRegAppTableRecord
  2
ACAD
 70
     0
  0
APPID
  5
15B
330
9
100
AcDbSymbolTableRecord
100
AcDbRegAppTableRecord
  2
PE_URL
 70
     0
  0
ENDTAB
  0
TABLE
  2
DIMSTYLE
  5
A
330
0
100
AcDbSymbolTable
 70
     5
100
AcDbDimStyleTable
  0
DIMSTYLE
105
27
330
A
100
AcDbSymbolTableRecord
100
AcDbDimStyleTableRecord
  2
ISO-25
 70
     0
 41
2.5
 42
0.625
 43
3.75
 44
1.25
 73
     0
 74
     0
 77
     1
 78
     8
140
2.5
141
2.5
143
0.03937007874016
147
0.625
171
     3
172
     1
178
     0
271
     2
272
     2
274
     3
278
    44
283
     0
284
     8
340
11
  0
DIMSTYLE
105
F1
102
{ACAD_REACTORS
330
F0
102
}
330
A
100
AcDbSymbolTableRecord
100
AcDbDimStyleTableRecord
  2
SLDDIMSTYLE0
 70
     0
 41
3.302
 44
0.0
 45
0.000000001
 73
     0
 74
     0
 77
     1
 78
    12
 79
     3
140
3.5
147
0.875
172
     1
173
     1
178
     0
271
     1
272
     1
276
     2
284
    12
289
     0
340
97
  0
DIMSTYLE
105
FF
102
{ACAD_REACTORS
330
FE
102
}
330
A
100
AcDbSymbolTableRecord
100
AcDbDimStyleTableRecord
  2
SLDDIMSTYLE1
 70
     0
 41
3.302
 44
0.0
 45
0.000000001
 73
     0
 74
     0
 77
     1
 78
    12
 79
     3
140
3.5
147
0.875
173
     1
178
     0
271
     2
272
     2
276
     2
284
    12
340
97
  0
DIMSTYLE
105
10A
102
{ACAD_REACTORS
330
109
330
124
102
}
330
A
100
AcDbSymbolTableRecord
100
AcDbDimStyleTableRecord
  2
SLDDIMSTYLE2
 70
     0
 41
3.302
 44
0.0
 45
0.000000001
 73
     0
 74
     0
 77
     1
 78
    12
 79
     3
140
3.5
147
0.875
172
     1
173
     1
178
     0
271
     2
272
     2
276
     2
284
    12
289
     0
340
97
  0
DIMSTYLE
105
118
102
{ACAD_REACTORS
330
117
102
}
330
A
100
AcDbSymbolTableRecord
100
AcDbDimStyleTableRecord
  2
SLDDIMSTYLE3
 70
     0
 41
3.302
 44
0.0
 45
0.000000001
 73
     0
 74
     0
 77
     1
 78
     4
 79
     1
140
3.5
147
0.875
172
     1
173
     1
178
     0
271
     2
272
     2
276
     2
284
    12
289
     0
340
97
  0
ENDTAB
  0
TABLE
  2
BLOCK_RECORD
  5
1
330
0
100
AcDbSymbolTable
 70
     8
  0
BLOCK_RECORD
  5
1F
102
{ACAD_XDICTIONARY
360
18B
102
}
330
1
100
AcDbSymbolTableRecord
100
AcDbBlockTableRecord
  2
*Model_Space
340
22
  0
BLOCK_RECORD
  5
1B
330
1
100
AcDbSymbolTableRecord
100
AcDbBlockTableRecord
  2
*Paper_Space
340
1E
  0
BLOCK_RECORD
  5
23
330
1
100
AcDbSymbolTableRecord
100
AcDbBlockTableRecord
  2
*Paper_Space0
340
26
  0
BLOCK_RECORD
  5
82
330
1
100
AcDbSymbolTableRecord
100
AcDbBlockTableRecord
  2
블럭10
340
0
102
{BLKREFS
331
E9
102
}
  0
BLOCK_RECORD
  5
F2
330
1
100
AcDbSymbolTableRecord
100
AcDbBlockTableRecord
  2
_D
340
0
  0
BLOCK_RECORD
  5
100
330
1
100
AcDbSymbolTableRecord
100
AcDbBlockTableRecord
  2
_D_1
340
0
  0
BLOCK_RECORD
  5
10B
330
1
100
AcDbSymbolTableRecord
100
AcDbBlockTableRecord
  2
_D_2
340
0
  0
BLOCK_RECORD
  5
119
330
1
100
AcDbSymbolTableRecord
100
AcDbBlockTableRecord
  2
_D_3
340
0
  0
BLOCK_RECORD
  5
125
330
1
100
AcDbSymbolTableRecord
100
AcDbBlockTableRecord
  2
_D_4
340
0
  0
BLOCK_RECORD
  5
12E
330
1
100
AcDbSymbolTableRecord
100
AcDbBlockTableRecord
  2
SW_DOWELSYMBOL_0
340
0
102
{BLKREFS
331
134
102
}
  0
ENDTAB
  0
ENDSEC
  0
SECTION
  2
BLOCKS
  0
BLOCK
  5
20
330
1F
100
AcDbEntity
  8
0
100
AcDbBlockBegin
  2
*Model_Space
 70
     0
 10
0.0
 20
0.0
 30
0.0
  3
*Model_Space
  1

  0
ENDBLK
  5
21
330
1F
100
AcDbEntity
  8
0
100
AcDbBlockEnd
  0
BLOCK
  5
1C
330
1B
100
AcDbEntity
 67
     1
  8
0
100
AcDbBlockBegin
  2
*Paper_Space
 70
     0
 10
0.0
 20
0.0
 30
0.0
  3
*Paper_Space
  1

  0
ENDBLK
  5
1D
330
1B
100
AcDbEntity
 67
     1
  8
0
100
AcDbBlockEnd
  0
BLOCK
  5
24
330
23
100
AcDbEntity
  8
0
100
AcDbBlockBegin
  2
*Paper_Space0
 70
     0
 10
0.0
 20
0.0
 30
0.0
  3
*Paper_Space0
  1

  0
ENDBLK
  5
25
330
23
100
AcDbEntity
  8
0
100
AcDbBlockEnd
  0
BLOCK
  5
83
330
82
100
AcDbEntity
  8
0
100
AcDbBlockBegin
  2
블럭10
 70
     2
 10
0.0
 20
0.0
 30
0.0
  3
블럭10
  1

  0
ELLIPSE
  5
85
330
82
100
AcDbEntity
  8
중심선
100
AcDbEllipse
 10
20.54032771741204
 20
12.0471743016438
 30
0.0
 11
6.600054785286829
 21
-1.261213355974178E-13
 31
0.0
210
0.0
220
0.0
230
1.0
 40
0.636358354079598
 41
0.9219305317359503
 42
6.513795318482858
  0
ELLIPSE
  5
86
330
82
100
AcDbEntity
  8
중심선
100
AcDbEllipse
 10
20.54032771746488
 20
12.04717430159265
 30
0.0
 11
3.960054785062283
 21
1.540847449632565E-10
 31
0.0
210
0.0
220
0.0
230
1.0
 40
0.3939339440162632
 41
1.131841032648279
 42
5.62031148352944
  0
LINE
  5
87
330
82
100
AcDbEntity
  8
중심선
100
AcDbLine
 10
2.268634060543552
 20
16.24717430164393
 30
0.0
 11
5.714909304380834
 21
16.24717430164393
 31
0.0
  0
LINE
  5
88
330
82
100
AcDbEntity
  8
중심선
100
AcDbLine
 10
5.245725140726316
 20
7.84717430164391
 30
0.0
 11
8.692000384563599
 21
7.84717430164391
 31
0.0
  0
LINE
  5
89
330
82
100
AcDbEntity
  8
중심선
100
AcDbLine
 10
15.74043728645272
 20
16.24717430164393
 30
0.0
 11
8.692000384563599
 21
7.84717430164391
 31
0.0
  0
LINE
  5
8A
330
82
100
AcDbEntity
  8
중심선
100
AcDbLine
 10
0.1404042013395286
 20
13.71084872107135
 30
0.0
 11
3.58671253028996
 21
13.71088815037384
 31
0.0
  0
LINE
  5
8B
330
82
100
AcDbEntity
  8
중심선
100
AcDbLine
 10
2.750260043222114
 20
10.84717430164391
 30
0.0
 11
6.196535287059397
 21
10.84717430164391
 31
0.0
  0
LINE
  5
8C
330
82
100
AcDbEntity
  8
중심선
100
AcDbLine
 10
12.29416204261559
 20
16.24717430164393
 30
0.0
 11
5.245725140726316
 21
7.84717430164391
 31
0.0
  0
LINE
  5
8D
330
82
100
AcDbEntity
  8
중심선
100
AcDbLine
 10
10.72767329541681
 20
16.24717430164393
 30
0.0
 11
6.196535287059397
 21
10.84717430164391
 31
0.0
  0
LINE
  5
8E
330
82
100
AcDbEntity
  8
중심선
100
AcDbLine
 10
7.28139805157953
 20
16.24717430164393
 30
0.0
 11
2.750260043222114
 21
10.84717430164391
 31
0.0
  0
LINE
  5
8F
330
82
100
AcDbEntity
  8
중심선
100
AcDbLine
 10
5.714909304380834
 20
16.24717430164393
 30
0.0
 11
3.58671253028996
 21
13.71088815037384
 31
0.0
  0
LINE
  5
90
330
82
100
AcDbEntity
  8
중심선
100
AcDbLine
 10
2.268634060543552
 20
16.24717430164393
 30
0.0
 11
0.1404042013395286
 21
13.71084872107135
 31
0.0
  0
LINE
  5
91
330
82
100
AcDbEntity
  8
중심선
100
AcDbLine
 10
7.28139805157953
 20
16.24717430164393
 30
0.0
 11
10.72767329541681
 21
16.24717430164393
 31
0.0
  0
LINE
  5
92
330
82
100
AcDbEntity
  8
중심선
100
AcDbLine
 10
12.29416204261559
 20
16.24717430164393
 30
0.0
 11
15.74043728645272
 21
16.24717430164393
 31
0.0
  0
LINE
  5
93
330
82
100
AcDbEntity
  8
중심선
100
AcDbLine
 10
19.22036997980202
 20
11.08717430171403
 30
0.0
 11
23.66174974927406
 21
11.08717430171406
 31
0.0
  0
LINE
  5
94
330
82
100
AcDbEntity
  8
중심선
100
AcDbLine
 10
19.22039502424796
 20
13.00717430171391
 30
0.0
 11
19.22036997980202
 21
11.08717430171403
 31
0.0
  0
LINE
  5
95
330
82
100
AcDbEntity
  8
중심선
100
AcDbLine
 10
19.22039502424796
 20
13.00717430171391
 30
0.0
 11
26.96566020931264
 21
13.00717430171391
 31
0.0
  0
LINE
  5
96
330
82
100
AcDbEntity
  8
중심선
100
AcDbLine
 10
22.22332737316547
 20
13.45928029700563
 30
0.0
 11
24.52862924686651
 21
15.39360700705356
 31
0.0
  0
ATTDEF
  5
98
330
82
100
AcDbEntity
  8
FORMAT
 62
     2
100
AcDbText
 10
-16.11926103943555
 20
2.075366912832191
 30
0.0
 40
4.233333333333333
  1
SEME7301220E [ 4 FLUTE ]
 41
0.75
  7
SLDTEXTSTYLE0
 11
-16.11926103943555
 21
-0.0412997538344756
 31
0.0
100
AcDbAttributeDefinition
  3

  2
AUTOATTR0
 70
     0
 74
     1
  0
ENDBLK
  5
84
330
82
100
AcDbEntity
  8
0
100
AcDbBlockEnd
  0
BLOCK
  5
F3
330
F2
100
AcDbEntity
  8
0
100
AcDbBlockBegin
  2
_D
 70
     0
 10
0.0
 20
0.0
 30
0.0
  3
_D
  1

  0
LINE
  5
F5
330
F2
100
AcDbEntity
  8
치수문자_일반주서
 62
     0
370
    -2
100
AcDbLine
 10
25.38067240078568
 20
-0.6000000000000015
 30
0.0
 11
37.26397544319833
 21
-0.599999999999957
 31
0.0
  0
LINE
  5
F6
330
F2
100
AcDbEntity
  8
치수문자_일반주서
 62
     0
370
    -2
100
AcDbLine
 10
25.38067240078568
 20
0.600000000000006
 30
0.0
 11
37.26397544319832
 21
0.6000000000000494
 31
0.0
  0
LINE
  5
F7
330
F2
100
AcDbEntity
  8
치수문자_일반주서
 62
     0
370
    -2
100
AcDbLine
 10
37.26397544319832
 20
0.6000000000000494
 30
0.0
 11
37.26397544319823
 21
15.95400000000005
 31
0.0
  0
LINE
  5
F8
330
F2
100
AcDbEntity
  8
치수문자_일반주서
 62
     0
370
    -2
100
AcDbLine
 10
37.26397544319833
 20
-0.599999999999957
 30
0.0
 11
37.26397544319832
 21
0.6000000000000494
 31
0.0
  0
LINE
  5
F9
330
F2
100
AcDbEntity
  8
치수문자_일반주서
 62
     0
370
    -2
100
AcDbLine
 10
37.26397544319835
 20
-3.901999999999957
 30
0.0
 11
37.26397544319837
 21
-7.203999999999957
 31
0.0
  0
LINE
  5
FA
330
F2
100
AcDbEntity
  8
치수문자_일반주서
 62
     0
370
    -2
100
AcDbLine
 10
37.2639754431983
 20
3.902000000000049
 30
0.0
 11
37.26397544319828
 21
7.204000000000049
 31
0.0
  0
SOLID
  5
FB
330
F2
100
AcDbEntity
  8
치수문자_일반주서
 62
     0
100
AcDbTrace
 10
37.81430877653168
 20
-3.901999999999954
 30
0.0
 11
36.71364210986501
 21
-3.90199999999996
 31
0.0
 12
37.26397544319833
 22
-0.599999999999957
 32
0.0
 13
37.26397544319833
 23
-0.599999999999957
 33
0.0
  0
SOLID
  5
FC
330
F2
100
AcDbEntity
  8
치수문자_일반주서
 62
     0
100
AcDbTrace
 10
36.71364210986496
 20
3.902000000000046
 30
0.0
 11
37.81430877653163
 21
3.902000000000053
 31
0.0
 12
37.26397544319832
 22
0.6000000000000494
 32
0.0
 13
37.26397544319832
 23
0.6000000000000494
 33
0.0
  0
MTEXT
  5
FD
330
F2
100
AcDbEntity
  8
치수문자_일반주서
 62
     0
100
AcDbMText
 10
32.88897544319826
 20
11.57900000000002
 30
0.0
 40
3.5
 41
0.0
 71
     2
 72
     1
  1
\A1;%%c1.2
  7
SLDTEXTSTYLE0
 11
-5.921189464667465E-15
 21
1.0
 31
0.0
 73
     1
 44
1.0
  0
POINT
  5
158
330
F2
100
AcDbEntity
  8
Defpoints
 62
     0
100
AcDbPoint
 10
25.31817240078568
 20
-0.6000000000000018
 30
0.0
  0
POINT
  5
159
330
F2
100
AcDbEntity
  8
Defpoints
 62
     0
100
AcDbPoint
 10
25.31817240078568
 20
0.6000000000000058
 30
0.0
  0
POINT
  5
15A
330
F2
100
AcDbEntity
  8
Defpoints
 62
     0
100
AcDbPoint
 10
37.26397544319833
 20
0.6000000000000504
 30
0.0
  0
ENDBLK
  5
F4
330
F2
100
AcDbEntity
  8
0
100
AcDbBlockEnd
  0
BLOCK
  5
101
330
100
100
AcDbEntity
  8
0
100
AcDbBlockBegin
  2
_D_1
 70
     0
 10
0.0
 20
0.0
 30
0.0
  3
_D_1
  1

  0
LINE
  5
103
330
100
100
AcDbEntity
  8
치수문자_일반주서
 62
     0
370
    -2
100
AcDbLine
 10
-24.68182759921433
 20
1.562499999999995
 30
0.0
 11
-24.68182759921433
 21
36.00000000000003
 31
0.0
  0
LINE
  5
104
330
100
100
AcDbEntity
  8
치수문자_일반주서
 62
     0
370
    -2
100
AcDbLine
 10
25.31817240078567
 20
0.0025000000000021
 30
0.0
 11
25.31817240078567
 21
36.00000000000003
 31
0.0
  0
LINE
  5
105
330
100
100
AcDbEntity
  8
치수문자_일반주서
 62
     0
370
    -2
100
AcDbLine
 10
-21.37982759921433
 20
36.00000000000003
 30
0.0
 11
22.01617240078567
 21
36.00000000000003
 31
0.0
  0
SOLID
  5
106
330
100
100
AcDbEntity
  8
치수문자_일반주서
 62
     0
100
AcDbTrace
 10
-21.37982759921433
 20
36.55033333333336
 30
0.0
 11
-21.37982759921433
 21
35.44966666666669
 31
0.0
 12
-24.68182759921433
 22
36.00000000000003
 32
0.0
 13
-24.68182759921433
 23
36.00000000000003
 33
0.0
  0
SOLID
  5
107
330
100
100
AcDbEntity
  8
치수문자_일반주서
 62
     0
100
AcDbTrace
 10
22.01617240078567
 20
35.44966666666669
 30
0.0
 11
22.01617240078567
 21
36.55033333333336
 31
0.0
 12
25.31817240078567
 22
36.00000000000003
 32
0.0
 13
25.31817240078567
 23
36.00000000000003
 33
0.0
  0
MTEXT
  5
108
330
100
100
AcDbEntity
  8
치수문자_일반주서
 62
     0
100
AcDbMText
 10
0.3181724007856794
 20
40.37500000000003
 30
0.0
 40
3.5
 41
0.0
 71
     2
 72
     1
  1
\A1;50
  7
SLDTEXTSTYLE0
 73
     1
 44
1.0
  0
POINT
  5
161
330
100
100
AcDbEntity
  8
Defpoints
 62
     0
100
AcDbPoint
 10
-24.68182759921433
 20
1.499999999999995
 30
0.0
  0
POINT
  5
162
330
100
100
AcDbEntity
  8
Defpoints
 62
     0
100
AcDbPoint
 10
25.31817240078567
 20
-0.0599999999999979
 30
0.0
  0
POINT
  5
163
330
100
100
AcDbEntity
  8
Defpoints
 62
     0
100
AcDbPoint
 10
25.31817240078567
 20
36.00000000000003
 30
0.0
  0
ENDBLK
  5
102
330
100
100
AcDbEntity
  8
0
100
AcDbBlockEnd
  0
BLOCK
  5
10C
330
10B
100
AcDbEntity
  8
0
100
AcDbBlockBegin
  2
_D_2
 70
     0
 10
0.0
 20
0.0
 30
0.0
  3
_D_2
  1

  0
LINE
  5
10E
330
10B
100
AcDbEntity
  8
치수문자_일반주서
 62
     0
370
    -2
100
AcDbLine
 10
-24.24432759921434
 20
2.000000000000004
 30
0.0
 11
-38.17446716083423
 21
1.999999999999952
 31
0.0
  0
LINE
  5
10F
330
10B
100
AcDbEntity
  8
치수문자_일반주서
 62
     0
370
    -2
100
AcDbLine
 10
-24.24432759921434
 20
-1.999999999999999
 30
0.0
 11
-38.17446716083422
 21
-2.000000000000051
 31
0.0
  0
LINE
  5
110
330
10B
100
AcDbEntity
  8
치수문자_일반주서
 62
     0
370
    -2
100
AcDbLine
 10
-38.17446716083422
 20
-1.302000000000048
 30
0.0
 11
-38.17446716083423
 21
1.301999999999949
 31
0.0
  0
SOLID
  5
111
330
10B
100
AcDbEntity
  8
치수문자_일반주서
 62
     0
100
AcDbTrace
 10
-37.62413382750088
 20
-1.302000000000046
 30
0.0
 11
-38.72480049416755
 21
-1.30200000000005
 31
0.0
 12
-38.17446716083423
 22
1.999999999999952
 32
0.0
 13
-38.17446716083423
 23
1.999999999999952
 33
0.0
  0
SOLID
  5
112
330
10B
100
AcDbEntity
  8
치수문자_일반주서
 62
     0
100
AcDbTrace
 10
-38.72480049416757
 20
1.301999999999947
 30
0.0
 11
-37.6241338275009
 21
1.301999999999951
 31
0.0
 12
-38.17446716083422
 22
-2.000000000000051
 32
0.0
 13
-38.17446716083422
 23
-2.000000000000051
 33
0.0
  0
MTEXT
  5
113
330
10B
100
AcDbEntity
  8
치수문자_일반주서
 62
     0
100
AcDbMText
 10
-42.54946716083423
 20
-0.7264638992030941
 30
0.0
 40
3.5
 41
0.0
 71
     2
 72
     1
  1
\A1;%%c4
  7
SLDTEXTSTYLE0
 11
-3.552713678800498E-15
 21
1.0
 31
0.0
 73
     1
 44
1.0
  0
POINT
  5
114
330
10B
100
AcDbEntity
  8
Defpoints
 62
     0
100
AcDbPoint
 10
-24.18182759921434
 20
2.000000000000005
 30
0.0
  0
POINT
  5
115
330
10B
100
AcDbEntity
  8
Defpoints
 62
     0
100
AcDbPoint
 10
-24.18182759921434
 20
-1.999999999999999
 30
0.0
  0
POINT
  5
116
330
10B
100
AcDbEntity
  8
Defpoints
 62
     0
100
AcDbPoint
 10
-38.17446716083422
 20
-2.000000000000051
 30
0.0
  0
ENDBLK
  5
10D
330
10B
100
AcDbEntity
  8
0
100
AcDbBlockEnd
  0
BLOCK
  5
11A
330
119
100
AcDbEntity
  8
0
100
AcDbBlockBegin
  2
_D_3
 70
     0
 10
0.0
 20
0.0
 30
0.0
  3
_D_3
  1

  0
LINE
  5
11C
330
119
100
AcDbEntity
  8
치수문자_일반주서
 62
     0
370
    -2
100
AcDbLine
 10
23.51817240078568
 20
0.5981229458249231
 30
0.0
 11
23.51817240078568
 21
15.89327816299098
 31
0.0
  0
LINE
  5
11D
330
119
100
AcDbEntity
  8
치수문자_일반주서
 62
     0
370
    -2
100
AcDbLine
 10
25.31817240078567
 20
0.0672536779203771
 30
0.0
 11
25.31817240078567
 21
15.89327816299098
 31
0.0
  0
LINE
  5
11E
330
119
100
AcDbEntity
  8
치수문자_일반주서
 62
     0
370
    -2
100
AcDbLine
 10
23.51817240078568
 20
15.89327816299098
 30
0.0
 11
8.60167240078568
 21
15.89327816299098
 31
0.0
  0
LINE
  5
11F
330
119
100
AcDbEntity
  8
치수문자_일반주서
 62
     0
370
    -2
100
AcDbLine
 10
23.51817240078568
 20
15.89327816299098
 30
0.0
 11
25.31817240078567
 21
15.89327816299098
 31
0.0
  0
LINE
  5
120
330
119
100
AcDbEntity
  8
치수문자_일반주서
 62
     0
370
    -2
100
AcDbLine
 10
20.21617240078568
 20
15.89327816299098
 30
0.0
 11
16.91417240078568
 21
15.89327816299098
 31
0.0
  0
LINE
  5
121
330
119
100
AcDbEntity
  8
치수문자_일반주서
 62
     0
370
    -2
100
AcDbLine
 10
28.62017240078567
 20
15.89327816299098
 30
0.0
 11
31.92217240078567
 21
15.89327816299098
 31
0.0
  0
SOLID
  5
122
330
119
100
AcDbEntity
  8
치수문자_일반주서
 62
     0
100
AcDbTrace
 10
20.21617240078568
 20
15.34294482965764
 30
0.0
 11
20.21617240078568
 21
16.44361149632431
 31
0.0
 12
23.51817240078568
 22
15.89327816299098
 32
0.0
 13
23.51817240078568
 23
15.89327816299098
 33
0.0
  0
SOLID
  5
123
330
119
100
AcDbEntity
  8
치수문자_일반주서
 62
     0
100
AcDbTrace
 10
28.62017240078567
 20
16.44361149632431
 30
0.0
 11
28.62017240078567
 21
15.34294482965764
 31
0.0
 12
25.31817240078567
 22
15.89327816299098
 32
0.0
 13
25.31817240078567
 23
15.89327816299098
 33
0.0
  0
MTEXT
  5
15D
330
119
100
AcDbEntity
  8
치수문자_일반주서
 62
     0
100
AcDbMText
 10
12.75792240078568
 20
20.26827816299097
 30
0.0
 40
3.5
 41
0.0
 71
     2
 72
     1
  1
\A1;1.80
  7
SLDTEXTSTYLE0
 73
     1
 44
1.0
  0
POINT
  5
15E
330
119
100
AcDbEntity
  8
Defpoints
 62
     0
100
AcDbPoint
 10
23.51817240078568
 20
0.5356229458249231
 30
0.0
  0
POINT
  5
15F
330
119
100
AcDbEntity
  8
Defpoints
 62
     0
100
AcDbPoint
 10
25.31817240078567
 20
0.0047536779203771
 30
0.0
  0
POINT
  5
160
330
119
100
AcDbEntity
  8
Defpoints
 62
     0
100
AcDbPoint
 10
25.31817240078567
 20
15.89327816299098
 30
0.0
  0
ENDBLK
  5
11B
330
119
100
AcDbEntity
  8
0
100
AcDbBlockEnd
  0
BLOCK
  5
126
330
125
100
AcDbEntity
  8
0
100
AcDbBlockBegin
  2
_D_4
 70
     0
 10
0.0
 20
0.0
 30
0.0
  3
_D_4
  1

  0
LINE
  5
128
330
125
100
AcDbEntity
  8
치수문자_일반주서
 62
     0
370
    -2
100
AcDbLine
 10
25.31817240078567
 20
0.6211135829540143
 30
0.0
 11
25.31817240078567
 21
25.2584031093082
 31
0.0
  0
LINE
  5
129
330
125
100
AcDbEntity
  8
치수문자_일반주서
 62
     0
370
    -2
100
AcDbLine
 10
5.318172400785674
 20
0.6374999999999984
 30
0.0
 11
5.318172400785674
 21
25.2584031093082
 31
0.0
  0
LINE
  5
12A
330
125
100
AcDbEntity
  8
치수문자_일반주서
 62
     0
370
    -2
100
AcDbLine
 10
22.01617240078567
 20
25.2584031093082
 30
0.0
 11
8.620172400785673
 21
25.2584031093082
 31
0.0
  0
SOLID
  5
12B
330
125
100
AcDbEntity
  8
치수문자_일반주서
 62
     0
100
AcDbTrace
 10
22.01617240078567
 20
24.70806977597486
 30
0.0
 11
22.01617240078567
 21
25.80873644264153
 31
0.0
 12
25.31817240078567
 22
25.2584031093082
 32
0.0
 13
25.31817240078567
 23
25.2584031093082
 33
0.0
  0
SOLID
  5
12C
330
125
100
AcDbEntity
  8
치수문자_일반주서
 62
     0
100
AcDbTrace
 10
8.620172400785673
 20
25.80873644264153
 30
0.0
 11
8.620172400785673
 21
24.70806977597486
 31
0.0
 12
5.318172400785674
 22
25.2584031093082
 32
0.0
 13
5.318172400785674
 23
25.2584031093082
 33
0.0
  0
MTEXT
  5
12D
330
125
100
AcDbEntity
  8
치수문자_일반주서
 62
     0
100
AcDbMText
 10
15.31817240078567
 20
29.6334031093082
 30
0.0
 40
3.5
 41
0.0
 71
     2
 72
     1
  1
\A1;20
  7
SLDTEXTSTYLE0
 73
     1
 44
1.0
  0
POINT
  5
164
330
125
100
AcDbEntity
  8
Defpoints
 62
     0
100
AcDbPoint
 10
25.31817240078567
 20
0.5586135829540143
 30
0.0
  0
POINT
  5
165
330
125
100
AcDbEntity
  8
Defpoints
 62
     0
100
AcDbPoint
 10
5.318172400785674
 20
0.5749999999999984
 30
0.0
  0
POINT
  5
166
330
125
100
AcDbEntity
  8
Defpoints
 62
     0
100
AcDbPoint
 10
5.318172400785674
 20
25.2584031093082
 30
0.0
  0
ENDBLK
  5
127
330
125
100
AcDbEntity
  8
0
100
AcDbBlockEnd
  0
BLOCK
  5
12F
330
12E
100
AcDbEntity
  8
0
100
AcDbBlockBegin
  2
SW_DOWELSYMBOL_0
 70
     0
 10
0.0
 20
0.0
 30
0.0
  3
SW_DOWELSYMBOL_0
  1

  0
CIRCLE
  5
131
330
12E
100
AcDbEntity
  8
해칭선
 62
     0
100
AcDbCircle
 10
0.0
 20
0.0
 30
0.0
 40
3.000000000000003
  0
HATCH
  5
132
330
12E
100
AcDbEntity
  8
0
  6
Continuous
 62
     0
370
    18
100
AcDbHatch
 10
0.0
 20
0.0
 30
0.0
210
0.0
220
0.0
230
1.0
  2
SOLID
 70
     1
 71
     0
 91
        1
 92
        0
 93
        3
 72
     2
 10
-0.0000000000000017
 20
-0.0000000000000035
 40
3.000000000000003
 50
0.0
 51
90.0
 73
     1
 72
     1
 10
-0.0000000000000017
 20
2.999999999999999
 11
-0.0000000000000017
 21
-0.0000000000000036
 72
     1
 10
-0.0000000000000017
 20
-0.0000000000000035
 11
3.000000000000001
 21
-0.0000000000000035
 97
        0
 75
     0
 76
     1
 98
        1
 10
0.0
 20
0.0
  0
HATCH
  5
133
330
12E
100
AcDbEntity
  8
0
  6
Continuous
 62
     0
370
    18
100
AcDbHatch
 10
0.0
 20
0.0
 30
0.0
210
0.0
220
0.0
230
1.0
  2
SOLID
 70
     1
 71
     0
 91
        1
 92
        0
 93
        3
 72
     2
 10
-0.0000000000000017
 20
-0.0000000000000035
 40
3.000000000000003
 50
180.0
 51
270.0000000000007
 73
     1
 72
     1
 10
-0.0000000000000017
 20
-3.000000000000006
 11
-0.0000000000000017
 21
-0.0000000000000036
 72
     1
 10
-0.0000000000000017
 20
-0.0000000000000035
 11
-3.000000000000004
 21
-0.0000000000000035
 97
        0
 75
     0
 76
     1
 98
        1
 10
0.0
 20
0.0
  0
ENDBLK
  5
130
330
12E
100
AcDbEntity
  8
0
100
AcDbBlockEnd
  0
ENDSEC
  0
SECTION
  2
ENTITIES
  0
LINE
  5
99
330
1F
100
AcDbEntity
  8
0
  6
Continuous
 62
     4
370
    25
100
AcDbLine
 10
-0.0000000000000009
 20
2.000000000000001
 30
0.0
 11
-24.18182759921433
 21
1.999999999999992
 31
0.0
  0
LINE
  5
9A
330
1F
100
AcDbEntity
  8
0
  6
Continuous
 62
     4
370
    25
100
AcDbLine
 10
-24.18182759921433
 20
-2.000000000000003
 30
0.0
 11
0.0000000000000004
 21
-1.999999999999994
 31
0.0
  0
LINE
  5
9B
330
1F
100
AcDbEntity
  8
0
  6
Continuous
 62
     4
370
    25
100
AcDbLine
 10
-24.18182759921433
 20
1.999999999999993
 30
0.0
 11
-24.68182759921433
 21
1.499999999999994
 31
0.0
  0
LINE
  5
9C
330
1F
100
AcDbEntity
  8
0
  6
Continuous
 62
     4
370
    25
100
AcDbLine
 10
-24.68182759921433
 20
-1.500000000000007
 30
0.0
 11
-24.18182759921433
 21
-2.000000000000007
 31
0.0
  0
LINE
  5
9D
330
1F
100
AcDbEntity
  8
0
  6
Continuous
 62
     4
370
    25
100
AcDbLine
 10
0.0
 20
-1.999999999999994
 30
0.0
 11
5.318172400785678
 21
-0.574999999999984
 31
0.0
  0
LINE
  5
9E
330
1F
100
AcDbEntity
  8
0
  6
Continuous
 62
     4
370
    25
100
AcDbLine
 10
5.318172400785674
 20
0.5749999999999986
 30
0.0
 11
0.0
 21
1.999999999999994
 31
0.0
  0
LINE
  5
9F
330
1F
100
AcDbEntity
  8
0
  6
Continuous
 62
     4
370
    25
100
AcDbLine
 10
23.00171391019627
 20
0.5750000000000043
 30
0.0
 11
5.318172400785674
 21
0.5749999999999968
 31
0.0
  0
LINE
  5
A0
330
1F
100
AcDbEntity
  8
0
  6
Continuous
 62
     4
370
    25
100
AcDbLine
 10
5.318172400785674
 20
-0.574999999999984
 30
0.0
 11
23.00171391019626
 21
-0.5749999999999766
 31
0.0
  0
LINE
  5
A1
330
1F
100
AcDbEntity
  8
0
  6
Continuous
 62
     1
370
    25
100
AcDbLine
 10
25.14024215687331
 20
-0.599999999999997
 30
0.0
 11
25.15812818714309
 21
-0.599999999999997
 31
0.0
1001
PE_URL
1000

  0
LINE
  5
A2
330
1F
100
AcDbEntity
  8
0
  6
Continuous
 62
     1
370
    25
100
AcDbLine
 10
25.1323354836028
 20
0.0054449945044117
 30
0.0
 11
25.11119919871093
 21
0.0219762446156984
 31
0.0
1001
PE_URL
1000

  0
SPLINE
  5
A3
330
1F
100
AcDbEntity
  8
0
  6
Continuous
 62
     1
370
    25
100
AcDbSpline
210
0.0
220
0.0
230
1.0
 70
     8
 71
     3
 72
     9
 73
     5
 74
     0
 42
0.000000001
 43
0.00000001
 40
0.0
 40
0.0
 40
0.0
 40
0.0
 40
0.5128783532638306
 40
1.0
 40
1.0
 40
1.0
 40
1.0
 10
25.26829523848081
 20
-0.0976178840027638
 30
0.0
 10
25.24502947031617
 20
-0.080792662113246
 30
0.0
 10
25.19966633885119
 20
-0.0479871795218161
 30
0.0
 10
25.15439038217599
 20
-0.0120572512987303
 30
0.0
 10
25.1323354836028
 20
0.0054449945044117
 30
0.0
1001
PE_URL
1000

  0
LINE
  5
A4
330
1F
100
AcDbEntity
  8
0
  6
Continuous
 62
     1
370
    25
100
AcDbLine
 10
23.90766243719035
 20
0.6000000000000028
 30
0.0
 11
23.88898057180047
 21
0.6000000000000028
 31
0.0
  0
LINE
  5
A5
330
1F
100
AcDbEntity
  8
0
  6
Continuous
 62
     1
370
    25
100
AcDbLine
 10
24.42959552406797
 20
0.4757758252805176
 30
0.0
 11
24.42959156073158
 21
0.4757758288329764
 31
0.0
1001
PE_URL
1000

  0
LINE
  5
A6
330
1F
100
AcDbEntity
  8
0
  6
Continuous
 62
     1
370
    25
100
AcDbLine
 10
24.42959156073158
 20
-0.475775828832969
 30
0.0
 11
24.42959552406797
 21
-0.4757758252805103
 31
0.0
1001
PE_URL
1000

  0
LINE
  5
A7
330
1F
100
AcDbEntity
  8
0
  6
Continuous
 62
     1
370
    25
100
AcDbLine
 10
23.88898057180047
 20
-0.599999999999997
 30
0.0
 11
23.90777504778824
 21
-0.599999999999997
 31
0.0
  0
LINE
  5
A8
330
1F
100
AcDbEntity
  8
0
  6
Continuous
 62
     1
370
    25
100
AcDbLine
 10
25.15813730107884
 20
0.6000000000000028
 30
0.0
 11
25.14024215687331
 21
0.6000000000000028
 31
0.0
1001
PE_URL
1000

  0
LINE
  5
A9
330
1F
100
AcDbEntity
  8
0
  6
Continuous
 62
     4
370
    25
100
AcDbLine
 10
0.0
 20
1.999999999999994
 30
0.0
 11
0.0
 21
-1.999999999999994
 31
0.0
  0
LINE
  5
AA
330
1F
100
AcDbEntity
  8
0
  6
Continuous
 62
     4
370
    25
100
AcDbLine
 10
-24.18182759921433
 20
1.999999999999994
 30
0.0
 11
-24.18182759921433
 21
-2.000000000000006
 31
0.0
  0
LINE
  5
AB
330
1F
100
AcDbEntity
  8
0
  6
Continuous
 62
     4
370
    25
100
AcDbLine
 10
-24.68182759921433
 20
1.499999999999995
 30
0.0
 11
-24.68182759921433
 21
-1.500000000000007
 31
0.0
  0
LINE
  5
AC
330
1F
100
AcDbEntity
  8
0
  6
Continuous
 62
     4
370
    25
100
AcDbLine
 10
5.318172400785674
 20
0.5749999999999984
 30
0.0
 11
5.318172400785674
 21
-0.5749999999999853
 31
0.0
  0
SPLINE
  5
AD
330
1F
100
AcDbEntity
  8
0
  6
Continuous
 62
     4
370
    25
100
AcDbSpline
210
0.0
220
0.0
230
1.0
 70
    24
 71
     3
 72
    14
 73
    10
 74
     0
 42
0.000000001
 43
0.00000001
 40
0.0
 40
0.0
 40
0.0
 40
0.0
 40
0.25
 40
0.25
 40
0.5
 40
0.5
 40
0.75
 40
0.75
 40
1.0
 40
1.0
 40
1.0
 40
1.0
 10
23.51817240078567
 20
0.2551953505319391
 30
0.0
 10
23.51817240078567
 20
0.2323553370329274
 30
0.0
 10
23.51817240078567
 20
0.2047725751375794
 30
0.0
 10
23.51817240078567
 20
0.1301481146340826
 30
0.0
 10
23.51817240078567
 20
0.0835518423951899
 30
0.0
 10
23.51817240078567
 20
-0.0278576955571501
 30
0.0
 10
23.51817240078567
 20
-0.0929376589825584
 30
0.0
 10
23.51817240078567
 20
-0.2258322464924028
 30
0.0
 10
23.51817240078567
 20
-0.2929280854496888
 30
0.0
 10
23.51817240078567
 20
-0.3475363252148621
 30
0.0
  0
SPLINE
  5
AE
330
1F
100
AcDbEntity
  8
0
  6
Continuous
 62
     4
370
    25
100
AcDbSpline
210
0.0
220
0.0
230
1.0
 70
     8
 71
     3
 72
    14
 73
    10
 74
     0
 42
0.000000001
 43
0.00000001
 40
0.0
 40
0.0
 40
0.0
 40
0.0
 40
0.2500000000000001
 40
0.2500000000000001
 40
0.5000000000000001
 40
0.5000000000000001
 40
0.7500000000000001
 40
0.7500000000000001
 40
1.0
 40
1.0
 40
1.0
 40
1.0
 10
23.51817240078208
 20
-0.3475363252128081
 30
0.0
 10
23.45634456654732
 20
-0.3122124645152871
 30
0.0
 10
23.39349934272571
 20
-0.2735589973542045
 30
0.0
 10
23.27075398938328
 20
-0.1926949569765787
 30
0.0
 10
23.21241621204068
 20
-0.1508933161495151
 30
0.0
 10
23.09022117345368
 20
-0.0641220155684331
 30
0.0
 10
23.027437663421
 20
-0.019378130322381
 30
0.0
 10
22.90346271827751
 20
0.0692928713921152
 30
0.0
 10
22.84374912107655
 20
0.1128553798487198
 30
0.0
 10
22.78372838354681
 20
0.1551323463115867
 30
0.0
  0
LINE
  5
AF
330
1F
100
AcDbEntity
  8
0
  6
Continuous
 62
     4
370
    25
100
AcDbLine
 10
22.79088216492393
 20
0.1529384883634171
 30
0.0
 11
22.78781830598697
 21
0.1538780853298613
 31
0.0
  0
SPLINE
  5
B0
330
1F
100
AcDbEntity
  8
0
  6
Continuous
 62
     4
370
    25
100
AcDbSpline
210
0.0
220
0.0
230
1.0
 70
     8
 71
     3
 72
    10
 73
     6
 74
     0
 42
0.000000001
 43
0.00000001
 40
0.0
 40
0.0
 40
0.0
 40
0.0
 40
0.5
 40
0.5
 40
1.0
 40
1.0
 40
1.0
 40
1.0
 10
23.51817240078208
 20
0.2551953505341463
 30
0.0
 10
23.42518024888871
 20
0.3149559849016556
 30
0.0
 10
23.32994149251513
 20
0.3698450928877402
 30
0.0
 10
23.1515296166944
 20
0.460821726837395
 30
0.0
 10
23.05715657587485
 20
0.4988068042130283
 30
0.0
 10
22.96394406728811
 20
0.5258151383839729
 30
0.0
  0
SPLINE
  5
B1
330
1F
100
AcDbEntity
  8
0
  6
Continuous
 62
     4
370
    25
100
AcDbSpline
210
0.0
220
0.0
230
1.0
 70
     8
 71
     3
 72
    14
 73
    10
 74
     0
 42
0.000000001
 43
0.00000001
 40
0.0000000000000004
 40
0.0000000000000004
 40
0.0000000000000004
 40
0.0000000000000004
 40
0.0000514808473846
 40
0.0000514808473846
 40
0.0000514808473846
 40
0.0001028875534114
 40
0.0001028875534114
 40
0.0001028875534114
 40
0.0001587596474825
 40
0.0001587596474825
 40
0.0001587596474825
 40
0.0001587596474825
 10
22.78372838354743
 20
-0.5536776635624644
 30
0.0
 10
22.76987813582986
 20
-0.5509442497275379
 30
0.0
 10
22.75759817348596
 20
-0.5472540893291278
 30
0.0
 10
22.74787654533262
 20
-0.5425723761620859
 30
0.0
 10
22.73816211214112
 20
-0.5378941279236619
 30
0.0
 10
22.7307505107243
 20
-0.5320893499338247
 30
0.0
 10
22.72595433758994
 20
-0.5254003605788401
 30
0.0
 10
22.72073777667421
 20
-0.5181250768354306
 30
0.0
 10
22.71847874682676
 20
-0.5096381692440974
 30
0.0
 10
22.71847874682657
 20
-0.5004541639252413
 30
0.0
  0
SPLINE
  5
B2
330
1F
100
AcDbEntity
  8
0
  6
Continuous
 62
     4
370
    25
100
AcDbSpline
210
0.0
220
0.0
230
1.0
 70
     8
 71
     3
 72
    10
 73
     6
 74
     0
 42
0.000000001
 43
0.00000001
 40
0.0
 40
0.0
 40
0.0
 40
0.0
 40
0.2017538131684478
 40
0.5104930599028763
 40
1.0
 40
1.0
 40
1.0
 40
1.0
 10
23.44352000296714
 20
-0.4845579389253351
 30
0.0
 10
23.39898628864514
 20
-0.5014693834069759
 30
0.0
 10
23.28630364966027
 20
-0.5442600246604448
 30
0.0
 10
23.06783959263713
 20
-0.5851333007955483
 30
0.0
 10
22.8917261089655
 20
-0.5656347323582502
 30
0.0
 10
22.78372838354681
 20
-0.5536776635623422
 30
0.0
  0
LINE
  5
B3
330
1F
100
AcDbEntity
  8
0
  6
Continuous
 62
     4
370
    25
100
AcDbLine
 10
23.44352000296714
 20
0.4845579389253419
 30
0.0
 11
23.51817240078208
 21
0.5152672443167358
 31
0.0
  0
SPLINE
  5
B4
330
1F
100
AcDbEntity
  8
0
  6
Continuous
 62
     4
370
    25
100
AcDbSpline
210
0.0
220
0.0
230
1.0
 70
     8
 71
     3
 72
    10
 73
     6
 74
     0
 42
0.000000001
 43
0.00000001
 40
0.0
 40
0.0
 40
0.0
 40
0.0
 40
0.4019009455211391
 40
0.7962636628288666
 40
1.0
 40
1.0
 40
1.0
 40
1.0
 10
23.51817240078208
 20
0.4580867850719653
 30
0.0
 10
23.44868013034106
 20
0.4843962800842831
 30
0.0
 10
23.31099901658326
 20
0.5365217978247835
 30
0.0
 10
23.14008255837297
 20
0.5766085764687423
 30
0.0
 10
23.03687165186297
 20
0.5676854532851684
 30
0.0
 10
23.00171391019627
 20
0.5646458824650269
 30
0.0
  0
LINE
  5
B5
330
1F
100
AcDbEntity
  8
0
  6
Continuous
 62
     4
370
    25
100
AcDbLine
 10
23.51817240078567
 20
0.4580867850704077
 30
0.0
 11
23.51817240078567
 21
0.2820866916901786
 31
0.0
  0
SPLINE
  5
B6
330
1F
100
AcDbEntity
  8
0
  6
Continuous
 62
     4
370
    25
100
AcDbSpline
210
0.0
220
0.0
230
1.0
 70
     8
 71
     3
 72
    12
 73
     8
 74
     0
 42
0.000000001
 43
0.00000001
 40
0.0
 40
0.0
 40
0.0
 40
0.0
 40
0.2499999999999999
 40
0.2499999999999999
 40
0.4999999999999998
 40
0.4999999999999998
 40
1.0
 40
1.0
 40
1.0
 40
1.0
 10
22.71847874683229
 20
0.4541502815804959
 30
0.0
 10
22.71847874683229
 20
0.4722717580322798
 30
0.0
 10
22.72431732585544
 20
0.4884416559679466
 30
0.0
 10
22.75088900999768
 20
0.5138131109992764
 30
0.0
 10
22.77162717049371
 20
0.5231305177744374
 30
0.0
 10
22.84844448066586
 20
0.540623075273007
 30
0.0
 10
22.91572326770898
 20
0.5397871201358785
 30
0.0
 10
22.96394406728811
 20
0.525815138383971
 30
0.0
  0
LINE
  5
B7
330
1F
100
AcDbEntity
  8
0
  6
Continuous
 62
     4
370
    25
100
AcDbLine
 10
22.71847874683229
 20
0.4541502815804964
 30
0.0
 11
22.71847874683229
 21
0.2831441855498614
 31
0.0
  0
SPLINE
  5
B8
330
1F
100
AcDbEntity
  8
0
  6
Continuous
 62
     4
370
    25
100
AcDbSpline
210
0.0
220
0.0
230
1.0
 70
     8
 71
     3
 72
    14
 73
    10
 74
     0
 42
0.000000001
 43
0.00000001
 40
0.0000000000000004
 40
0.0000000000000004
 40
0.0000000000000004
 40
0.0000000000000004
 40
0.0000514808473846
 40
0.0000514808473846
 40
0.0000514808473846
 40
0.0001028875534114
 40
0.0001028875534114
 40
0.0001028875534114
 40
0.0001587596474825
 40
0.0001587596474825
 40
0.0001587596474825
 40
0.0001587596474825
 10
22.78372838354743
 20
0.1551323463111491
 30
0.0
 10
22.76987813582986
 20
0.1648880821177614
 30
0.0
 10
22.75759817348596
 20
0.1770252155844812
 30
0.0
 10
22.74787654533262
 20
0.1903686335135219
 30
0.0
 10
22.73816211214112
 20
0.203702175999751
 30
0.0
 10
22.7307505107243
 20
0.2185794134503241
 30
0.0
 10
22.72595433758994
 20
0.2336224755959993
 30
0.0
 10
22.72073777667421
 20
0.2499840721947422
 30
0.0
 10
22.71847874682676
 20
0.2669115594239055
 30
0.0
 10
22.71847874682657
 20
0.2831441855484078
 30
0.0
  0
LINE
  5
B9
330
1F
100
AcDbEntity
  8
0
  6
Continuous
 62
     4
370
    25
100
AcDbLine
 10
23.51817240078567
 20
-0.3475363252148613
 30
0.0
 11
23.51817240078568
 21
-0.515267244317879
 31
0.0
  0
SPLINE
  5
BA
330
1F
100
AcDbEntity
  8
0
  6
Continuous
 62
     4
370
    25
100
AcDbSpline
210
0.0
220
0.0
230
1.0
 70
     8
 71
     3
 72
    10
 73
     6
 74
     0
 42
0.000000001
 43
0.00000001
 40
0.0
 40
0.0
 40
0.0
 40
0.0
 40
0.5
 40
0.5
 40
1.0
 40
1.0
 40
1.0
 40
1.0
 10
23.51817240078208
 20
-0.5152672443167308
 30
0.0
 10
23.42518024888871
 20
-0.4856697175890577
 30
0.0
 10
23.32994149251513
 20
-0.4451585554817953
 30
0.0
 10
23.1515296166944
 20
-0.3501354999516362
 30
0.0
 10
23.05715657587485
 20
-0.2937194807254562
 30
0.0
 10
22.96394406728811
 20
-0.2326874303572292
 30
0.0
  0
SPLINE
  5
BB
330
1F
100
AcDbEntity
  8
0
  6
Continuous
 62
     4
370
    25
100
AcDbSpline
210
0.0
220
0.0
230
1.0
 70
     8
 71
     3
 72
    12
 73
     8
 74
     0
 42
0.000000001
 43
0.00000001
 40
0.0
 40
0.0
 40
0.0
 40
0.0
 40
0.2499999999999999
 40
0.2499999999999999
 40
0.4999999999999998
 40
0.4999999999999998
 40
1.0
 40
1.0
 40
1.0
 40
1.0
 10
22.71847874683229
 20
-0.3526648858907543
 30
0.0
 10
22.71847874683229
 20
-0.3293286424412684
 30
0.0
 10
22.72431732585544
 20
-0.3044980235448432
 30
0.0
 10
22.75088900999768
 20
-0.2594039024237551
 30
0.0
 10
22.77162717049371
 20
-0.2391247164272111
 30
0.0
 10
22.84844448066586
 20
-0.1980817129765738
 30
0.0
 10
22.91572326770899
 20
-0.2011142615483282
 30
0.0
 10
22.96394406728811
 20
-0.2326874303572251
 30
0.0
  0
LINE
  5
BC
330
1F
100
AcDbEntity
  8
0
  6
Continuous
 62
     4
370
    25
100
AcDbLine
 10
22.71847874683229
 20
-0.3526648858907545
 30
0.0
 11
22.71847874683229
 21
-0.50045416392442
 31
0.0
  0
SPLINE
  5
BD
330
1F
100
AcDbEntity
  8
0
  6
Continuous
 62
     4
370
    25
100
AcDbSpline
210
0.0
220
0.0
230
1.0
 70
    24
 71
     3
 72
     9
 73
     5
 74
     0
 42
0.000000001
 43
0.00000001
 40
0.0
 40
0.0
 40
0.0
 40
0.0
 40
0.7466732061114417
 40
1.0
 40
1.0
 40
1.0
 40
1.0
 10
23.51817240078567
 20
0.5152672443178838
 30
0.0
 10
23.51817240078568
 20
0.498645424294303
 30
0.0
 10
23.51817240078568
 20
0.4763842531587474
 30
0.0
 10
23.51817240078567
 20
0.4617851332984854
 30
0.0
 10
23.51817240078567
 20
0.4580867850706905
 30
0.0
  0
SPLINE
  5
BE
330
1F
100
AcDbEntity
  8
0
  6
Continuous
 62
     1
370
    25
100
AcDbSpline
210
0.0
220
0.0
230
1.0
 70
     8
 71
     3
 72
    13
 73
     9
 74
     0
 42
0.000000001
 43
0.00000001
 40
0.0
 40
0.0
 40
0.0
 40
0.0
 40
0.2012979160770342
 40
0.4027235538449088
 40
0.6050662670461713
 40
0.764589108792832
 40
0.9223302128152858
 40
1.0
 40
1.0
 40
1.0
 40
1.0
 10
23.51817240078071
 20
0.2703850216423421
 30
0.0
 10
23.62696677413827
 20
0.1925332729732492
 30
0.0
 10
23.8446245498905
 20
0.0367803794109562
 30
0.0
 10
24.17159290806065
 20
-0.2152088947577917
 30
0.0
 10
24.47654064202917
 20
-0.4138116701108703
 30
0.0
 10
24.75822975220754
 20
-0.538959830354745
 30
0.0
 10
24.97049324123338
 20
-0.5986354817084407
 30
0.0
 10
25.0981304487337
 20
-0.5937441962149749
 30
0.0
 10
25.14024215687331
 20
-0.5921304004326768
 30
0.0
  0
SPLINE
  5
BF
330
1F
100
AcDbEntity
  8
0
  6
Continuous
 62
     1
370
    25
100
AcDbSpline
210
0.0
220
0.0
230
1.0
 70
     8
 71
     3
 72
    11
 73
     7
 74
     0
 42
0.000000001
 43
0.00000001
 40
0.0
 40
0.0
 40
0.0
 40
0.0
 40
0.3447435826499709
 40
0.5888366747784276
 40
0.8329189143995597
 40
1.0
 40
1.0
 40
1.0
 40
1.0
 10
23.51817240078071
 20
-0.2645597455956298
 30
0.0
 10
23.6396577627576
 20
-0.3207920963378423
 30
0.0
 10
23.84715991850725
 20
-0.4168393386722647
 30
0.0
 10
24.13923539482209
 20
-0.4781651608754068
 30
0.0
 10
24.37077375007418
 20
-0.4897004538463786
 30
0.0
 10
24.51506693655498
 20
-0.4610018620317204
 30
0.0
 10
24.57370218139099
 20
-0.4493398494409501
 30
0.0
  0
SPLINE
  5
C0
330
1F
100
AcDbEntity
  8
0
  6
Continuous
 62
     4
370
    25
100
AcDbSpline
210
0.0
220
0.0
230
1.0
 70
    24
 71
     3
 72
    14
 73
    10
 74
     0
 42
0.000000001
 43
0.00000001
 40
0.0
 40
0.0
 40
0.0
 40
0.0
 40
0.25
 40
0.25
 40
0.5
 40
0.5
 40
0.75
 40
0.75
 40
1.0
 40
1.0
 40
1.0
 40
1.0
 10
23.51817240078567
 20
0.270385021653351
 30
0.0
 10
23.51817240078567
 20
0.2494221727948029
 30
0.0
 10
23.51817240078567
 20
0.2276561038317848
 30
0.0
 10
23.51817240078568
 20
0.1667031970575572
 30
0.0
 10
23.51817240078568
 20
0.1287402039270324
 30
0.0
 10
23.51817240078568
 20
0.0357742623691608
 30
0.0
 10
23.51817240078568
 20
-0.0195044943833317
 30
0.0
 10
23.51817240078568
 20
-0.1399715091343033
 30
0.0
 10
23.51817240078568
 20
-0.2049848585152749
 30
0.0
 10
23.51817240078568
 20
-0.2645597455968032
 30
0.0
  0
LINE
  5
C1
330
1F
100
AcDbEntity
  8
0
  6
Continuous
 62
     4
370
    25
100
AcDbLine
 10
23.51817240078567
 20
0.270385021642065
 30
0.0
 11
23.51817240078567
 21
0.2820866916901786
 31
0.0
  0
SPLINE
  5
C2
330
1F
100
AcDbEntity
  8
0
  6
Continuous
 62
     1
370
    25
100
AcDbSpline
210
0.0
220
0.0
230
1.0
 70
     8
 71
     3
 72
    21
 73
    17
 74
     0
 42
0.000000001
 43
0.00000001
 40
0.0
 40
0.0
 40
0.0
 40
0.0
 40
0.0440777650516879
 40
0.1257738899205776
 40
0.188168331399902
 40
0.249933107435125
 40
0.3758819435316156
 40
0.4381626245907761
 40
0.4998560590064907
 40
0.5628714017334122
 40
0.6260547955995375
 40
0.6880278916171628
 40
0.7499626581300418
 40
0.7793379976581633
 40
0.8900305506010632
 40
0.9999999999999999
 40
0.9999999999999999
 40
0.9999999999999999
 40
0.9999999999999999
 10
25.28293443891109
 20
-0.5926842601247219
 30
0.0
 10
25.25702937900303
 20
-0.5951574400300993
 30
0.0
 10
25.18311047341782
 20
-0.6022145459611266
 30
0.0
 10
25.07192252475646
 20
-0.5989318440085323
 30
0.0
 10
24.95059626317425
 20
-0.581931509949023
 30
0.0
 10
24.80484132050193
 20
-0.5454572347133302
 30
0.0
 10
24.65639918650325
 20
-0.4887435851379144
 30
0.0
 10
24.50931175302709
 20
-0.4137574714671116
 30
0.0
 10
24.40039390660523
 20
-0.3484741929015657
 30
0.0
 10
24.28933911812428
 20
-0.2778588212302925
 30
0.0
 10
24.17813643528366
 20
-0.2018826914040095
 30
0.0
 10
24.06856124587827
 20
-0.1212628683176452
 30
0.0
 10
23.97886296255291
 20
-0.0531276357041837
 30
0.0
 10
23.85968408350114
 20
0.0357401407899174
 30
0.0
 10
23.71216167217063
 20
0.1471216060160003
 30
0.0
 10
23.58269407060895
 20
0.2371967210551212
 30
0.0
 10
23.51817240078071
 20
0.2820866916901786
 30
0.0
  0
SPLINE
  5
C3
330
1F
100
AcDbEntity
  8
0
  6
Continuous
 62
     1
370
    25
100
AcDbSpline
210
0.0
220
0.0
230
1.0
 70
     8
 71
     3
 72
    22
 73
    18
 74
     0
 42
0.000000001
 43
0.00000001
 40
0.0
 40
0.0
 40
0.0
 40
0.0
 40
0.125
 40
0.125
 40
0.25
 40
0.25
 40
0.375
 40
0.375
 40
0.5
 40
0.5
 40
0.625
 40
0.625
 40
0.75
 40
0.75
 40
0.875
 40
0.875
 40
1.0
 40
1.0
 40
1.0
 40
1.0
 10
25.27392540648151
 20
-0.0996457767768185
 30
0.0
 10
25.20182767886931
 20
-0.0455442598969533
 30
0.0
 10
25.1266060673341
 20
0.0106000604285586
 30
0.0
 10
24.9783181379844
 20
0.1206863657911323
 30
0.0
 10
24.9078833718866
 20
0.1739733782580869
 30
0.0
 10
24.76252959468109
 20
0.2759651020198455
 30
0.0
 10
24.6871342984605
 20
0.3246934014635354
 30
0.0
 10
24.53937227151988
 20
0.4120132838250524
 30
0.0
 10
24.46950120167682
 20
0.4502602176850274
 30
0.0
 10
24.32314882886689
 20
0.5156862684133826
 30
0.0
 10
24.24767007990284
 20
0.5424993500188022
 30
0.0
 10
24.10060283725443
 20
0.5812435399805155
 30
0.0
 10
24.03089909438964
 20
0.5932625562015057
 30
0.0
 10
23.88371162635797
 20
0.6025184500447948
 30
0.0
 10
23.80823999507966
 20
0.5994381793740758
 30
0.0
 10
23.6620337582996
 20
0.5783073519535123
 30
0.0
 10
23.59210034200213
 20
0.560553251718181
 30
0.0
 10
23.51817240078403
 20
0.5356229458048558
 30
0.0
  0
SPLINE
  5
C4
330
1F
100
AcDbEntity
  8
0
  6
Continuous
 62
     1
370
    25
100
AcDbSpline
210
0.0
220
0.0
230
1.0
 70
     8
 71
     3
 72
    14
 73
    10
 74
     0
 42
0.000000001
 43
0.00000001
 40
0.0
 40
0.0
 40
0.0
 40
0.0
 40
0.25
 40
0.25
 40
0.5
 40
0.5
 40
0.75
 40
0.75
 40
1.0
 40
1.0
 40
1.0
 40
1.0
 10
25.27392540648167
 20
-0.0996457767769386
 30
0.0
 10
25.27101476432205
 20
-0.0962309948805826
 30
0.0
 10
25.2610484778489
 20
-0.0977968027022861
 30
0.0
 10
25.22051420700705
 20
-0.1165315201833933
 30
0.0
 10
25.18865050213561
 20
-0.1346685993185432
 30
0.0
 10
25.11214559848718
 20
-0.1833074504952257
 30
0.0
 10
25.06758515057294
 20
-0.2136788165607558
 30
0.0
 10
24.98366326794817
 20
-0.2737386238556062
 30
0.0
 10
24.94348183114227
 20
-0.3039378673252349
 30
0.0
 10
24.908827907957
 20
-0.3312512649456766
 30
0.0
1001
PE_URL
1000

  0
SPLINE
  5
C5
330
1F
100
AcDbEntity
  8
0
  6
Continuous
 62
     1
370
    25
100
AcDbSpline
210
0.0
220
0.0
230
1.0
 70
     8
 71
     3
 72
    20
 73
    16
 74
     0
 42
0.000000001
 43
0.00000001
 40
0.0
 40
0.0
 40
0.0
 40
0.0
 40
0.125
 40
0.125
 40
0.25
 40
0.25
 40
0.375
 40
0.375
 40
0.5
 40
0.5
 40
0.625
 40
0.625
 40
0.75
 40
0.75
 40
1.0
 40
1.0
 40
1.0
 40
1.0
 10
23.5181724007807
 20
0.4024012810660483
 30
0.0
 10
23.57678414759914
 20
0.3830618009418725
 30
0.0
 10
23.63298711172027
 20
0.3607922695641616
 30
0.0
 10
23.74709021991964
 20
0.3107721810537515
 30
0.0
 10
23.80615328861041
 20
0.2827949171958248
 30
0.0
 10
23.92416171049615
 20
0.2227316406112477
 30
0.0
 10
23.98307346362896
 20
0.1906628905104499
 30
0.0
 10
24.09660598611484
 20
0.124842172504561
 30
0.0
 10
24.15334441050696
 20
0.0906988481441453
 30
0.0
 10
24.27080157185821
 20
0.0207176434134416
 30
0.0
 10
24.33029670238524
 20
-0.0148732048779659
 30
0.0
 10
24.44657974318597
 20
-0.0847159794806124
 30
0.0
 10
24.50191358224602
 20
-0.1186853186515831
 30
0.0
 10
24.67529916495109
 20
-0.2184365610955028
 30
0.0
 10
24.79635065827979
 20
-0.2808403752657805
 30
0.0
 10
24.90882790795532
 20
-0.3312512649470074
 30
0.0
  0
SPLINE
  5
C6
330
1F
100
AcDbEntity
  8
0
  6
Continuous
 62
     4
370
    25
100
AcDbSpline
210
0.0
220
0.0
230
1.0
 70
    24
 71
     3
 72
     9
 73
     5
 74
     0
 42
0.000000001
 43
0.00000001
 40
0.0
 40
0.0
 40
0.0
 40
0.0
 40
0.5333123849605788
 40
1.0
 40
1.0
 40
1.0
 40
1.0
 10
23.51817240078568
 20
0.5356229458258693
 30
0.0
 10
23.51817240078568
 20
0.5193496905973249
 30
0.0
 10
23.51817240078568
 20
0.4888361385264368
 30
0.0
 10
23.51817240078568
 20
0.4678709697062719
 30
0.0
 10
23.51817240078568
 20
0.4580867850706902
 30
0.0
  0
SPLINE
  5
C7
330
1F
100
AcDbEntity
  8
0
  6
Continuous
 62
     1
370
    25
100
AcDbSpline
210
0.0
220
0.0
230
1.0
 70
     8
 71
     3
 72
    16
 73
    12
 74
     0
 42
0.000000001
 43
0.00000001
 40
0.0
 40
0.0
 40
0.0
 40
0.0
 40
0.1071435582396645
 40
0.214449812836082
 40
0.3212736673951074
 40
0.4755188168355173
 40
0.6322846227784436
 40
0.7488228056135169
 40
0.8559074918210943
 40
0.9625707117373763
 40
1.0
 40
1.0
 40
1.0
 40
1.0
 10
25.28293443891109
 20
-0.0934096772310408
 30
0.0
 10
25.23381506920408
 20
-0.0565658248586711
 30
0.0
 10
25.13550174254817
 20
0.0171778268851061
 30
0.0
 10
24.98775225085683
 20
0.1273484214660478
 30
0.0
 10
24.8194024096619
 20
0.2496888542834602
 30
0.0
 10
24.62687693953044
 20
0.3744619390910043
 30
0.0
 10
24.43219580776223
 20
0.4796133071790832
 30
0.0
 10
24.25709756042893
 20
0.5463797442675152
 30
0.0
 10
24.10562820191043
 20
0.5842997332580768
 30
0.0
 10
23.99079953335288
 20
0.599517351718307
 30
0.0
 10
23.92480507459581
 20
0.5991839848538163
 30
0.0
 10
23.90766243719035
 20
0.5990973898973823
 30
0.0
  0
ELLIPSE
  5
C8
330
1F
100
AcDbEntity
  8
0
  6
Continuous
 62
     1
370
    25
100
AcDbEllipse
 10
25.32712932777348
 20
0.0000000000000032
 30
0.0
 11
0.8563820348121673
 21
0.5985168865079132
 31
0.0
210
0.0
220
0.0
230
1.0
 40
0.0492313475663313
 41
4.615865641594283
 42
4.626277332039174
1001
PE_URL
1000

  0
SPLINE
  5
C9
330
1F
100
AcDbEntity
  8
0
  6
Continuous
 62
     1
370
    25
100
AcDbSpline
210
0.0
220
0.0
230
1.0
 70
     8
 71
     3
 72
    10
 73
     6
 74
     0
 42
0.000000001
 43
0.00000001
 40
0.0
 40
0.0
 40
0.0
 40
0.0
 40
0.4608931859323727
 40
0.7284088796684155
 40
1.0
 40
1.0
 40
1.0
 40
1.0
 10
24.4335262985598
 20
0.4724690904072396
 30
0.0
 10
24.50640842853595
 20
0.4630921472987013
 30
0.0
 10
24.6215934481113
 20
0.448272556050921
 30
0.0
 10
24.78081433666567
 20
0.4004999313551791
 30
0.0
 10
24.86594220692048
 20
0.3666244384228508
 30
0.0
 10
24.90882790795531
 20
0.3495586495342659
 30
0.0
1001
PE_URL
1000

  0
SPLINE
  5
CA
330
1F
100
AcDbEntity
  8
0
  6
Continuous
 62
     1
370
    25
100
AcDbSpline
210
0.0
220
0.0
230
1.0
 70
     8
 71
     3
 72
     8
 73
     4
 74
     0
 42
0.000000001
 43
0.00000001
 40
0.0
 40
0.0
 40
0.0
 40
0.0
 40
1.0
 40
1.0
 40
1.0
 40
1.0
 10
24.7632176505816
 20
0.3285834994557799
 30
0.0
 10
24.81165642048638
 20
0.3266516856930157
 30
0.0
 10
24.86140726605523
 20
0.3332475354592904
 30
0.0
 10
24.90882790795531
 20
0.3495586495342664
 30
0.0
1001
PE_URL
1000

  0
SPLINE
  5
CB
330
1F
100
AcDbEntity
  8
0
  6
Continuous
 62
     1
370
    25
100
AcDbSpline
210
0.0
220
0.0
230
1.0
 70
    24
 71
     3
 72
    10
 73
     6
 74
     0
 42
0.000000001
 43
0.00000001
 40
0.0
 40
0.0
 40
0.0
 40
0.0
 40
0.5
 40
0.5
 40
0.9497722237322794
 40
0.9497722237322794
 40
0.9497722237322794
 40
0.9497722237322794
 10
24.76321765057404
 20
0.3285834994634729
 30
0.0
 10
24.84328248058742
 20
0.2725215019426288
 30
0.0
 10
24.93845404246036
 20
0.2058816568960027
 30
0.0
 10
25.11786867076042
 20
0.0802541816952044
 30
0.0
 10
25.20336689586397
 20
0.0203876799741464
 30
0.0
 10
25.28934865205222
 20
-0.0398173938573757
 30
0.0
1001
PE_URL
1000

  0
SPLINE
  5
CD
330
1F
100
AcDbEntity
  8
0
  6
Continuous
 62
     1
370
    25
100
AcDbSpline
210
0.0
220
0.0
230
1.0
 70
     8
 71
     3
 72
     8
 73
     4
 74
     0
 42
0.000000001
 43
0.00000001
 40
0.0
 40
0.0
 40
0.0
 40
0.0
 40
0.0000060394814579
 40
0.0000060394814579
 40
0.0000060394814579
 40
0.0000060394814579
 10
25.28293443891109
 20
-0.0934096772310406
 30
0.0
 10
25.28418610559162
 20
-0.0924010429816118
 30
0.0
 10
25.28544205701975
 20
-0.0913900359546229
 30
0.0
 10
25.28670226887727
 20
-0.0903766859493905
 30
0.0
1001
PE_URL
1000

  0
SPLINE
  5
CE
330
1F
100
AcDbEntity
  8
0
  6
Continuous
 62
     1
370
    25
100
AcDbSpline
210
0.0
220
0.0
230
1.0
 70
     8
 71
     3
 72
    10
 73
     6
 74
     0
 42
0.000000001
 43
0.00000001
 40
0.0
 40
0.0
 40
0.0
 40
0.0
 40
0.5
 40
0.5
 40
1.0
 40
1.0
 40
1.0
 40
1.0
 10
24.76321765057404
 20
-0.4315656975429633
 30
0.0
 10
24.84328248058742
 20
-0.4935229278889802
 30
0.0
 10
24.93845404246036
 20
-0.5250591004547663
 30
0.0
 10
25.12735683811701
 20
-0.5623669235068558
 30
0.0
 10
25.22246939229005
 20
-0.5668278629311759
 30
0.0
 10
25.31817240078567
 20
-0.5586135829540063
 30
0.0
1001
PE_URL
1000

  0
LINE
  5
CF
330
1F
100
AcDbEntity
  8
0
  6
Continuous
 62
     1
370
    25
100
AcDbLine
 10
25.31817240078567
 20
-0.5611937333637926
 30
0.0
 11
25.31817240078567
 21
-0.5586135829540063
 31
0.0
1001
PE_URL
1000

  0
SPLINE
  5
D0
330
1F
100
AcDbEntity
  8
0
  6
Continuous
 62
     1
370
    25
100
AcDbSpline
210
0.0
220
0.0
230
1.0
 70
     8
 71
     3
 72
     8
 73
     4
 74
     0
 42
0.000000001
 43
0.00000001
 40
0.0
 40
0.0
 40
0.0
 40
0.0
 40
0.0000549916201763
 40
0.0000549916201763
 40
0.0000549916201763
 40
0.0000549916201763
 10
25.28293443891109
 20
-0.5926842601247196
 30
0.0
 10
25.29433130785804
 20
-0.5816491014751463
 30
0.0
 10
25.3060834144401
 20
-0.5711219070063968
 30
0.0
 10
25.31817240078566
 20
-0.5611937333637796
 30
0.0
1001
PE_URL
1000

  0
LINE
  5
D1
330
1F
100
AcDbEntity
  8
0
  6
Continuous
 62
     4
370
    25
100
AcDbLine
 10
23.51817240078568
 20
0.402401281064404
 30
0.0
 11
23.51817240078568
 21
0.2940966916901787
 31
0.0
  0
SPLINE
  5
D2
330
1F
100
AcDbEntity
  8
0
  6
Continuous
 62
     1
370
    25
100
AcDbSpline
210
0.0
220
0.0
230
1.0
 70
     8
 71
     3
 72
     8
 73
     4
 74
     0
 42
0.000000001
 43
0.00000001
 40
0.0
 40
0.0
 40
0.0
 40
0.0
 40
1.0
 40
1.0
 40
1.0
 40
1.0
 10
24.7632176505816
 20
-0.431565697554235
 30
0.0
 10
24.81165642048638
 20
-0.3972586385424833
 30
0.0
 10
24.86140726605523
 20
-0.3629240872181325
 30
0.0
 10
24.90882790795532
 20
-0.3312512649470058
 30
0.0
1001
PE_URL
1000

  0
SPLINE
  5
D3
330
1F
100
AcDbEntity
  8
0
  6
Continuous
 62
     1
370
    25
100
AcDbSpline
210
0.0
220
0.0
230
1.0
 70
     8
 71
     3
 72
    10
 73
     6
 74
     0
 42
0.000000001
 43
0.00000001
 40
0.0
 40
0.0
 40
0.0
 40
0.0
 40
0.2641070470953777
 40
0.6295113611458157
 40
1.0
 40
1.0
 40
1.0
 40
1.0
 10
24.573702181391
 20
0.4493398494409583
 30
0.0
 10
24.63547405642365
 20
0.4790829468657634
 30
0.0
 10
24.78271017738293
 20
0.54997699513332
 30
0.0
 10
25.01483608201088
 20
0.6050257703801972
 30
0.0
 10
25.18716542070466
 20
0.5961408814544943
 30
0.0
 10
25.27392540648151
 20
0.5916677438990098
 30
0.0
1001
PE_URL
1000

  0
SPLINE
  5
D4
330
1F
100
AcDbEntity
  8
0
  6
Continuous
 62
     1
370
    25
100
AcDbSpline
210
0.0
220
0.0
230
1.0
 70
     8
 71
     3
 72
    14
 73
    10
 74
     0
 42
0.000000001
 43
0.00000001
 40
0.0
 40
0.0
 40
0.0
 40
0.0
 40
0.2500000000000001
 40
0.2500000000000001
 40
0.5000000000000001
 40
0.5000000000000001
 40
0.7500000000000002
 40
0.7500000000000002
 40
1.0
 40
1.0
 40
1.0
 40
1.0
 10
25.27392540648167
 20
0.5916677438989891
 30
0.0
 10
25.27101476432205
 20
0.5396806699944141
 30
0.0
 10
25.2610484778489
 20
0.4878169135992477
 30
0.0
 10
25.22051420700705
 20
0.3945378682943953
 30
0.0
 10
25.18865050213561
 20
0.3536544199338451
 30
0.0
 10
25.11214559848717
 20
0.3039367868470322
 30
0.0
 10
25.06758515057294
 20
0.2944028000583506
 30
0.0
 10
24.98366326794817
 20
0.303663995731338
 30
0.0
 10
24.94348183114227
 20
0.3218261675184779
 30
0.0
 10
24.908827907957
 20
0.3495586495329143
 30
0.0
1001
PE_URL
1000

  0
SPLINE
  5
D6
330
1F
100
AcDbEntity
  8
0
  6
Continuous
 62
     1
370
    25
100
AcDbSpline
210
0.0
220
0.0
230
1.0
 70
     8
 71
     3
 72
    22
 73
    18
 74
     0
 42
0.000000001
 43
0.00000001
 40
0.0
 40
0.0
 40
0.0
 40
0.0
 40
0.0314410642104343
 40
0.0449687941322428
 40
0.1845691357189236
 40
0.2924000982031091
 40
0.4025087906993234
 40
0.5156230407862332
 40
0.5765822115832876
 40
0.6376301883458798
 40
0.698767043442558
 40
0.7599928489267092
 40
0.7727914420314949
 40
0.7969512245619755
 40
0.8324719608611535
 40
0.8793531227629952
 40
1.0
 40
1.0
 40
1.0
 40
1.0
 10
24.42936366720288
 20
-0.4752914990548417
 30
0.0
 10
24.41989010343465
 20
-0.4798617104571043
 30
0.0
 10
24.4063404749634
 20
-0.4863982861376744
 30
0.0
 10
24.35038520932082
 20
-0.5105546126816647
 30
0.0
 10
24.27059615737143
 20
-0.540338739913389
 30
0.0
 10
24.16154331769091
 20
-0.5707833048771043
 30
0.0
 10
24.06154364298181
 20
-0.5904293265596632
 30
0.0
 10
23.97552432018967
 20
-0.5988755816402512
 30
0.0
 10
23.90394083604035
 20
-0.6004750104862617
 30
0.0
 10
23.84817111287635
 20
-0.5988272758905075
 30
0.0
 10
23.79231681298058
 20
-0.5942658285984814
 30
0.0
 10
23.75097316046504
 20
-0.5888388857038475
 30
0.0
 10
23.72117464339327
 20
-0.583913068355468
 30
0.0
 10
23.69926642108273
 20
-0.579907867573959
 30
0.0
 10
23.66705423016798
 20
-0.5731743556716752
 30
0.0
 10
23.60579631581325
 20
-0.5583754688887024
 30
0.0
 10
23.55485689731117
 20
-0.541620165909552
 30
0.0
 10
23.51817240078071
 20
-0.5295536784607314
 30
0.0
  0
LINE
  5
D7
330
1F
100
AcDbEntity
  8
0
  6
Continuous
 62
     4
370
    25
100
AcDbLine
 10
23.51817240078568
 20
-0.3360263252148615
 30
0.0
 11
23.51817240078568
 21
-0.3647176864707133
 31
0.0
  0
LINE
  5
D8
330
1F
100
AcDbEntity
  8
0
  6
Continuous
 62
     4
370
    25
100
AcDbLine
 10
23.51817240078568
 20
-0.4907028658658935
 30
0.0
 11
23.51817240078568
 21
-0.5295536784624778
 31
0.0
  0
ELLIPSE
  5
D9
330
1F
100
AcDbEntity
  8
0
  6
Continuous
 62
     1
370
    25
100
AcDbEllipse
 10
25.32712932777348
 20
0.000000000000003
 30
0.0
 11
0.85288457002234
 21
0.1200435873148383
 31
0.0
210
0.0
220
0.0
230
1.0
 40
0.6892710456069907
 41
1.525682901070395
 42
1.536213624866463
1001
PE_URL
1000

  0
SPLINE
  5
DA
330
1F
100
AcDbEntity
  8
0
  6
Continuous
 62
     1
370
    25
100
AcDbSpline
210
0.0
220
0.0
230
1.0
 70
     8
 71
     3
 72
     8
 73
     4
 74
     0
 42
0.000000001
 43
0.00000001
 40
0.0
 40
0.0
 40
0.0
 40
0.0
 40
0.0000549916201763
 40
0.0000549916201763
 40
0.0000549916201763
 40
0.0000549916201763
 10
25.28293443891109
 20
0.5926842601247277
 30
0.0
 10
25.29433130785804
 20
0.5816491014751543
 30
0.0
 10
25.3060834144401
 20
0.5711219070064046
 30
0.0
 10
25.31817240078566
 20
0.5611937333637876
 30
0.0
1001
PE_URL
1000

  0
LINE
  5
DB
330
1F
100
AcDbEntity
  8
0
  6
Continuous
 62
     1
370
    25
100
AcDbLine
 10
25.31817240078567
 20
0.5108618672533181
 30
0.0
 11
25.31817240078567
 21
0.5611937333638006
 31
0.0
1001
PE_URL
1000

  0
LINE
  5
DC
330
1F
100
AcDbEntity
  8
0
  6
Continuous
 62
     1
370
    25
100
AcDbLine
 10
25.2867016394283
 20
-0.0903887116055922
 30
0.0
 11
25.31817240078567
 21
0.5108618672533181
 31
0.0
1001
PE_URL
1000

  0
LINE
  5
E0
330
1F
100
AcDbEntity
  8
0
  6
Continuous
 62
     1
370
    25
100
AcDbLine
 10
25.2867016394283
 20
-0.0903887116055922
 30
0.0
 11
25.31817240078567
 21
-0.5108618672532802
 31
0.0
1001
PE_URL
1000

  0
LINE
  5
E1
330
1F
100
AcDbEntity
  8
0
  6
Continuous
 62
     1
370
    25
100
AcDbLine
 10
25.31817240078567
 20
-0.5108618672532802
 30
0.0
 11
25.31817240078567
 21
-0.5586135829540065
 31
0.0
1001
PE_URL
1000

  0
SPLINE
  5
E2
330
1F
100
AcDbEntity
  8
0
  6
Continuous
 62
     1
370
    25
100
AcDbSpline
210
0.0
220
0.0
230
1.0
 70
     8
 71
     3
 72
     9
 73
     5
 74
     0
 42
0.000000001
 43
0.00000001
 40
0.0
 40
0.0
 40
0.0
 40
0.0
 40
0.6242156588560092
 40
1.0
 40
1.0
 40
1.0
 40
1.0
 10
25.28293443891105
 20
0.592684260124732
 30
0.0
 10
25.25701119082718
 20
0.5953508845081048
 30
0.0
 10
25.21548187685358
 20
0.5996228446000066
 30
0.0
 10
25.1738005071361
 20
0.5994977755413061
 30
0.0
 10
25.15813730107884
 20
0.5994507765474848
 30
0.0
1001
PE_URL
1000

  0
LINE
  5
E7
330
1F
100
AcDbEntity
  8
중심선
100
AcDbLine
 10
-27.68182759921432
 20
-0.0000000000000015
 30
0.0
 11
26.79348615274038
 21
0.0000000000000052
 31
0.0
  0
CIRCLE
  5
E8
330
1F
100
AcDbEntity
  8
해칭선
100
AcDbCircle
 10
0.0000000000000004
 20
0.0
 30
0.0
 40
3.000000000000003
  0
INSERT
  5
E9
330
1F
100
AcDbEntity
  8
0
  6
Continuous
 62
     7
100
AcDbBlockReference
 66
     1
  2
블럭10
 10
-17.5152729321252
 20
-52.04717430164394
 30
0.0
  0
ATTRIB
  5
EA
330
E9
100
AcDbEntity
  8
FORMAT
 62
     2
100
AcDbText
 10
-33.63453397156076
 20
-49.97180738881174
 30
0.0
 40
4.233333333333333
  1
SEME7301220E [ 4 FLUTE ]
 41
0.75
  7
SLDTEXTSTYLE0
 11
-33.63453397156076
 21
-52.08847405547841
 31
0.0
100
AcDbAttribute
  2
AUTOATTR0
 70
     0
 74
     1
  0
SEQEND
  5
EB
330
E9
100
AcDbEntity
  8
0
  6
Continuous
 62
     7
  0
HATCH
  5
EC
330
1F
100
AcDbEntity
  8
중심선
100
AcDbHatch
 10
0.0
 20
0.0
 30
0.0
210
0.0
220
0.0
230
1.0
  2
SOLID
 70
     1
 71
     0
 91
        1
 92
        0
 93
        4
 72
     1
 10
-11.80036362774435
 20
-35.8
 11
-15.24663887158164
 21
-35.8
 72
     1
 10
-15.24663887158164
 20
-35.8
 11
-17.37486873078566
 21
-38.3363255805726
 72
     1
 10
-17.37486873078566
 20
-38.3363255805726
 11
-13.92856040183523
 21
-38.33628615127011
 72
     1
 10
-13.92856040183523
 20
-38.33628615127011
 11
-11.80036362774435
 21
-35.8
 97
        0
 75
     0
 76
     1
 98
        1
 10
8.124945079010192
 20
-0.000000000000004
  0
HATCH
  5
ED
330
1F
100
AcDbEntity
  8
중심선
100
AcDbHatch
 10
0.0
 20
0.0
 30
0.0
210
0.0
220
0.0
230
1.0
  2
SOLID
 70
     1
 71
     0
 91
        1
 92
        0
 93
        4
 72
     1
 10
-6.787599636708375
 20
-35.79999999999998
 11
-10.23387488054568
 21
-35.80000000000003
 72
     1
 10
-10.23387488054568
 20
-35.80000000000003
 11
-14.76501288890307
 21
-41.20000000000002
 72
     1
 10
-14.76501288890307
 20
-41.20000000000002
 11
-11.31873764506579
 21
-41.20000000000002
 72
     1
 10
-11.31873764506579
 20
-41.20000000000002
 11
-6.787599636708375
 21
-35.79999999999998
 97
        0
 75
     0
 76
     1
 98
        1
 10
8.124945079010192
 20
-0.000000000000004
  0
HATCH
  5
EE
330
1F
100
AcDbEntity
  8
중심선
100
AcDbHatch
 10
0.0
 20
0.0
 30
0.0
210
0.0
220
0.0
230
1.0
  2
SOLID
 70
     1
 71
     0
 91
        1
 92
        0
 93
        4
 72
     1
 10
-1.774835645672507
 20
-35.79999999999998
 11
-5.221110889509651
 21
-35.80000000000003
 72
     1
 10
-5.221110889509651
 20
-35.80000000000003
 11
-12.26954779139887
 21
-44.20000000000002
 72
     1
 10
-12.26954779139887
 20
-44.20000000000002
 11
-8.82327254756159
 21
-44.20000000000002
 72
     1
 10
-8.82327254756159
 20
-44.20000000000002
 11
-1.774835645672507
 21
-35.79999999999998
 97
        0
 75
     0
 76
     1
 98
        1
 10
8.124945079010192
 20
-0.000000000000004
  0
HATCH
  5
EF
330
1F
100
AcDbEntity
  8
중심선
100
AcDbHatch
 10
0.0
 20
0.0
 30
0.0
210
0.0
220
0.0
230
1.0
  2
SOLID
 70
     1
 71
     0
 91
        1
 92
        0
 93
        6
 72
     3
 10
3.025054785339692
 20
-40.00000000005128
 11
3.960054785062284
 21
1.540882976769353E-10
 40
0.3939339440162627
 50
17.09539180608436
 51
320.0019657685081
 73
     0
 72
     1
 10
4.708054441040288
 20
-38.58789400463831
 11
7.013356314741353
 21
-36.65356729459039
 72
     3
 10
3.025054785286845
 20
-40.00000000000016
 11
6.600054785286829
 21
-1.278976924368180E-13
 40
0.6363583540795982
 50
39.99873849337386
 51
368.4976242363724
 73
     1
 72
     1
 10
9.450387277187454
 20
-39.03999999993002
 11
1.705122092122767
 21
-39.03999999993002
 72
     1
 10
1.705122092122767
 20
-39.03999999993002
 11
1.705097047676834
 21
-40.95999999992992
 72
     1
 10
1.705097047676834
 20
-40.95999999992992
 11
6.146476817148871
 21
-40.95999999992989
 97
        0
 75
     0
 76
     1
 98
        1
 10
8.124945079010192
 20
-0.000000000000004
  0
DIMENSION
  5
F0
330
1F
100
AcDbEntity
  8
치수문자_일반주서
100
AcDbDimension
  2
_D
 10
37.26397544319832
 20
0.6000000000000494
 30
0.0
 11
37.26397544319826
 21
11.57900000000005
 31
0.0
 70
   160
  1
%%c<>
 71
     2
 42
1.200000000000008
 52
-270.0
  3
SLDDIMSTYLE0
100
AcDbAlignedDimension
 13
25.31817240078568
 23
-0.6000000000000018
 33
0.0
 14
25.31817240078568
 24
0.6000000000000058
 34
0.0
 50
90.0000000000002
100
AcDbRotatedDimension
  0
DIMENSION
  5
FE
330
1F
100
AcDbEntity
  8
치수문자_일반주서
100
AcDbDimension
  2
_D_1
 10
25.31817240078567
 20
36.00000000000003
 30
0.0
 11
0.3181724007856794
 21
36.00000000000003
 31
0.0
 70
   160
  1
<>
 71
     2
 42
50.0
  3
SLDDIMSTYLE1
100
AcDbAlignedDimension
 13
-24.68182759921433
 23
1.499999999999995
 33
0.0
 14
25.31817240078567
 24
-0.0599999999999979
 34
0.0
100
AcDbRotatedDimension
  0
DIMENSION
  5
109
330
1F
100
AcDbEntity
  8
치수문자_일반주서
100
AcDbDimension
  2
_D_2
 10
-38.17446716083422
 20
-2.000000000000051
 30
0.0
 11
-38.17446716083423
 21
-0.7264638992030786
 31
0.0
 70
   160
  1
%%c<>
 71
     2
 42
4.000000000000004
 52
-270.0
  3
SLDDIMSTYLE2
100
AcDbAlignedDimension
 13
-24.18182759921434
 23
2.000000000000005
 33
0.0
 14
-24.18182759921434
 24
-1.999999999999999
 34
0.0
 50
90.0000000000002
100
AcDbRotatedDimension
  0
DIMENSION
  5
117
330
1F
100
AcDbEntity
  8
치수문자_일반주서
100
AcDbDimension
  2
_D_3
 10
25.31817240078567
 20
15.89327816299098
 30
0.0
 11
12.75792240078568
 21
15.89327816299098
 31
0.0
 70
   160
  1
<>
 71
     2
 42
1.799999999999992
  3
SLDDIMSTYLE3
100
AcDbAlignedDimension
 13
23.51817240078568
 23
0.5356229458249231
 33
0.0
 14
25.31817240078567
 24
0.0047536779203771
 34
0.0
 50
-0.0000000000002262
100
AcDbRotatedDimension
  0
DIMENSION
  5
124
330
1F
100
AcDbEntity
  8
치수문자_일반주서
100
AcDbDimension
  2
_D_4
 10
5.318172400785674
 20
25.2584031093082
 30
0.0
 11
15.31817240078567
 21
25.2584031093082
 31
0.0
 70
   160
  1
<>
 71
     2
 42
20.0
  3
SLDDIMSTYLE2
100
AcDbAlignedDimension
 13
25.31817240078567
 23
0.5586135829540143
 33
0.0
 14
5.318172400785674
 24
0.5749999999999984
 34
0.0
100
AcDbRotatedDimension
  0
INSERT
  5
134
330
1F
100
AcDbEntity
  8
해칭선
100
AcDbBlockReference
  2
SW_DOWELSYMBOL_0
 10
0.0000000000000004
 20
0.0
 30
0.0
  0
ENDSEC
  0
SECTION
  2
OBJECTS
  0
DICTIONARY
  5
C
330
0
100
AcDbDictionary
281
     1
  3
ACAD_GROUP
350
D
  3
ACAD_LAYOUT
350
1A
  3
ACAD_MLINESTYLE
350
17
  3
ACAD_PLOTSETTINGS
350
19
  3
ACAD_PLOTSTYLENAME
350
E
  3
ACAD_SCALELIST
350
47
  3
APPDATA
350
156
  3
DWGPROPS
350
18E
  0
DICTIONARY
  5
18B
330
1F
100
AcDbDictionary
280
     1
281
     1
  3
DIM_BOUNDING_BOXES_V1
360
18C
  0
DICTIONARY
  5
D
102
{ACAD_REACTORS
330
C
102
}
330
C
100
AcDbDictionary
281
     1
  0
DICTIONARY
  5
1A
102
{ACAD_REACTORS
330
C
102
}
330
C
100
AcDbDictionary
281
     1
  3
Layout1
350
1E
  3
Layout2
350
26
  3
Model
350
22
  0
DICTIONARY
  5
17
102
{ACAD_REACTORS
330
C
102
}
330
C
100
AcDbDictionary
281
     1
  3
Standard
350
18
  0
DICTIONARY
  5
19
102
{ACAD_REACTORS
330
C
102
}
330
C
100
AcDbDictionary
281
     1
  0
ACDBDICTIONARYWDFLT
  5
E
102
{ACAD_REACTORS
330
C
102
}
330
C
100
AcDbDictionary
281
     1
  3
Normal
350
F
100
AcDbDictionaryWithDefault
340
F
  0
DICTIONARY
  5
47
102
{ACAD_REACTORS
330
C
102
}
330
C
100
AcDbDictionary
281
     1
  3
A0
350
48
  3
A1
350
49
  3
A2
350
4A
  3
A3
350
4B
  3
A4
350
4C
  3
A5
350
4D
  3
A6
350
4E
  3
A7
350
4F
  3
A8
350
50
  3
A9
350
51
  3
B0
350
52
  3
B1
350
53
  3
B2
350
54
  3
B3
350
55
  3
B4
350
56
  3
B5
350
57
  3
B6
350
58
  3
B7
350
59
  3
B8
350
5A
  3
B9
350
5B
  3
C0
350
5C
  3
C1
350
5D
  3
C2
350
5E
  3
C3
350
5F
  3
C4
350
60
  3
C5
350
61
  3
C6
350
62
  3
C7
350
63
  3
C8
350
64
  3
C9
350
65
  3
D0
350
66
  3
D1
350
67
  3
D2
350
68
  0
DICTIONARY
  5
156
102
{ACAD_REACTORS
330
C
102
}
330
C
100
AcDbDictionary
281
     1
  0
XRECORD
  5
18E
102
{ACAD_REACTORS
330
C
102
}
330
C
100
AcDbXrecord
280
     1
  1
DWGPROPS COOKIE
  2

  3

  4

  6

  7

  8
12016016
  9

300
=
301
=
302
=
303
=
304
=
305
=
306
=
307
=
308
=
309
=
 40
0.0
 41
2458260.399779791
 42
2459677.375801331
  1

 90
        0
  0
DICTIONARY
  5
18C
102
{ACAD_REACTORS
330
18B
102
}
330
18B
100
AcDbDictionary
281
     1
  0
LAYOUT
  5
1E
102
{ACAD_REACTORS
330
1A
102
}
330
1A
100
AcDbPlotSettings
  1

  2
none_device
  4

  6

 40
0.0
 41
0.0
 42
0.0
 43
0.0
 44
0.0
 45
0.0
 46
0.0
 47
0.0
 48
0.0
 49
0.0
140
0.0
141
0.0
142
1.0
143
1.0
 70
   688
 72
     1
 73
     0
 74
     5
  7

 75
    16
147
1.0
148
0.0
149
0.0
100
AcDbLayout
  1
Layout1
 70
     1
 71
     1
 10
0.0
 20
0.0
 11
420.0
 21
297.0
 12
0.0
 22
0.0
 32
0.0
 14
1.000000000000000E+20
 24
1.000000000000000E+20
 34
1.000000000000000E+20
 15
-1.000000000000000E+20
 25
-1.000000000000000E+20
 35
-1.000000000000000E+20
146
0.0
 13
0.0
 23
0.0
 33
0.0
 16
1.0
 26
0.0
 36
0.0
 17
0.0
 27
1.0
 37
0.0
 76
     0
330
1B
  0
LAYOUT
  5
26
102
{ACAD_REACTORS
330
1A
102
}
330
1A
100
AcDbPlotSettings
  1

  2
none_device
  4

  6

 40
0.0
 41
0.0
 42
0.0
 43
0.0
 44
0.0
 45
0.0
 46
0.0
 47
0.0
 48
0.0
 49
0.0
140
0.0
141
0.0
142
1.0
143
1.0
 70
   688
 72
     1
 73
     0
 74
     5
  7

 75
    16
147
1.0
148
0.0
149
0.0
100
AcDbLayout
  1
Layout2
 70
     1
 71
     2
 10
0.0
 20
0.0
 11
0.0
 21
0.0
 12
0.0
 22
0.0
 32
0.0
 14
0.0
 24
0.0
 34
0.0
 15
0.0
 25
0.0
 35
0.0
146
0.0
 13
0.0
 23
0.0
 33
0.0
 16
1.0
 26
0.0
 36
0.0
 17
0.0
 27
1.0
 37
0.0
 76
     0
330
23
  0
LAYOUT
  5
22
102
{ACAD_REACTORS
330
1A
102
}
330
1A
100
AcDbPlotSettings
  1

  2
none_device
  4
ANSI_A_(11.00_x_8.50_Inches)
  6

 40
6.35
 41
19.05
 42
6.35000508
 43
19.05000254
 44
279.4
 45
215.9
 46
162.2260605084696
 47
100.8537443875621
 48
0.0
 49
0.0
140
0.0
141
0.0
142
0.0922419125129433
143
1.0
 70
  1696
 72
     0
 73
     0
 74
     0
  7

 75
     0
147
0.0235690232323232
148
0.0
149
0.0
100
AcDbLayout
  1
Model
 70
     1
 71
     0
 10
0.0
 20
0.0
 11
420.0
 21
297.0
 12
0.0
 22
0.0
 32
0.0
 14
-42.54946716083423
 24
-49.97180738881174
 34
0.0
 15
37.81430877653168
 25
40.37500000000004
 35
0.0
146
0.0
 13
0.0
 23
0.0
 33
0.0
 16
1.0
 26
0.0
 36
0.0
 17
0.0
 27
1.0
 37
0.0
 76
     0
330
1F
331
29
  0
MLINESTYLE
  5
18
102
{ACAD_REACTORS
330
17
102
}
330
17
100
AcDbMlineStyle
  2
Standard
 70
     0
  3

 62
   256
 51
90.0
 52
90.0
 71
     2
 49
0.5
 62
   256
  6
BYLAYER
 49
-0.5
 62
   256
  6
BYLAYER
  0
ACDBPLACEHOLDER
  5
F
102
{ACAD_REACTORS
330
E
102
}
330
E
  0
SCALE
  5
48
102
{ACAD_REACTORS
330
47
102
}
330
47
100
AcDbScale
 70
     0
300
1:1
140
1.0
141
1.0
290
     1
  0
SCALE
  5
49
102
{ACAD_REACTORS
330
47
102
}
330
47
100
AcDbScale
 70
     0
300
1:2
140
1.0
141
2.0
290
     0
  0
SCALE
  5
4A
102
{ACAD_REACTORS
330
47
102
}
330
47
100
AcDbScale
 70
     0
300
1:4
140
1.0
141
4.0
290
     0
  0
SCALE
  5
4B
102
{ACAD_REACTORS
330
47
102
}
330
47
100
AcDbScale
 70
     0
300
1:5
140
1.0
141
5.0
290
     0
  0
SCALE
  5
4C
102
{ACAD_REACTORS
330
47
102
}
330
47
100
AcDbScale
 70
     0
300
1:8
140
1.0
141
8.0
290
     0
  0
SCALE
  5
4D
102
{ACAD_REACTORS
330
47
102
}
330
47
100
AcDbScale
 70
     0
300
1:10
140
1.0
141
10.0
290
     0
  0
SCALE
  5
4E
102
{ACAD_REACTORS
330
47
102
}
330
47
100
AcDbScale
 70
     0
300
1:16
140
1.0
141
16.0
290
     0
  0
SCALE
  5
4F
102
{ACAD_REACTORS
330
47
102
}
330
47
100
AcDbScale
 70
     0
300
1:20
140
1.0
141
20.0
290
     0
  0
SCALE
  5
50
102
{ACAD_REACTORS
330
47
102
}
330
47
100
AcDbScale
 70
     0
300
1:30
140
1.0
141
30.0
290
     0
  0
SCALE
  5
51
102
{ACAD_REACTORS
330
47
102
}
330
47
100
AcDbScale
 70
     0
300
1:40
140
1.0
141
40.0
290
     0
  0
SCALE
  5
52
102
{ACAD_REACTORS
330
47
102
}
330
47
100
AcDbScale
 70
     0
300
1:50
140
1.0
141
50.0
290
     0
  0
SCALE
  5
53
102
{ACAD_REACTORS
330
47
102
}
330
47
100
AcDbScale
 70
     0
300
1:100
140
1.0
141
100.0
290
     0
  0
SCALE
  5
54
102
{ACAD_REACTORS
330
47
102
}
330
47
100
AcDbScale
 70
     0
300
2:1
140
2.0
141
1.0
290
     0
  0
SCALE
  5
55
102
{ACAD_REACTORS
330
47
102
}
330
47
100
AcDbScale
 70
     0
300
4:1
140
4.0
141
1.0
290
     0
  0
SCALE
  5
56
102
{ACAD_REACTORS
330
47
102
}
330
47
100
AcDbScale
 70
     0
300
8:1
140
8.0
141
1.0
290
     0
  0
SCALE
  5
57
102
{ACAD_REACTORS
330
47
102
}
330
47
100
AcDbScale
 70
     0
300
10:1
140
10.0
141
1.0
290
     0
  0
SCALE
  5
58
102
{ACAD_REACTORS
330
47
102
}
330
47
100
AcDbScale
 70
     0
300
100:1
140
100.0
141
1.0
290
     0
  0
SCALE
  5
59
102
{ACAD_REACTORS
330
47
102
}
330
47
100
AcDbScale
 70
     0
300
1/128" = 1'-0"
140
0.0078125
141
12.0
290
     0
  0
SCALE
  5
5A
102
{ACAD_REACTORS
330
47
102
}
330
47
100
AcDbScale
 70
     0
300
1/64" = 1'-0"
140
0.015625
141
12.0
290
     0
  0
SCALE
  5
5B
102
{ACAD_REACTORS
330
47
102
}
330
47
100
AcDbScale
 70
     0
300
1/32" = 1'-0"
140
0.03125
141
12.0
290
     0
  0
SCALE
  5
5C
102
{ACAD_REACTORS
330
47
102
}
330
47
100
AcDbScale
 70
     0
300
1/16" = 1'-0"
140
0.0625
141
12.0
290
     0
  0
SCALE
  5
5D
102
{ACAD_REACTORS
330
47
102
}
330
47
100
AcDbScale
 70
     0
300
3/32" = 1'-0"
140
0.09375
141
12.0
290
     0
  0
SCALE
  5
5E
102
{ACAD_REACTORS
330
47
102
}
330
47
100
AcDbScale
 70
     0
300
1/8" = 1'-0"
140
0.125
141
12.0
290
     0
  0
SCALE
  5
5F
102
{ACAD_REACTORS
330
47
102
}
330
47
100
AcDbScale
 70
     0
300
3/16" = 1'-0"
140
0.1875
141
12.0
290
     0
  0
SCALE
  5
60
102
{ACAD_REACTORS
330
47
102
}
330
47
100
AcDbScale
 70
     0
300
1/4" = 1'-0"
140
0.25
141
12.0
290
     0
  0
SCALE
  5
61
102
{ACAD_REACTORS
330
47
102
}
330
47
100
AcDbScale
 70
     0
300
3/8" = 1'-0"
140
0.375
141
12.0
290
     0
  0
SCALE
  5
62
102
{ACAD_REACTORS
330
47
102
}
330
47
100
AcDbScale
 70
     0
300
1/2" = 1'-0"
140
0.5
141
12.0
290
     0
  0
SCALE
  5
63
102
{ACAD_REACTORS
330
47
102
}
330
47
100
AcDbScale
 70
     0
300
3/4" = 1'-0"
140
0.75
141
12.0
290
     0
  0
SCALE
  5
64
102
{ACAD_REACTORS
330
47
102
}
330
47
100
AcDbScale
 70
     0
300
1" = 1'-0"
140
1.0
141
12.0
290
     0
  0
SCALE
  5
65
102
{ACAD_REACTORS
330
47
102
}
330
47
100
AcDbScale
 70
     0
300
1-1/2" = 1'-0"
140
1.5
141
12.0
290
     0
  0
SCALE
  5
66
102
{ACAD_REACTORS
330
47
102
}
330
47
100
AcDbScale
 70
     0
300
3" = 1'-0"
140
3.0
141
12.0
290
     0
  0
SCALE
  5
67
102
{ACAD_REACTORS
330
47
102
}
330
47
100
AcDbScale
 70
     0
300
6" = 1'-0"
140
6.0
141
12.0
290
     0
  0
SCALE
  5
68
102
{ACAD_REACTORS
330
47
102
}
330
47
100
AcDbScale
 70
     0
300
1'-0" = 1'-0"
140
12.0
141
12.0
290
     0
  0
ENDSEC
  0
EOF
