  0
SECTION
  2
HEADER
  9
$ACADVER
  1
AC1015
  9
$ACADMAINTVER
 70
     6
  9
$DWGCODEPAGE
  3
ANSI_949
  9
$INSBASE
 10
0.0
 20
0.0
 30
0.0
  9
$EXTMIN
 10
-50.54946716083428
 20
-49.97180738881174
 30
0.0
  9
$EXTMAX
 10
32.23467240078562
 20
40.37500000000003
 30
0.0
  9
$LIMMIN
 10
0.0
 20
0.0
  9
$LIMMAX
 10
420.0
 20
297.0
  9
$ORTHOMODE
 70
     0
  9
$REGENMODE
 70
     1
  9
$FILLMODE
 70
     1
  9
$QTEXTMODE
 70
     0
  9
$MIRRTEXT
 70
     1
  9
$LTSCALE
 40
1.0
  9
$ATTMODE
 70
     1
  9
$TEXTSIZE
 40
3.5
  9
$TRACEWID
 40
1.0
  9
$TEXTSTYLE
  7
Standard
  9
$CLAYER
  8
0
  9
$CELTYPE
  6
ByLayer
  9
$CECOLOR
 62
   256
  9
$CELTSCALE
 40
1.0
  9
$DISPSILH
 70
     0
  9
$DIMSCALE
 40
1.0
  9
$DIMASZ
 40
3.302
  9
$DIMEXO
 40
1.0
  9
$DIMDLI
 40
3.75
  9
$DIMRND
 40
0.0
  9
$DIMDLE
 40
0.0
  9
$DIMEXE
 40
1.0
  9
$DIMTP
 40
0.0
  9
$DIMTM
 40
0.0
  9
$DIMTXT
 40
3.5
  9
$DIMCEN
 40
2.5
  9
$DIMTSZ
 40
0.0
  9
$DIMTOL
 70
     0
  9
$DIMLIM
 70
     0
  9
$DIMTIH
 70
     1
  9
$DIMTOH
 70
     1
  9
$DIMSE1
 70
     0
  9
$DIMSE2
 70
     0
  9
$DIMTAD
 70
     1
  9
$DIMZIN
 70
     0
  9
$DIMBLK
  1

  9
$DIMASO
 70
     1
  9
$DIMSHO
 70
     1
  9
$DIMPOST
  1

  9
$DIMAPOST
  1

  9
$DIMALT
 70
     0
  9
$DIMALTD
 70
     3
  9
$DIMALTF
 40
0.0393700787401575
  9
$DIMLFAC
 40
1.0
  9
$DIMTOFL
 70
     1
  9
$DIMTVP
 40
0.0
  9
$DIMTIX
 70
     0
  9
$DIMSOXD
 70
     0
  9
$DIMSAH
 70
     0
  9
$DIMBLK1
  1

  9
$DIMBLK2
  1

  9
$DIMSTYLE
  2
ISO-25
  9
$DIMCLRD
 70
     0
  9
$DIMCLRE
 70
     0
  9
$DIMCLRT
 70
     0
  9
$DIMTFAC
 40
1.0
  9
$DIMGAP
 40
1.524
  9
$DIMJUST
 70
     0
  9
$DIMSD1
 70
     0
  9
$DIMSD2
 70
     0
  9
$DIMTOLJ
 70
     0
  9
$DIMTZIN
 70
     0
  9
$DIMALTZ
 70
     0
  9
$DIMALTTZ
 70
     0
  9
$DIMUPT
 70
     0
  9
$DIMDEC
 70
     2
  9
$DIMTDEC
 70
     2
  9
$DIMALTU
 70
     2
  9
$DIMALTTD
 70
     3
  9
$DIMTXSTY
  7
Standard
  9
$DIMAUNIT
 70
     0
  9
$DIMADEC
 70
     2
  9
$DIMALTRND
 40
0.0
  9
$DIMAZIN
 70
     0
  9
$DIMDSEP
 70
    44
  9
$DIMATFIT
 70
     3
  9
$DIMFRAC
 70
     0
  9
$DIMLDRBLK
  1

  9
$DIMLUNIT
 70
     2
  9
$DIMLWD
 70
    -2
  9
$DIMLWE
 70
    -2
  9
$DIMTMOVE
 70
     0
  9
$LUNITS
 70
     2
  9
$LUPREC
 70
     2
  9
$SKETCHINC
 40
1.0
  9
$FILLETRAD
 40
10.0
  9
$AUNITS
 70
     0
  9
$AUPREC
 70
     2
  9
$MENU
  1
.
  9
$ELEVATION
 40
0.0
  9
$PELEVATION
 40
0.0
  9
$THICKNESS
 40
0.0
  9
$LIMCHECK
 70
     0
  9
$CHAMFERA
 40
0.0
  9
$CHAMFERB
 40
0.0
  9
$CHAMFERC
 40
0.0
  9
$CHAMFERD
 40
0.0
  9
$SKPOLY
 70
     0
  9
$TDCREATE
 40
2458260.7742125
  9
$TDUCREATE
 40
2458260.3992125
  9
$TDUPDATE
 40
2459677.749447569
  9
$TDUUPDATE
 40
2459677.374447569
  9
$TDINDWG
 40
0.0023808449
  9
$TDUSRTIMER
 40
0.0004844444
  9
$USRTIMER
 70
     1
  9
$ANGBASE
 50
0.0
  9
$ANGDIR
 70
     0
  9
$PDMODE
 70
     0
  9
$PDSIZE
 40
-1.0
  9
$PLINEWID
 40
0.0
  9
$SPLFRAME
 70
     0
  9
$SPLINETYPE
 70
     6
  9
$SPLINESEGS
 70
     8
  9
$HANDSEED
  5
189
  9
$SURFTAB1
 70
     6
  9
$SURFTAB2
 70
     6
  9
$SURFTYPE
 70
     6
  9
$SURFU
 70
     6
  9
$SURFV
 70
     6
  9
$UCSBASE
  2

  9
$UCSNAME
  2

  9
$UCSORG
 10
0.0
 20
0.0
 30
0.0
  9
$UCSXDIR
 10
1.0
 20
0.0
 30
0.0
  9
$UCSYDIR
 10
0.0
 20
1.0
 30
0.0
  9
$UCSORTHOREF
  2

  9
$UCSORTHOVIEW
 70
     0
  9
$UCSORGTOP
 10
0.0
 20
0.0
 30
0.0
  9
$UCSORGBOTTOM
 10
0.0
 20
0.0
 30
0.0
  9
$UCSORGLEFT
 10
0.0
 20
0.0
 30
0.0
  9
$UCSORGRIGHT
 10
0.0
 20
0.0
 30
0.0
  9
$UCSORGFRONT
 10
0.0
 20
0.0
 30
0.0
  9
$UCSORGBACK
 10
0.0
 20
0.0
 30
0.0
  9
$PUCSBASE
  2

  9
$PUCSNAME
  2

  9
$PUCSORG
 10
0.0
 20
0.0
 30
0.0
  9
$PUCSXDIR
 10
1.0
 20
0.0
 30
0.0
  9
$PUCSYDIR
 10
0.0
 20
1.0
 30
0.0
  9
$PUCSORTHOREF
  2

  9
$PUCSORTHOVIEW
 70
     0
  9
$PUCSORGTOP
 10
0.0
 20
0.0
 30
0.0
  9
$PUCSORGBOTTOM
 10
0.0
 20
0.0
 30
0.0
  9
$PUCSORGLEFT
 10
0.0
 20
0.0
 30
0.0
  9
$PUCSORGRIGHT
 10
0.0
 20
0.0
 30
0.0
  9
$PUCSORGFRONT
 10
0.0
 20
0.0
 30
0.0
  9
$PUCSORGBACK
 10
0.0
 20
0.0
 30
0.0
  9
$USERI1
 70
     0
  9
$USERI2
 70
     0
  9
$USERI3
 70
     0
  9
$USERI4
 70
     0
  9
$USERI5
 70
     0
  9
$USERR1
 40
0.0
  9
$USERR2
 40
0.0
  9
$USERR3
 40
0.0
  9
$USERR4
 40
0.0
  9
$USERR5
 40
0.0
  9
$WORLDVIEW
 70
     1
  9
$SHADEDGE
 70
     3
  9
$SHADEDIF
 70
    70
  9
$TILEMODE
 70
     1
  9
$MAXACTVP
 70
    64
  9
$PINSBASE
 10
0.0
 20
0.0
 30
0.0
  9
$PLIMCHECK
 70
     0
  9
$PEXTMIN
 10
1.000000000000000E+20
 20
1.000000000000000E+20
 30
1.000000000000000E+20
  9
$PEXTMAX
 10
-1.000000000000000E+20
 20
-1.000000000000000E+20
 30
-1.000000000000000E+20
  9
$PLIMMIN
 10
0.0
 20
0.0
  9
$PLIMMAX
 10
0.0
 20
0.0
  9
$UNITMODE
 70
     0
  9
$VISRETAIN
 70
     1
  9
$PLINEGEN
 70
     0
  9
$PSLTSCALE
 70
     1
  9
$TREEDEPTH
 70
  3020
  9
$CMLSTYLE
  2
Standard
  9
$CMLJUST
 70
     0
  9
$CMLSCALE
 40
20.0
  9
$PROXYGRAPHICS
 70
     1
  9
$MEASUREMENT
 70
     1
  9
$CELWEIGHT
370
    -1
  9
$ENDCAPS
280
     0
  9
$JOINSTYLE
280
     0
  9
$LWDISPLAY
290
     1
  9
$INSUNITS
 70
     4
  9
$HYPERLINKBASE
  1

  9
$STYLESHEET
  1

  9
$XEDIT
290
     1
  9
$CEPSNTYPE
380
     0
  9
$PSTYLEMODE
290
     1
  9
$FINGERPRINTGUID
  2
{BF5030F9-5E97-4A6C-9217-A996EFC11744}
  9
$VERSIONGUID
  2
{FAEB1C32-E019-11D5-929B-00C0DF256EC4}
  9
$EXTNAMES
290
     1
  9
$PSVPSCALE
 40
0.0
  9
$OLESTARTUP
290
     0
  0
ENDSEC
  0
SECTION
  2
CLASSES
  0
CLASS
  1
ACDBDICTIONARYWDFLT
  2
AcDbDictionaryWithDefault
  3
ObjectDBX Classes
 90
        0
280
     0
281
     0
  0
CLASS
  1
VISUALSTYLE
  2
AcDbVisualStyle
  3
ObjectDBX Classes
 90
     4095
280
     0
281
     0
  0
CLASS
  1
MATERIAL
  2
AcDbMaterial
  3
ObjectDBX Classes
 90
     1153
280
     0
281
     0
  0
CLASS
  1
SCALE
  2
AcDbScale
  3
ObjectDBX Classes
 90
     1153
280
     0
281
     0
  0
CLASS
  1
TABLESTYLE
  2
AcDbTableStyle
  3
ObjectDBX Classes
 90
     4095
280
     0
281
     0
  0
CLASS
  1
MLEADERSTYLE
  2
AcDbMLeaderStyle
  3
ACDB_MLEADERSTYLE_CLASS
 90
     4095
280
     0
281
     0
  0
CLASS
  1
SUN
  2
AcDbSun
  3
SCENEOE
 90
     1153
280
     0
281
     0
  0
CLASS
  1
ACDBPLACEHOLDER
  2
AcDbPlaceHolder
  3
ObjectDBX Classes
 90
        0
280
     0
281
     0
  0
CLASS
  1
LAYOUT
  2
AcDbLayout
  3
ObjectDBX Classes
 90
        0
280
     0
281
     0
  0
ENDSEC
  0
SECTION
  2
TABLES
  0
TABLE
  2
VPORT
  5
8
330
0
100
AcDbSymbolTable
 70
     1
  0
VPORT
  5
29
330
8
100
AcDbSymbolTableRecord
100
AcDbViewportTableRecord
  2
*Active
 70
     0
 10
0.0
 20
0.0
 11
1.0
 21
1.0
 12
-11.67310067903994
 22
2.035270576322988
 13
0.0
 23
0.0
 14
10.0
 24
10.0
 15
10.0
 25
10.0
 16
0.0
 26
0.0
 36
1.0
 17
0.0
 27
0.0
 37
0.0
 40
55.43855498797829
 41
1.531481481481481
 42
50.0
 43
0.0
 44
0.0
 50
0.0
 51
0.0
 71
    16
 72
  2000
 73
     1
 74
     3
 75
     0
 76
     0
 77
     0
 78
     0
281
     0
 65
     1
110
0.0
120
0.0
130
0.0
111
1.0
121
0.0
131
0.0
112
0.0
122
1.0
132
0.0
 79
     0
146
0.0
  0
ENDTAB
  0
TABLE
  2
LTYPE
  5
5
330
0
100
AcDbSymbolTable
 70
     6
  0
LTYPE
  5
14
330
5
100
AcDbSymbolTableRecord
100
AcDbLinetypeTableRecord
  2
ByBlock
 70
     0
  3

 72
    65
 73
     0
 40
0.0
  0
LTYPE
  5
15
330
5
100
AcDbSymbolTableRecord
100
AcDbLinetypeTableRecord
  2
ByLayer
 70
     0
  3

 72
    65
 73
     0
 40
0.0
  0
LTYPE
  5
16
330
5
100
AcDbSymbolTableRecord
100
AcDbLinetypeTableRecord
  2
Continuous
 70
     0
  3
Solid line
 72
    65
 73
     0
 40
0.0
  0
LTYPE
  5
6E
330
5
100
AcDbSymbolTableRecord
100
AcDbLinetypeTableRecord
  2
HIDDEN
 70
     0
  3
Hidden __ __ __ __ __ __ __ __ __ __ __ __ __ __
 72
    65
 73
     2
 40
1.905
 49
1.27
 74
     0
 49
-0.635
 74
     0
  0
LTYPE
  5
6F
330
5
100
AcDbSymbolTableRecord
100
AcDbLinetypeTableRecord
  2
PHANTOM
 70
     0
  3
Phantom ______  __  __  ______  __  __  ______
 72
    65
 73
     6
 40
12.7
 49
6.35
 74
     0
 49
-1.27
 74
     0
 49
1.27
 74
     0
 49
-1.27
 74
     0
 49
1.27
 74
     0
 49
-1.27
 74
     0
  0
LTYPE
  5
70
330
5
100
AcDbSymbolTableRecord
100
AcDbLinetypeTableRecord
  2
CENTER
 70
     0
  3
Center ____ _ ____ _ ____ _ ____ _ ____ _ ____
 72
    65
 73
     4
 40
10.16
 49
6.35
 74
     0
 49
-1.27
 74
     0
 49
1.27
 74
     0
 49
-1.27
 74
     0
  0
LTYPE
  5
71
330
5
100
AcDbSymbolTableRecord
100
AcDbLinetypeTableRecord
  2
CENTERX2
 70
     0
  3
Center (2x) ________  __  ________  __  _____
 72
    65
 73
     4
 40
20.32
 49
12.7
 74
     0
 49
-2.54
 74
     0
 49
2.54
 74
     0
 49
-2.54
 74
     0
  0
LTYPE
  5
72
330
5
100
AcDbSymbolTableRecord
100
AcDbLinetypeTableRecord
  2
DOT2
 70
     0
  3
Dot (.5x) ........................................
 72
    65
 73
     2
 40
0.635
 49
0.0
 74
     0
 49
-0.635
 74
     0
  0
ENDTAB
  0
TABLE
  2
LAYER
  5
2
330
0
100
AcDbSymbolTable
 70
    17
  0
LAYER
  5
10
330
2
100
AcDbSymbolTableRecord
100
AcDbLayerTableRecord
  2
0
 70
     0
 62
     7
  6
Continuous
370
    -3
390
F
  0
LAYER
  5
73
330
2
100
AcDbSymbolTableRecord
100
AcDbLayerTableRecord
  2
FORMAT
 70
     0
 62
     2
  6
Continuous
370
    -3
390
F
  0
LAYER
  5
74
330
2
100
AcDbSymbolTableRecord
100
AcDbLayerTableRecord
  2
외형선
 70
     0
 62
   100
  6
Continuous
370
    35
390
F
  0
LAYER
  5
75
330
2
100
AcDbSymbolTableRecord
100
AcDbLayerTableRecord
  2
숨은선
 70
     0
 62
     2
  6
HIDDEN
370
    25
390
F
  0
LAYER
  5
76
330
2
100
AcDbSymbolTableRecord
100
AcDbLayerTableRecord
  2
중심선
 70
     0
 62
     1
  6
CENTERX2
370
    -3
390
F
  0
LAYER
  5
77
330
2
100
AcDbSymbolTableRecord
100
AcDbLayerTableRecord
  2
파단선
 70
     0
 62
     4
  6
Continuous
370
    -3
390
F
  0
LAYER
  5
78
330
2
100
AcDbSymbolTableRecord
100
AcDbLayerTableRecord
  2
해칭선
 70
     0
 62
   100
  6
Continuous
370
    -3
390
F
  0
LAYER
  5
79
330
2
100
AcDbSymbolTableRecord
100
AcDbLayerTableRecord
  2
가는실선
 70
     0
 62
     4
  6
Continuous
370
    -3
390
F
  0
LAYER
  5
7A
330
2
100
AcDbSymbolTableRecord
100
AcDbLayerTableRecord
  2
치수_보조선
 70
     0
 62
     4
  6
Continuous
370
    -3
390
F
  0
LAYER
  5
7B
330
2
100
AcDbSymbolTableRecord
100
AcDbLayerTableRecord
  2
치수문자_일반주서
 70
     0
 62
     7
  6
Continuous
370
    25
390
F
  0
LAYER
  5
7C
330
2
100
AcDbSymbolTableRecord
100
AcDbLayerTableRecord
  2
개별주서
 70
     0
 62
   100
  6
Continuous
370
    35
390
F
  0
LAYER
  5
7D
330
2
100
AcDbSymbolTableRecord
100
AcDbLayerTableRecord
  2
중간선
 70
     0
 62
     2
  6
Continuous
370
    25
390
F
  0
LAYER
  5
7E
330
2
100
AcDbSymbolTableRecord
100
AcDbLayerTableRecord
  2
윤곽선
 70
     0
 62
     3
  6
Continuous
370
    50
390
F
  0
LAYER
  5
7F
330
2
100
AcDbSymbolTableRecord
100
AcDbLayerTableRecord
  2
중심마크
 70
     0
 62
   100
  6
Continuous
370
    35
390
F
  0
LAYER
  5
80
330
2
100
AcDbSymbolTableRecord
100
AcDbLayerTableRecord
  2
가상선
 70
     0
 62
     4
  6
PHANTOM
370
    -3
390
F
  0
LAYER
  5
81
330
2
100
AcDbSymbolTableRecord
100
AcDbLayerTableRecord
  2
특수지정선
 70
     0
 62
     5
  6
CENTERX2
370
    70
390
F
  0
LAYER
  5
153
330
2
100
AcDbSymbolTableRecord
100
AcDbLayerTableRecord
  2
Defpoints
 70
     0
 62
     7
  6
Continuous
290
     0
370
    -3
390
F
  0
ENDTAB
  0
TABLE
  2
STYLE
  5
3
330
0
100
AcDbSymbolTable
 70
     2
  0
STYLE
  5
11
330
3
100
AcDbSymbolTableRecord
100
AcDbTextStyleTableRecord
  2
Standard
 70
     0
 40
0.0
 41
1.0
 50
0.0
 71
     0
 42
3.5
  3
txt
  4

  0
STYLE
  5
97
330
3
100
AcDbSymbolTableRecord
100
AcDbTextStyleTableRecord
  2
SLDTEXTSTYLE0
 70
     0
 40
0.0
 41
0.75
 50
0.0
 71
     0
 42
3.5
  3
TXT
  4

  0
ENDTAB
  0
TABLE
  2
VIEW
  5
6
330
0
100
AcDbSymbolTable
 70
     0
  0
ENDTAB
  0
TABLE
  2
UCS
  5
7
330
0
100
AcDbSymbolTable
 70
     0
  0
ENDTAB
  0
TABLE
  2
APPID
  5
9
330
0
100
AcDbSymbolTable
 70
     2
  0
APPID
  5
12
330
9
100
AcDbSymbolTableRecord
100
AcDbRegAppTableRecord
  2
ACAD
 70
     0
  0
APPID
  5
15D
330
9
100
AcDbSymbolTableRecord
100
AcDbRegAppTableRecord
  2
PE_URL
 70
     0
  0
ENDTAB
  0
TABLE
  2
DIMSTYLE
  5
A
330
0
100
AcDbSymbolTable
 70
     5
100
AcDbDimStyleTable
  0
DIMSTYLE
105
27
330
A
100
AcDbSymbolTableRecord
100
AcDbDimStyleTableRecord
  2
ISO-25
 70
     0
 41
2.5
 42
0.625
 43
3.75
 44
1.25
 73
     0
 74
     0
 77
     1
 78
     8
140
2.5
141
2.5
143
0.03937007874016
147
0.625
171
     3
172
     1
178
     0
271
     2
272
     2
274
     3
278
    44
283
     0
284
     8
340
11
  0
DIMSTYLE
105
EB
102
{ACAD_REACTORS
330
EA
102
}
330
A
100
AcDbSymbolTableRecord
100
AcDbDimStyleTableRecord
  2
SLDDIMSTYLE0
 70
     0
 41
3.302
 44
0.0
 45
0.000000001
 73
     0
 74
     0
 77
     1
 78
    12
 79
     3
140
3.5
147
0.875
172
     1
173
     1
178
     0
271
     1
272
     1
276
     2
284
    12
289
     0
340
97
  0
DIMSTYLE
105
F9
102
{ACAD_REACTORS
330
F8
102
}
330
A
100
AcDbSymbolTableRecord
100
AcDbDimStyleTableRecord
  2
SLDDIMSTYLE1
 70
     0
 41
3.302
 44
0.0
 45
0.000000001
 73
     0
 74
     0
 77
     1
 78
    12
 79
     3
140
3.5
147
0.875
173
     1
178
     0
271
     2
272
     2
276
     2
284
    12
340
97
  0
DIMSTYLE
105
104
102
{ACAD_REACTORS
330
103
330
11E
102
}
330
A
100
AcDbSymbolTableRecord
100
AcDbDimStyleTableRecord
  2
SLDDIMSTYLE2
 70
     0
 41
3.302
 44
0.0
 45
0.000000001
 73
     0
 74
     0
 77
     1
 78
    12
 79
     3
140
3.5
147
0.875
172
     1
173
     1
178
     0
271
     2
272
     2
276
     2
284
    12
289
     0
340
97
  0
DIMSTYLE
105
112
102
{ACAD_REACTORS
330
111
102
}
330
A
100
AcDbSymbolTableRecord
100
AcDbDimStyleTableRecord
  2
SLDDIMSTYLE3
 70
     0
 41
3.302
 44
0.0
 45
0.000000001
 73
     0
 74
     0
 77
     1
 78
     4
 79
     1
140
3.5
147
0.875
172
     1
173
     1
178
     0
271
     2
272
     2
276
     2
284
    12
289
     0
340
97
  0
ENDTAB
  0
TABLE
  2
BLOCK_RECORD
  5
1
330
0
100
AcDbSymbolTable
 70
     8
  0
BLOCK_RECORD
  5
1F
102
{ACAD_XDICTIONARY
360
186
102
}
330
1
100
AcDbSymbolTableRecord
100
AcDbBlockTableRecord
  2
*Model_Space
340
22
  0
BLOCK_RECORD
  5
1B
330
1
100
AcDbSymbolTableRecord
100
AcDbBlockTableRecord
  2
*Paper_Space
340
1E
  0
BLOCK_RECORD
  5
23
330
1
100
AcDbSymbolTableRecord
100
AcDbBlockTableRecord
  2
*Paper_Space0
340
26
  0
BLOCK_RECORD
  5
82
330
1
100
AcDbSymbolTableRecord
100
AcDbBlockTableRecord
  2
블럭10
340
0
102
{BLKREFS
331
E3
102
}
  0
BLOCK_RECORD
  5
EC
330
1
100
AcDbSymbolTableRecord
100
AcDbBlockTableRecord
  2
_D
340
0
  0
BLOCK_RECORD
  5
FA
330
1
100
AcDbSymbolTableRecord
100
AcDbBlockTableRecord
  2
_D_1
340
0
  0
BLOCK_RECORD
  5
105
330
1
100
AcDbSymbolTableRecord
100
AcDbBlockTableRecord
  2
_D_2
340
0
  0
BLOCK_RECORD
  5
113
330
1
100
AcDbSymbolTableRecord
100
AcDbBlockTableRecord
  2
_D_3
340
0
  0
BLOCK_RECORD
  5
11F
330
1
100
AcDbSymbolTableRecord
100
AcDbBlockTableRecord
  2
_D_4
340
0
  0
BLOCK_RECORD
  5
12A
330
1
100
AcDbSymbolTableRecord
100
AcDbBlockTableRecord
  2
SW_DOWELSYMBOL_0
340
0
102
{BLKREFS
331
130
102
}
  0
ENDTAB
  0
ENDSEC
  0
SECTION
  2
BLOCKS
  0
BLOCK
  5
20
330
1F
100
AcDbEntity
  8
0
100
AcDbBlockBegin
  2
*Model_Space
 70
     0
 10
0.0
 20
0.0
 30
0.0
  3
*Model_Space
  1

  0
ENDBLK
  5
21
330
1F
100
AcDbEntity
  8
0
100
AcDbBlockEnd
  0
BLOCK
  5
1C
330
1B
100
AcDbEntity
 67
     1
  8
0
100
AcDbBlockBegin
  2
*Paper_Space
 70
     0
 10
0.0
 20
0.0
 30
0.0
  3
*Paper_Space
  1

  0
ENDBLK
  5
1D
330
1B
100
AcDbEntity
 67
     1
  8
0
100
AcDbBlockEnd
  0
BLOCK
  5
24
330
23
100
AcDbEntity
  8
0
100
AcDbBlockBegin
  2
*Paper_Space0
 70
     0
 10
0.0
 20
0.0
 30
0.0
  3
*Paper_Space0
  1

  0
ENDBLK
  5
25
330
23
100
AcDbEntity
  8
0
100
AcDbBlockEnd
  0
BLOCK
  5
83
330
82
100
AcDbEntity
  8
0
100
AcDbBlockBegin
  2
블럭10
 70
     2
 10
0.0
 20
0.0
 30
0.0
  3
블럭10
  1

  0
ELLIPSE
  5
85
330
82
100
AcDbEntity
  8
중심선
100
AcDbEllipse
 10
20.54032771741204
 20
12.0471743016438
 30
0.0
 11
6.600054785286829
 21
-1.261213355974178E-13
 31
0.0
210
0.0
220
0.0
230
1.0
 40
0.636358354079598
 41
0.9219305317359503
 42
6.513795318482858
  0
ELLIPSE
  5
86
330
82
100
AcDbEntity
  8
중심선
100
AcDbEllipse
 10
20.54032771746488
 20
12.04717430159265
 30
0.0
 11
3.960054785062283
 21
1.540847449632565E-10
 31
0.0
210
0.0
220
0.0
230
1.0
 40
0.3939339440162632
 41
1.131841032648279
 42
5.62031148352944
  0
LINE
  5
87
330
82
100
AcDbEntity
  8
중심선
100
AcDbLine
 10
2.268634060543552
 20
16.24717430164393
 30
0.0
 11
5.714909304380834
 21
16.24717430164393
 31
0.0
  0
LINE
  5
88
330
82
100
AcDbEntity
  8
중심선
100
AcDbLine
 10
5.245725140726316
 20
7.84717430164391
 30
0.0
 11
8.692000384563599
 21
7.84717430164391
 31
0.0
  0
LINE
  5
89
330
82
100
AcDbEntity
  8
중심선
100
AcDbLine
 10
15.74043728645272
 20
16.24717430164393
 30
0.0
 11
8.692000384563599
 21
7.84717430164391
 31
0.0
  0
LINE
  5
8A
330
82
100
AcDbEntity
  8
중심선
100
AcDbLine
 10
0.1404042013395286
 20
13.71084872107135
 30
0.0
 11
3.58671253028996
 21
13.71088815037384
 31
0.0
  0
LINE
  5
8B
330
82
100
AcDbEntity
  8
중심선
100
AcDbLine
 10
2.750260043222114
 20
10.84717430164391
 30
0.0
 11
6.196535287059397
 21
10.84717430164391
 31
0.0
  0
LINE
  5
8C
330
82
100
AcDbEntity
  8
중심선
100
AcDbLine
 10
12.29416204261559
 20
16.24717430164393
 30
0.0
 11
5.245725140726316
 21
7.84717430164391
 31
0.0
  0
LINE
  5
8D
330
82
100
AcDbEntity
  8
중심선
100
AcDbLine
 10
10.72767329541681
 20
16.24717430164393
 30
0.0
 11
6.196535287059397
 21
10.84717430164391
 31
0.0
  0
LINE
  5
8E
330
82
100
AcDbEntity
  8
중심선
100
AcDbLine
 10
7.28139805157953
 20
16.24717430164393
 30
0.0
 11
2.750260043222114
 21
10.84717430164391
 31
0.0
  0
LINE
  5
8F
330
82
100
AcDbEntity
  8
중심선
100
AcDbLine
 10
5.714909304380834
 20
16.24717430164393
 30
0.0
 11
3.58671253028996
 21
13.71088815037384
 31
0.0
  0
LINE
  5
90
330
82
100
AcDbEntity
  8
중심선
100
AcDbLine
 10
2.268634060543552
 20
16.24717430164393
 30
0.0
 11
0.1404042013395286
 21
13.71084872107135
 31
0.0
  0
LINE
  5
91
330
82
100
AcDbEntity
  8
중심선
100
AcDbLine
 10
7.28139805157953
 20
16.24717430164393
 30
0.0
 11
10.72767329541681
 21
16.24717430164393
 31
0.0
  0
LINE
  5
92
330
82
100
AcDbEntity
  8
중심선
100
AcDbLine
 10
12.29416204261559
 20
16.24717430164393
 30
0.0
 11
15.74043728645272
 21
16.24717430164393
 31
0.0
  0
LINE
  5
93
330
82
100
AcDbEntity
  8
중심선
100
AcDbLine
 10
19.22036997980202
 20
11.08717430171403
 30
0.0
 11
23.66174974927406
 21
11.08717430171406
 31
0.0
  0
LINE
  5
94
330
82
100
AcDbEntity
  8
중심선
100
AcDbLine
 10
19.22039502424796
 20
13.00717430171391
 30
0.0
 11
19.22036997980202
 21
11.08717430171403
 31
0.0
  0
LINE
  5
95
330
82
100
AcDbEntity
  8
중심선
100
AcDbLine
 10
19.22039502424796
 20
13.00717430171391
 30
0.0
 11
26.96566020931264
 21
13.00717430171391
 31
0.0
  0
LINE
  5
96
330
82
100
AcDbEntity
  8
중심선
100
AcDbLine
 10
22.22332737316547
 20
13.45928029700563
 30
0.0
 11
24.52862924686651
 21
15.39360700705356
 31
0.0
  0
ATTDEF
  5
98
330
82
100
AcDbEntity
  8
FORMAT
 62
     2
100
AcDbText
 10
-16.11926103943555
 20
2.075366912832191
 30
0.0
 40
4.233333333333333
  1
SEME7301212E [ 4 FLUTE ]
 41
0.75
  7
SLDTEXTSTYLE0
 11
-16.11926103943555
 21
-0.0412997538344756
 31
0.0
100
AcDbAttributeDefinition
  3

  2
AUTOATTR0
 70
     0
 74
     1
  0
ENDBLK
  5
84
330
82
100
AcDbEntity
  8
0
100
AcDbBlockEnd
  0
BLOCK
  5
ED
330
EC
100
AcDbEntity
  8
0
100
AcDbBlockBegin
  2
_D
 70
     0
 10
0.0
 20
0.0
 30
0.0
  3
_D
  1

  0
LINE
  5
EF
330
EC
100
AcDbEntity
  8
치수문자_일반주서
 62
     0
370
    -2
100
AcDbLine
 10
17.38067240078564
 20
-0.6000000000000053
 30
0.0
 11
30.90879173702617
 21
-0.5999999999999535
 31
0.0
  0
LINE
  5
F0
330
EC
100
AcDbEntity
  8
치수문자_일반주서
 62
     0
370
    -2
100
AcDbLine
 10
17.38067240078564
 20
0.6000000000000022
 30
0.0
 11
30.90879173702617
 21
0.6000000000000529
 31
0.0
  0
LINE
  5
F1
330
EC
100
AcDbEntity
  8
치수문자_일반주서
 62
     0
370
    -2
100
AcDbLine
 10
30.90879173702617
 20
0.6000000000000529
 30
0.0
 11
30.90879173702612
 21
15.95400000000005
 31
0.0
  0
LINE
  5
F2
330
EC
100
AcDbEntity
  8
치수문자_일반주서
 62
     0
370
    -2
100
AcDbLine
 10
30.90879173702617
 20
-0.5999999999999535
 30
0.0
 11
30.90879173702617
 21
0.6000000000000529
 31
0.0
  0
LINE
  5
F3
330
EC
100
AcDbEntity
  8
치수문자_일반주서
 62
     0
370
    -2
100
AcDbLine
 10
30.90879173702618
 20
-3.901999999999954
 30
0.0
 11
30.9087917370262
 21
-7.203999999999954
 31
0.0
  0
LINE
  5
F4
330
EC
100
AcDbEntity
  8
치수문자_일반주서
 62
     0
370
    -2
100
AcDbLine
 10
30.90879173702616
 20
3.902000000000053
 30
0.0
 11
30.90879173702615
 21
7.204000000000053
 31
0.0
  0
SOLID
  5
F5
330
EC
100
AcDbEntity
  8
치수문자_일반주서
 62
     0
100
AcDbTrace
 10
31.45912507035952
 20
-3.901999999999952
 30
0.0
 11
30.35845840369285
 21
-3.901999999999955
 31
0.0
 12
30.90879173702617
 22
-0.5999999999999535
 32
0.0
 13
30.90879173702617
 23
-0.5999999999999535
 33
0.0
  0
SOLID
  5
F6
330
EC
100
AcDbEntity
  8
치수문자_일반주서
 62
     0
100
AcDbTrace
 10
30.35845840369283
 20
3.902000000000051
 30
0.0
 11
31.45912507035949
 21
3.902000000000055
 31
0.0
 12
30.90879173702617
 22
0.6000000000000529
 32
0.0
 13
30.90879173702617
 23
0.6000000000000529
 33
0.0
  0
MTEXT
  5
F7
330
EC
100
AcDbEntity
  8
치수문자_일반주서
 62
     0
100
AcDbMText
 10
26.53379173702614
 20
11.57900000000004
 30
0.0
 40
3.5
 41
0.0
 71
     2
 72
     1
  1
\A1;%%c1.2
  7
SLDTEXTSTYLE0
 11
-2.960594732333732E-15
 21
1.0
 31
0.0
 73
     1
 44
1.0
  0
POINT
  5
159
330
EC
100
AcDbEntity
  8
Defpoints
 62
     0
100
AcDbPoint
 10
17.31817240078564
 20
-0.6000000000000055
 30
0.0
  0
POINT
  5
15A
330
EC
100
AcDbEntity
  8
Defpoints
 62
     0
100
AcDbPoint
 10
17.31817240078564
 20
0.600000000000002
 30
0.0
  0
POINT
  5
15B
330
EC
100
AcDbEntity
  8
Defpoints
 62
     0
100
AcDbPoint
 10
30.90879173702617
 20
0.6000000000000527
 30
0.0
  0
ENDBLK
  5
EE
330
EC
100
AcDbEntity
  8
0
100
AcDbBlockEnd
  0
BLOCK
  5
FB
330
FA
100
AcDbEntity
  8
0
100
AcDbBlockBegin
  2
_D_1
 70
     0
 10
0.0
 20
0.0
 30
0.0
  3
_D_1
  1

  0
LINE
  5
FD
330
FA
100
AcDbEntity
  8
치수문자_일반주서
 62
     0
370
    -2
100
AcDbLine
 10
-32.68182759921437
 20
1.562499999999991
 30
0.0
 11
-32.68182759921437
 21
36.00000000000003
 31
0.0
  0
LINE
  5
FE
330
FA
100
AcDbEntity
  8
치수문자_일반주서
 62
     0
370
    -2
100
AcDbLine
 10
17.31817240078563
 20
0.0024999999999993
 30
0.0
 11
17.31817240078563
 21
36.00000000000003
 31
0.0
  0
LINE
  5
FF
330
FA
100
AcDbEntity
  8
치수문자_일반주서
 62
     0
370
    -2
100
AcDbLine
 10
-29.37982759921437
 20
36.00000000000003
 30
0.0
 11
14.01617240078563
 21
36.00000000000003
 31
0.0
  0
SOLID
  5
100
330
FA
100
AcDbEntity
  8
치수문자_일반주서
 62
     0
100
AcDbTrace
 10
-29.37982759921437
 20
36.55033333333336
 30
0.0
 11
-29.37982759921437
 21
35.44966666666669
 31
0.0
 12
-32.68182759921437
 22
36.00000000000003
 32
0.0
 13
-32.68182759921437
 23
36.00000000000003
 33
0.0
  0
SOLID
  5
101
330
FA
100
AcDbEntity
  8
치수문자_일반주서
 62
     0
100
AcDbTrace
 10
14.01617240078563
 20
35.44966666666669
 30
0.0
 11
14.01617240078563
 21
36.55033333333336
 31
0.0
 12
17.31817240078563
 22
36.00000000000003
 32
0.0
 13
17.31817240078563
 23
36.00000000000003
 33
0.0
  0
MTEXT
  5
102
330
FA
100
AcDbEntity
  8
치수문자_일반주서
 62
     0
100
AcDbMText
 10
-7.681827599214369
 20
40.37500000000003
 30
0.0
 40
3.5
 41
0.0
 71
     2
 72
     1
  1
\A1;50
  7
SLDTEXTSTYLE0
 73
     1
 44
1.0
  0
POINT
  5
15E
330
FA
100
AcDbEntity
  8
Defpoints
 62
     0
100
AcDbPoint
 10
-32.68182759921437
 20
1.499999999999991
 30
0.0
  0
POINT
  5
15F
330
FA
100
AcDbEntity
  8
Defpoints
 62
     0
100
AcDbPoint
 10
17.31817240078563
 20
-0.0600000000000007
 30
0.0
  0
POINT
  5
160
330
FA
100
AcDbEntity
  8
Defpoints
 62
     0
100
AcDbPoint
 10
17.31817240078563
 20
36.00000000000003
 30
0.0
  0
ENDBLK
  5
FC
330
FA
100
AcDbEntity
  8
0
100
AcDbBlockEnd
  0
BLOCK
  5
106
330
105
100
AcDbEntity
  8
0
100
AcDbBlockBegin
  2
_D_2
 70
     0
 10
0.0
 20
0.0
 30
0.0
  3
_D_2
  1

  0
LINE
  5
108
330
105
100
AcDbEntity
  8
치수문자_일반주서
 62
     0
370
    -2
100
AcDbLine
 10
-32.24432759921439
 20
1.999999999999972
 30
0.0
 11
-46.17446716083428
 21
1.999999999999921
 31
0.0
  0
LINE
  5
109
330
105
100
AcDbEntity
  8
치수문자_일반주서
 62
     0
370
    -2
100
AcDbLine
 10
-32.24432759921439
 20
-2.000000000000003
 30
0.0
 11
-46.17446716083426
 21
-2.000000000000056
 31
0.0
  0
LINE
  5
10A
330
105
100
AcDbEntity
  8
치수문자_일반주서
 62
     0
370
    -2
100
AcDbLine
 10
-46.17446716083426
 20
-1.30200000000008
 30
0.0
 11
-46.17446716083428
 21
1.301999999999945
 31
0.0
  0
SOLID
  5
10B
330
105
100
AcDbEntity
  8
치수문자_일반주서
 62
     0
100
AcDbTrace
 10
-45.62413382750093
 20
-1.302000000000078
 30
0.0
 11
-46.7248004941676
 21
-1.302000000000082
 31
0.0
 12
-46.17446716083428
 22
1.999999999999921
 32
0.0
 13
-46.17446716083428
 23
1.999999999999921
 33
0.0
  0
SOLID
  5
10C
330
105
100
AcDbEntity
  8
치수문자_일반주서
 62
     0
100
AcDbTrace
 10
-46.72480049416761
 20
1.301999999999943
 30
0.0
 11
-45.62413382750094
 21
1.301999999999947
 31
0.0
 12
-46.17446716083426
 22
-2.000000000000056
 32
0.0
 13
-46.17446716083426
 23
-2.000000000000056
 33
0.0
  0
MTEXT
  5
10D
330
105
100
AcDbEntity
  8
치수문자_일반주서
 62
     0
100
AcDbMText
 10
-50.54946716083427
 20
-0.7264638992031256
 30
0.0
 40
3.5
 41
0.0
 71
     2
 72
     1
  1
\A1;%%c4
  7
SLDTEXTSTYLE0
 11
-3.552713678800523E-15
 21
1.0
 31
0.0
 73
     1
 44
1.0
  0
POINT
  5
10E
330
105
100
AcDbEntity
  8
Defpoints
 62
     0
100
AcDbPoint
 10
-32.18182759921439
 20
1.999999999999973
 30
0.0
  0
POINT
  5
10F
330
105
100
AcDbEntity
  8
Defpoints
 62
     0
100
AcDbPoint
 10
-32.18182759921439
 20
-2.000000000000003
 30
0.0
  0
POINT
  5
110
330
105
100
AcDbEntity
  8
Defpoints
 62
     0
100
AcDbPoint
 10
-46.17446716083426
 20
-2.000000000000055
 30
0.0
  0
ENDBLK
  5
107
330
105
100
AcDbEntity
  8
0
100
AcDbBlockEnd
  0
BLOCK
  5
114
330
113
100
AcDbEntity
  8
0
100
AcDbBlockBegin
  2
_D_3
 70
     0
 10
0.0
 20
0.0
 30
0.0
  3
_D_3
  1

  0
LINE
  5
116
330
113
100
AcDbEntity
  8
치수문자_일반주서
 62
     0
370
    -2
100
AcDbLine
 10
15.51817240078563
 20
0.5981229458249193
 30
0.0
 11
15.51817240078563
 21
16.86065822213585
 31
0.0
  0
LINE
  5
117
330
113
100
AcDbEntity
  8
치수문자_일반주서
 62
     0
370
    -2
100
AcDbLine
 10
17.31817240078563
 20
0.0654715107590773
 30
0.0
 11
17.31817240078563
 21
16.86065822213585
 31
0.0
  0
LINE
  5
118
330
113
100
AcDbEntity
  8
치수문자_일반주서
 62
     0
370
    -2
100
AcDbLine
 10
17.31817240078563
 20
16.86065822213585
 30
0.0
 11
32.23467240078563
 21
16.86065822213585
 31
0.0
  0
LINE
  5
119
330
113
100
AcDbEntity
  8
치수문자_일반주서
 62
     0
370
    -2
100
AcDbLine
 10
15.51817240078563
 20
16.86065822213585
 30
0.0
 11
17.31817240078563
 21
16.86065822213585
 31
0.0
  0
LINE
  5
11A
330
113
100
AcDbEntity
  8
치수문자_일반주서
 62
     0
370
    -2
100
AcDbLine
 10
12.21617240078563
 20
16.86065822213585
 30
0.0
 11
8.914172400785631
 21
16.86065822213585
 31
0.0
  0
LINE
  5
11B
330
113
100
AcDbEntity
  8
치수문자_일반주서
 62
     0
370
    -2
100
AcDbLine
 10
20.62017240078563
 20
16.86065822213585
 30
0.0
 11
23.92217240078563
 21
16.86065822213585
 31
0.0
  0
SOLID
  5
11C
330
113
100
AcDbEntity
  8
치수문자_일반주서
 62
     0
100
AcDbTrace
 10
12.21617240078563
 20
16.31032488880252
 30
0.0
 11
12.21617240078563
 21
17.41099155546919
 31
0.0
 12
15.51817240078563
 22
16.86065822213585
 32
0.0
 13
15.51817240078563
 23
16.86065822213585
 33
0.0
  0
SOLID
  5
11D
330
113
100
AcDbEntity
  8
치수문자_일반주서
 62
     0
100
AcDbTrace
 10
20.62017240078563
 20
17.41099155546919
 30
0.0
 11
20.62017240078563
 21
16.31032488880252
 31
0.0
 12
17.31817240078563
 22
16.86065822213585
 32
0.0
 13
17.31817240078563
 23
16.86065822213585
 33
0.0
  0
MTEXT
  5
155
330
113
100
AcDbEntity
  8
치수문자_일반주서
 62
     0
100
AcDbMText
 10
28.07842240078563
 20
21.23565822213585
 30
0.0
 40
3.5
 41
0.0
 71
     2
 72
     1
  1
\A1;1.80
  7
SLDTEXTSTYLE0
 73
     1
 44
1.0
  0
POINT
  5
156
330
113
100
AcDbEntity
  8
Defpoints
 62
     0
100
AcDbPoint
 10
15.51817240078563
 20
0.5356229458249193
 30
0.0
  0
POINT
  5
157
330
113
100
AcDbEntity
  8
Defpoints
 62
     0
100
AcDbPoint
 10
17.31817240078563
 20
0.0029715107590773
 30
0.0
  0
POINT
  5
158
330
113
100
AcDbEntity
  8
Defpoints
 62
     0
100
AcDbPoint
 10
17.31817240078563
 20
16.86065822213585
 30
0.0
  0
ENDBLK
  5
115
330
113
100
AcDbEntity
  8
0
100
AcDbBlockEnd
  0
BLOCK
  5
120
330
11F
100
AcDbEntity
  8
0
100
AcDbBlockBegin
  2
_D_4
 70
     0
 10
0.0
 20
0.0
 30
0.0
  3
_D_4
  1

  0
LINE
  5
122
330
11F
100
AcDbEntity
  8
치수문자_일반주서
 62
     0
370
    -2
100
AcDbLine
 10
17.31817240078563
 20
0.6594924622639708
 30
0.0
 11
17.31817240078563
 21
25.29678198861814
 31
0.0
  0
LINE
  5
123
330
11F
100
AcDbEntity
  8
치수문자_일반주서
 62
     0
370
    -2
100
AcDbLine
 10
5.318172400785627
 20
0.6374999999999967
 30
0.0
 11
5.318172400785627
 21
25.29678198861814
 31
0.0
  0
LINE
  5
124
330
11F
100
AcDbEntity
  8
치수문자_일반주서
 62
     0
370
    -2
100
AcDbLine
 10
14.01617240078563
 20
25.29678198861814
 30
0.0
 11
8.620172400785627
 21
25.29678198861814
 31
0.0
  0
SOLID
  5
125
330
11F
100
AcDbEntity
  8
치수문자_일반주서
 62
     0
100
AcDbTrace
 10
14.01617240078563
 20
24.74644865528481
 30
0.0
 11
14.01617240078563
 21
25.84711532195148
 31
0.0
 12
17.31817240078563
 22
25.29678198861814
 32
0.0
 13
17.31817240078563
 23
25.29678198861814
 33
0.0
  0
SOLID
  5
126
330
11F
100
AcDbEntity
  8
치수문자_일반주서
 62
     0
100
AcDbTrace
 10
8.620172400785627
 20
25.84711532195148
 30
0.0
 11
8.620172400785627
 21
24.74644865528481
 31
0.0
 12
5.318172400785627
 22
25.29678198861814
 32
0.0
 13
5.318172400785627
 23
25.29678198861814
 33
0.0
  0
MTEXT
  5
127
330
11F
100
AcDbEntity
  8
치수문자_일반주서
 62
     0
100
AcDbMText
 10
11.31817240078563
 20
29.67178198861814
 30
0.0
 40
3.5
 41
0.0
 71
     2
 72
     1
  1
\A1;12
  7
SLDTEXTSTYLE0
 73
     1
 44
1.0
  0
POINT
  5
128
330
11F
100
AcDbEntity
  8
Defpoints
 62
     0
100
AcDbPoint
 10
17.31817240078563
 20
0.5969924622639708
 30
0.0
  0
POINT
  5
129
330
11F
100
AcDbEntity
  8
Defpoints
 62
     0
100
AcDbPoint
 10
5.318172400785627
 20
0.5749999999999967
 30
0.0
  0
POINT
  5
154
330
11F
100
AcDbEntity
  8
Defpoints
 62
     0
100
AcDbPoint
 10
5.318172400785627
 20
25.29678198861814
 30
0.0
  0
ENDBLK
  5
121
330
11F
100
AcDbEntity
  8
0
100
AcDbBlockEnd
  0
BLOCK
  5
12B
330
12A
100
AcDbEntity
  8
0
100
AcDbBlockBegin
  2
SW_DOWELSYMBOL_0
 70
     0
 10
0.0
 20
0.0
 30
0.0
  3
SW_DOWELSYMBOL_0
  1

  0
CIRCLE
  5
12D
330
12A
100
AcDbEntity
  8
해칭선
 62
     0
100
AcDbCircle
 10
0.0
 20
0.0
 30
0.0
 40
3.000000000000003
  0
HATCH
  5
12E
330
12A
100
AcDbEntity
  8
0
  6
Continuous
 62
     0
370
    18
100
AcDbHatch
 10
0.0
 20
0.0
 30
0.0
210
0.0
220
0.0
230
1.0
  2
SOLID
 70
     1
 71
     0
 91
        1
 92
        0
 93
        3
 72
     2
 10
-0.0000000000000017
 20
-0.0000000000000035
 40
3.000000000000003
 50
0.0
 51
90.0
 73
     1
 72
     1
 10
-0.0000000000000017
 20
2.999999999999999
 11
-0.0000000000000017
 21
-0.0000000000000036
 72
     1
 10
-0.0000000000000017
 20
-0.0000000000000035
 11
3.000000000000001
 21
-0.0000000000000035
 97
        0
 75
     0
 76
     1
 98
        1
 10
0.0
 20
0.0
  0
HATCH
  5
12F
330
12A
100
AcDbEntity
  8
0
  6
Continuous
 62
     0
370
    18
100
AcDbHatch
 10
0.0
 20
0.0
 30
0.0
210
0.0
220
0.0
230
1.0
  2
SOLID
 70
     1
 71
     0
 91
        1
 92
        0
 93
        3
 72
     2
 10
-0.0000000000000017
 20
-0.0000000000000035
 40
3.000000000000003
 50
180.0
 51
270.0000000000007
 73
     1
 72
     1
 10
-0.0000000000000017
 20
-3.000000000000006
 11
-0.0000000000000017
 21
-0.0000000000000036
 72
     1
 10
-0.0000000000000017
 20
-0.0000000000000035
 11
-3.000000000000004
 21
-0.0000000000000035
 97
        0
 75
     0
 76
     1
 98
        1
 10
0.0
 20
0.0
  0
ENDBLK
  5
12C
330
12A
100
AcDbEntity
  8
0
100
AcDbBlockEnd
  0
ENDSEC
  0
SECTION
  2
ENTITIES
  0
LINE
  5
99
330
1F
100
AcDbEntity
  8
0
  6
Continuous
 62
     4
370
    25
100
AcDbLine
 10
0.0
 20
2.0
 30
0.0
 11
-32.18182759921437
 21
1.999999999999987
 31
0.0
  0
LINE
  5
9A
330
1F
100
AcDbEntity
  8
0
  6
Continuous
 62
     4
370
    25
100
AcDbLine
 10
-32.18182759921437
 20
-2.000000000000006
 30
0.0
 11
0.0
 21
-1.999999999999993
 31
0.0
  0
LINE
  5
9B
330
1F
100
AcDbEntity
  8
0
  6
Continuous
 62
     4
370
    25
100
AcDbLine
 10
-32.18182759921437
 20
1.99999999999999
 30
0.0
 11
-32.68182759921437
 21
1.499999999999991
 31
0.0
  0
LINE
  5
9C
330
1F
100
AcDbEntity
  8
0
  6
Continuous
 62
     4
370
    25
100
AcDbLine
 10
-32.68182759921437
 20
-1.500000000000011
 30
0.0
 11
-32.18182759921437
 21
-2.000000000000011
 31
0.0
  0
LINE
  5
9D
330
1F
100
AcDbEntity
  8
0
  6
Continuous
 62
     4
370
    25
100
AcDbLine
 10
-0.0000000000000142
 20
-1.999999999999993
 30
0.0
 11
5.318172400785627
 21
-0.5749999999999856
 31
0.0
  0
LINE
  5
9E
330
1F
100
AcDbEntity
  8
0
  6
Continuous
 62
     4
370
    25
100
AcDbLine
 10
5.318172400785627
 20
0.5749999999999967
 30
0.0
 11
0.0
 21
2.0
 31
0.0
  0
LINE
  5
9F
330
1F
100
AcDbEntity
  8
0
  6
Continuous
 62
     4
370
    25
100
AcDbLine
 10
15.00171391019623
 20
0.5749999999999996
 30
0.0
 11
5.318172400785627
 21
0.5749999999999958
 31
0.0
  0
LINE
  5
A0
330
1F
100
AcDbEntity
  8
0
  6
Continuous
 62
     4
370
    25
100
AcDbLine
 10
5.318172400785627
 20
-0.5749999999999857
 30
0.0
 11
15.00171391019623
 21
-0.574999999999982
 31
0.0
  0
LINE
  5
A1
330
1F
100
AcDbEntity
  8
0
  6
Continuous
 62
     1
370
    25
100
AcDbLine
 10
17.14054287190799
 20
-0.6000000000000008
 30
0.0
 11
17.2324835203811
 21
-0.6000000000000008
 31
0.0
1001
PE_URL
1000

  0
LINE
  5
A2
330
1F
100
AcDbEntity
  8
0
  6
Continuous
 62
     1
370
    25
100
AcDbLine
 10
17.11759668579475
 20
0.0162705727105636
 30
0.0
 11
17.09813199235014
 21
0.0317014406352545
 31
0.0
1001
PE_URL
1000

  0
SPLINE
  5
A3
330
1F
100
AcDbEntity
  8
0
  6
Continuous
 62
     1
370
    25
100
AcDbSpline
210
0.0
220
0.0
230
1.0
 70
     8
 71
     3
 72
     9
 73
     5
 74
     0
 42
0.000000001
 43
0.00000001
 40
0.0
 40
0.0
 40
0.0
 40
0.0
 40
0.5125962724503927
 40
1.0
 40
1.0
 40
1.0
 40
1.0
 10
17.24554593284831
 20
-0.0821695639489754
 30
0.0
 10
17.2236515641516
 20
-0.0660659737770392
 30
0.0
 10
17.1809388682671
 20
-0.0346502358221857
 30
0.0
 10
17.1383531322634
 20
-0.0004155437949997
 30
0.0
 10
17.11759668579475
 20
0.0162705727105636
 30
0.0
1001
PE_URL
1000

  0
LINE
  5
A4
330
1F
100
AcDbEntity
  8
0
  6
Continuous
 62
     1
370
    25
100
AcDbLine
 10
16.06718243818335
 20
0.599999999999999
 30
0.0
 11
15.88892113471937
 21
0.599999999999999
 31
0.0
  0
LINE
  5
A5
330
1F
100
AcDbEntity
  8
0
  6
Continuous
 62
     1
370
    25
100
AcDbLine
 10
15.88892113471936
 20
-0.6000000000000008
 30
0.0
 11
16.06718243818356
 21
-0.6000000000000008
 31
0.0
  0
LINE
  5
A6
330
1F
100
AcDbEntity
  8
0
  6
Continuous
 62
     1
370
    25
100
AcDbLine
 10
17.2324835203811
 20
0.599999999999999
 30
0.0
 11
17.14054287190799
 21
0.599999999999999
 31
0.0
1001
PE_URL
1000

  0
LINE
  5
A7
330
1F
100
AcDbEntity
  8
0
  6
Continuous
 62
     4
370
    25
100
AcDbLine
 10
0.0
 20
1.999999999999993
 30
0.0
 11
0.0
 21
-1.999999999999993
 31
0.0
  0
LINE
  5
A8
330
1F
100
AcDbEntity
  8
0
  6
Continuous
 62
     4
370
    25
100
AcDbLine
 10
-32.18182759921437
 20
1.999999999999991
 30
0.0
 11
-32.18182759921437
 21
-2.00000000000001
 31
0.0
  0
LINE
  5
A9
330
1F
100
AcDbEntity
  8
0
  6
Continuous
 62
     4
370
    25
100
AcDbLine
 10
-32.68182759921437
 20
1.499999999999991
 30
0.0
 11
-32.68182759921437
 21
-1.500000000000011
 31
0.0
  0
LINE
  5
AA
330
1F
100
AcDbEntity
  8
0
  6
Continuous
 62
     4
370
    25
100
AcDbLine
 10
5.318172400785627
 20
0.5749999999999965
 30
0.0
 11
5.318172400785627
 21
-0.5749999999999862
 31
0.0
  0
SPLINE
  5
AB
330
1F
100
AcDbEntity
  8
0
  6
Continuous
 62
     4
370
    25
100
AcDbSpline
210
0.0
220
0.0
230
1.0
 70
    24
 71
     3
 72
    14
 73
    10
 74
     0
 42
0.000000001
 43
0.00000001
 40
0.0
 40
0.0
 40
0.0
 40
0.0
 40
0.25
 40
0.25
 40
0.5
 40
0.5
 40
0.75
 40
0.75
 40
1.0
 40
1.0
 40
1.0
 40
1.0
 10
15.51817240078563
 20
0.2551953505319364
 30
0.0
 10
15.51817240078563
 20
0.2323553370329246
 30
0.0
 10
15.51817240078563
 20
0.204772575137577
 30
0.0
 10
15.51817240078563
 20
0.1301481146340804
 30
0.0
 10
15.51817240078563
 20
0.0835518423951874
 30
0.0
 10
15.51817240078563
 20
-0.0278576955571528
 30
0.0
 10
15.51817240078563
 20
-0.0929376589825608
 30
0.0
 10
15.51817240078563
 20
-0.2258322464924058
 30
0.0
 10
15.51817240078563
 20
-0.2929280854496923
 30
0.0
 10
15.51817240078563
 20
-0.3475363252148659
 30
0.0
  0
SPLINE
  5
AC
330
1F
100
AcDbEntity
  8
0
  6
Continuous
 62
     4
370
    25
100
AcDbSpline
210
0.0
220
0.0
230
1.0
 70
     8
 71
     3
 72
    14
 73
    10
 74
     0
 42
0.000000001
 43
0.00000001
 40
0.0
 40
0.0
 40
0.0
 40
0.0
 40
0.2500000000000001
 40
0.2500000000000001
 40
0.5000000000000001
 40
0.5000000000000001
 40
0.7500000000000002
 40
0.7500000000000002
 40
1.0
 40
1.0
 40
1.0
 40
1.0
 10
15.51817240078204
 20
-0.3475363252128131
 30
0.0
 10
15.45634456654727
 20
-0.3122124645152921
 30
0.0
 10
15.39349934272567
 20
-0.2735589973542094
 30
0.0
 10
15.27075398938325
 20
-0.1926949569765834
 30
0.0
 10
15.21241621204064
 20
-0.1508933161495199
 30
0.0
 10
15.09022117345364
 20
-0.0641220155684377
 30
0.0
 10
15.02743766342096
 20
-0.0193781303223854
 30
0.0
 10
14.90346271827747
 20
0.0692928713921111
 30
0.0
 10
14.8437491210765
 20
0.1128553798487157
 30
0.0
 10
14.78372838354677
 20
0.1551323463115829
 30
0.0
  0
LINE
  5
AD
330
1F
100
AcDbEntity
  8
0
  6
Continuous
 62
     4
370
    25
100
AcDbLine
 10
14.79088216492389
 20
0.1529384883634134
 30
0.0
 11
14.78781830598692
 21
0.1538780853298578
 31
0.0
  0
SPLINE
  5
AE
330
1F
100
AcDbEntity
  8
0
  6
Continuous
 62
     4
370
    25
100
AcDbSpline
210
0.0
220
0.0
230
1.0
 70
     8
 71
     3
 72
    10
 73
     6
 74
     0
 42
0.000000001
 43
0.00000001
 40
0.0
 40
0.0
 40
0.0
 40
0.0
 40
0.5
 40
0.5
 40
1.0
 40
1.0
 40
1.0
 40
1.0
 10
15.51817240078204
 20
0.2551953505341404
 30
0.0
 10
15.42518024888866
 20
0.3149559849016499
 30
0.0
 10
15.32994149251509
 20
0.3698450928877349
 30
0.0
 10
15.15152961669436
 20
0.4608217268373899
 30
0.0
 10
15.05715657587481
 20
0.4988068042130235
 30
0.0
 10
14.96394406728807
 20
0.525815138383968
 30
0.0
  0
SPLINE
  5
AF
330
1F
100
AcDbEntity
  8
0
  6
Continuous
 62
     4
370
    25
100
AcDbSpline
210
0.0
220
0.0
230
1.0
 70
     8
 71
     3
 72
    14
 73
    10
 74
     0
 42
0.000000001
 43
0.00000001
 40
0.0000000000000004
 40
0.0000000000000004
 40
0.0000000000000004
 40
0.0000000000000004
 40
0.0000514808473846
 40
0.0000514808473846
 40
0.0000514808473846
 40
0.0001028875534114
 40
0.0001028875534114
 40
0.0001028875534114
 40
0.0001587596474825
 40
0.0001587596474825
 40
0.0001587596474825
 40
0.0001587596474825
 10
14.78372838354739
 20
-0.5536776635624686
 30
0.0
 10
14.76987813582982
 20
-0.5509442497275421
 30
0.0
 10
14.75759817348591
 20
-0.5472540893291331
 30
0.0
 10
14.74787654533257
 20
-0.5425723761620913
 30
0.0
 10
14.73816211214108
 20
-0.5378941279236673
 30
0.0
 10
14.73075051072425
 20
-0.53208934993383
 30
0.0
 10
14.7259543375899
 20
-0.5254003605788452
 30
0.0
 10
14.72073777667417
 20
-0.5181250768354357
 30
0.0
 10
14.71847874682672
 20
-0.5096381692441024
 30
0.0
 10
14.71847874682653
 20
-0.5004541639252463
 30
0.0
  0
SPLINE
  5
B0
330
1F
100
AcDbEntity
  8
0
  6
Continuous
 62
     4
370
    25
100
AcDbSpline
210
0.0
220
0.0
230
1.0
 70
     8
 71
     3
 72
    10
 73
     6
 74
     0
 42
0.000000001
 43
0.00000001
 40
0.0
 40
0.0
 40
0.0
 40
0.0
 40
0.2017538131684473
 40
0.510493059902876
 40
0.9999999999999999
 40
0.9999999999999999
 40
0.9999999999999999
 40
0.9999999999999999
 10
15.4435200029671
 20
-0.4845579389253387
 30
0.0
 10
15.39898628864509
 20
-0.5014693834069796
 30
0.0
 10
15.28630364966023
 20
-0.5442600246604488
 30
0.0
 10
15.06783959263709
 20
-0.585133300795552
 30
0.0
 10
14.89172610896545
 20
-0.565634732358254
 30
0.0
 10
14.78372838354677
 20
-0.5536776635623458
 30
0.0
  0
LINE
  5
B1
330
1F
100
AcDbEntity
  8
0
  6
Continuous
 62
     4
370
    25
100
AcDbLine
 10
15.4435200029671
 20
0.4845579389253377
 30
0.0
 11
15.51817240078204
 21
0.5152672443167319
 31
0.0
  0
SPLINE
  5
B2
330
1F
100
AcDbEntity
  8
0
  6
Continuous
 62
     4
370
    25
100
AcDbSpline
210
0.0
220
0.0
230
1.0
 70
     8
 71
     3
 72
    10
 73
     6
 74
     0
 42
0.000000001
 43
0.00000001
 40
0.0
 40
0.0
 40
0.0
 40
0.0
 40
0.4019009455211385
 40
0.7962636628288657
 40
1.0
 40
1.0
 40
1.0
 40
1.0
 10
15.51817240078204
 20
0.458086785071961
 30
0.0
 10
15.44868013034102
 20
0.4843962800842789
 30
0.0
 10
15.31099901658322
 20
0.5365217978247794
 30
0.0
 10
15.14008255837293
 20
0.5766085764687389
 30
0.0
 10
15.03687165186292
 20
0.5676854532851647
 30
0.0
 10
15.00171391019623
 20
0.5646458824650232
 30
0.0
  0
LINE
  5
B3
330
1F
100
AcDbEntity
  8
0
  6
Continuous
 62
     4
370
    25
100
AcDbLine
 10
15.51817240078563
 20
0.4580867850704033
 30
0.0
 11
15.51817240078563
 21
0.3783721784349715
 31
0.0
  0
SPLINE
  5
B4
330
1F
100
AcDbEntity
  8
0
  6
Continuous
 62
     4
370
    25
100
AcDbSpline
210
0.0
220
0.0
230
1.0
 70
     8
 71
     3
 72
    12
 73
     8
 74
     0
 42
0.000000001
 43
0.00000001
 40
0.0
 40
0.0
 40
0.0
 40
0.0
 40
0.25
 40
0.25
 40
0.5
 40
0.5
 40
1.0
 40
1.0
 40
1.0
 40
1.0
 10
14.71847874683225
 20
0.4541502815804946
 30
0.0
 10
14.71847874683225
 20
0.4722717580322786
 30
0.0
 10
14.72431732585539
 20
0.4884416559679429
 30
0.0
 10
14.75088900999763
 20
0.5138131109992724
 30
0.0
 10
14.77162717049366
 20
0.5231305177744335
 30
0.0
 10
14.84844448066582
 20
0.5406230752730025
 30
0.0
 10
14.91572326770894
 20
0.5397871201358738
 30
0.0
 10
14.96394406728807
 20
0.5258151383839664
 30
0.0
  0
LINE
  5
B5
330
1F
100
AcDbEntity
  8
0
  6
Continuous
 62
     4
370
    25
100
AcDbLine
 10
14.71847874683225
 20
0.4541502815804946
 30
0.0
 11
14.71847874683225
 21
0.2831441855498578
 31
0.0
  0
SPLINE
  5
B6
330
1F
100
AcDbEntity
  8
0
  6
Continuous
 62
     4
370
    25
100
AcDbSpline
210
0.0
220
0.0
230
1.0
 70
     8
 71
     3
 72
    14
 73
    10
 74
     0
 42
0.000000001
 43
0.00000001
 40
0.0000000000000004
 40
0.0000000000000004
 40
0.0000000000000004
 40
0.0000000000000004
 40
0.0000514808473846
 40
0.0000514808473846
 40
0.0000514808473846
 40
0.0001028875534114
 40
0.0001028875534114
 40
0.0001028875534114
 40
0.0001587596474825
 40
0.0001587596474825
 40
0.0001587596474825
 40
0.0001587596474825
 10
14.78372838354739
 20
0.1551323463111454
 30
0.0
 10
14.76987813582982
 20
0.1648880821177577
 30
0.0
 10
14.75759817348591
 20
0.1770252155844774
 30
0.0
 10
14.74787654533257
 20
0.1903686335135181
 30
0.0
 10
14.73816211214108
 20
0.2037021759997471
 30
0.0
 10
14.73075051072425
 20
0.2185794134503203
 30
0.0
 10
14.7259543375899
 20
0.2336224755959954
 30
0.0
 10
14.72073777667417
 20
0.2499840721947382
 30
0.0
 10
14.71847874682672
 20
0.2669115594239015
 30
0.0
 10
14.71847874682653
 20
0.2831441855484038
 30
0.0
  0
LINE
  5
B7
330
1F
100
AcDbEntity
  8
0
  6
Continuous
 62
     4
370
    25
100
AcDbLine
 10
15.51817240078563
 20
-0.3475363252148664
 30
0.0
 11
15.51817240078563
 21
-0.4559724349252252
 31
0.0
  0
SPLINE
  5
B8
330
1F
100
AcDbEntity
  8
0
  6
Continuous
 62
     4
370
    25
100
AcDbSpline
210
0.0
220
0.0
230
1.0
 70
     8
 71
     3
 72
    10
 73
     6
 74
     0
 42
0.000000001
 43
0.00000001
 40
0.0
 40
0.0
 40
0.0
 40
0.0
 40
0.5
 40
0.5
 40
1.0
 40
1.0
 40
1.0
 40
1.0
 10
15.51817240078204
 20
-0.5152672443167347
 30
0.0
 10
15.42518024888866
 20
-0.4856697175890616
 30
0.0
 10
15.32994149251509
 20
-0.4451585554817991
 30
0.0
 10
15.15152961669436
 20
-0.3501354999516401
 30
0.0
 10
15.05715657587481
 20
-0.2937194807254597
 30
0.0
 10
14.96394406728807
 20
-0.2326874303572325
 30
0.0
  0
SPLINE
  5
B9
330
1F
100
AcDbEntity
  8
0
  6
Continuous
 62
     4
370
    25
100
AcDbSpline
210
0.0
220
0.0
230
1.0
 70
     8
 71
     3
 72
    12
 73
     8
 74
     0
 42
0.000000001
 43
0.00000001
 40
0.0
 40
0.0
 40
0.0
 40
0.0
 40
0.2500000000000001
 40
0.2500000000000001
 40
0.5000000000000001
 40
0.5000000000000001
 40
1.0
 40
1.0
 40
1.0
 40
1.0
 10
14.71847874683225
 20
-0.3526648858907581
 30
0.0
 10
14.71847874683225
 20
-0.3293286424412721
 30
0.0
 10
14.7243173258554
 20
-0.3044980235448467
 30
0.0
 10
14.75088900999763
 20
-0.2594039024237587
 30
0.0
 10
14.77162717049367
 20
-0.2391247164272148
 30
0.0
 10
14.84844448066582
 20
-0.1980817129765776
 30
0.0
 10
14.91572326770894
 20
-0.2011142615483323
 30
0.0
 10
14.96394406728807
 20
-0.232687430357229
 30
0.0
  0
LINE
  5
BA
330
1F
100
AcDbEntity
  8
0
  6
Continuous
 62
     4
370
    25
100
AcDbLine
 10
14.71847874683225
 20
-0.3526648858907581
 30
0.0
 11
14.71847874683225
 21
-0.5004541639244247
 31
0.0
  0
SPLINE
  5
BB
330
1F
100
AcDbEntity
  8
0
  6
Continuous
 62
     4
370
    25
100
AcDbSpline
210
0.0
220
0.0
230
1.0
 70
    24
 71
     3
 72
    10
 73
     6
 74
     0
 42
0.000000001
 43
0.00000001
 40
0.0
 40
0.0
 40
0.0
 40
0.0
 40
0.4480462548286456
 40
0.8985498096992487
 40
1.0
 40
1.0
 40
1.0
 40
1.0
 10
15.51817240078563
 20
0.5152672443178812
 30
0.0
 10
15.51817240078563
 20
0.5073910262759185
 30
0.0
 10
15.51817240078563
 20
0.4915953932436501
 30
0.0
 10
15.51817240078563
 20
0.4745373043705919
 30
0.0
 10
15.51817240078563
 20
0.4667588502527942
 30
0.0
 10
15.51817240078563
 20
0.465329154997712
 30
0.0
  0
SPLINE
  5
BC
330
1F
100
AcDbEntity
  8
0
  6
Continuous
 62
     1
370
    25
100
AcDbSpline
210
0.0
220
0.0
230
1.0
 70
     8
 71
     3
 72
    13
 73
     9
 74
     0
 42
0.000000001
 43
0.00000001
 40
0.0
 40
0.0
 40
0.0
 40
0.0
 40
0.1984869057840648
 40
0.3971586585814542
 40
0.5969256063439727
 40
0.7539686849732559
 40
0.9095898783957285
 40
1.0
 40
1.0
 40
1.0
 40
1.0
 10
15.51817240078067
 20
0.2703850216423382
 30
0.0
 10
15.62545656794374
 20
0.1936649933369104
 30
0.0
 10
15.84012481393809
 20
0.0401534888487328
 30
0.0
 10
16.1626843780462
 20
-0.208689773722168
 30
0.0
 10
16.46370552092682
 20
-0.4057683918344739
 30
0.0
 10
16.74123572071186
 20
-0.5330234751356052
 30
0.0
 10
16.95801931995438
 20
-0.5962804605501386
 30
0.0
 10
17.09149428653452
 20
-0.5935099183193279
 30
0.0
 10
17.14054287190799
 20
-0.5924918159693479
 30
0.0
  0
SPLINE
  5
BD
330
1F
100
AcDbEntity
  8
0
  6
Continuous
 62
     1
370
    25
100
AcDbSpline
210
0.0
220
0.0
230
1.0
 70
     8
 71
     3
 72
    12
 73
     8
 74
     0
 42
0.000000001
 43
0.00000001
 40
0.0
 40
0.0
 40
0.0
 40
0.0
 40
0.3063290807510263
 40
0.5099145113432667
 40
0.7128702455507182
 40
0.9144604570719744
 40
1.0
 40
1.0
 40
1.0
 40
1.0
 10
15.51817240078067
 20
-0.335524562590819
 30
0.0
 10
15.63442276603332
 20
-0.3948132014507844
 30
0.0
 10
15.82793279141499
 20
-0.4935049000592435
 30
0.0
 10
16.09725055276207
 20
-0.5565123486666759
 30
0.0
 10
16.32869287860612
 20
-0.5640919881361413
 30
0.0
 10
16.51320815573747
 20
-0.538627660912302
 30
0.0
 10
16.62235684687362
 20
-0.4982780120730625
 30
0.0
 10
16.65487360630486
 20
-0.4862573473194746
 30
0.0
  0
SPLINE
  5
BE
330
1F
100
AcDbEntity
  8
0
  6
Continuous
 62
     4
370
    25
100
AcDbSpline
210
0.0
220
0.0
230
1.0
 70
    24
 71
     3
 72
    14
 73
    10
 74
     0
 42
0.000000001
 43
0.00000001
 40
0.0
 40
0.0
 40
0.0
 40
0.0
 40
0.25
 40
0.25
 40
0.5
 40
0.5
 40
0.75
 40
0.75
 40
1.0
 40
1.0
 40
1.0
 40
1.0
 10
15.51817240078563
 20
0.2703850216533469
 30
0.0
 10
15.51817240078563
 20
0.2472301484374274
 30
0.0
 10
15.51817240078563
 20
0.2227487229006306
 30
0.0
 10
15.51817240078563
 20
0.1520068747869109
 30
0.0
 10
15.51817240078563
 20
0.1071226060643342
 30
0.0
 10
15.51817240078563
 20
-0.0030823746674261
 30
0.0
 10
15.51817240078563
 20
-0.0687929588217129
 30
0.0
 10
15.51817240078563
 20
-0.2061435430769868
 30
0.0
 10
15.51817240078563
 20
-0.277071385528588
 30
0.0
 10
15.51817240078563
 20
-0.3355245625928842
 30
0.0
  0
ELLIPSE
  5
BF
330
1F
100
AcDbEntity
  8
0
  6
Continuous
 62
     1
370
    25
100
AcDbEllipse
 10
17.2324835203811
 20
-0.0000000000000005
 30
0.0
 11
0.8568888040452656
 21
1.049386131099239E-16
 31
0.0
210
0.0
220
0.0
230
1.0
 40
0.7002075382097122
 41
4.025771955419259
 42
4.791228087452839
1001
PE_URL
1000

  0
LINE
  5
C0
330
1F
100
AcDbEntity
  8
0
  6
Continuous
 62
     4
370
    25
100
AcDbLine
 10
15.51817240078563
 20
0.2703850216420612
 30
0.0
 11
15.51817240078563
 21
0.3822981188404367
 31
0.0
  0
SPLINE
  5
C1
330
1F
100
AcDbEntity
  8
0
  6
Continuous
 62
     1
370
    25
100
AcDbSpline
210
0.0
220
0.0
230
1.0
 70
     8
 71
     3
 72
    17
 73
    13
 74
     0
 42
0.000000001
 43
0.00000001
 40
0.0
 40
0.0
 40
0.0
 40
0.0
 40
0.0811995173366454
 40
0.126316258973563
 40
0.249713824799338
 40
0.3756309992309235
 40
0.5013944313242288
 40
0.5446832609865011
 40
0.7731825533953305
 40
0.886685589922635
 40
0.9407812332427093
 40
1.0
 40
1.0
 40
1.0
 40
1.0
 10
16.72460217195598
 20
-0.4406771156981049
 30
0.0
 10
16.69183992992954
 20
-0.4234759984352711
 30
0.0
 10
16.64087406234676
 20
-0.3967174553542993
 30
0.0
 10
16.54018862344426
 20
-0.3374686885425067
 30
0.0
 10
16.42293152810587
 20
-0.2593970371638847
 30
0.0
 10
16.2714417657161
 20
-0.1529419776760205
 30
0.0
 10
16.15221226429561
 20
-0.0650716773980097
 30
0.0
 10
15.99363216651163
 20
0.0568352970694101
 30
0.0
 10
15.83720449365482
 20
0.1726614803917738
 30
0.0
 10
15.67817912745796
 20
0.2821363616908478
 30
0.0
 10
15.58764722104635
 20
0.3412970999836872
 30
0.0
 10
15.54201832567638
 20
0.3682252905471515
 30
0.0
 10
15.51817240078067
 20
0.3822981188404367
 30
0.0
  0
ELLIPSE
  5
C2
330
1F
100
AcDbEntity
  8
0
  6
Continuous
 62
     1
370
    25
100
AcDbEllipse
 10
17.32265701028099
 20
-0.0000000000000005
 30
0.0
 11
0.8567617813126613
 21
0.5996295661570133
 31
0.0
210
0.0
220
0.0
230
1.0
 40
0.0246047424769585
 41
3.863350915788515
 42
3.92265683463933
1001
PE_URL
1000

  0
SPLINE
  5
C3
330
1F
100
AcDbEntity
  8
0
  6
Continuous
 62
     1
370
    25
100
AcDbSpline
210
0.0
220
0.0
230
1.0
 70
     8
 71
     3
 72
    22
 73
    18
 74
     0
 42
0.000000001
 43
0.00000001
 40
0.0
 40
0.0
 40
0.0
 40
0.0
 40
0.125
 40
0.125
 40
0.25
 40
0.25
 40
0.375
 40
0.375
 40
0.5
 40
0.5
 40
0.625
 40
0.625
 40
0.75
 40
0.75
 40
0.875
 40
0.875
 40
1.0
 40
1.0
 40
1.0
 40
1.0
 10
17.25027019876062
 20
-0.0819056563937855
 30
0.0
 10
17.17853805750987
 20
-0.028142240480282
 30
0.0
 10
17.10419474730919
 20
0.0272852441083853
 30
0.0
 10
16.95841300822576
 20
0.1354000763241957
 30
0.0
 10
16.88944417521267
 20
0.1874913990585476
 30
0.0
 10
16.7452557778192
 20
0.2873419531340254
 30
0.0
 10
16.67084477622721
 20
0.3348118617751548
 30
0.0
 10
16.52554010141954
 20
0.4195815231925057
 30
0.0
 10
16.45676742879828
 20
0.4566236396771773
 30
0.0
 10
16.31194029138476
 20
0.5199050902942993
 30
0.0
 10
16.23750900134638
 20
0.5456892951372414
 30
0.0
 10
16.09276902525107
 20
0.5827263066684507
 30
0.0
 10
16.02398103605332
 20
0.5940932133918428
 30
0.0
 10
15.87860182381215
 20
0.6024100063891762
 30
0.0
 10
15.80419769200068
 20
0.5990558121887343
 30
0.0
 10
15.66010890332318
 20
0.5778187667826034
 30
0.0
 10
15.59109415128046
 20
0.5602139396518061
 30
0.0
 10
15.51817240078399
 20
0.5356229458048521
 30
0.0
  0
SPLINE
  5
C4
330
1F
100
AcDbEntity
  8
0
  6
Continuous
 62
     1
370
    25
100
AcDbSpline
210
0.0
220
0.0
230
1.0
 70
     8
 71
     3
 72
    18
 73
    14
 74
     0
 42
0.000000001
 43
0.00000001
 40
0.0
 40
0.0
 40
0.0
 40
0.0
 40
0.1249999999999998
 40
0.1249999999999998
 40
0.2499999999999998
 40
0.2499999999999998
 40
0.3749999999999998
 40
0.3749999999999998
 40
0.4999999999999998
 40
0.4999999999999998
 40
0.7499999999999998
 40
0.7499999999999998
 40
1.0
 40
1.0
 40
1.0
 40
1.0
 10
15.51817240078065
 20
0.4481378022210855
 30
0.0
 10
15.57335350069799
 20
0.4250463610897391
 30
0.0
 10
15.62655450121813
 20
0.3990691619117306
 30
0.0
 10
15.73352850179013
 20
0.3418945408083033
 30
0.0
 10
15.78889679018195
 20
0.3103687142939935
 30
0.0
 10
15.89997554176844
 20
0.2432463830978914
 30
0.0
 10
15.95566111971388
 20
0.2076646190965187
 30
0.0
 10
16.06383946694421
 20
0.1347861671225094
 30
0.0
 10
16.11613164760222
 20
0.0975613269942833
 30
0.0
 10
16.28066573883655
 20
-0.0171389682650718
 30
0.0
 10
16.39320676035341
 20
-0.0959013211776448
 30
0.0
 10
16.60576833283083
 20
-0.2410459514802059
 30
0.0
 10
16.72023143424732
 20
-0.3105204114455303
 30
0.0
 10
16.82895098318366
 20
-0.3682684548831565
 30
0.0
  0
SPLINE
  5
C5
330
1F
100
AcDbEntity
  8
0
  6
Continuous
 62
     4
370
    25
100
AcDbSpline
210
0.0
220
0.0
230
1.0
 70
    24
 71
     3
 72
     9
 73
     5
 74
     0
 42
0.000000001
 43
0.00000001
 40
0.0
 40
0.0
 40
0.0
 40
0.0
 40
0.6220363383409226
 40
1.0
 40
1.0
 40
1.0
 40
1.0
 10
15.51817240078563
 20
0.5356229458258654
 30
0.0
 10
15.51817240078563
 20
0.5196041929036008
 30
0.0
 10
15.51817240078563
 20
0.4938520753263715
 30
0.0
 10
15.51817240078563
 20
0.4731454913121707
 30
0.0
 10
15.51817240078563
 20
0.465319154997712
 30
0.0
  0
SPLINE
  5
C6
330
1F
100
AcDbEntity
  8
0
  6
Continuous
 62
     1
370
    25
100
AcDbSpline
210
0.0
220
0.0
230
1.0
 70
     8
 71
     3
 72
    14
 73
    10
 74
     0
 42
0.000000001
 43
0.00000001
 40
0.0
 40
0.0
 40
0.0
 40
0.0
 40
0.25
 40
0.25
 40
0.5
 40
0.5
 40
0.75
 40
0.75
 40
1.0
 40
1.0
 40
1.0
 40
1.0
 10
17.25027019876354
 20
-0.081905656395981
 30
0.0
 10
17.24781952388036
 20
-0.0804577905901577
 30
0.0
 10
17.23623472539469
 20
-0.0854392023318659
 30
0.0
 10
17.18285165266473
 20
-0.1174059241565303
 30
0.0
 10
17.14087207856415
 20
-0.144770107351191
 30
0.0
 10
17.04523686993335
 20
-0.210049630908766
 30
0.0
 10
16.99356986754423
 20
-0.2465244671899106
 30
0.0
 10
16.90199824404066
 20
-0.3128673625425247
 30
0.0
 10
16.86167578368433
 20
-0.3430050072521801
 30
0.0
 10
16.82895098318384
 20
-0.368268454883252
 30
0.0
1001
PE_URL
1000

  0
LINE
  5
C7
330
1F
100
AcDbEntity
  8
0
  6
Continuous
 62
     1
370
    25
100
AcDbLine
 10
17.28072917512326
 20
-0.0337819711363288
 30
0.0
 11
16.68928076619991
 21
0.3803546632539448
 31
0.0
1001
PE_URL
1000

  0
SPLINE
  5
C8
330
1F
100
AcDbEntity
  8
0
  6
Continuous
 62
     1
370
    25
100
AcDbSpline
210
0.0
220
0.0
230
1.0
 70
     8
 71
     3
 72
    13
 73
     9
 74
     0
 42
0.000000001
 43
0.00000001
 40
0.0
 40
0.0
 40
0.0
 40
0.0
 40
0.1490273181015126
 40
0.3171653016686972
 40
0.4861736656864376
 40
0.7263420138424199
 40
0.9202863545164327
 40
1.0
 40
1.0
 40
1.0
 40
1.0
 10
16.72460217195598
 20
0.4071899798619777
 30
0.0
 10
16.69183496148596
 20
0.4245413653124789
 30
0.0
 10
16.62209860491754
 20
0.461469208280366
 30
0.0
 10
16.51540487048429
 20
0.5085931016224904
 30
0.0
 10
16.39019501802098
 20
0.5548060477816572
 30
0.0
 10
16.25704666963298
 20
0.5856375895450613
 30
0.0
 10
16.14425415001546
 20
0.5993618002706897
 30
0.0
 10
16.08456829082032
 20
0.5992514709186737
 30
0.0
 10
16.06718243818335
 20
0.5992193331580458
 30
0.0
  0
ELLIPSE
  5
C9
330
1F
100
AcDbEntity
  8
0
  6
Continuous
 62
     1
370
    25
100
AcDbEllipse
 10
17.32265701028099
 20
-0.0000000000000007
 30
0.0
 11
0.8558245956457213
 21
0.06121549885842055
 31
0.0
210
0.0
220
0.0
230
1.0
 40
0.6974198368596263
 41
2.29346604165011
 42
2.352771960501027
1001
PE_URL
1000

  0
ELLIPSE
  5
CA
330
1F
100
AcDbEntity
  8
0
  6
Continuous
 62
     1
370
    25
100
AcDbEllipse
 10
17.32265701028099
 20
-0.0000000000000005
 30
0.0
 11
0.8567617813126613
 21
0.5996295661570133
 31
0.0
210
0.0
220
0.0
230
1.0
 40
0.0246047424769585
 41
4.610593223542863
 42
4.645242705771848
1001
PE_URL
1000

  0
LINE
  5
CB
330
1F
100
AcDbEntity
  8
0
  6
Continuous
 62
     4
370
    25
100
AcDbLine
 10
15.51817240078563
 20
0.4481378022190287
 30
0.0
 11
15.51817240078563
 21
0.3822981188375743
 31
0.0
  0
SPLINE
  5
CC
330
1F
100
AcDbEntity
  8
0
  6
Continuous
 62
     1
370
    25
100
AcDbSpline
210
0.0
220
0.0
230
1.0
 70
     8
 71
     3
 72
     8
 73
     4
 74
     0
 42
0.000000001
 43
0.00000001
 40
0.0
 40
0.0
 40
0.0
 40
0.0
 40
1.0
 40
1.0
 40
1.0
 40
1.0
 10
16.72460217195598
 20
-0.4406771156981041
 30
0.0
 10
16.75991382765984
 20
-0.4159113550276363
 30
0.0
 10
16.79471075752008
 20
-0.39175847367671
 30
0.0
 10
16.82895098318384
 20
-0.3682684548832594
 30
0.0
1001
PE_URL
1000

  0
SPLINE
  5
CD
330
1F
100
AcDbEntity
  8
0
  6
Continuous
 62
     1
370
    25
100
AcDbSpline
210
0.0
220
0.0
230
1.0
 70
     8
 71
     3
 72
    10
 73
     6
 74
     0
 42
0.000000001
 43
0.00000001
 40
0.0
 40
0.0
 40
0.0
 40
0.0
 40
0.1378817225520209
 40
0.5658066170770591
 40
1.0
 40
1.0
 40
1.0
 40
1.0
 10
16.66032530168745
 20
0.488762975138638
 30
0.0
 10
16.68746779486465
 20
0.5017732528644546
 30
0.0
 10
16.79884878111418
 20
0.5551617737722926
 30
0.0
 10
16.99438300208612
 20
0.6011067453678175
 30
0.0
 10
17.16456200761546
 20
0.5966352612869865
 30
0.0
 10
17.25027019876062
 20
0.5943832630977249
 30
0.0
1001
PE_URL
1000

  0
SPLINE
  5
CE
330
1F
100
AcDbEntity
  8
0
  6
Continuous
 62
     1
370
    25
100
AcDbSpline
210
0.0
220
0.0
230
1.0
 70
     8
 71
     3
 72
    14
 73
    10
 74
     0
 42
0.000000001
 43
0.00000001
 40
0.0
 40
0.0
 40
0.0
 40
0.0
 40
0.25
 40
0.25
 40
0.5
 40
0.5
 40
0.75
 40
0.75
 40
1.0
 40
1.0
 40
1.0
 40
1.0
 10
17.25027019876354
 20
0.5943832630974223
 30
0.0
 10
17.24781952388036
 20
0.5339685346785046
 30
0.0
 10
17.23623472539469
 20
0.4740254560864416
 30
0.0
 10
17.18285165266473
 20
0.3697698393629325
 30
0.0
 10
17.14087207856415
 20
0.3302610035285312
 30
0.0
 10
17.04523686993335
 20
0.2963563251845951
 30
0.0
 10
16.99356986754423
 20
0.3010801184211309
 30
0.0
 10
16.90199824404066
 20
0.3418328591764261
 30
0.0
 10
16.86167578368433
 20
0.3774154977298493
 30
0.0
 10
16.82895098318384
 20
0.4216427006592161
 30
0.0
1001
PE_URL
1000

  0
SPLINE
  5
CF
330
1F
100
AcDbEntity
  8
0
  6
Continuous
 62
     1
370
    25
100
AcDbSpline
210
0.0
220
0.0
230
1.0
 70
     8
 71
     3
 72
    12
 73
     8
 74
     0
 42
0.000000001
 43
0.00000001
 40
0.0
 40
0.0
 40
0.0
 40
0.0
 40
0.0774881756140197
 40
0.3522821842325476
 40
0.6251735733612808
 40
0.8999107701075736
 40
1.0
 40
1.0
 40
1.0
 40
1.0
 10
16.41056739618002
 20
0.5483044904668997
 30
0.0
 10
16.42138500556106
 20
0.5471899684550858
 30
0.0
 10
16.47056478080717
 20
0.5421230502371024
 30
0.0
 10
16.55688296971007
 20
0.5212987458277676
 30
0.0
 10
16.67204871000875
 20
0.4869068880835511
 30
0.0
 10
16.76275086405753
 20
0.4516846368861724
 30
0.0
 10
16.81499920279712
 20
0.4279740864960112
 30
0.0
 10
16.82895098318384
 20
0.4216427006592164
 30
0.0
  0
SPLINE
  5
D0
330
1F
100
AcDbEntity
  8
0
  6
Continuous
 62
     1
370
    25
100
AcDbSpline
210
0.0
220
0.0
230
1.0
 70
     8
 71
     3
 72
    22
 73
    18
 74
     0
 42
0.000000001
 43
0.00000001
 40
0.0
 40
0.0
 40
0.0
 40
0.0
 40
0.0006100742465041
 40
0.1784107838985342
 40
0.3219910752671762
 40
0.4160609662696341
 40
0.4406621036777851
 40
0.4652465992539662
 40
0.489814459566874
 40
0.4914456165082824
 40
0.5036224634345051
 40
0.5368524288799499
 40
0.5895030580332019
 40
0.6615721867842511
 40
0.7832435416770106
 40
0.893634825100926
 40
1.0
 40
1.0
 40
1.0
 40
1.0
 10
16.40589596877582
 20
-0.5468953882149126
 30
0.0
 10
16.40571644994602
 20
-0.5469604286848404
 30
0.0
 10
16.35321776583798
 20
-0.5659809352731036
 30
0.0
 10
16.25697596320333
 20
-0.5850772788561249
 30
0.0
 10
16.13389987653646
 20
-0.5997927964432922
 30
0.0
 10
16.05663253188545
 20
-0.6004346668170506
 30
0.0
 10
16.01445232833306
 20
-0.5987322824000797
 30
0.0
 10
15.99272973995077
 20
-0.5973953235219466
 30
0.0
 10
15.9778219722532
 20
-0.5961537332074056
 30
0.0
 10
15.96649289454911
 20
-0.5950992501957261
 30
0.0
 10
15.9525322880903
 20
-0.5937391457154855
 30
0.0
 10
15.92344815258688
 20
-0.5903590116444539
 30
0.0
 10
15.87655777844498
 20
-0.5832785103049494
 30
0.0
 10
15.80339913284852
 20
-0.5685862196542365
 30
0.0
 10
15.71313628702061
 20
-0.5434429944661889
 30
0.0
 10
15.61378929713428
 20
-0.5064393092204615
 30
0.0
 10
15.54964756944252
 20
-0.4769218024001362
 30
0.0
 10
15.51817240078067
 20
-0.4624371831190341
 30
0.0
  0
LINE
  5
D1
330
1F
100
AcDbEntity
  8
0
  6
Continuous
 62
     4
370
    25
100
AcDbLine
 10
15.51817240078563
 20
-0.3360263252148665
 30
0.0
 11
15.51817240078563
 21
-0.4624371831214006
 31
0.0
  0
ELLIPSE
  5
D2
330
1F
100
AcDbEntity
  8
0
  6
Continuous
 62
     1
370
    25
100
AcDbEllipse
 10
17.32265701028099
 20
-0.0000000000000007
 30
0.0
 11
0.8558245956457213
 21
0.06121549885842055
 31
0.0
210
0.0
220
0.0
230
1.0
 40
0.6974198368596263
 41
1.547431765739702
 42
1.605529652746348
1001
PE_URL
1000

  0
LINE
  5
D3
330
1F
100
AcDbEntity
  8
0
  6
Continuous
 62
     1
370
    25
100
AcDbLine
 10
17.27989235168413
 20
-0.0612655423661585
 30
0.0
 11
17.29996990636809
 21
0.5981362842024978
 31
0.0
1001
PE_URL
1000

  0
SPLINE
  5
D6
330
1F
100
AcDbEntity
  8
0
  6
Continuous
 62
     1
370
    25
100
AcDbSpline
210
0.0
220
0.0
230
1.0
 70
     8
 71
     3
 72
     8
 73
     4
 74
     0
 42
0.000000001
 43
0.00000001
 40
0.0
 40
0.0
 40
0.0
 40
0.0
 40
1.0
 40
1.0
 40
1.0
 40
1.0
 10
16.72460217195598
 20
0.4071899798619762
 30
0.0
 10
16.75991382765984
 20
0.4070689818687538
 30
0.0
 10
16.79471075752008
 20
0.4117558538747976
 30
0.0
 10
16.82895098318384
 20
0.4216427006592123
 30
0.0
1001
PE_URL
1000

  0
SPLINE
  5
D9
330
1F
100
AcDbEntity
  8
0
  6
Continuous
 62
     1
370
    25
100
AcDbSpline
210
0.0
220
0.0
230
1.0
 70
     8
 71
     3
 72
     9
 73
     5
 74
     0
 42
0.000000001
 43
0.00000001
 40
0.0
 40
0.0
 40
0.0
 40
0.0
 40
0.8681111706516279
 40
1.0
 40
1.0
 40
1.0
 40
1.0
 10
15.51817240078067
 20
-0.5356229458037366
 30
0.0
 10
15.62543794748488
 20
-0.5707444403862456
 30
0.0
 10
15.74899994084535
 20
-0.6112018100986361
 30
0.0
 10
15.87261737592028
 20
-0.5957386985430052
 30
0.0
 10
15.88892113471936
 20
-0.59369928686185
 30
0.0
  0
LINE
  5
DA
330
1F
100
AcDbEntity
  8
0
  6
Continuous
 62
     4
370
    25
100
AcDbLine
 10
15.51817240078563
 20
-0.5356229458038793
 30
0.0
 11
15.51817240078563
 21
-0.4624371831190341
 31
0.0
  0
LINE
  5
DB
330
1F
100
AcDbEntity
  8
0
  6
Continuous
 62
     1
370
    25
100
AcDbLine
 10
17.27880793003365
 20
-0.032268273270257
 30
0.0
 11
17.27881439815589
 21
-0.0324412298697854
 31
0.0
1001
PE_URL
1000

  0
LINE
  5
DC
330
1F
100
AcDbEntity
  8
0
  6
Continuous
 62
     1
370
    25
100
AcDbLine
 10
17.27989235168413
 20
-0.0612655423661585
 30
0.0
 11
17.29996990636809
 21
-0.5981362842024988
 31
0.0
1001
PE_URL
1000

  0
ELLIPSE
  5
DD
330
1F
100
AcDbEntity
  8
0
  6
Continuous
 62
     1
370
    25
100
AcDbEllipse
 10
17.2324835203811
 20
-0.0000000000000009
 30
0.0
 11
0.8568888040452656
 21
0.0
 31
0.0
210
0.0
220
0.0
230
1.0
 40
0.7002075382097122
 41
1.491957219726759
 42
1.570796326794897
1001
PE_URL
1000

  0
LINE
  5
E1
330
1F
100
AcDbEntity
  8
중심선
100
AcDbLine
 10
-35.68182759921437
 20
-0.0000000000000052
 30
0.0
 11
18.77864973749151
 21
0.0000000000000015
 31
0.0
  0
CIRCLE
  5
E2
330
1F
100
AcDbEntity
  8
해칭선
100
AcDbCircle
 10
0.0
 20
0.0
 30
0.0
 40
3.000000000000003
  0
INSERT
  5
E3
330
1F
100
AcDbEntity
  8
0
  6
Continuous
 62
     7
100
AcDbBlockReference
 66
     1
  2
블럭10
 10
-25.5152729321252
 20
-52.04717430164394
 30
0.0
  0
ATTRIB
  5
E4
330
E3
100
AcDbEntity
  8
FORMAT
 62
     2
100
AcDbText
 10
-41.63453397156076
 20
-49.97180738881174
 30
0.0
 40
4.233333333333333
  1
SEME7301212E [ 4 FLUTE ]
 41
0.75
  7
SLDTEXTSTYLE0
 11
-41.63453397156076
 21
-52.08847405547841
 31
0.0
100
AcDbAttribute
  2
AUTOATTR0
 70
     0
 74
     1
  0
SEQEND
  5
E5
330
E3
100
AcDbEntity
  8
0
  6
Continuous
 62
     7
  0
HATCH
  5
E6
330
1F
100
AcDbEntity
  8
중심선
100
AcDbHatch
 10
0.0
 20
0.0
 30
0.0
210
0.0
220
0.0
230
1.0
  2
SOLID
 70
     1
 71
     0
 91
        1
 92
        0
 93
        4
 72
     1
 10
-19.80036362774436
 20
-35.8
 11
-23.24663887158164
 21
-35.8
 72
     1
 10
-23.24663887158164
 20
-35.8
 11
-25.37486873078566
 21
-38.3363255805726
 72
     1
 10
-25.37486873078566
 20
-38.3363255805726
 11
-21.92856040183523
 21
-38.33628615127011
 72
     1
 10
-21.92856040183523
 20
-38.33628615127011
 11
-19.80036362774436
 21
-35.8
 97
        0
 75
     0
 76
     1
 98
        1
 10
0.1249450790101886
 20
-0.0000000000000064
  0
HATCH
  5
E7
330
1F
100
AcDbEntity
  8
중심선
100
AcDbHatch
 10
0.0
 20
0.0
 30
0.0
210
0.0
220
0.0
230
1.0
  2
SOLID
 70
     1
 71
     0
 91
        1
 92
        0
 93
        4
 72
     1
 10
-14.78759963670838
 20
-35.79999999999998
 11
-18.23387488054569
 21
-35.80000000000003
 72
     1
 10
-18.23387488054569
 20
-35.80000000000003
 11
-22.76501288890308
 21
-41.20000000000002
 72
     1
 10
-22.76501288890308
 20
-41.20000000000002
 11
-19.3187376450658
 21
-41.20000000000002
 72
     1
 10
-19.3187376450658
 20
-41.20000000000002
 11
-14.78759963670838
 21
-35.79999999999998
 97
        0
 75
     0
 76
     1
 98
        1
 10
0.1249450790101886
 20
-0.0000000000000064
  0
HATCH
  5
E8
330
1F
100
AcDbEntity
  8
중심선
100
AcDbHatch
 10
0.0
 20
0.0
 30
0.0
210
0.0
220
0.0
230
1.0
  2
SOLID
 70
     1
 71
     0
 91
        1
 92
        0
 93
        4
 72
     1
 10
-9.77483564567251
 20
-35.79999999999998
 11
-13.22111088950965
 21
-35.80000000000003
 72
     1
 10
-13.22111088950965
 20
-35.80000000000003
 11
-20.26954779139887
 21
-44.20000000000002
 72
     1
 10
-20.26954779139887
 20
-44.20000000000002
 11
-16.82327254756159
 21
-44.20000000000002
 72
     1
 10
-16.82327254756159
 20
-44.20000000000002
 11
-9.77483564567251
 21
-35.79999999999998
 97
        0
 75
     0
 76
     1
 98
        1
 10
0.1249450790101886
 20
-0.0000000000000064
  0
HATCH
  5
E9
330
1F
100
AcDbEntity
  8
중심선
100
AcDbHatch
 10
0.0
 20
0.0
 30
0.0
210
0.0
220
0.0
230
1.0
  2
SOLID
 70
     1
 71
     0
 91
        1
 92
        0
 93
        6
 72
     3
 10
-4.974945214660312
 20
-40.00000000005128
 11
3.960054785062283
 21
1.540882976769353E-10
 40
0.3939339440162628
 50
17.09539180608436
 51
320.0019657685078
 73
     0
 72
     1
 10
-3.291945558959716
 20
-38.58789400463831
 11
-0.9866436852586511
 21
-36.65356729459039
 72
     3
 10
-4.974945214713158
 20
-40.00000000000016
 11
6.600054785286829
 21
-1.278976924368180E-13
 40
0.636358354079598
 50
39.99873849337385
 51
368.4976242363724
 73
     1
 72
     1
 10
1.450387277187451
 20
-39.03999999993002
 11
-6.294877907877236
 21
-39.03999999993002
 72
     1
 10
-6.294877907877236
 20
-39.03999999993002
 11
-6.294902952323169
 21
-40.95999999992992
 72
     1
 10
-6.294902952323169
 20
-40.95999999992992
 11
-1.853523182851132
 21
-40.95999999992989
 97
        0
 75
     0
 76
     1
 98
        1
 10
0.1249450790101886
 20
-0.0000000000000064
  0
DIMENSION
  5
EA
330
1F
100
AcDbEntity
  8
치수문자_일반주서
100
AcDbDimension
  2
_D
 10
30.90879173702617
 20
0.6000000000000529
 30
0.0
 11
30.90879173702614
 21
11.57900000000006
 31
0.0
 70
   160
  1
%%c<>
 71
     2
 42
1.200000000000008
 52
-270.0
  3
SLDDIMSTYLE0
100
AcDbAlignedDimension
 13
17.31817240078564
 23
-0.6000000000000055
 33
0.0
 14
17.31817240078564
 24
0.600000000000002
 34
0.0
 50
90.0000000000002
100
AcDbRotatedDimension
  0
DIMENSION
  5
F8
330
1F
100
AcDbEntity
  8
치수문자_일반주서
100
AcDbDimension
  2
_D_1
 10
17.31817240078563
 20
36.00000000000003
 30
0.0
 11
-7.681827599214369
 21
36.00000000000003
 31
0.0
 70
   160
  1
<>
 71
     2
 42
50.0
  3
SLDDIMSTYLE1
100
AcDbAlignedDimension
 13
-32.68182759921437
 23
1.499999999999991
 33
0.0
 14
17.31817240078563
 24
-0.0600000000000007
 34
0.0
100
AcDbRotatedDimension
  0
DIMENSION
  5
103
330
1F
100
AcDbEntity
  8
치수문자_일반주서
100
AcDbDimension
  2
_D_2
 10
-46.17446716083426
 20
-2.000000000000056
 30
0.0
 11
-46.17446716083427
 21
-0.7264638992031102
 31
0.0
 70
   160
  1
%%c<>
 71
     2
 42
3.999999999999975
 52
-270.0
  3
SLDDIMSTYLE2
100
AcDbAlignedDimension
 13
-32.18182759921439
 23
1.999999999999973
 33
0.0
 14
-32.18182759921439
 24
-2.000000000000003
 34
0.0
 50
90.0000000000002
100
AcDbRotatedDimension
  0
DIMENSION
  5
111
330
1F
100
AcDbEntity
  8
치수문자_일반주서
100
AcDbDimension
  2
_D_3
 10
17.31817240078563
 20
16.86065822213585
 30
0.0
 11
28.07842240078563
 21
16.86065822213585
 31
0.0
 70
   160
  1
<>
 71
     2
 42
1.800000000000001
  3
SLDDIMSTYLE3
100
AcDbAlignedDimension
 13
15.51817240078563
 23
0.5356229458249193
 33
0.0
 14
17.31817240078563
 24
0.0029715107590773
 34
0.0
100
AcDbRotatedDimension
  0
DIMENSION
  5
11E
330
1F
100
AcDbEntity
  8
치수문자_일반주서
100
AcDbDimension
  2
_D_4
 10
5.318172400785627
 20
25.29678198861814
 30
0.0
 11
11.31817240078563
 21
25.29678198861814
 31
0.0
 70
   160
  1
<>
 71
     2
 42
12.0
  3
SLDDIMSTYLE2
100
AcDbAlignedDimension
 13
17.31817240078563
 23
0.5969924622639708
 33
0.0
 14
5.318172400785627
 24
0.5749999999999967
 34
0.0
100
AcDbRotatedDimension
  0
INSERT
  5
130
330
1F
100
AcDbEntity
  8
해칭선
100
AcDbBlockReference
  2
SW_DOWELSYMBOL_0
 10
0.0
 20
0.0
 30
0.0
  0
ENDSEC
  0
SECTION
  2
OBJECTS
  0
DICTIONARY
  5
C
330
0
100
AcDbDictionary
281
     1
  3
ACAD_GROUP
350
D
  3
ACAD_LAYOUT
350
1A
  3
ACAD_MLINESTYLE
350
17
  3
ACAD_PLOTSETTINGS
350
19
  3
ACAD_PLOTSTYLENAME
350
E
  3
ACAD_SCALELIST
350
47
  3
APPDATA
350
152
  3
DWGPROPS
350
188
  0
DICTIONARY
  5
186
330
1F
100
AcDbDictionary
280
     1
281
     1
  3
DIM_BOUNDING_BOXES_V1
360
187
  0
DICTIONARY
  5
D
102
{ACAD_REACTORS
330
C
102
}
330
C
100
AcDbDictionary
281
     1
  0
DICTIONARY
  5
1A
102
{ACAD_REACTORS
330
C
102
}
330
C
100
AcDbDictionary
281
     1
  3
Layout1
350
1E
  3
Layout2
350
26
  3
Model
350
22
  0
DICTIONARY
  5
17
102
{ACAD_REACTORS
330
C
102
}
330
C
100
AcDbDictionary
281
     1
  3
Standard
350
18
  0
DICTIONARY
  5
19
102
{ACAD_REACTORS
330
C
102
}
330
C
100
AcDbDictionary
281
     1
  0
ACDBDICTIONARYWDFLT
  5
E
102
{ACAD_REACTORS
330
C
102
}
330
C
100
AcDbDictionary
281
     1
  3
Normal
350
F
100
AcDbDictionaryWithDefault
340
F
  0
DICTIONARY
  5
47
102
{ACAD_REACTORS
330
C
102
}
330
C
100
AcDbDictionary
281
     1
  3
A0
350
48
  3
A1
350
49
  3
A2
350
4A
  3
A3
350
4B
  3
A4
350
4C
  3
A5
350
4D
  3
A6
350
4E
  3
A7
350
4F
  3
A8
350
50
  3
A9
350
51
  3
B0
350
52
  3
B1
350
53
  3
B2
350
54
  3
B3
350
55
  3
B4
350
56
  3
B5
350
57
  3
B6
350
58
  3
B7
350
59
  3
B8
350
5A
  3
B9
350
5B
  3
C0
350
5C
  3
C1
350
5D
  3
C2
350
5E
  3
C3
350
5F
  3
C4
350
60
  3
C5
350
61
  3
C6
350
62
  3
C7
350
63
  3
C8
350
64
  3
C9
350
65
  3
D0
350
66
  3
D1
350
67
  3
D2
350
68
  0
DICTIONARY
  5
152
102
{ACAD_REACTORS
330
C
102
}
330
C
100
AcDbDictionary
281
     1
  0
XRECORD
  5
188
102
{ACAD_REACTORS
330
C
102
}
330
C
100
AcDbXrecord
280
     1
  1
DWGPROPS COOKIE
  2

  3

  4

  6

  7

  8
12016016
  9

300
=
301
=
302
=
303
=
304
=
305
=
306
=
307
=
308
=
309
=
 40
0.0
 41
2458260.3992125
 42
2459677.374447569
  1

 90
        0
  0
DICTIONARY
  5
187
102
{ACAD_REACTORS
330
186
102
}
330
186
100
AcDbDictionary
281
     1
  0
LAYOUT
  5
1E
102
{ACAD_REACTORS
330
1A
102
}
330
1A
100
AcDbPlotSettings
  1

  2
none_device
  4

  6

 40
0.0
 41
0.0
 42
0.0
 43
0.0
 44
0.0
 45
0.0
 46
0.0
 47
0.0
 48
0.0
 49
0.0
140
0.0
141
0.0
142
1.0
143
1.0
 70
   688
 72
     1
 73
     0
 74
     5
  7

 75
    16
147
1.0
148
0.0
149
0.0
100
AcDbLayout
  1
Layout1
 70
     1
 71
     1
 10
0.0
 20
0.0
 11
420.0
 21
297.0
 12
0.0
 22
0.0
 32
0.0
 14
1.000000000000000E+20
 24
1.000000000000000E+20
 34
1.000000000000000E+20
 15
-1.000000000000000E+20
 25
-1.000000000000000E+20
 35
-1.000000000000000E+20
146
0.0
 13
0.0
 23
0.0
 33
0.0
 16
1.0
 26
0.0
 36
0.0
 17
0.0
 27
1.0
 37
0.0
 76
     0
330
1B
  0
LAYOUT
  5
26
102
{ACAD_REACTORS
330
1A
102
}
330
1A
100
AcDbPlotSettings
  1

  2
none_device
  4

  6

 40
0.0
 41
0.0
 42
0.0
 43
0.0
 44
0.0
 45
0.0
 46
0.0
 47
0.0
 48
0.0
 49
0.0
140
0.0
141
0.0
142
1.0
143
1.0
 70
   688
 72
     1
 73
     0
 74
     5
  7

 75
    16
147
1.0
148
0.0
149
0.0
100
AcDbLayout
  1
Layout2
 70
     1
 71
     2
 10
0.0
 20
0.0
 11
0.0
 21
0.0
 12
0.0
 22
0.0
 32
0.0
 14
0.0
 24
0.0
 34
0.0
 15
0.0
 25
0.0
 35
0.0
146
0.0
 13
0.0
 23
0.0
 33
0.0
 16
1.0
 26
0.0
 36
0.0
 17
0.0
 27
1.0
 37
0.0
 76
     0
330
23
  0
LAYOUT
  5
22
102
{ACAD_REACTORS
330
1A
102
}
330
1A
100
AcDbPlotSettings
  1

  2
none_device
  4
ANSI_A_(11.00_x_8.50_Inches)
  6

 40
6.35
 41
19.05
 42
6.35000508
 43
19.05000254
 44
279.4
 45
215.9
 46
162.2260605084696
 47
100.8537443875621
 48
0.0
 49
0.0
140
0.0
141
0.0
142
0.0922419125129433
143
1.0
 70
  1696
 72
     0
 73
     0
 74
     0
  7

 75
     0
147
0.0235690232323232
148
0.0
149
0.0
100
AcDbLayout
  1
Model
 70
     1
 71
     0
 10
0.0
 20
0.0
 11
420.0
 21
297.0
 12
0.0
 22
0.0
 32
0.0
 14
-50.54946716083428
 24
-49.97180738881174
 34
0.0
 15
32.23467240078562
 25
40.37500000000003
 35
0.0
146
0.0
 13
0.0
 23
0.0
 33
0.0
 16
1.0
 26
0.0
 36
0.0
 17
0.0
 27
1.0
 37
0.0
 76
     0
330
1F
331
29
  0
MLINESTYLE
  5
18
102
{ACAD_REACTORS
330
17
102
}
330
17
100
AcDbMlineStyle
  2
Standard
 70
     0
  3

 62
   256
 51
90.0
 52
90.0
 71
     2
 49
0.5
 62
   256
  6
BYLAYER
 49
-0.5
 62
   256
  6
BYLAYER
  0
ACDBPLACEHOLDER
  5
F
102
{ACAD_REACTORS
330
E
102
}
330
E
  0
SCALE
  5
48
102
{ACAD_REACTORS
330
47
102
}
330
47
100
AcDbScale
 70
     0
300
1:1
140
1.0
141
1.0
290
     1
  0
SCALE
  5
49
102
{ACAD_REACTORS
330
47
102
}
330
47
100
AcDbScale
 70
     0
300
1:2
140
1.0
141
2.0
290
     0
  0
SCALE
  5
4A
102
{ACAD_REACTORS
330
47
102
}
330
47
100
AcDbScale
 70
     0
300
1:4
140
1.0
141
4.0
290
     0
  0
SCALE
  5
4B
102
{ACAD_REACTORS
330
47
102
}
330
47
100
AcDbScale
 70
     0
300
1:5
140
1.0
141
5.0
290
     0
  0
SCALE
  5
4C
102
{ACAD_REACTORS
330
47
102
}
330
47
100
AcDbScale
 70
     0
300
1:8
140
1.0
141
8.0
290
     0
  0
SCALE
  5
4D
102
{ACAD_REACTORS
330
47
102
}
330
47
100
AcDbScale
 70
     0
300
1:10
140
1.0
141
10.0
290
     0
  0
SCALE
  5
4E
102
{ACAD_REACTORS
330
47
102
}
330
47
100
AcDbScale
 70
     0
300
1:16
140
1.0
141
16.0
290
     0
  0
SCALE
  5
4F
102
{ACAD_REACTORS
330
47
102
}
330
47
100
AcDbScale
 70
     0
300
1:20
140
1.0
141
20.0
290
     0
  0
SCALE
  5
50
102
{ACAD_REACTORS
330
47
102
}
330
47
100
AcDbScale
 70
     0
300
1:30
140
1.0
141
30.0
290
     0
  0
SCALE
  5
51
102
{ACAD_REACTORS
330
47
102
}
330
47
100
AcDbScale
 70
     0
300
1:40
140
1.0
141
40.0
290
     0
  0
SCALE
  5
52
102
{ACAD_REACTORS
330
47
102
}
330
47
100
AcDbScale
 70
     0
300
1:50
140
1.0
141
50.0
290
     0
  0
SCALE
  5
53
102
{ACAD_REACTORS
330
47
102
}
330
47
100
AcDbScale
 70
     0
300
1:100
140
1.0
141
100.0
290
     0
  0
SCALE
  5
54
102
{ACAD_REACTORS
330
47
102
}
330
47
100
AcDbScale
 70
     0
300
2:1
140
2.0
141
1.0
290
     0
  0
SCALE
  5
55
102
{ACAD_REACTORS
330
47
102
}
330
47
100
AcDbScale
 70
     0
300
4:1
140
4.0
141
1.0
290
     0
  0
SCALE
  5
56
102
{ACAD_REACTORS
330
47
102
}
330
47
100
AcDbScale
 70
     0
300
8:1
140
8.0
141
1.0
290
     0
  0
SCALE
  5
57
102
{ACAD_REACTORS
330
47
102
}
330
47
100
AcDbScale
 70
     0
300
10:1
140
10.0
141
1.0
290
     0
  0
SCALE
  5
58
102
{ACAD_REACTORS
330
47
102
}
330
47
100
AcDbScale
 70
     0
300
100:1
140
100.0
141
1.0
290
     0
  0
SCALE
  5
59
102
{ACAD_REACTORS
330
47
102
}
330
47
100
AcDbScale
 70
     0
300
1/128" = 1'-0"
140
0.0078125
141
12.0
290
     0
  0
SCALE
  5
5A
102
{ACAD_REACTORS
330
47
102
}
330
47
100
AcDbScale
 70
     0
300
1/64" = 1'-0"
140
0.015625
141
12.0
290
     0
  0
SCALE
  5
5B
102
{ACAD_REACTORS
330
47
102
}
330
47
100
AcDbScale
 70
     0
300
1/32" = 1'-0"
140
0.03125
141
12.0
290
     0
  0
SCALE
  5
5C
102
{ACAD_REACTORS
330
47
102
}
330
47
100
AcDbScale
 70
     0
300
1/16" = 1'-0"
140
0.0625
141
12.0
290
     0
  0
SCALE
  5
5D
102
{ACAD_REACTORS
330
47
102
}
330
47
100
AcDbScale
 70
     0
300
3/32" = 1'-0"
140
0.09375
141
12.0
290
     0
  0
SCALE
  5
5E
102
{ACAD_REACTORS
330
47
102
}
330
47
100
AcDbScale
 70
     0
300
1/8" = 1'-0"
140
0.125
141
12.0
290
     0
  0
SCALE
  5
5F
102
{ACAD_REACTORS
330
47
102
}
330
47
100
AcDbScale
 70
     0
300
3/16" = 1'-0"
140
0.1875
141
12.0
290
     0
  0
SCALE
  5
60
102
{ACAD_REACTORS
330
47
102
}
330
47
100
AcDbScale
 70
     0
300
1/4" = 1'-0"
140
0.25
141
12.0
290
     0
  0
SCALE
  5
61
102
{ACAD_REACTORS
330
47
102
}
330
47
100
AcDbScale
 70
     0
300
3/8" = 1'-0"
140
0.375
141
12.0
290
     0
  0
SCALE
  5
62
102
{ACAD_REACTORS
330
47
102
}
330
47
100
AcDbScale
 70
     0
300
1/2" = 1'-0"
140
0.5
141
12.0
290
     0
  0
SCALE
  5
63
102
{ACAD_REACTORS
330
47
102
}
330
47
100
AcDbScale
 70
     0
300
3/4" = 1'-0"
140
0.75
141
12.0
290
     0
  0
SCALE
  5
64
102
{ACAD_REACTORS
330
47
102
}
330
47
100
AcDbScale
 70
     0
300
1" = 1'-0"
140
1.0
141
12.0
290
     0
  0
SCALE
  5
65
102
{ACAD_REACTORS
330
47
102
}
330
47
100
AcDbScale
 70
     0
300
1-1/2" = 1'-0"
140
1.5
141
12.0
290
     0
  0
SCALE
  5
66
102
{ACAD_REACTORS
330
47
102
}
330
47
100
AcDbScale
 70
     0
300
3" = 1'-0"
140
3.0
141
12.0
290
     0
  0
SCALE
  5
67
102
{ACAD_REACTORS
330
47
102
}
330
47
100
AcDbScale
 70
     0
300
6" = 1'-0"
140
6.0
141
12.0
290
     0
  0
SCALE
  5
68
102
{ACAD_REACTORS
330
47
102
}
330
47
100
AcDbScale
 70
     0
300
1'-0" = 1'-0"
140
12.0
141
12.0
290
     0
  0
ENDSEC
  0
EOF
