  0
SECTION
  2
HEADER
  9
$ACADVER
  1
AC1015
  9
$ACADMAINTVER
 70
     6
  9
$DWGCODEPAGE
  3
ANSI_949
  9
$INSBASE
 10
0.0
 20
0.0
 30
0.0
  9
$EXTMIN
 10
-52.54946716083427
 20
-49.97180738881174
 30
0.0
  9
$EXTMAX
 10
30.26209544470068
 20
40.37500000000003
 30
0.0
  9
$LIMMIN
 10
0.0
 20
0.0
  9
$LIMMAX
 10
420.0
 20
297.0
  9
$ORTHOMODE
 70
     0
  9
$REGENMODE
 70
     1
  9
$FILLMODE
 70
     1
  9
$QTEXTMODE
 70
     0
  9
$MIRRTEXT
 70
     1
  9
$LTSCALE
 40
1.0
  9
$ATTMODE
 70
     1
  9
$TEXTSIZE
 40
3.5
  9
$TRACEWID
 40
1.0
  9
$TEXTSTYLE
  7
Standard
  9
$CLAYER
  8
0
  9
$CELTYPE
  6
ByLayer
  9
$CECOLOR
 62
   256
  9
$CELTSCALE
 40
1.0
  9
$DISPSILH
 70
     0
  9
$DIMSCALE
 40
1.0
  9
$DIMASZ
 40
3.302
  9
$DIMEXO
 40
1.0
  9
$DIMDLI
 40
3.75
  9
$DIMRND
 40
0.0
  9
$DIMDLE
 40
0.0
  9
$DIMEXE
 40
1.0
  9
$DIMTP
 40
0.0
  9
$DIMTM
 40
0.0
  9
$DIMTXT
 40
3.5
  9
$DIMCEN
 40
2.5
  9
$DIMTSZ
 40
0.0
  9
$DIMTOL
 70
     0
  9
$DIMLIM
 70
     0
  9
$DIMTIH
 70
     1
  9
$DIMTOH
 70
     1
  9
$DIMSE1
 70
     0
  9
$DIMSE2
 70
     0
  9
$DIMTAD
 70
     1
  9
$DIMZIN
 70
     0
  9
$DIMBLK
  1

  9
$DIMASO
 70
     1
  9
$DIMSHO
 70
     1
  9
$DIMPOST
  1

  9
$DIMAPOST
  1

  9
$DIMALT
 70
     0
  9
$DIMALTD
 70
     3
  9
$DIMALTF
 40
0.0393700787401575
  9
$DIMLFAC
 40
1.0
  9
$DIMTOFL
 70
     1
  9
$DIMTVP
 40
0.0
  9
$DIMTIX
 70
     0
  9
$DIMSOXD
 70
     0
  9
$DIMSAH
 70
     0
  9
$DIMBLK1
  1

  9
$DIMBLK2
  1

  9
$DIMSTYLE
  2
ISO-25
  9
$DIMCLRD
 70
     0
  9
$DIMCLRE
 70
     0
  9
$DIMCLRT
 70
     0
  9
$DIMTFAC
 40
1.0
  9
$DIMGAP
 40
1.524
  9
$DIMJUST
 70
     0
  9
$DIMSD1
 70
     0
  9
$DIMSD2
 70
     0
  9
$DIMTOLJ
 70
     0
  9
$DIMTZIN
 70
     0
  9
$DIMALTZ
 70
     0
  9
$DIMALTTZ
 70
     0
  9
$DIMUPT
 70
     0
  9
$DIMDEC
 70
     2
  9
$DIMTDEC
 70
     2
  9
$DIMALTU
 70
     2
  9
$DIMALTTD
 70
     3
  9
$DIMTXSTY
  7
Standard
  9
$DIMAUNIT
 70
     0
  9
$DIMADEC
 70
     2
  9
$DIMALTRND
 40
0.0
  9
$DIMAZIN
 70
     0
  9
$DIMDSEP
 70
    44
  9
$DIMATFIT
 70
     3
  9
$DIMFRAC
 70
     0
  9
$DIMLDRBLK
  1

  9
$DIMLUNIT
 70
     2
  9
$DIMLWD
 70
    -2
  9
$DIMLWE
 70
    -2
  9
$DIMTMOVE
 70
     0
  9
$LUNITS
 70
     2
  9
$LUPREC
 70
     2
  9
$SKETCHINC
 40
1.0
  9
$FILLETRAD
 40
10.0
  9
$AUNITS
 70
     0
  9
$AUPREC
 70
     2
  9
$MENU
  1
.
  9
$ELEVATION
 40
0.0
  9
$PELEVATION
 40
0.0
  9
$THICKNESS
 40
0.0
  9
$LIMCHECK
 70
     0
  9
$CHAMFERA
 40
0.0
  9
$CHAMFERB
 40
0.0
  9
$CHAMFERC
 40
0.0
  9
$CHAMFERD
 40
0.0
  9
$SKPOLY
 70
     0
  9
$TDCREATE
 40
2458260.774023461
  9
$TDUCREATE
 40
2458260.399023461
  9
$TDUPDATE
 40
2459677.748945891
  9
$TDUUPDATE
 40
2459677.373945891
  9
$TDINDWG
 40
0.002118287
  9
$TDUSRTIMER
 40
0.0003644329
  9
$USRTIMER
 70
     1
  9
$ANGBASE
 50
0.0
  9
$ANGDIR
 70
     0
  9
$PDMODE
 70
     0
  9
$PDSIZE
 40
-1.0
  9
$PLINEWID
 40
0.0
  9
$SPLFRAME
 70
     0
  9
$SPLINETYPE
 70
     6
  9
$SPLINESEGS
 70
     8
  9
$HANDSEED
  5
185
  9
$SURFTAB1
 70
     6
  9
$SURFTAB2
 70
     6
  9
$SURFTYPE
 70
     6
  9
$SURFU
 70
     6
  9
$SURFV
 70
     6
  9
$UCSBASE
  2

  9
$UCSNAME
  2

  9
$UCSORG
 10
0.0
 20
0.0
 30
0.0
  9
$UCSXDIR
 10
1.0
 20
0.0
 30
0.0
  9
$UCSYDIR
 10
0.0
 20
1.0
 30
0.0
  9
$UCSORTHOREF
  2

  9
$UCSORTHOVIEW
 70
     0
  9
$UCSORGTOP
 10
0.0
 20
0.0
 30
0.0
  9
$UCSORGBOTTOM
 10
0.0
 20
0.0
 30
0.0
  9
$UCSORGLEFT
 10
0.0
 20
0.0
 30
0.0
  9
$UCSORGRIGHT
 10
0.0
 20
0.0
 30
0.0
  9
$UCSORGFRONT
 10
0.0
 20
0.0
 30
0.0
  9
$UCSORGBACK
 10
0.0
 20
0.0
 30
0.0
  9
$PUCSBASE
  2

  9
$PUCSNAME
  2

  9
$PUCSORG
 10
0.0
 20
0.0
 30
0.0
  9
$PUCSXDIR
 10
1.0
 20
0.0
 30
0.0
  9
$PUCSYDIR
 10
0.0
 20
1.0
 30
0.0
  9
$PUCSORTHOREF
  2

  9
$PUCSORTHOVIEW
 70
     0
  9
$PUCSORGTOP
 10
0.0
 20
0.0
 30
0.0
  9
$PUCSORGBOTTOM
 10
0.0
 20
0.0
 30
0.0
  9
$PUCSORGLEFT
 10
0.0
 20
0.0
 30
0.0
  9
$PUCSORGRIGHT
 10
0.0
 20
0.0
 30
0.0
  9
$PUCSORGFRONT
 10
0.0
 20
0.0
 30
0.0
  9
$PUCSORGBACK
 10
0.0
 20
0.0
 30
0.0
  9
$USERI1
 70
     0
  9
$USERI2
 70
     0
  9
$USERI3
 70
     0
  9
$USERI4
 70
     0
  9
$USERI5
 70
     0
  9
$USERR1
 40
0.0
  9
$USERR2
 40
0.0
  9
$USERR3
 40
0.0
  9
$USERR4
 40
0.0
  9
$USERR5
 40
0.0
  9
$WORLDVIEW
 70
     1
  9
$SHADEDGE
 70
     3
  9
$SHADEDIF
 70
    70
  9
$TILEMODE
 70
     1
  9
$MAXACTVP
 70
    64
  9
$PINSBASE
 10
0.0
 20
0.0
 30
0.0
  9
$PLIMCHECK
 70
     0
  9
$PEXTMIN
 10
1.000000000000000E+20
 20
1.000000000000000E+20
 30
1.000000000000000E+20
  9
$PEXTMAX
 10
-1.000000000000000E+20
 20
-1.000000000000000E+20
 30
-1.000000000000000E+20
  9
$PLIMMIN
 10
0.0
 20
0.0
  9
$PLIMMAX
 10
0.0
 20
0.0
  9
$UNITMODE
 70
     0
  9
$VISRETAIN
 70
     1
  9
$PLINEGEN
 70
     0
  9
$PSLTSCALE
 70
     1
  9
$TREEDEPTH
 70
  3020
  9
$CMLSTYLE
  2
Standard
  9
$CMLJUST
 70
     0
  9
$CMLSCALE
 40
20.0
  9
$PROXYGRAPHICS
 70
     1
  9
$MEASUREMENT
 70
     1
  9
$CELWEIGHT
370
    -1
  9
$ENDCAPS
280
     0
  9
$JOINSTYLE
280
     0
  9
$LWDISPLAY
290
     1
  9
$INSUNITS
 70
     4
  9
$HYPERLINKBASE
  1

  9
$STYLESHEET
  1

  9
$XEDIT
290
     1
  9
$CEPSNTYPE
380
     0
  9
$PSTYLEMODE
290
     1
  9
$FINGERPRINTGUID
  2
{831ABCB1-17AA-445F-98A8-C1DDD832933D}
  9
$VERSIONGUID
  2
{FAEB1C32-E019-11D5-929B-00C0DF256EC4}
  9
$EXTNAMES
290
     1
  9
$PSVPSCALE
 40
0.0
  9
$OLESTARTUP
290
     0
  0
ENDSEC
  0
SECTION
  2
CLASSES
  0
CLASS
  1
ACDBDICTIONARYWDFLT
  2
AcDbDictionaryWithDefault
  3
ObjectDBX Classes
 90
        0
280
     0
281
     0
  0
CLASS
  1
VISUALSTYLE
  2
AcDbVisualStyle
  3
ObjectDBX Classes
 90
     4095
280
     0
281
     0
  0
CLASS
  1
MATERIAL
  2
AcDbMaterial
  3
ObjectDBX Classes
 90
     1153
280
     0
281
     0
  0
CLASS
  1
SCALE
  2
AcDbScale
  3
ObjectDBX Classes
 90
     1153
280
     0
281
     0
  0
CLASS
  1
TABLESTYLE
  2
AcDbTableStyle
  3
ObjectDBX Classes
 90
     4095
280
     0
281
     0
  0
CLASS
  1
MLEADERSTYLE
  2
AcDbMLeaderStyle
  3
ACDB_MLEADERSTYLE_CLASS
 90
     4095
280
     0
281
     0
  0
CLASS
  1
SUN
  2
AcDbSun
  3
SCENEOE
 90
     1153
280
     0
281
     0
  0
CLASS
  1
ACDBPLACEHOLDER
  2
AcDbPlaceHolder
  3
ObjectDBX Classes
 90
        0
280
     0
281
     0
  0
CLASS
  1
LAYOUT
  2
AcDbLayout
  3
ObjectDBX Classes
 90
        0
280
     0
281
     0
  0
ENDSEC
  0
SECTION
  2
TABLES
  0
TABLE
  2
VPORT
  5
8
330
0
100
AcDbSymbolTable
 70
     1
  0
VPORT
  5
29
330
8
100
AcDbSymbolTableRecord
100
AcDbViewportTableRecord
  2
*Active
 70
     0
 10
0.0
 20
0.0
 11
1.0
 21
1.0
 12
-24.82946248523184
 22
4.807474859277271
 13
0.0
 23
0.0
 14
10.0
 24
10.0
 15
10.0
 25
10.0
 16
0.0
 26
0.0
 36
1.0
 17
0.0
 27
0.0
 37
0.0
 40
55.43855498797829
 41
1.531481481481481
 42
50.0
 43
0.0
 44
0.0
 50
0.0
 51
0.0
 71
    16
 72
  2000
 73
     1
 74
     3
 75
     0
 76
     0
 77
     0
 78
     0
281
     0
 65
     1
110
0.0
120
0.0
130
0.0
111
1.0
121
0.0
131
0.0
112
0.0
122
1.0
132
0.0
 79
     0
146
0.0
  0
ENDTAB
  0
TABLE
  2
LTYPE
  5
5
330
0
100
AcDbSymbolTable
 70
     6
  0
LTYPE
  5
14
330
5
100
AcDbSymbolTableRecord
100
AcDbLinetypeTableRecord
  2
ByBlock
 70
     0
  3

 72
    65
 73
     0
 40
0.0
  0
LTYPE
  5
15
330
5
100
AcDbSymbolTableRecord
100
AcDbLinetypeTableRecord
  2
ByLayer
 70
     0
  3

 72
    65
 73
     0
 40
0.0
  0
LTYPE
  5
16
330
5
100
AcDbSymbolTableRecord
100
AcDbLinetypeTableRecord
  2
Continuous
 70
     0
  3
Solid line
 72
    65
 73
     0
 40
0.0
  0
LTYPE
  5
6E
330
5
100
AcDbSymbolTableRecord
100
AcDbLinetypeTableRecord
  2
HIDDEN
 70
     0
  3
Hidden __ __ __ __ __ __ __ __ __ __ __ __ __ __
 72
    65
 73
     2
 40
1.905
 49
1.27
 74
     0
 49
-0.635
 74
     0
  0
LTYPE
  5
6F
330
5
100
AcDbSymbolTableRecord
100
AcDbLinetypeTableRecord
  2
PHANTOM
 70
     0
  3
Phantom ______  __  __  ______  __  __  ______
 72
    65
 73
     6
 40
12.7
 49
6.35
 74
     0
 49
-1.27
 74
     0
 49
1.27
 74
     0
 49
-1.27
 74
     0
 49
1.27
 74
     0
 49
-1.27
 74
     0
  0
LTYPE
  5
70
330
5
100
AcDbSymbolTableRecord
100
AcDbLinetypeTableRecord
  2
CENTER
 70
     0
  3
Center ____ _ ____ _ ____ _ ____ _ ____ _ ____
 72
    65
 73
     4
 40
10.16
 49
6.35
 74
     0
 49
-1.27
 74
     0
 49
1.27
 74
     0
 49
-1.27
 74
     0
  0
LTYPE
  5
71
330
5
100
AcDbSymbolTableRecord
100
AcDbLinetypeTableRecord
  2
CENTERX2
 70
     0
  3
Center (2x) ________  __  ________  __  _____
 72
    65
 73
     4
 40
20.32
 49
12.7
 74
     0
 49
-2.54
 74
     0
 49
2.54
 74
     0
 49
-2.54
 74
     0
  0
LTYPE
  5
72
330
5
100
AcDbSymbolTableRecord
100
AcDbLinetypeTableRecord
  2
DOT2
 70
     0
  3
Dot (.5x) ........................................
 72
    65
 73
     2
 40
0.635
 49
0.0
 74
     0
 49
-0.635
 74
     0
  0
ENDTAB
  0
TABLE
  2
LAYER
  5
2
330
0
100
AcDbSymbolTable
 70
    17
  0
LAYER
  5
10
330
2
100
AcDbSymbolTableRecord
100
AcDbLayerTableRecord
  2
0
 70
     0
 62
     7
  6
Continuous
370
    -3
390
F
  0
LAYER
  5
73
330
2
100
AcDbSymbolTableRecord
100
AcDbLayerTableRecord
  2
FORMAT
 70
     0
 62
     2
  6
Continuous
370
    -3
390
F
  0
LAYER
  5
74
330
2
100
AcDbSymbolTableRecord
100
AcDbLayerTableRecord
  2
외형선
 70
     0
 62
   100
  6
Continuous
370
    35
390
F
  0
LAYER
  5
75
330
2
100
AcDbSymbolTableRecord
100
AcDbLayerTableRecord
  2
숨은선
 70
     0
 62
     2
  6
HIDDEN
370
    25
390
F
  0
LAYER
  5
76
330
2
100
AcDbSymbolTableRecord
100
AcDbLayerTableRecord
  2
중심선
 70
     0
 62
     1
  6
CENTERX2
370
    -3
390
F
  0
LAYER
  5
77
330
2
100
AcDbSymbolTableRecord
100
AcDbLayerTableRecord
  2
파단선
 70
     0
 62
     4
  6
Continuous
370
    -3
390
F
  0
LAYER
  5
78
330
2
100
AcDbSymbolTableRecord
100
AcDbLayerTableRecord
  2
해칭선
 70
     0
 62
   100
  6
Continuous
370
    -3
390
F
  0
LAYER
  5
79
330
2
100
AcDbSymbolTableRecord
100
AcDbLayerTableRecord
  2
가는실선
 70
     0
 62
     4
  6
Continuous
370
    -3
390
F
  0
LAYER
  5
7A
330
2
100
AcDbSymbolTableRecord
100
AcDbLayerTableRecord
  2
치수_보조선
 70
     0
 62
     4
  6
Continuous
370
    -3
390
F
  0
LAYER
  5
7B
330
2
100
AcDbSymbolTableRecord
100
AcDbLayerTableRecord
  2
치수문자_일반주서
 70
     0
 62
     7
  6
Continuous
370
    25
390
F
  0
LAYER
  5
7C
330
2
100
AcDbSymbolTableRecord
100
AcDbLayerTableRecord
  2
개별주서
 70
     0
 62
   100
  6
Continuous
370
    35
390
F
  0
LAYER
  5
7D
330
2
100
AcDbSymbolTableRecord
100
AcDbLayerTableRecord
  2
중간선
 70
     0
 62
     2
  6
Continuous
370
    25
390
F
  0
LAYER
  5
7E
330
2
100
AcDbSymbolTableRecord
100
AcDbLayerTableRecord
  2
윤곽선
 70
     0
 62
     3
  6
Continuous
370
    50
390
F
  0
LAYER
  5
7F
330
2
100
AcDbSymbolTableRecord
100
AcDbLayerTableRecord
  2
중심마크
 70
     0
 62
   100
  6
Continuous
370
    35
390
F
  0
LAYER
  5
80
330
2
100
AcDbSymbolTableRecord
100
AcDbLayerTableRecord
  2
가상선
 70
     0
 62
     4
  6
PHANTOM
370
    -3
390
F
  0
LAYER
  5
81
330
2
100
AcDbSymbolTableRecord
100
AcDbLayerTableRecord
  2
특수지정선
 70
     0
 62
     5
  6
CENTERX2
370
    70
390
F
  0
LAYER
  5
150
330
2
100
AcDbSymbolTableRecord
100
AcDbLayerTableRecord
  2
Defpoints
 70
     0
 62
     7
  6
Continuous
290
     0
370
    -3
390
F
  0
ENDTAB
  0
TABLE
  2
STYLE
  5
3
330
0
100
AcDbSymbolTable
 70
     2
  0
STYLE
  5
11
330
3
100
AcDbSymbolTableRecord
100
AcDbTextStyleTableRecord
  2
Standard
 70
     0
 40
0.0
 41
1.0
 50
0.0
 71
     0
 42
3.5
  3
txt
  4

  0
STYLE
  5
97
330
3
100
AcDbSymbolTableRecord
100
AcDbTextStyleTableRecord
  2
SLDTEXTSTYLE0
 70
     0
 40
0.0
 41
0.75
 50
0.0
 71
     0
 42
3.5
  3
TXT
  4

  0
ENDTAB
  0
TABLE
  2
VIEW
  5
6
330
0
100
AcDbSymbolTable
 70
     0
  0
ENDTAB
  0
TABLE
  2
UCS
  5
7
330
0
100
AcDbSymbolTable
 70
     0
  0
ENDTAB
  0
TABLE
  2
APPID
  5
9
330
0
100
AcDbSymbolTable
 70
     2
  0
APPID
  5
12
330
9
100
AcDbSymbolTableRecord
100
AcDbRegAppTableRecord
  2
ACAD
 70
     0
  0
APPID
  5
159
330
9
100
AcDbSymbolTableRecord
100
AcDbRegAppTableRecord
  2
PE_URL
 70
     0
  0
ENDTAB
  0
TABLE
  2
DIMSTYLE
  5
A
330
0
100
AcDbSymbolTable
 70
     5
100
AcDbDimStyleTable
  0
DIMSTYLE
105
27
330
A
100
AcDbSymbolTableRecord
100
AcDbDimStyleTableRecord
  2
ISO-25
 70
     0
 41
2.5
 42
0.625
 43
3.75
 44
1.25
 73
     0
 74
     0
 77
     1
 78
     8
140
2.5
141
2.5
143
0.03937007874016
147
0.625
171
     3
172
     1
178
     0
271
     2
272
     2
274
     3
278
    44
283
     0
284
     8
340
11
  0
DIMSTYLE
105
E8
102
{ACAD_REACTORS
330
E7
102
}
330
A
100
AcDbSymbolTableRecord
100
AcDbDimStyleTableRecord
  2
SLDDIMSTYLE0
 70
     0
 41
3.302
 44
0.0
 45
0.000000001
 73
     0
 74
     0
 77
     1
 78
    12
 79
     3
140
3.5
147
0.875
172
     1
173
     1
178
     0
271
     1
272
     1
276
     2
284
    12
289
     0
340
97
  0
DIMSTYLE
105
F6
102
{ACAD_REACTORS
330
F5
102
}
330
A
100
AcDbSymbolTableRecord
100
AcDbDimStyleTableRecord
  2
SLDDIMSTYLE1
 70
     0
 41
3.302
 44
0.0
 45
0.000000001
 73
     0
 74
     0
 77
     1
 78
    12
 79
     3
140
3.5
147
0.875
173
     1
178
     0
271
     2
272
     2
276
     2
284
    12
340
97
  0
DIMSTYLE
105
101
102
{ACAD_REACTORS
330
100
330
11B
102
}
330
A
100
AcDbSymbolTableRecord
100
AcDbDimStyleTableRecord
  2
SLDDIMSTYLE2
 70
     0
 41
3.302
 44
0.0
 45
0.000000001
 73
     0
 74
     0
 77
     1
 78
    12
 79
     3
140
3.5
147
0.875
172
     1
173
     1
178
     0
271
     2
272
     2
276
     2
284
    12
289
     0
340
97
  0
DIMSTYLE
105
10F
102
{ACAD_REACTORS
330
10E
102
}
330
A
100
AcDbSymbolTableRecord
100
AcDbDimStyleTableRecord
  2
SLDDIMSTYLE3
 70
     0
 41
3.302
 44
0.0
 45
0.000000001
 73
     0
 74
     0
 77
     1
 78
     4
 79
     1
140
3.5
147
0.875
172
     1
173
     1
178
     0
271
     2
272
     2
276
     2
284
    12
289
     0
340
97
  0
ENDTAB
  0
TABLE
  2
BLOCK_RECORD
  5
1
330
0
100
AcDbSymbolTable
 70
     8
  0
BLOCK_RECORD
  5
1F
102
{ACAD_XDICTIONARY
360
182
102
}
330
1
100
AcDbSymbolTableRecord
100
AcDbBlockTableRecord
  2
*Model_Space
340
22
  0
BLOCK_RECORD
  5
1B
330
1
100
AcDbSymbolTableRecord
100
AcDbBlockTableRecord
  2
*Paper_Space
340
1E
  0
BLOCK_RECORD
  5
23
330
1
100
AcDbSymbolTableRecord
100
AcDbBlockTableRecord
  2
*Paper_Space0
340
26
  0
BLOCK_RECORD
  5
82
330
1
100
AcDbSymbolTableRecord
100
AcDbBlockTableRecord
  2
블럭10
340
0
102
{BLKREFS
331
E0
102
}
  0
BLOCK_RECORD
  5
E9
330
1
100
AcDbSymbolTableRecord
100
AcDbBlockTableRecord
  2
_D
340
0
  0
BLOCK_RECORD
  5
F7
330
1
100
AcDbSymbolTableRecord
100
AcDbBlockTableRecord
  2
_D_1
340
0
  0
BLOCK_RECORD
  5
102
330
1
100
AcDbSymbolTableRecord
100
AcDbBlockTableRecord
  2
_D_2
340
0
  0
BLOCK_RECORD
  5
110
330
1
100
AcDbSymbolTableRecord
100
AcDbBlockTableRecord
  2
_D_3
340
0
  0
BLOCK_RECORD
  5
11C
330
1
100
AcDbSymbolTableRecord
100
AcDbBlockTableRecord
  2
_D_4
340
0
  0
BLOCK_RECORD
  5
127
330
1
100
AcDbSymbolTableRecord
100
AcDbBlockTableRecord
  2
SW_DOWELSYMBOL_0
340
0
102
{BLKREFS
331
12D
102
}
  0
ENDTAB
  0
ENDSEC
  0
SECTION
  2
BLOCKS
  0
BLOCK
  5
20
330
1F
100
AcDbEntity
  8
0
100
AcDbBlockBegin
  2
*Model_Space
 70
     0
 10
0.0
 20
0.0
 30
0.0
  3
*Model_Space
  1

  0
ENDBLK
  5
21
330
1F
100
AcDbEntity
  8
0
100
AcDbBlockEnd
  0
BLOCK
  5
1C
330
1B
100
AcDbEntity
 67
     1
  8
0
100
AcDbBlockBegin
  2
*Paper_Space
 70
     0
 10
0.0
 20
0.0
 30
0.0
  3
*Paper_Space
  1

  0
ENDBLK
  5
1D
330
1B
100
AcDbEntity
 67
     1
  8
0
100
AcDbBlockEnd
  0
BLOCK
  5
24
330
23
100
AcDbEntity
  8
0
100
AcDbBlockBegin
  2
*Paper_Space0
 70
     0
 10
0.0
 20
0.0
 30
0.0
  3
*Paper_Space0
  1

  0
ENDBLK
  5
25
330
23
100
AcDbEntity
  8
0
100
AcDbBlockEnd
  0
BLOCK
  5
83
330
82
100
AcDbEntity
  8
0
100
AcDbBlockBegin
  2
블럭10
 70
     2
 10
0.0
 20
0.0
 30
0.0
  3
블럭10
  1

  0
ELLIPSE
  5
85
330
82
100
AcDbEntity
  8
중심선
100
AcDbEllipse
 10
20.54032771741204
 20
12.0471743016438
 30
0.0
 11
6.600054785286829
 21
-1.261213355974178E-13
 31
0.0
210
0.0
220
0.0
230
1.0
 40
0.636358354079598
 41
0.9219305317359503
 42
6.513795318482858
  0
ELLIPSE
  5
86
330
82
100
AcDbEntity
  8
중심선
100
AcDbEllipse
 10
20.54032771746488
 20
12.04717430159265
 30
0.0
 11
3.960054785062283
 21
1.540847449632565E-10
 31
0.0
210
0.0
220
0.0
230
1.0
 40
0.3939339440162632
 41
1.131841032648279
 42
5.62031148352944
  0
LINE
  5
87
330
82
100
AcDbEntity
  8
중심선
100
AcDbLine
 10
2.268634060543552
 20
16.24717430164393
 30
0.0
 11
5.714909304380834
 21
16.24717430164393
 31
0.0
  0
LINE
  5
88
330
82
100
AcDbEntity
  8
중심선
100
AcDbLine
 10
5.245725140726316
 20
7.84717430164391
 30
0.0
 11
8.692000384563599
 21
7.84717430164391
 31
0.0
  0
LINE
  5
89
330
82
100
AcDbEntity
  8
중심선
100
AcDbLine
 10
15.74043728645272
 20
16.24717430164393
 30
0.0
 11
8.692000384563599
 21
7.84717430164391
 31
0.0
  0
LINE
  5
8A
330
82
100
AcDbEntity
  8
중심선
100
AcDbLine
 10
0.1404042013395286
 20
13.71084872107135
 30
0.0
 11
3.58671253028996
 21
13.71088815037384
 31
0.0
  0
LINE
  5
8B
330
82
100
AcDbEntity
  8
중심선
100
AcDbLine
 10
2.750260043222114
 20
10.84717430164391
 30
0.0
 11
6.196535287059397
 21
10.84717430164391
 31
0.0
  0
LINE
  5
8C
330
82
100
AcDbEntity
  8
중심선
100
AcDbLine
 10
12.29416204261559
 20
16.24717430164393
 30
0.0
 11
5.245725140726316
 21
7.84717430164391
 31
0.0
  0
LINE
  5
8D
330
82
100
AcDbEntity
  8
중심선
100
AcDbLine
 10
10.72767329541681
 20
16.24717430164393
 30
0.0
 11
6.196535287059397
 21
10.84717430164391
 31
0.0
  0
LINE
  5
8E
330
82
100
AcDbEntity
  8
중심선
100
AcDbLine
 10
7.28139805157953
 20
16.24717430164393
 30
0.0
 11
2.750260043222114
 21
10.84717430164391
 31
0.0
  0
LINE
  5
8F
330
82
100
AcDbEntity
  8
중심선
100
AcDbLine
 10
5.714909304380834
 20
16.24717430164393
 30
0.0
 11
3.58671253028996
 21
13.71088815037384
 31
0.0
  0
LINE
  5
90
330
82
100
AcDbEntity
  8
중심선
100
AcDbLine
 10
2.268634060543552
 20
16.24717430164393
 30
0.0
 11
0.1404042013395286
 21
13.71084872107135
 31
0.0
  0
LINE
  5
91
330
82
100
AcDbEntity
  8
중심선
100
AcDbLine
 10
7.28139805157953
 20
16.24717430164393
 30
0.0
 11
10.72767329541681
 21
16.24717430164393
 31
0.0
  0
LINE
  5
92
330
82
100
AcDbEntity
  8
중심선
100
AcDbLine
 10
12.29416204261559
 20
16.24717430164393
 30
0.0
 11
15.74043728645272
 21
16.24717430164393
 31
0.0
  0
LINE
  5
93
330
82
100
AcDbEntity
  8
중심선
100
AcDbLine
 10
19.22036997980202
 20
11.08717430171403
 30
0.0
 11
23.66174974927406
 21
11.08717430171406
 31
0.0
  0
LINE
  5
94
330
82
100
AcDbEntity
  8
중심선
100
AcDbLine
 10
19.22039502424796
 20
13.00717430171391
 30
0.0
 11
19.22036997980202
 21
11.08717430171403
 31
0.0
  0
LINE
  5
95
330
82
100
AcDbEntity
  8
중심선
100
AcDbLine
 10
19.22039502424796
 20
13.00717430171391
 30
0.0
 11
26.96566020931264
 21
13.00717430171391
 31
0.0
  0
LINE
  5
96
330
82
100
AcDbEntity
  8
중심선
100
AcDbLine
 10
22.22332737316547
 20
13.45928029700563
 30
0.0
 11
24.52862924686651
 21
15.39360700705356
 31
0.0
  0
ATTDEF
  5
98
330
82
100
AcDbEntity
  8
FORMAT
 62
     2
100
AcDbText
 10
-16.11926103943555
 20
2.075366912832191
 30
0.0
 40
4.233333333333333
  1
SEME7301210E [ 4 FLUTE ]
 41
0.75
  7
SLDTEXTSTYLE0
 11
-16.11926103943555
 21
-0.0412997538344756
 31
0.0
100
AcDbAttributeDefinition
  3

  2
AUTOATTR0
 70
     0
 74
     1
  0
ENDBLK
  5
84
330
82
100
AcDbEntity
  8
0
100
AcDbBlockEnd
  0
BLOCK
  5
EA
330
E9
100
AcDbEntity
  8
0
100
AcDbBlockBegin
  2
_D
 70
     0
 10
0.0
 20
0.0
 30
0.0
  3
_D
  1

  0
LINE
  5
EC
330
E9
100
AcDbEntity
  8
치수문자_일반주서
 62
     0
370
    -2
100
AcDbLine
 10
15.38067240078565
 20
-0.6000000000000058
 30
0.0
 11
29.71176211136733
 21
-0.5999999999999535
 31
0.0
  0
LINE
  5
ED
330
E9
100
AcDbEntity
  8
치수문자_일반주서
 62
     0
370
    -2
100
AcDbLine
 10
15.38067240078565
 20
0.6000000000000018
 30
0.0
 11
29.71176211136733
 21
0.6000000000000547
 31
0.0
  0
LINE
  5
EE
330
E9
100
AcDbEntity
  8
치수문자_일반주서
 62
     0
370
    -2
100
AcDbLine
 10
29.71176211136733
 20
0.6000000000000547
 30
0.0
 11
29.71176211136728
 21
15.95400000000005
 31
0.0
  0
LINE
  5
EF
330
E9
100
AcDbEntity
  8
치수문자_일반주서
 62
     0
370
    -2
100
AcDbLine
 10
29.71176211136733
 20
-0.5999999999999535
 30
0.0
 11
29.71176211136733
 21
0.6000000000000547
 31
0.0
  0
LINE
  5
F0
330
E9
100
AcDbEntity
  8
치수문자_일반주서
 62
     0
370
    -2
100
AcDbLine
 10
29.71176211136734
 20
-3.901999999999954
 30
0.0
 11
29.71176211136735
 21
-7.203999999999954
 31
0.0
  0
LINE
  5
F1
330
E9
100
AcDbEntity
  8
치수문자_일반주서
 62
     0
370
    -2
100
AcDbLine
 10
29.71176211136732
 20
3.902000000000055
 30
0.0
 11
29.71176211136731
 21
7.204000000000055
 31
0.0
  0
SOLID
  5
F2
330
E9
100
AcDbEntity
  8
치수문자_일반주서
 62
     0
100
AcDbTrace
 10
30.26209544470068
 20
-3.901999999999952
 30
0.0
 11
29.16142877803401
 21
-3.901999999999955
 31
0.0
 12
29.71176211136733
 22
-0.5999999999999535
 32
0.0
 13
29.71176211136733
 23
-0.5999999999999535
 33
0.0
  0
SOLID
  5
F3
330
E9
100
AcDbEntity
  8
치수문자_일반주서
 62
     0
100
AcDbTrace
 10
29.16142877803398
 20
3.902000000000053
 30
0.0
 11
30.26209544470065
 21
3.902000000000057
 31
0.0
 12
29.71176211136733
 22
0.6000000000000547
 32
0.0
 13
29.71176211136733
 23
0.6000000000000547
 33
0.0
  0
MTEXT
  5
F4
330
E9
100
AcDbEntity
  8
치수문자_일반주서
 62
     0
100
AcDbMText
 10
25.3367621113673
 20
11.57900000000004
 30
0.0
 40
3.5
 41
0.0
 71
     2
 72
     1
  1
\A1;%%c1.2
  7
SLDTEXTSTYLE0
 11
-2.960594732333732E-15
 21
1.0
 31
0.0
 73
     1
 44
1.0
  0
POINT
  5
156
330
E9
100
AcDbEntity
  8
Defpoints
 62
     0
100
AcDbPoint
 10
15.31817240078565
 20
-0.600000000000006
 30
0.0
  0
POINT
  5
157
330
E9
100
AcDbEntity
  8
Defpoints
 62
     0
100
AcDbPoint
 10
15.31817240078565
 20
0.6000000000000015
 30
0.0
  0
POINT
  5
158
330
E9
100
AcDbEntity
  8
Defpoints
 62
     0
100
AcDbPoint
 10
29.71176211136732
 20
0.6000000000000553
 30
0.0
  0
ENDBLK
  5
EB
330
E9
100
AcDbEntity
  8
0
100
AcDbBlockEnd
  0
BLOCK
  5
F8
330
F7
100
AcDbEntity
  8
0
100
AcDbBlockBegin
  2
_D_1
 70
     0
 10
0.0
 20
0.0
 30
0.0
  3
_D_1
  1

  0
LINE
  5
FA
330
F7
100
AcDbEntity
  8
치수문자_일반주서
 62
     0
370
    -2
100
AcDbLine
 10
-34.68182759921436
 20
1.562499999999991
 30
0.0
 11
-34.68182759921436
 21
36.00000000000003
 31
0.0
  0
LINE
  5
FB
330
F7
100
AcDbEntity
  8
치수문자_일반주서
 62
     0
370
    -2
100
AcDbLine
 10
15.31817240078565
 20
0.0024999999999989
 30
0.0
 11
15.31817240078565
 21
36.00000000000003
 31
0.0
  0
LINE
  5
FC
330
F7
100
AcDbEntity
  8
치수문자_일반주서
 62
     0
370
    -2
100
AcDbLine
 10
-31.37982759921436
 20
36.00000000000003
 30
0.0
 11
12.01617240078565
 21
36.00000000000003
 31
0.0
  0
SOLID
  5
FD
330
F7
100
AcDbEntity
  8
치수문자_일반주서
 62
     0
100
AcDbTrace
 10
-31.37982759921436
 20
36.55033333333336
 30
0.0
 11
-31.37982759921436
 21
35.44966666666669
 31
0.0
 12
-34.68182759921436
 22
36.00000000000003
 32
0.0
 13
-34.68182759921436
 23
36.00000000000003
 33
0.0
  0
SOLID
  5
FE
330
F7
100
AcDbEntity
  8
치수문자_일반주서
 62
     0
100
AcDbTrace
 10
12.01617240078565
 20
35.44966666666669
 30
0.0
 11
12.01617240078565
 21
36.55033333333336
 31
0.0
 12
15.31817240078565
 22
36.00000000000003
 32
0.0
 13
15.31817240078565
 23
36.00000000000003
 33
0.0
  0
MTEXT
  5
FF
330
F7
100
AcDbEntity
  8
치수문자_일반주서
 62
     0
100
AcDbMText
 10
-9.681827599214355
 20
40.37500000000003
 30
0.0
 40
3.5
 41
0.0
 71
     2
 72
     1
  1
\A1;50
  7
SLDTEXTSTYLE0
 73
     1
 44
1.0
  0
POINT
  5
15B
330
F7
100
AcDbEntity
  8
Defpoints
 62
     0
100
AcDbPoint
 10
-34.68182759921436
 20
1.499999999999991
 30
0.0
  0
POINT
  5
15C
330
F7
100
AcDbEntity
  8
Defpoints
 62
     0
100
AcDbPoint
 10
15.31817240078565
 20
-0.0600000000000011
 30
0.0
  0
POINT
  5
15D
330
F7
100
AcDbEntity
  8
Defpoints
 62
     0
100
AcDbPoint
 10
15.31817240078565
 20
36.00000000000003
 30
0.0
  0
ENDBLK
  5
F9
330
F7
100
AcDbEntity
  8
0
100
AcDbBlockEnd
  0
BLOCK
  5
103
330
102
100
AcDbEntity
  8
0
100
AcDbBlockBegin
  2
_D_2
 70
     0
 10
0.0
 20
0.0
 30
0.0
  3
_D_2
  1

  0
LINE
  5
105
330
102
100
AcDbEntity
  8
치수문자_일반주서
 62
     0
370
    -2
100
AcDbLine
 10
-34.24432759921437
 20
1.999999999999972
 30
0.0
 11
-48.17446716083426
 21
1.999999999999921
 31
0.0
  0
LINE
  5
106
330
102
100
AcDbEntity
  8
치수문자_일반주서
 62
     0
370
    -2
100
AcDbLine
 10
-34.24432759921437
 20
-2.000000000000004
 30
0.0
 11
-48.17446716083425
 21
-2.000000000000056
 31
0.0
  0
LINE
  5
107
330
102
100
AcDbEntity
  8
치수문자_일반주서
 62
     0
370
    -2
100
AcDbLine
 10
-48.17446716083425
 20
-1.30200000000008
 30
0.0
 11
-48.17446716083426
 21
1.301999999999944
 31
0.0
  0
SOLID
  5
108
330
102
100
AcDbEntity
  8
치수문자_일반주서
 62
     0
100
AcDbTrace
 10
-47.62413382750091
 20
-1.302000000000078
 30
0.0
 11
-48.72480049416758
 21
-1.302000000000082
 31
0.0
 12
-48.17446716083426
 22
1.999999999999921
 32
0.0
 13
-48.17446716083426
 23
1.999999999999921
 33
0.0
  0
SOLID
  5
109
330
102
100
AcDbEntity
  8
치수문자_일반주서
 62
     0
100
AcDbTrace
 10
-48.7248004941676
 20
1.301999999999942
 30
0.0
 11
-47.62413382750093
 21
1.301999999999946
 31
0.0
 12
-48.17446716083425
 22
-2.000000000000056
 32
0.0
 13
-48.17446716083425
 23
-2.000000000000056
 33
0.0
  0
MTEXT
  5
10A
330
102
100
AcDbEntity
  8
치수문자_일반주서
 62
     0
100
AcDbMText
 10
-52.54946716083425
 20
-0.726463899203126
 30
0.0
 40
3.5
 41
0.0
 71
     2
 72
     1
  1
\A1;%%c4
  7
SLDTEXTSTYLE0
 11
-3.552713678800522E-15
 21
1.0
 31
0.0
 73
     1
 44
1.0
  0
POINT
  5
10B
330
102
100
AcDbEntity
  8
Defpoints
 62
     0
100
AcDbPoint
 10
-34.18182759921437
 20
1.999999999999973
 30
0.0
  0
POINT
  5
10C
330
102
100
AcDbEntity
  8
Defpoints
 62
     0
100
AcDbPoint
 10
-34.18182759921437
 20
-2.000000000000004
 30
0.0
  0
POINT
  5
10D
330
102
100
AcDbEntity
  8
Defpoints
 62
     0
100
AcDbPoint
 10
-48.17446716083425
 20
-2.000000000000056
 30
0.0
  0
ENDBLK
  5
104
330
102
100
AcDbEntity
  8
0
100
AcDbBlockEnd
  0
BLOCK
  5
111
330
110
100
AcDbEntity
  8
0
100
AcDbBlockBegin
  2
_D_3
 70
     0
 10
0.0
 20
0.0
 30
0.0
  3
_D_3
  1

  0
LINE
  5
113
330
110
100
AcDbEntity
  8
치수문자_일반주서
 62
     0
370
    -2
100
AcDbLine
 10
13.51817240078565
 20
0.5981229458249189
 30
0.0
 11
13.51817240078565
 21
17.30540249018987
 31
0.0
  0
LINE
  5
114
330
110
100
AcDbEntity
  8
치수문자_일반주서
 62
     0
370
    -2
100
AcDbLine
 10
15.31817240078565
 20
0.0645196157201173
 30
0.0
 11
15.31817240078565
 21
17.30540249018987
 31
0.0
  0
LINE
  5
115
330
110
100
AcDbEntity
  8
치수문자_일반주서
 62
     0
370
    -2
100
AcDbLine
 10
15.31817240078565
 20
17.30540249018987
 30
0.0
 11
30.23467240078564
 21
17.30540249018987
 31
0.0
  0
LINE
  5
116
330
110
100
AcDbEntity
  8
치수문자_일반주서
 62
     0
370
    -2
100
AcDbLine
 10
13.51817240078565
 20
17.30540249018987
 30
0.0
 11
15.31817240078565
 21
17.30540249018987
 31
0.0
  0
LINE
  5
117
330
110
100
AcDbEntity
  8
치수문자_일반주서
 62
     0
370
    -2
100
AcDbLine
 10
10.21617240078565
 20
17.30540249018987
 30
0.0
 11
6.914172400785647
 21
17.30540249018987
 31
0.0
  0
LINE
  5
118
330
110
100
AcDbEntity
  8
치수문자_일반주서
 62
     0
370
    -2
100
AcDbLine
 10
18.62017240078564
 20
17.30540249018987
 30
0.0
 11
21.92217240078564
 21
17.30540249018987
 31
0.0
  0
SOLID
  5
119
330
110
100
AcDbEntity
  8
치수문자_일반주서
 62
     0
100
AcDbTrace
 10
10.21617240078565
 20
16.75506915685654
 30
0.0
 11
10.21617240078565
 21
17.85573582352321
 31
0.0
 12
13.51817240078565
 22
17.30540249018987
 32
0.0
 13
13.51817240078565
 23
17.30540249018987
 33
0.0
  0
SOLID
  5
11A
330
110
100
AcDbEntity
  8
치수문자_일반주서
 62
     0
100
AcDbTrace
 10
18.62017240078564
 20
17.85573582352321
 30
0.0
 11
18.62017240078564
 21
16.75506915685654
 31
0.0
 12
15.31817240078565
 22
17.30540249018987
 32
0.0
 13
15.31817240078565
 23
17.30540249018987
 33
0.0
  0
MTEXT
  5
152
330
110
100
AcDbEntity
  8
치수문자_일반주서
 62
     0
100
AcDbMText
 10
26.07842240078564
 20
21.68040249018987
 30
0.0
 40
3.5
 41
0.0
 71
     2
 72
     1
  1
\A1;1.80
  7
SLDTEXTSTYLE0
 73
     1
 44
1.0
  0
POINT
  5
153
330
110
100
AcDbEntity
  8
Defpoints
 62
     0
100
AcDbPoint
 10
13.51817240078565
 20
0.5356229458249189
 30
0.0
  0
POINT
  5
154
330
110
100
AcDbEntity
  8
Defpoints
 62
     0
100
AcDbPoint
 10
15.31817240078565
 20
0.0020196157201173
 30
0.0
  0
POINT
  5
155
330
110
100
AcDbEntity
  8
Defpoints
 62
     0
100
AcDbPoint
 10
15.31817240078565
 20
17.30540249018987
 30
0.0
  0
ENDBLK
  5
112
330
110
100
AcDbEntity
  8
0
100
AcDbBlockEnd
  0
BLOCK
  5
11D
330
11C
100
AcDbEntity
  8
0
100
AcDbBlockBegin
  2
_D_4
 70
     0
 10
0.0
 20
0.0
 30
0.0
  3
_D_4
  1

  0
LINE
  5
11F
330
11C
100
AcDbEntity
  8
치수문자_일반주서
 62
     0
370
    -2
100
AcDbLine
 10
15.31817240078565
 20
0.6594924622639704
 30
0.0
 11
15.31817240078565
 21
25.29678198861814
 31
0.0
  0
LINE
  5
120
330
11C
100
AcDbEntity
  8
치수문자_일반주서
 62
     0
370
    -2
100
AcDbLine
 10
5.318172400785641
 20
0.6374999999999968
 30
0.0
 11
5.318172400785641
 21
25.29678198861814
 31
0.0
  0
LINE
  5
121
330
11C
100
AcDbEntity
  8
치수문자_일반주서
 62
     0
370
    -2
100
AcDbLine
 10
12.01617240078565
 20
25.29678198861814
 30
0.0
 11
8.620172400785641
 21
25.29678198861814
 31
0.0
  0
SOLID
  5
122
330
11C
100
AcDbEntity
  8
치수문자_일반주서
 62
     0
100
AcDbTrace
 10
12.01617240078565
 20
24.74644865528481
 30
0.0
 11
12.01617240078565
 21
25.84711532195148
 31
0.0
 12
15.31817240078565
 22
25.29678198861814
 32
0.0
 13
15.31817240078565
 23
25.29678198861814
 33
0.0
  0
SOLID
  5
123
330
11C
100
AcDbEntity
  8
치수문자_일반주서
 62
     0
100
AcDbTrace
 10
8.620172400785641
 20
25.84711532195148
 30
0.0
 11
8.620172400785641
 21
24.74644865528481
 31
0.0
 12
5.318172400785641
 22
25.29678198861814
 32
0.0
 13
5.318172400785641
 23
25.29678198861814
 33
0.0
  0
MTEXT
  5
124
330
11C
100
AcDbEntity
  8
치수문자_일반주서
 62
     0
100
AcDbMText
 10
12.45296577697865
 20
29.67178198861814
 30
0.0
 40
3.5
 41
0.0
 71
     2
 72
     1
  1
\A1;10
  7
SLDTEXTSTYLE0
 73
     1
 44
1.0
  0
POINT
  5
125
330
11C
100
AcDbEntity
  8
Defpoints
 62
     0
100
AcDbPoint
 10
15.31817240078565
 20
0.5969924622639704
 30
0.0
  0
POINT
  5
126
330
11C
100
AcDbEntity
  8
Defpoints
 62
     0
100
AcDbPoint
 10
5.318172400785641
 20
0.5749999999999968
 30
0.0
  0
POINT
  5
151
330
11C
100
AcDbEntity
  8
Defpoints
 62
     0
100
AcDbPoint
 10
5.318172400785641
 20
25.29678198861814
 30
0.0
  0
ENDBLK
  5
11E
330
11C
100
AcDbEntity
  8
0
100
AcDbBlockEnd
  0
BLOCK
  5
128
330
127
100
AcDbEntity
  8
0
100
AcDbBlockBegin
  2
SW_DOWELSYMBOL_0
 70
     0
 10
0.0
 20
0.0
 30
0.0
  3
SW_DOWELSYMBOL_0
  1

  0
CIRCLE
  5
12A
330
127
100
AcDbEntity
  8
해칭선
 62
     0
100
AcDbCircle
 10
0.0
 20
0.0
 30
0.0
 40
3.000000000000003
  0
HATCH
  5
12B
330
127
100
AcDbEntity
  8
0
  6
Continuous
 62
     0
370
    18
100
AcDbHatch
 10
0.0
 20
0.0
 30
0.0
210
0.0
220
0.0
230
1.0
  2
SOLID
 70
     1
 71
     0
 91
        1
 92
        0
 93
        3
 72
     2
 10
-0.0000000000000017
 20
-0.0000000000000035
 40
3.000000000000003
 50
0.0
 51
90.0
 73
     1
 72
     1
 10
-0.0000000000000017
 20
2.999999999999999
 11
-0.0000000000000017
 21
-0.0000000000000036
 72
     1
 10
-0.0000000000000017
 20
-0.0000000000000035
 11
3.000000000000001
 21
-0.0000000000000035
 97
        0
 75
     0
 76
     1
 98
        1
 10
0.0
 20
0.0
  0
HATCH
  5
12C
330
127
100
AcDbEntity
  8
0
  6
Continuous
 62
     0
370
    18
100
AcDbHatch
 10
0.0
 20
0.0
 30
0.0
210
0.0
220
0.0
230
1.0
  2
SOLID
 70
     1
 71
     0
 91
        1
 92
        0
 93
        3
 72
     2
 10
-0.0000000000000017
 20
-0.0000000000000035
 40
3.000000000000003
 50
180.0
 51
270.0000000000007
 73
     1
 72
     1
 10
-0.0000000000000017
 20
-3.000000000000006
 11
-0.0000000000000017
 21
-0.0000000000000036
 72
     1
 10
-0.0000000000000017
 20
-0.0000000000000035
 11
-3.000000000000004
 21
-0.0000000000000035
 97
        0
 75
     0
 76
     1
 98
        1
 10
0.0
 20
0.0
  0
ENDBLK
  5
129
330
127
100
AcDbEntity
  8
0
100
AcDbBlockEnd
  0
ENDSEC
  0
SECTION
  2
ENTITIES
  0
LINE
  5
99
330
1F
100
AcDbEntity
  8
0
  6
Continuous
 62
     4
370
    25
100
AcDbLine
 10
0.0000000000000004
 20
2.0
 30
0.0
 11
-34.18182759921436
 21
1.999999999999987
 31
0.0
  0
LINE
  5
9A
330
1F
100
AcDbEntity
  8
0
  6
Continuous
 62
     4
370
    25
100
AcDbLine
 10
-34.18182759921436
 20
-2.000000000000007
 30
0.0
 11
0.0
 21
-1.999999999999993
 31
0.0
  0
LINE
  5
9B
330
1F
100
AcDbEntity
  8
0
  6
Continuous
 62
     4
370
    25
100
AcDbLine
 10
-34.18182759921436
 20
1.999999999999989
 30
0.0
 11
-34.68182759921436
 21
1.49999999999999
 31
0.0
  0
LINE
  5
9C
330
1F
100
AcDbEntity
  8
0
  6
Continuous
 62
     4
370
    25
100
AcDbLine
 10
-34.68182759921436
 20
-1.500000000000011
 30
0.0
 11
-34.18182759921436
 21
-2.000000000000012
 31
0.0
  0
LINE
  5
9D
330
1F
100
AcDbEntity
  8
0
  6
Continuous
 62
     4
370
    25
100
AcDbLine
 10
0.0
 20
-1.999999999999993
 30
0.0
 11
5.31817240078564
 21
-0.5749999999999859
 31
0.0
  0
LINE
  5
9E
330
1F
100
AcDbEntity
  8
0
  6
Continuous
 62
     4
370
    25
100
AcDbLine
 10
5.318172400785641
 20
0.5749999999999968
 30
0.0
 11
0.0000000000000004
 21
2.0
 31
0.0
  0
LINE
  5
9F
330
1F
100
AcDbEntity
  8
0
  6
Continuous
 62
     4
370
    25
100
AcDbLine
 10
13.00171391019624
 20
0.5749999999999992
 30
0.0
 11
5.318172400785641
 21
0.5749999999999962
 31
0.0
  0
LINE
  5
A0
330
1F
100
AcDbEntity
  8
0
  6
Continuous
 62
     4
370
    25
100
AcDbLine
 10
5.318172400785641
 20
-0.5749999999999856
 30
0.0
 11
13.00171391019624
 21
-0.5749999999999826
 31
0.0
  0
LINE
  5
A1
330
1F
100
AcDbEntity
  8
0
  6
Continuous
 62
     1
370
    25
100
AcDbLine
 10
15.14063772055685
 20
-0.6000000000000012
 30
0.0
 11
15.23248352038111
 21
-0.6000000000000012
 31
0.0
1001
PE_URL
1000

  0
LINE
  5
A2
330
1F
100
AcDbEntity
  8
0
  6
Continuous
 62
     1
370
    25
100
AcDbLine
 10
14.06728461826534
 20
0.5999999999999985
 30
0.0
 11
13.88890329937099
 21
0.5999999999999985
 31
0.0
  0
LINE
  5
A3
330
1F
100
AcDbEntity
  8
0
  6
Continuous
 62
     1
370
    25
100
AcDbLine
 10
13.88890329937099
 20
-0.6000000000000012
 30
0.0
 11
14.06728461826534
 21
-0.6000000000000012
 31
0.0
  0
LINE
  5
A4
330
1F
100
AcDbEntity
  8
0
  6
Continuous
 62
     1
370
    25
100
AcDbLine
 10
15.23248352038111
 20
0.5999999999999985
 30
0.0
 11
15.14063772055685
 21
0.5999999999999985
 31
0.0
1001
PE_URL
1000

  0
LINE
  5
A5
330
1F
100
AcDbEntity
  8
0
  6
Continuous
 62
     4
370
    25
100
AcDbLine
 10
0.0
 20
1.999999999999993
 30
0.0
 11
0.0
 21
-1.999999999999993
 31
0.0
  0
LINE
  5
A6
330
1F
100
AcDbEntity
  8
0
  6
Continuous
 62
     4
370
    25
100
AcDbLine
 10
-34.18182759921436
 20
1.99999999999999
 30
0.0
 11
-34.18182759921436
 21
-2.000000000000011
 31
0.0
  0
LINE
  5
A7
330
1F
100
AcDbEntity
  8
0
  6
Continuous
 62
     4
370
    25
100
AcDbLine
 10
-34.68182759921436
 20
1.499999999999991
 30
0.0
 11
-34.68182759921436
 21
-1.500000000000011
 31
0.0
  0
LINE
  5
A8
330
1F
100
AcDbEntity
  8
0
  6
Continuous
 62
     4
370
    25
100
AcDbLine
 10
5.318172400785641
 20
0.5749999999999966
 30
0.0
 11
5.318172400785641
 21
-0.5749999999999859
 31
0.0
  0
SPLINE
  5
A9
330
1F
100
AcDbEntity
  8
0
  6
Continuous
 62
     4
370
    25
100
AcDbSpline
210
0.0
220
0.0
230
1.0
 70
    24
 71
     3
 72
    14
 73
    10
 74
     0
 42
0.000000001
 43
0.00000001
 40
0.0
 40
0.0
 40
0.0
 40
0.0
 40
0.25
 40
0.25
 40
0.5
 40
0.5
 40
0.75
 40
0.75
 40
1.0
 40
1.0
 40
1.0
 40
1.0
 10
13.51817240078564
 20
0.2551953505319364
 30
0.0
 10
13.51817240078564
 20
0.2323553370329245
 30
0.0
 10
13.51817240078564
 20
0.2047725751375769
 30
0.0
 10
13.51817240078564
 20
0.1301481146340803
 30
0.0
 10
13.51817240078564
 20
0.0835518423951876
 30
0.0
 10
13.51817240078564
 20
-0.0278576955571526
 30
0.0
 10
13.51817240078564
 20
-0.0929376589825612
 30
0.0
 10
13.51817240078564
 20
-0.2258322464924063
 30
0.0
 10
13.51817240078564
 20
-0.2929280854496927
 30
0.0
 10
13.51817240078564
 20
-0.3475363252148663
 30
0.0
  0
SPLINE
  5
AA
330
1F
100
AcDbEntity
  8
0
  6
Continuous
 62
     4
370
    25
100
AcDbSpline
210
0.0
220
0.0
230
1.0
 70
     8
 71
     3
 72
    14
 73
    10
 74
     0
 42
0.000000001
 43
0.00000001
 40
0.0
 40
0.0
 40
0.0
 40
0.0
 40
0.2500000000000001
 40
0.2500000000000001
 40
0.5000000000000001
 40
0.5000000000000001
 40
0.7500000000000002
 40
0.7500000000000002
 40
1.0
 40
1.0
 40
1.0
 40
1.0
 10
13.51817240078205
 20
-0.3475363252128134
 30
0.0
 10
13.45634456654729
 20
-0.3122124645152924
 30
0.0
 10
13.39349934272568
 20
-0.2735589973542096
 30
0.0
 10
13.27075398938326
 20
-0.1926949569765836
 30
0.0
 10
13.21241621204065
 20
-0.1508933161495202
 30
0.0
 10
13.09022117345365
 20
-0.064122015568438
 30
0.0
 10
13.02743766342098
 20
-0.0193781303223857
 30
0.0
 10
12.90346271827748
 20
0.0692928713921107
 30
0.0
 10
12.84374912107651
 20
0.1128553798487155
 30
0.0
 10
12.78372838354678
 20
0.1551323463115825
 30
0.0
  0
LINE
  5
AB
330
1F
100
AcDbEntity
  8
0
  6
Continuous
 62
     4
370
    25
100
AcDbLine
 10
12.7908821649239
 20
0.1529384883634129
 30
0.0
 11
12.78781830598694
 21
0.1538780853298573
 31
0.0
  0
SPLINE
  5
AC
330
1F
100
AcDbEntity
  8
0
  6
Continuous
 62
     4
370
    25
100
AcDbSpline
210
0.0
220
0.0
230
1.0
 70
     8
 71
     3
 72
    10
 73
     6
 74
     0
 42
0.000000001
 43
0.00000001
 40
0.0
 40
0.0
 40
0.0
 40
0.0
 40
0.5
 40
0.5
 40
1.0
 40
1.0
 40
1.0
 40
1.0
 10
13.51817240078205
 20
0.2551953505341401
 30
0.0
 10
13.42518024888868
 20
0.3149559849016494
 30
0.0
 10
13.3299414925151
 20
0.3698450928877344
 30
0.0
 10
13.15152961669437
 20
0.4608217268373895
 30
0.0
 10
13.05715657587482
 20
0.4988068042130231
 30
0.0
 10
12.96394406728809
 20
0.5258151383839675
 30
0.0
  0
SPLINE
  5
AD
330
1F
100
AcDbEntity
  8
0
  6
Continuous
 62
     4
370
    25
100
AcDbSpline
210
0.0
220
0.0
230
1.0
 70
     8
 71
     3
 72
    14
 73
    10
 74
     0
 42
0.000000001
 43
0.00000001
 40
0.0000000000000004
 40
0.0000000000000004
 40
0.0000000000000004
 40
0.0000000000000004
 40
0.0000514808473846
 40
0.0000514808473846
 40
0.0000514808473846
 40
0.0001028875534114
 40
0.0001028875534114
 40
0.0001028875534114
 40
0.0001587596474825
 40
0.0001587596474825
 40
0.0001587596474825
 40
0.0001587596474825
 10
12.7837283835474
 20
-0.5536776635624686
 30
0.0
 10
12.76987813582983
 20
-0.5509442497275421
 30
0.0
 10
12.75759817348593
 20
-0.5472540893291338
 30
0.0
 10
12.74787654533259
 20
-0.542572376162092
 30
0.0
 10
12.73816211214109
 20
-0.537894127923668
 30
0.0
 10
12.73075051072427
 20
-0.5320893499338306
 30
0.0
 10
12.72595433758991
 20
-0.5254003605788459
 30
0.0
 10
12.72073777667418
 20
-0.5181250768354363
 30
0.0
 10
12.71847874682673
 20
-0.509638169244103
 30
0.0
 10
12.71847874682654
 20
-0.5004541639252469
 30
0.0
  0
SPLINE
  5
AE
330
1F
100
AcDbEntity
  8
0
  6
Continuous
 62
     4
370
    25
100
AcDbSpline
210
0.0
220
0.0
230
1.0
 70
     8
 71
     3
 72
    10
 73
     6
 74
     0
 42
0.000000001
 43
0.00000001
 40
0.0
 40
0.0
 40
0.0
 40
0.0
 40
0.2017538131684473
 40
0.510493059902876
 40
1.0
 40
1.0
 40
1.0
 40
1.0
 10
13.44352000296711
 20
-0.484557938925339
 30
0.0
 10
13.39898628864511
 20
-0.5014693834069798
 30
0.0
 10
13.28630364966024
 20
-0.5442600246604489
 30
0.0
 10
13.0678395926371
 20
-0.5851333007955523
 30
0.0
 10
12.89172610896546
 20
-0.5656347323582543
 30
0.0
 10
12.78372838354678
 20
-0.5536776635623463
 30
0.0
  0
LINE
  5
AF
330
1F
100
AcDbEntity
  8
0
  6
Continuous
 62
     4
370
    25
100
AcDbLine
 10
13.44352000296711
 20
0.4845579389253373
 30
0.0
 11
13.51817240078205
 21
0.5152672443167314
 31
0.0
  0
SPLINE
  5
B0
330
1F
100
AcDbEntity
  8
0
  6
Continuous
 62
     4
370
    25
100
AcDbSpline
210
0.0
220
0.0
230
1.0
 70
     8
 71
     3
 72
    10
 73
     6
 74
     0
 42
0.000000001
 43
0.00000001
 40
0.0
 40
0.0
 40
0.0
 40
0.0
 40
0.4019009455211388
 40
0.7962636628288656
 40
0.9999999999999999
 40
0.9999999999999999
 40
0.9999999999999999
 40
0.9999999999999999
 10
13.51817240078205
 20
0.4580867850719604
 30
0.0
 10
13.44868013034103
 20
0.4843962800842782
 30
0.0
 10
13.31099901658324
 20
0.5365217978247785
 30
0.0
 10
13.14008255837294
 20
0.5766085764687381
 30
0.0
 10
13.03687165186294
 20
0.5676854532851642
 30
0.0
 10
13.00171391019624
 20
0.5646458824650226
 30
0.0
  0
LINE
  5
B1
330
1F
100
AcDbEntity
  8
0
  6
Continuous
 62
     4
370
    25
100
AcDbLine
 10
13.51817240078564
 20
0.4580867850704027
 30
0.0
 11
13.51817240078564
 21
0.3783721784349712
 31
0.0
  0
SPLINE
  5
B2
330
1F
100
AcDbEntity
  8
0
  6
Continuous
 62
     4
370
    25
100
AcDbSpline
210
0.0
220
0.0
230
1.0
 70
     8
 71
     3
 72
    12
 73
     8
 74
     0
 42
0.000000001
 43
0.00000001
 40
0.0
 40
0.0
 40
0.0
 40
0.0
 40
0.2500000000000001
 40
0.2500000000000001
 40
0.5000000000000001
 40
0.5000000000000001
 40
1.0
 40
1.0
 40
1.0
 40
1.0
 10
12.71847874683226
 20
0.4541502815804946
 30
0.0
 10
12.71847874683226
 20
0.4722717580322784
 30
0.0
 10
12.72431732585541
 20
0.4884416559679425
 30
0.0
 10
12.75088900999764
 20
0.513813110999272
 30
0.0
 10
12.77162717049368
 20
0.523130517774433
 30
0.0
 10
12.84844448066583
 20
0.5406230752730021
 30
0.0
 10
12.91572326770895
 20
0.5397871201358735
 30
0.0
 10
12.96394406728809
 20
0.5258151383839659
 30
0.0
  0
LINE
  5
B3
330
1F
100
AcDbEntity
  8
0
  6
Continuous
 62
     4
370
    25
100
AcDbLine
 10
12.71847874683226
 20
0.4541502815804944
 30
0.0
 11
12.71847874683226
 21
0.2831441855498575
 31
0.0
  0
SPLINE
  5
B4
330
1F
100
AcDbEntity
  8
0
  6
Continuous
 62
     4
370
    25
100
AcDbSpline
210
0.0
220
0.0
230
1.0
 70
     8
 71
     3
 72
    14
 73
    10
 74
     0
 42
0.000000001
 43
0.00000001
 40
0.0000000000000004
 40
0.0000000000000004
 40
0.0000000000000004
 40
0.0000000000000004
 40
0.0000514808473846
 40
0.0000514808473846
 40
0.0000514808473846
 40
0.0001028875534114
 40
0.0001028875534114
 40
0.0001028875534114
 40
0.0001587596474825
 40
0.0001587596474825
 40
0.0001587596474825
 40
0.0001587596474825
 10
12.7837283835474
 20
0.1551323463111449
 30
0.0
 10
12.76987813582983
 20
0.1648880821177572
 30
0.0
 10
12.75759817348593
 20
0.177025215584477
 30
0.0
 10
12.74787654533259
 20
0.1903686335135176
 30
0.0
 10
12.73816211214109
 20
0.2037021759997466
 30
0.0
 10
12.73075051072427
 20
0.2185794134503197
 30
0.0
 10
12.72595433758991
 20
0.2336224755959947
 30
0.0
 10
12.72073777667418
 20
0.2499840721947377
 30
0.0
 10
12.71847874682673
 20
0.266911559423901
 30
0.0
 10
12.71847874682654
 20
0.2831441855484034
 30
0.0
  0
LINE
  5
B5
330
1F
100
AcDbEntity
  8
0
  6
Continuous
 62
     4
370
    25
100
AcDbLine
 10
13.51817240078565
 20
-0.3475363252148667
 30
0.0
 11
13.51817240078565
 21
-0.4575415762847415
 31
0.0
  0
SPLINE
  5
B6
330
1F
100
AcDbEntity
  8
0
  6
Continuous
 62
     4
370
    25
100
AcDbSpline
210
0.0
220
0.0
230
1.0
 70
     8
 71
     3
 72
    10
 73
     6
 74
     0
 42
0.000000001
 43
0.00000001
 40
0.0
 40
0.0
 40
0.0
 40
0.0
 40
0.5
 40
0.5
 40
1.0
 40
1.0
 40
1.0
 40
1.0
 10
13.51817240078205
 20
-0.5152672443167351
 30
0.0
 10
13.42518024888868
 20
-0.485669717589062
 30
0.0
 10
13.3299414925151
 20
-0.4451585554817996
 30
0.0
 10
13.15152961669437
 20
-0.3501354999516406
 30
0.0
 10
13.05715657587482
 20
-0.2937194807254601
 30
0.0
 10
12.96394406728809
 20
-0.232687430357233
 30
0.0
  0
SPLINE
  5
B7
330
1F
100
AcDbEntity
  8
0
  6
Continuous
 62
     4
370
    25
100
AcDbSpline
210
0.0
220
0.0
230
1.0
 70
     8
 71
     3
 72
    12
 73
     8
 74
     0
 42
0.000000001
 43
0.00000001
 40
0.0
 40
0.0
 40
0.0
 40
0.0
 40
0.2500000000000001
 40
0.2500000000000001
 40
0.5000000000000001
 40
0.5000000000000001
 40
1.0
 40
1.0
 40
1.0
 40
1.0
 10
12.71847874683226
 20
-0.3526648858907586
 30
0.0
 10
12.71847874683226
 20
-0.3293286424412727
 30
0.0
 10
12.72431732585541
 20
-0.3044980235448472
 30
0.0
 10
12.75088900999765
 20
-0.2594039024237592
 30
0.0
 10
12.77162717049368
 20
-0.2391247164272155
 30
0.0
 10
12.84844448066583
 20
-0.1980817129765783
 30
0.0
 10
12.91572326770895
 20
-0.2011142615483329
 30
0.0
 10
12.96394406728809
 20
-0.2326874303572295
 30
0.0
  0
LINE
  5
B8
330
1F
100
AcDbEntity
  8
0
  6
Continuous
 62
     4
370
    25
100
AcDbLine
 10
12.71847874683226
 20
-0.3526648858907586
 30
0.0
 11
12.71847874683226
 21
-0.5004541639244253
 31
0.0
  0
SPLINE
  5
B9
330
1F
100
AcDbEntity
  8
0
  6
Continuous
 62
     4
370
    25
100
AcDbSpline
210
0.0
220
0.0
230
1.0
 70
    24
 71
     3
 72
    10
 73
     6
 74
     0
 42
0.000000001
 43
0.00000001
 40
0.0
 40
0.0
 40
0.0
 40
0.0
 40
0.4665082840187438
 40
0.9355751226812097
 40
1.0
 40
1.0
 40
1.0
 40
1.0
 10
13.51817240078564
 20
0.5152672443178812
 30
0.0
 10
13.51817240078564
 20
0.50739884949962
 30
0.0
 10
13.51817240078564
 20
0.4916189058210569
 30
0.0
 10
13.51817240078564
 20
0.4751517648619625
 30
0.0
 10
13.51817240078564
 20
0.4678996372196731
 30
0.0
 10
13.51817240078564
 20
0.467023864607543
 30
0.0
  0
SPLINE
  5
BA
330
1F
100
AcDbEntity
  8
0
  6
Continuous
 62
     1
370
    25
100
AcDbSpline
210
0.0
220
0.0
230
1.0
 70
     8
 71
     3
 72
    13
 73
     9
 74
     0
 42
0.000000001
 43
0.00000001
 40
0.0
 40
0.0
 40
0.0
 40
0.0
 40
0.1975543149292064
 40
0.3953144375767167
 40
0.5942325136135274
 40
0.7504412455871073
 40
0.905374161839063
 40
1.0
 40
1.0
 40
1.0
 40
1.0
 10
13.51817240078068
 20
0.2703850216423377
 30
0.0
 10
13.62495523792002
 20
0.1940403308087509
 30
0.0
 10
13.83863215619796
 20
0.0412714149302856
 30
0.0
 10
14.15973091373514
 20
-0.2065255355259665
 30
0.0
 10
14.45945618411417
 20
-0.4030726725931658
 30
0.0
 10
14.73559267985894
 20
-0.5310002101256583
 30
0.0
 10
14.95389316367612
 20
-0.59548134328057
 30
0.0
 10
15.08929649088504
 20
-0.5934764117620817
 30
0.0
 10
15.14063772055685
 20
-0.5927161966943371
 30
0.0
  0
SPLINE
  5
BB
330
1F
100
AcDbEntity
  8
0
  6
Continuous
 62
     1
370
    25
100
AcDbSpline
210
0.0
220
0.0
230
1.0
 70
     8
 71
     3
 72
    12
 73
     8
 74
     0
 42
0.000000001
 43
0.00000001
 40
0.0
 40
0.0
 40
0.0
 40
0.0
 40
0.305297760189488
 40
0.5078622122002806
 40
0.7097528279924126
 40
0.9103432339492096
 40
1.0
 40
1.0
 40
1.0
 40
1.0
 10
13.51817240078068
 20
-0.3376357739372854
 30
0.0
 10
13.63424359958145
 20
-0.3970569688757322
 30
0.0
 10
13.8273278061577
 20
-0.4959040075644318
 30
0.0
 10
14.095980932572
 20
-0.5590035255117335
 30
0.0
 10
14.32665130693225
 20
-0.5668132638253928
 30
0.0
 10
14.51230354506668
 20
-0.5410894835792013
 30
0.0
 10
14.62284263099527
 20
-0.5001270009628471
 30
0.0
 10
14.65698793169888
 20
-0.4874737726974633
 30
0.0
  0
SPLINE
  5
BC
330
1F
100
AcDbEntity
  8
0
  6
Continuous
 62
     4
370
    25
100
AcDbSpline
210
0.0
220
0.0
230
1.0
 70
    24
 71
     3
 72
    14
 73
    10
 74
     0
 42
0.000000001
 43
0.00000001
 40
0.0
 40
0.0
 40
0.0
 40
0.0
 40
0.25
 40
0.25
 40
0.5
 40
0.5
 40
0.75
 40
0.75
 40
1.0
 40
1.0
 40
1.0
 40
1.0
 10
13.51817240078564
 20
0.2703850216533468
 30
0.0
 10
13.51817240078565
 20
0.247160277828584
 30
0.0
 10
13.51817240078565
 20
0.2225903870605214
 30
0.0
 10
13.51817240078565
 20
0.1515243131548308
 30
0.0
 10
13.51817240078565
 20
0.1064079253093537
 30
0.0
 10
13.51817240078565
 20
-0.0043651033818456
 30
0.0
 10
13.51817240078565
 20
-0.0704145500078793
 30
0.0
 10
13.51817240078565
 20
-0.2082530965663923
 30
0.0
 10
13.51817240078565
 20
-0.2793060829321377
 30
0.0
 10
13.51817240078565
 20
-0.3376357739393752
 30
0.0
  0
ELLIPSE
  5
BD
330
1F
100
AcDbEntity
  8
0
  6
Continuous
 62
     1
370
    25
100
AcDbEllipse
 10
15.23248352038111
 20
-0.000000000000001
 30
0.0
 11
0.8568888040452656
 21
1.049386131099239E-16
 31
0.0
210
0.0
220
0.0
230
1.0
 40
0.7002075382097122
 41
4.016440271475391
 42
4.781618259954072
1001
PE_URL
1000

  0
LINE
  5
BE
330
1F
100
AcDbEntity
  8
0
  6
Continuous
 62
     4
370
    25
100
AcDbLine
 10
13.51817240078564
 20
0.2703850216420607
 30
0.0
 11
13.51817240078564
 21
0.3822981188404364
 31
0.0
  0
SPLINE
  5
BF
330
1F
100
AcDbEntity
  8
0
  6
Continuous
 62
     1
370
    25
100
AcDbSpline
210
0.0
220
0.0
230
1.0
 70
     8
 71
     3
 72
    17
 73
    13
 74
     0
 42
0.000000001
 43
0.00000001
 40
0.0
 40
0.0
 40
0.0
 40
0.0
 40
0.0788198566315346
 40
0.1262598658190639
 40
0.2496362928207165
 40
0.3756387420120453
 40
0.5013431314475212
 40
0.5420710026246552
 40
0.7718913444228892
 40
0.886040361629321
 40
0.9404409281622356
 40
1.0
 40
1.0
 40
1.0
 40
1.0
 10
14.71769061807072
 20
-0.437164410709121
 30
0.0
 10
14.68606776132222
 20
-0.4204402290844306
 30
0.0
 10
14.63541177410638
 20
-0.3936501152970092
 30
0.0
 10
14.53537258104377
 20
-0.3344357909550628
 30
0.0
 10
14.41783996808124
 20
-0.255857152266672
 30
0.0
 10
14.26715962141814
 20
-0.1498581019976878
 30
0.0
 10
14.14966288410028
 20
-0.0631341416370905
 30
0.0
 10
13.99251455235715
 20
0.057699408822556
 30
0.0
 10
13.83719420139108
 20
0.1726615626102748
 30
0.0
 10
13.67817374084269
 20
0.2821405464448757
 30
0.0
 10
13.58764544174242
 20
0.3412980849813759
 30
0.0
 10
13.5420185314513
 20
0.3682251467728757
 30
0.0
 10
13.51817240078068
 20
0.3822981188404362
 30
0.0
  0
ELLIPSE
  5
C0
330
1F
100
AcDbEntity
  8
0
  6
Continuous
 62
     1
370
    25
100
AcDbEllipse
 10
15.32116289958475
 20
-0.000000000000001
 30
0.0
 11
0.8568323223625941
 21
0.5998353909838001
 31
0.0
210
0.0
220
0.0
230
1.0
 40
0.0164018109789438
 41
3.860966174378475
 42
3.919527313637897
1001
PE_URL
1000

  0
SPLINE
  5
C1
330
1F
100
AcDbEntity
  8
0
  6
Continuous
 62
     1
370
    25
100
AcDbSpline
210
0.0
220
0.0
230
1.0
 70
     8
 71
     3
 72
    16
 73
    12
 74
     0
 42
0.000000001
 43
0.00000001
 40
0.0
 40
0.0
 40
0.0
 40
0.0
 40
0.2500000000000002
 40
0.2500000000000002
 40
0.3750000000000003
 40
0.3750000000000003
 40
0.5000000000000004
 40
0.5000000000000004
 40
0.7500000000000002
 40
0.7500000000000002
 40
1.0
 40
1.0
 40
1.0
 40
1.0
 10
13.51817240078066
 20
0.449832511830916
 30
0.0
 10
13.6278016154402
 20
0.4036676941342341
 30
0.0
 10
13.73189087037308
 20
0.3457893156068029
 30
0.0
 10
13.89738909477678
 20
0.2453974099897278
 30
0.0
 10
13.95272340444888
 20
0.209920236737743
 30
0.0
 10
14.0603071156915
 20
0.1372267586136459
 30
0.0
 10
14.1121870912198
 20
0.1001213729082266
 30
0.0
 10
14.27544871266103
 20
-0.0142558260492489
 30
0.0
 10
14.38789078847504
 20
-0.0930341936463551
 30
0.0
 10
14.59839774734344
 20
-0.2380572107445943
 30
0.0
 10
14.71198352788884
 20
-0.3076856427617136
 30
0.0
 10
14.82027419301238
 20
-0.3658577974211931
 30
0.0
  0
LINE
  5
C2
330
1F
100
AcDbEntity
  8
0
  6
Continuous
 62
     4
370
    25
100
AcDbLine
 10
13.51817240078565
 20
0.4498325118288595
 30
0.0
 11
13.51817240078565
 21
0.3822981188375739
 31
0.0
  0
SPLINE
  5
C3
330
1F
100
AcDbEntity
  8
0
  6
Continuous
 62
     1
370
    25
100
AcDbSpline
210
0.0
220
0.0
230
1.0
 70
     8
 71
     3
 72
     8
 73
     4
 74
     0
 42
0.000000001
 43
0.00000001
 40
0.0
 40
0.0
 40
0.0
 40
0.0
 40
1.0
 40
1.0
 40
1.0
 40
1.0
 10
14.71769061807072
 20
-0.4371644107091205
 30
0.0
 10
14.75251389083958
 20
-0.4127849316667508
 30
0.0
 10
14.78672286085123
 20
-0.3890020322896744
 30
0.0
 10
14.82027419301254
 20
-0.3658577974212874
 30
0.0
1001
PE_URL
1000

  0
SPLINE
  5
C4
330
1F
100
AcDbEntity
  8
0
  6
Continuous
 62
     1
370
    25
100
AcDbSpline
210
0.0
220
0.0
230
1.0
 70
     8
 71
     3
 72
    22
 73
    18
 74
     0
 42
0.000000001
 43
0.00000001
 40
0.0
 40
0.0
 40
0.0
 40
0.0
 40
0.125
 40
0.125
 40
0.25
 40
0.25
 40
0.375
 40
0.375
 40
0.5
 40
0.5
 40
0.625
 40
0.625
 40
0.75
 40
0.75
 40
0.875
 40
0.875
 40
1.0
 40
1.0
 40
1.0
 40
1.0
 10
15.24237218391439
 20
-0.0759872351494284
 30
0.0
 10
15.17078549158432
 20
-0.0223538486036767
 30
0.0
 10
15.09675490176014
 20
0.0328202558723063
 30
0.0
 10
14.95183548604238
 20
0.1402588677569239
 30
0.0
 10
14.88328573585332
 20
0.1919653797694574
 30
0.0
 10
14.7395125489477
 20
0.2910918037792601
 30
0.0
 10
14.66543949306126
 20
0.3381406449312461
 30
0.0
 10
14.52096477064534
 20
0.4220628113818747
 30
0.0
 10
14.45252415093557
 20
0.4587125275156468
 30
0.0
 10
14.30821684324009
 20
0.5212838855655203
 30
0.0
 10
14.2341375847552
 20
0.5467291947489928
 30
0.0
 10
14.09017432867936
 20
0.5832055582507754
 30
0.0
 10
14.02168018853791
 20
0.5943593034522617
 30
0.0
 10
13.87690527200328
 20
0.6023688326481538
 30
0.0
 10
13.80285608465382
 20
0.5989257547163928
 30
0.0
 10
13.65947027147608
 20
0.5776560184585854
 30
0.0
 10
13.59076004240712
 20
0.5601012699861283
 30
0.0
 10
13.518172400784
 20
0.5356229458048517
 30
0.0
  0
SPLINE
  5
C5
330
1F
100
AcDbEntity
  8
0
  6
Continuous
 62
     4
370
    25
100
AcDbSpline
210
0.0
220
0.0
230
1.0
 70
    24
 71
     3
 72
     9
 73
     5
 74
     0
 42
0.000000001
 43
0.00000001
 40
0.0
 40
0.0
 40
0.0
 40
0.0
 40
0.6390510381170526
 40
1.0
 40
1.0
 40
1.0
 40
1.0
 10
13.51817240078565
 20
0.535622945825865
 30
0.0
 10
13.51817240078565
 20
0.5195863926622312
 30
0.0
 10
13.51817240078565
 20
0.4944920696627961
 30
0.0
 10
13.51817240078565
 20
0.4743089431646141
 30
0.0
 10
13.51817240078565
 20
0.4670238646075431
 30
0.0
  0
SPLINE
  5
C6
330
1F
100
AcDbEntity
  8
0
  6
Continuous
 62
     1
370
    25
100
AcDbSpline
210
0.0
220
0.0
230
1.0
 70
     8
 71
     3
 72
    14
 73
    10
 74
     0
 42
0.000000001
 43
0.00000001
 40
0.0
 40
0.0
 40
0.0
 40
0.0
 40
0.25
 40
0.25
 40
0.5
 40
0.5
 40
0.75
 40
0.75
 40
1.0
 40
1.0
 40
1.0
 40
1.0
 10
15.24237218392027
 20
-0.0759872351538347
 30
0.0
 10
15.24022192033904
 20
-0.0753732229919251
 30
0.0
 10
15.22890791679492
 20
-0.0811973587908049
 30
0.0
 10
15.17563228128212
 20
-0.1148752945170341
 30
0.0
 10
15.13342839735851
 20
-0.1430719814579977
 30
0.0
 10
15.03735689217982
 20
-0.2092411686986321
 30
0.0
 10
14.98539842103232
 20
-0.2458414434380265
 30
0.0
 10
14.89357492756644
 20
-0.3116609775864425
 30
0.0
 10
14.85310520693425
 20
-0.3412860153848556
 30
0.0
 10
14.82027419301258
 20
-0.3658577974212427
 30
0.0
1001
PE_URL
1000

  0
LINE
  5
C7
330
1F
100
AcDbEntity
  8
0
  6
Continuous
 62
     1
370
    25
100
AcDbLine
 10
15.27850447219024
 20
-0.0322242173723442
 30
0.0
 11
14.68312027393982
 21
0.3846682863735438
 31
0.0
1001
PE_URL
1000

  0
SPLINE
  5
C8
330
1F
100
AcDbEntity
  8
0
  6
Continuous
 62
     1
370
    25
100
AcDbSpline
210
0.0
220
0.0
230
1.0
 70
     8
 71
     3
 72
    11
 73
     7
 74
     0
 42
0.000000001
 43
0.00000001
 40
0.0
 40
0.0
 40
0.0
 40
0.0
 40
0.4602864659247426
 40
0.4871988396029491
 40
0.9246500121412444
 40
1.0
 40
1.0
 40
1.0
 40
1.0
 10
14.71769061807072
 20
0.4109589736328257
 30
0.0
 10
14.61776335742414
 20
0.4608279141806039
 30
0.0
 10
14.5119934748926
 20
0.5136126292781763
 30
0.0
 10
14.31257202038871
 20
0.5762269125487085
 30
0.0
 10
14.19394430455374
 20
0.6023597947151179
 30
0.0
 10
14.08351140937564
 20
0.5982728225831289
 30
0.0
 10
14.06728461826534
 20
0.5976722909847098
 30
0.0
  0
ELLIPSE
  5
C9
330
1F
100
AcDbEntity
  8
0
  6
Continuous
 62
     1
370
    25
100
AcDbEllipse
 10
15.32116289958475
 20
-0.0000000000000011
 30
0.0
 11
0.85641028729877
 21
0.04096475567912596
 31
0.0
210
0.0
220
0.0
230
1.0
 40
0.6989639771953237
 41
2.318755058289173
 42
2.377316197548699
1001
PE_URL
1000

  0
ELLIPSE
  5
CA
330
1F
100
AcDbEntity
  8
0
  6
Continuous
 62
     1
370
    25
100
AcDbEllipse
 10
15.32116289958475
 20
-0.000000000000001
 30
0.0
 11
0.8568323223625941
 21
0.5998353909838001
 31
0.0
210
0.0
220
0.0
230
1.0
 40
0.0164018109789438
 41
4.608827387870619
 42
4.650641720944283
1001
PE_URL
1000

  0
SPLINE
  5
CB
330
1F
100
AcDbEntity
  8
0
  6
Continuous
 62
     1
370
    25
100
AcDbSpline
210
0.0
220
0.0
230
1.0
 70
     8
 71
     3
 72
    10
 73
     6
 74
     0
 42
0.000000001
 43
0.00000001
 40
0.0
 40
0.0
 40
0.0
 40
0.0
 40
0.1264634314490417
 40
0.560067674369641
 40
1.0
 40
1.0
 40
1.0
 40
1.0
 10
14.66268974235556
 20
0.4901172161568881
 30
0.0
 10
14.68714390918317
 20
0.5018993214321664
 30
0.0
 10
14.7954438990446
 20
0.5540786449337789
 30
0.0
 10
14.9876065834212
 20
0.5999559000009246
 30
0.0
 10
15.15704117713372
 20
0.5967722099529311
 30
0.0
 10
15.24237218391439
 20
0.595168833268629
 30
0.0
1001
PE_URL
1000

  0
SPLINE
  5
CC
330
1F
100
AcDbEntity
  8
0
  6
Continuous
 62
     1
370
    25
100
AcDbSpline
210
0.0
220
0.0
230
1.0
 70
     8
 71
     3
 72
    14
 73
    10
 74
     0
 42
0.000000001
 43
0.00000001
 40
0.0
 40
0.0
 40
0.0
 40
0.0
 40
0.25
 40
0.25
 40
0.5
 40
0.5
 40
0.75
 40
0.75
 40
1.0
 40
1.0
 40
1.0
 40
1.0
 10
15.24237218392027
 20
0.5951688332680662
 30
0.0
 10
15.24022192033904
 20
0.534443920554723
 30
0.0
 10
15.22890791679492
 20
0.4742263565558136
 30
0.0
 10
15.17563228128212
 20
0.3697382723198318
 30
0.0
 10
15.13342839735851
 20
0.3304263190385135
 30
0.0
 10
15.03735689217982
 20
0.2977291892374608
 30
0.0
 10
14.98539842103232
 20
0.3033529284927485
 30
0.0
 10
14.89357492756644
 20
0.3458732080741246
 30
0.0
 10
14.85310520693423
 20
0.3822573307661873
 30
0.0
 10
14.82027419301257
 20
0.4271946589183008
 30
0.0
1001
PE_URL
1000

  0
SPLINE
  5
CD
330
1F
100
AcDbEntity
  8
0
  6
Continuous
 62
     1
370
    25
100
AcDbSpline
210
0.0
220
0.0
230
1.0
 70
     8
 71
     3
 72
    12
 73
     8
 74
     0
 42
0.000000001
 43
0.00000001
 40
0.0
 40
0.0
 40
0.0
 40
0.0
 40
0.106600917051299
 40
0.3762810097662293
 40
0.6440943053324322
 40
0.9137205246943892
 40
1.0
 40
1.0
 40
1.0
 40
1.0
 10
14.39527734613544
 20
0.5525237640858296
 30
0.0
 10
14.41039993323039
 20
0.5510174146567135
 30
0.0
 10
14.46377979617879
 20
0.5457002870003366
 30
0.0
 10
14.55412746951403
 20
0.5243064947822632
 30
0.0
 10
14.66890947664851
 20
0.4899102640320981
 30
0.0
 10
14.75763693668899
 20
0.4554540702873411
 30
0.0
 10
14.80805236836267
 20
0.4327086547529831
 30
0.0
 10
14.82027419301252
 20
0.4271946589183688
 30
0.0
1001
PE_URL
1000

  0
SPLINE
  5
CE
330
1F
100
AcDbEntity
  8
0
  6
Continuous
 62
     1
370
    25
100
AcDbSpline
210
0.0
220
0.0
230
1.0
 70
     8
 71
     3
 72
    14
 73
    10
 74
     0
 42
0.000000001
 43
0.00000001
 40
0.0
 40
0.0
 40
0.0
 40
0.0
 40
0.3137845140365275
 40
0.4837749290165027
 40
0.4852736380038121
 40
0.4972736001635872
 40
0.5307820784244656
 40
0.657795718301454
 40
1.0
 40
1.0
 40
1.0
 40
1.0
 10
14.390429792399
 20
-0.5502860980933156
 30
0.0
 10
14.29867449082426
 20
-0.571866959638702
 30
0.0
 10
14.15721144048061
 20
-0.605139091612108
 30
0.0
 10
14.01733759446491
 20
-0.5999378475989064
 30
0.0
 10
13.96414558533696
 20
-0.5948717313554653
 30
0.0
 10
13.95044969950458
 20
-0.5935115793854476
 30
0.0
 10
13.9002290537135
 20
-0.5875422719372961
 30
0.0
 10
13.75357392525778
 20
-0.5621464482694254
 30
0.0
 10
13.6174492128637
 20
-0.5044879642312616
 30
0.0
 10
13.51817240078068
 20
-0.4624371831190346
 30
0.0
  0
LINE
  5
CF
330
1F
100
AcDbEntity
  8
0
  6
Continuous
 62
     4
370
    25
100
AcDbLine
 10
13.51817240078565
 20
-0.3376357739399963
 30
0.0
 11
13.51817240078565
 21
-0.462437183121401
 31
0.0
  0
ELLIPSE
  5
D0
330
1F
100
AcDbEntity
  8
0
  6
Continuous
 62
     1
370
    25
100
AcDbEllipse
 10
15.32116289958475
 20
-0.0000000000000011
 30
0.0
 11
0.85641028729877
 21
0.04096475567912596
 31
0.0
210
0.0
220
0.0
230
1.0
 40
0.6989639771953237
 41
1.571697859232488
 42
1.629454984056022
1001
PE_URL
1000

  0
LINE
  5
D1
330
1F
100
AcDbEntity
  8
0
  6
Continuous
 62
     1
370
    25
100
AcDbLine
 10
15.27810910259882
 20
-0.0510414789782912
 30
0.0
 11
15.29175794111698
 21
0.5985627662110491
 31
0.0
1001
PE_URL
1000

  0
SPLINE
  5
D4
330
1F
100
AcDbEntity
  8
0
  6
Continuous
 62
     1
370
    25
100
AcDbSpline
210
0.0
220
0.0
230
1.0
 70
     8
 71
     3
 72
     8
 73
     4
 74
     0
 42
0.000000001
 43
0.00000001
 40
0.0
 40
0.0
 40
0.0
 40
0.0
 40
1.0
 40
1.0
 40
1.0
 40
1.0
 10
14.71769061807072
 20
0.4109589736328242
 30
0.0
 10
14.75251389083958
 20
0.4115002529412892
 30
0.0
 10
14.78672286085123
 20
0.416800249120035
 30
0.0
 10
14.82027419301254
 20
0.4271946589183643
 30
0.0
1001
PE_URL
1000

  0
SPLINE
  5
D6
330
1F
100
AcDbEntity
  8
0
  6
Continuous
 62
     1
370
    25
100
AcDbSpline
210
0.0
220
0.0
230
1.0
 70
     8
 71
     3
 72
     9
 73
     5
 74
     0
 42
0.000000001
 43
0.00000001
 40
0.0
 40
0.0
 40
0.0
 40
0.0
 40
0.8640951491504033
 40
1.0
 40
1.0
 40
1.0
 40
1.0
 10
13.51817240078068
 20
-0.535622945803737
 30
0.0
 10
13.62493436823532
 20
-0.5705273491752826
 30
0.0
 10
13.74848785370461
 20
-0.6109215157272698
 30
0.0
 10
13.8721033533315
 20
-0.5956518011818211
 30
0.0
 10
13.88890329937099
 20
-0.593576572904006
 30
0.0
  0
LINE
  5
D7
330
1F
100
AcDbEntity
  8
0
  6
Continuous
 62
     4
370
    25
100
AcDbLine
 10
13.51817240078564
 20
-0.5356229458038797
 30
0.0
 11
13.51817240078564
 21
-0.4624371831190346
 31
0.0
  0
LINE
  5
D9
330
1F
100
AcDbEntity
  8
0
  6
Continuous
 62
     1
370
    25
100
AcDbLine
 10
15.27810910259882
 20
-0.0510414789782912
 30
0.0
 11
15.29175794111698
 21
-0.5985627662110511
 31
0.0
1001
PE_URL
1000

  0
ELLIPSE
  5
DA
330
1F
100
AcDbEntity
  8
0
  6
Continuous
 62
     1
370
    25
100
AcDbEllipse
 10
15.23248352038111
 20
-0.0000000000000013
 30
0.0
 11
0.8568888040452656
 21
0.0
 31
0.0
210
0.0
220
0.0
230
1.0
 40
0.7002075382097122
 41
1.501567047225526
 42
1.570796326794897
1001
PE_URL
1000

  0
LINE
  5
DE
330
1F
100
AcDbEntity
  8
중심선
100
AcDbLine
 10
-37.68182759921436
 20
-0.0000000000000057
 30
0.0
 11
16.77951259564384
 21
0.000000000000001
 31
0.0
  0
CIRCLE
  5
DF
330
1F
100
AcDbEntity
  8
해칭선
100
AcDbCircle
 10
0.0
 20
0.0
 30
0.0
 40
3.000000000000003
  0
INSERT
  5
E0
330
1F
100
AcDbEntity
  8
0
  6
Continuous
 62
     7
100
AcDbBlockReference
 66
     1
  2
블럭10
 10
-27.51527293212521
 20
-52.04717430164394
 30
0.0
  0
ATTRIB
  5
E1
330
E0
100
AcDbEntity
  8
FORMAT
 62
     2
100
AcDbText
 10
-43.63453397156076
 20
-49.97180738881174
 30
0.0
 40
4.233333333333333
  1
SEME7301210E [ 4 FLUTE ]
 41
0.75
  7
SLDTEXTSTYLE0
 11
-43.63453397156076
 21
-52.08847405547841
 31
0.0
100
AcDbAttribute
  2
AUTOATTR0
 70
     0
 74
     1
  0
SEQEND
  5
E2
330
E0
100
AcDbEntity
  8
0
  6
Continuous
 62
     7
  0
HATCH
  5
E3
330
1F
100
AcDbEntity
  8
중심선
100
AcDbHatch
 10
0.0
 20
0.0
 30
0.0
210
0.0
220
0.0
230
1.0
  2
SOLID
 70
     1
 71
     0
 91
        1
 92
        0
 93
        4
 72
     1
 10
-21.80036362774436
 20
-35.8
 11
-25.24663887158164
 21
-35.8
 72
     1
 10
-25.24663887158164
 20
-35.8
 11
-27.37486873078567
 21
-38.3363255805726
 72
     1
 10
-27.37486873078567
 20
-38.3363255805726
 11
-23.92856040183523
 21
-38.33628615127011
 72
     1
 10
-23.92856040183523
 20
-38.33628615127011
 11
-21.80036362774436
 21
-35.8
 97
        0
 75
     0
 76
     1
 98
        1
 10
-1.875054920989813
 20
-0.0000000000000069
  0
HATCH
  5
E4
330
1F
100
AcDbEntity
  8
중심선
100
AcDbHatch
 10
0.0
 20
0.0
 30
0.0
210
0.0
220
0.0
230
1.0
  2
SOLID
 70
     1
 71
     0
 91
        1
 92
        0
 93
        4
 72
     1
 10
-16.78759963670838
 20
-35.79999999999998
 11
-20.23387488054569
 21
-35.80000000000003
 72
     1
 10
-20.23387488054569
 20
-35.80000000000003
 11
-24.76501288890308
 21
-41.20000000000002
 72
     1
 10
-24.76501288890308
 20
-41.20000000000002
 11
-21.3187376450658
 21
-41.20000000000002
 72
     1
 10
-21.3187376450658
 20
-41.20000000000002
 11
-16.78759963670838
 21
-35.79999999999998
 97
        0
 75
     0
 76
     1
 98
        1
 10
-1.875054920989813
 20
-0.0000000000000069
  0
HATCH
  5
E5
330
1F
100
AcDbEntity
  8
중심선
100
AcDbHatch
 10
0.0
 20
0.0
 30
0.0
210
0.0
220
0.0
230
1.0
  2
SOLID
 70
     1
 71
     0
 91
        1
 92
        0
 93
        4
 72
     1
 10
-11.77483564567251
 20
-35.79999999999998
 11
-15.22111088950966
 21
-35.80000000000003
 72
     1
 10
-15.22111088950966
 20
-35.80000000000003
 11
-22.26954779139888
 21
-44.20000000000002
 72
     1
 10
-22.26954779139888
 20
-44.20000000000002
 11
-18.8232725475616
 21
-44.20000000000002
 72
     1
 10
-18.8232725475616
 20
-44.20000000000002
 11
-11.77483564567251
 21
-35.79999999999998
 97
        0
 75
     0
 76
     1
 98
        1
 10
-1.875054920989813
 20
-0.0000000000000069
  0
HATCH
  5
E6
330
1F
100
AcDbEntity
  8
중심선
100
AcDbHatch
 10
0.0
 20
0.0
 30
0.0
210
0.0
220
0.0
230
1.0
  2
SOLID
 70
     1
 71
     0
 91
        1
 92
        0
 93
        6
 72
     3
 10
-6.974945214660314
 20
-40.00000000005128
 11
3.960054785062284
 21
1.540882976769353E-10
 40
0.3939339440162627
 50
17.09539180608436
 51
320.0019657685081
 73
     0
 72
     1
 10
-5.291945558959718
 20
-38.58789400463831
 11
-2.986643685258652
 21
-36.65356729459039
 72
     3
 10
-6.974945214713161
 20
-40.00000000000016
 11
6.600054785286829
 21
-1.278976924368180E-13
 40
0.636358354079598
 50
39.99873849337385
 51
368.4976242363724
 73
     1
 72
     1
 10
-0.5496127228125509
 20
-39.03999999993002
 11
-8.294877907877238
 21
-39.03999999993002
 72
     1
 10
-8.294877907877238
 20
-39.03999999993002
 11
-8.29490295232317
 21
-40.95999999992992
 72
     1
 10
-8.294902952323172
 20
-40.95999999992992
 11
-3.853523182851135
 21
-40.95999999992989
 97
        0
 75
     0
 76
     1
 98
        1
 10
-1.875054920989813
 20
-0.0000000000000069
  0
DIMENSION
  5
E7
330
1F
100
AcDbEntity
  8
치수문자_일반주서
100
AcDbDimension
  2
_D
 10
29.71176211136733
 20
0.6000000000000547
 30
0.0
 11
29.7117621113673
 21
11.57900000000006
 31
0.0
 70
   160
  1
%%c<>
 71
     2
 42
1.200000000000008
 52
-270.0
  3
SLDDIMSTYLE0
100
AcDbAlignedDimension
 13
15.31817240078565
 23
-0.600000000000006
 33
0.0
 14
15.31817240078565
 24
0.6000000000000015
 34
0.0
 50
90.0000000000002
100
AcDbRotatedDimension
  0
DIMENSION
  5
F5
330
1F
100
AcDbEntity
  8
치수문자_일반주서
100
AcDbDimension
  2
_D_1
 10
15.31817240078565
 20
36.00000000000003
 30
0.0
 11
-9.681827599214355
 21
36.00000000000003
 31
0.0
 70
   160
  1
<>
 71
     2
 42
50.0
  3
SLDDIMSTYLE1
100
AcDbAlignedDimension
 13
-34.68182759921436
 23
1.499999999999991
 33
0.0
 14
15.31817240078565
 24
-0.0600000000000011
 34
0.0
100
AcDbRotatedDimension
  0
DIMENSION
  5
100
330
1F
100
AcDbEntity
  8
치수문자_일반주서
100
AcDbDimension
  2
_D_2
 10
-48.17446716083425
 20
-2.000000000000056
 30
0.0
 11
-48.17446716083425
 21
-0.7264638992031106
 31
0.0
 70
   160
  1
%%c<>
 71
     2
 42
3.999999999999976
 52
-270.0
  3
SLDDIMSTYLE2
100
AcDbAlignedDimension
 13
-34.18182759921437
 23
1.999999999999973
 33
0.0
 14
-34.18182759921437
 24
-2.000000000000004
 34
0.0
 50
90.0000000000002
100
AcDbRotatedDimension
  0
DIMENSION
  5
10E
330
1F
100
AcDbEntity
  8
치수문자_일반주서
100
AcDbDimension
  2
_D_3
 10
15.31817240078565
 20
17.30540249018987
 30
0.0
 11
26.07842240078564
 21
17.30540249018987
 31
0.0
 70
   160
  1
<>
 71
     2
 42
1.800000000000001
  3
SLDDIMSTYLE3
100
AcDbAlignedDimension
 13
13.51817240078565
 23
0.5356229458249189
 33
0.0
 14
15.31817240078565
 24
0.0020196157201173
 34
0.0
 50
-0.0000000000002262
100
AcDbRotatedDimension
  0
DIMENSION
  5
11B
330
1F
100
AcDbEntity
  8
치수문자_일반주서
100
AcDbDimension
  2
_D_4
 10
5.318172400785641
 20
25.29678198861814
 30
0.0
 11
12.45296577697865
 21
25.29678198861814
 31
0.0
 70
   160
  1
<>
 71
     2
 42
10.0
  3
SLDDIMSTYLE2
100
AcDbAlignedDimension
 13
15.31817240078565
 23
0.5969924622639704
 33
0.0
 14
5.318172400785641
 24
0.5749999999999968
 34
0.0
100
AcDbRotatedDimension
  0
INSERT
  5
12D
330
1F
100
AcDbEntity
  8
해칭선
100
AcDbBlockReference
  2
SW_DOWELSYMBOL_0
 10
-0.0000000000000018
 20
-0.0000000000000035
 30
0.0
  0
ENDSEC
  0
SECTION
  2
OBJECTS
  0
DICTIONARY
  5
C
330
0
100
AcDbDictionary
281
     1
  3
ACAD_GROUP
350
D
  3
ACAD_LAYOUT
350
1A
  3
ACAD_MLINESTYLE
350
17
  3
ACAD_PLOTSETTINGS
350
19
  3
ACAD_PLOTSTYLENAME
350
E
  3
ACAD_SCALELIST
350
47
  3
APPDATA
350
14F
  3
DWGPROPS
350
184
  0
DICTIONARY
  5
182
330
1F
100
AcDbDictionary
280
     1
281
     1
  3
DIM_BOUNDING_BOXES_V1
360
183
  0
DICTIONARY
  5
D
102
{ACAD_REACTORS
330
C
102
}
330
C
100
AcDbDictionary
281
     1
  0
DICTIONARY
  5
1A
102
{ACAD_REACTORS
330
C
102
}
330
C
100
AcDbDictionary
281
     1
  3
Layout1
350
1E
  3
Layout2
350
26
  3
Model
350
22
  0
DICTIONARY
  5
17
102
{ACAD_REACTORS
330
C
102
}
330
C
100
AcDbDictionary
281
     1
  3
Standard
350
18
  0
DICTIONARY
  5
19
102
{ACAD_REACTORS
330
C
102
}
330
C
100
AcDbDictionary
281
     1
  0
ACDBDICTIONARYWDFLT
  5
E
102
{ACAD_REACTORS
330
C
102
}
330
C
100
AcDbDictionary
281
     1
  3
Normal
350
F
100
AcDbDictionaryWithDefault
340
F
  0
DICTIONARY
  5
47
102
{ACAD_REACTORS
330
C
102
}
330
C
100
AcDbDictionary
281
     1
  3
A0
350
48
  3
A1
350
49
  3
A2
350
4A
  3
A3
350
4B
  3
A4
350
4C
  3
A5
350
4D
  3
A6
350
4E
  3
A7
350
4F
  3
A8
350
50
  3
A9
350
51
  3
B0
350
52
  3
B1
350
53
  3
B2
350
54
  3
B3
350
55
  3
B4
350
56
  3
B5
350
57
  3
B6
350
58
  3
B7
350
59
  3
B8
350
5A
  3
B9
350
5B
  3
C0
350
5C
  3
C1
350
5D
  3
C2
350
5E
  3
C3
350
5F
  3
C4
350
60
  3
C5
350
61
  3
C6
350
62
  3
C7
350
63
  3
C8
350
64
  3
C9
350
65
  3
D0
350
66
  3
D1
350
67
  3
D2
350
68
  0
DICTIONARY
  5
14F
102
{ACAD_REACTORS
330
C
102
}
330
C
100
AcDbDictionary
281
     1
  0
XRECORD
  5
184
102
{ACAD_REACTORS
330
C
102
}
330
C
100
AcDbXrecord
280
     1
  1
DWGPROPS COOKIE
  2

  3

  4

  6

  7

  8
12016016
  9

300
=
301
=
302
=
303
=
304
=
305
=
306
=
307
=
308
=
309
=
 40
0.0
 41
2458260.399023461
 42
2459677.373945891
  1

 90
        0
  0
DICTIONARY
  5
183
102
{ACAD_REACTORS
330
182
102
}
330
182
100
AcDbDictionary
281
     1
  0
LAYOUT
  5
1E
102
{ACAD_REACTORS
330
1A
102
}
330
1A
100
AcDbPlotSettings
  1

  2
none_device
  4

  6

 40
0.0
 41
0.0
 42
0.0
 43
0.0
 44
0.0
 45
0.0
 46
0.0
 47
0.0
 48
0.0
 49
0.0
140
0.0
141
0.0
142
1.0
143
1.0
 70
   688
 72
     1
 73
     0
 74
     5
  7

 75
    16
147
1.0
148
0.0
149
0.0
100
AcDbLayout
  1
Layout1
 70
     1
 71
     1
 10
0.0
 20
0.0
 11
420.0
 21
297.0
 12
0.0
 22
0.0
 32
0.0
 14
1.000000000000000E+20
 24
1.000000000000000E+20
 34
1.000000000000000E+20
 15
-1.000000000000000E+20
 25
-1.000000000000000E+20
 35
-1.000000000000000E+20
146
0.0
 13
0.0
 23
0.0
 33
0.0
 16
1.0
 26
0.0
 36
0.0
 17
0.0
 27
1.0
 37
0.0
 76
     0
330
1B
  0
LAYOUT
  5
26
102
{ACAD_REACTORS
330
1A
102
}
330
1A
100
AcDbPlotSettings
  1

  2
none_device
  4

  6

 40
0.0
 41
0.0
 42
0.0
 43
0.0
 44
0.0
 45
0.0
 46
0.0
 47
0.0
 48
0.0
 49
0.0
140
0.0
141
0.0
142
1.0
143
1.0
 70
   688
 72
     1
 73
     0
 74
     5
  7

 75
    16
147
1.0
148
0.0
149
0.0
100
AcDbLayout
  1
Layout2
 70
     1
 71
     2
 10
0.0
 20
0.0
 11
0.0
 21
0.0
 12
0.0
 22
0.0
 32
0.0
 14
0.0
 24
0.0
 34
0.0
 15
0.0
 25
0.0
 35
0.0
146
0.0
 13
0.0
 23
0.0
 33
0.0
 16
1.0
 26
0.0
 36
0.0
 17
0.0
 27
1.0
 37
0.0
 76
     0
330
23
  0
LAYOUT
  5
22
102
{ACAD_REACTORS
330
1A
102
}
330
1A
100
AcDbPlotSettings
  1

  2
none_device
  4
ANSI_A_(11.00_x_8.50_Inches)
  6

 40
6.35
 41
19.05
 42
6.35000508
 43
19.05000254
 44
279.4
 45
215.9
 46
162.2260605084696
 47
100.8537443875621
 48
0.0
 49
0.0
140
0.0
141
0.0
142
0.0922419125129433
143
1.0
 70
  1696
 72
     0
 73
     0
 74
     0
  7

 75
     0
147
0.0235690232323232
148
0.0
149
0.0
100
AcDbLayout
  1
Model
 70
     1
 71
     0
 10
0.0
 20
0.0
 11
420.0
 21
297.0
 12
0.0
 22
0.0
 32
0.0
 14
-52.54946716083427
 24
-49.97180738881174
 34
0.0
 15
30.26209544470068
 25
40.37500000000003
 35
0.0
146
0.0
 13
0.0
 23
0.0
 33
0.0
 16
1.0
 26
0.0
 36
0.0
 17
0.0
 27
1.0
 37
0.0
 76
     0
330
1F
331
29
  0
MLINESTYLE
  5
18
102
{ACAD_REACTORS
330
17
102
}
330
17
100
AcDbMlineStyle
  2
Standard
 70
     0
  3

 62
   256
 51
90.0
 52
90.0
 71
     2
 49
0.5
 62
   256
  6
BYLAYER
 49
-0.5
 62
   256
  6
BYLAYER
  0
ACDBPLACEHOLDER
  5
F
102
{ACAD_REACTORS
330
E
102
}
330
E
  0
SCALE
  5
48
102
{ACAD_REACTORS
330
47
102
}
330
47
100
AcDbScale
 70
     0
300
1:1
140
1.0
141
1.0
290
     1
  0
SCALE
  5
49
102
{ACAD_REACTORS
330
47
102
}
330
47
100
AcDbScale
 70
     0
300
1:2
140
1.0
141
2.0
290
     0
  0
SCALE
  5
4A
102
{ACAD_REACTORS
330
47
102
}
330
47
100
AcDbScale
 70
     0
300
1:4
140
1.0
141
4.0
290
     0
  0
SCALE
  5
4B
102
{ACAD_REACTORS
330
47
102
}
330
47
100
AcDbScale
 70
     0
300
1:5
140
1.0
141
5.0
290
     0
  0
SCALE
  5
4C
102
{ACAD_REACTORS
330
47
102
}
330
47
100
AcDbScale
 70
     0
300
1:8
140
1.0
141
8.0
290
     0
  0
SCALE
  5
4D
102
{ACAD_REACTORS
330
47
102
}
330
47
100
AcDbScale
 70
     0
300
1:10
140
1.0
141
10.0
290
     0
  0
SCALE
  5
4E
102
{ACAD_REACTORS
330
47
102
}
330
47
100
AcDbScale
 70
     0
300
1:16
140
1.0
141
16.0
290
     0
  0
SCALE
  5
4F
102
{ACAD_REACTORS
330
47
102
}
330
47
100
AcDbScale
 70
     0
300
1:20
140
1.0
141
20.0
290
     0
  0
SCALE
  5
50
102
{ACAD_REACTORS
330
47
102
}
330
47
100
AcDbScale
 70
     0
300
1:30
140
1.0
141
30.0
290
     0
  0
SCALE
  5
51
102
{ACAD_REACTORS
330
47
102
}
330
47
100
AcDbScale
 70
     0
300
1:40
140
1.0
141
40.0
290
     0
  0
SCALE
  5
52
102
{ACAD_REACTORS
330
47
102
}
330
47
100
AcDbScale
 70
     0
300
1:50
140
1.0
141
50.0
290
     0
  0
SCALE
  5
53
102
{ACAD_REACTORS
330
47
102
}
330
47
100
AcDbScale
 70
     0
300
1:100
140
1.0
141
100.0
290
     0
  0
SCALE
  5
54
102
{ACAD_REACTORS
330
47
102
}
330
47
100
AcDbScale
 70
     0
300
2:1
140
2.0
141
1.0
290
     0
  0
SCALE
  5
55
102
{ACAD_REACTORS
330
47
102
}
330
47
100
AcDbScale
 70
     0
300
4:1
140
4.0
141
1.0
290
     0
  0
SCALE
  5
56
102
{ACAD_REACTORS
330
47
102
}
330
47
100
AcDbScale
 70
     0
300
8:1
140
8.0
141
1.0
290
     0
  0
SCALE
  5
57
102
{ACAD_REACTORS
330
47
102
}
330
47
100
AcDbScale
 70
     0
300
10:1
140
10.0
141
1.0
290
     0
  0
SCALE
  5
58
102
{ACAD_REACTORS
330
47
102
}
330
47
100
AcDbScale
 70
     0
300
100:1
140
100.0
141
1.0
290
     0
  0
SCALE
  5
59
102
{ACAD_REACTORS
330
47
102
}
330
47
100
AcDbScale
 70
     0
300
1/128" = 1'-0"
140
0.0078125
141
12.0
290
     0
  0
SCALE
  5
5A
102
{ACAD_REACTORS
330
47
102
}
330
47
100
AcDbScale
 70
     0
300
1/64" = 1'-0"
140
0.015625
141
12.0
290
     0
  0
SCALE
  5
5B
102
{ACAD_REACTORS
330
47
102
}
330
47
100
AcDbScale
 70
     0
300
1/32" = 1'-0"
140
0.03125
141
12.0
290
     0
  0
SCALE
  5
5C
102
{ACAD_REACTORS
330
47
102
}
330
47
100
AcDbScale
 70
     0
300
1/16" = 1'-0"
140
0.0625
141
12.0
290
     0
  0
SCALE
  5
5D
102
{ACAD_REACTORS
330
47
102
}
330
47
100
AcDbScale
 70
     0
300
3/32" = 1'-0"
140
0.09375
141
12.0
290
     0
  0
SCALE
  5
5E
102
{ACAD_REACTORS
330
47
102
}
330
47
100
AcDbScale
 70
     0
300
1/8" = 1'-0"
140
0.125
141
12.0
290
     0
  0
SCALE
  5
5F
102
{ACAD_REACTORS
330
47
102
}
330
47
100
AcDbScale
 70
     0
300
3/16" = 1'-0"
140
0.1875
141
12.0
290
     0
  0
SCALE
  5
60
102
{ACAD_REACTORS
330
47
102
}
330
47
100
AcDbScale
 70
     0
300
1/4" = 1'-0"
140
0.25
141
12.0
290
     0
  0
SCALE
  5
61
102
{ACAD_REACTORS
330
47
102
}
330
47
100
AcDbScale
 70
     0
300
3/8" = 1'-0"
140
0.375
141
12.0
290
     0
  0
SCALE
  5
62
102
{ACAD_REACTORS
330
47
102
}
330
47
100
AcDbScale
 70
     0
300
1/2" = 1'-0"
140
0.5
141
12.0
290
     0
  0
SCALE
  5
63
102
{ACAD_REACTORS
330
47
102
}
330
47
100
AcDbScale
 70
     0
300
3/4" = 1'-0"
140
0.75
141
12.0
290
     0
  0
SCALE
  5
64
102
{ACAD_REACTORS
330
47
102
}
330
47
100
AcDbScale
 70
     0
300
1" = 1'-0"
140
1.0
141
12.0
290
     0
  0
SCALE
  5
65
102
{ACAD_REACTORS
330
47
102
}
330
47
100
AcDbScale
 70
     0
300
1-1/2" = 1'-0"
140
1.5
141
12.0
290
     0
  0
SCALE
  5
66
102
{ACAD_REACTORS
330
47
102
}
330
47
100
AcDbScale
 70
     0
300
3" = 1'-0"
140
3.0
141
12.0
290
     0
  0
SCALE
  5
67
102
{ACAD_REACTORS
330
47
102
}
330
47
100
AcDbScale
 70
     0
300
6" = 1'-0"
140
6.0
141
12.0
290
     0
  0
SCALE
  5
68
102
{ACAD_REACTORS
330
47
102
}
330
47
100
AcDbScale
 70
     0
300
1'-0" = 1'-0"
140
12.0
141
12.0
290
     0
  0
ENDSEC
  0
EOF
