  0
SECTION
  2
HEADER
  9
$ACADVER
  1
AC1015
  9
$ACADMAINTVER
 70
     6
  9
$DWGCODEPAGE
  3
ANSI_949
  9
$INSBASE
 10
0.0
 20
0.0
 30
0.0
  9
$EXTMIN
 10
-56.54946716083424
 20
-49.97180738881174
 30
0.0
  9
$EXTMAX
 10
26.23467240078564
 20
40.37500000000003
 30
0.0
  9
$LIMMIN
 10
0.0
 20
0.0
  9
$LIMMAX
 10
420.0
 20
297.0
  9
$ORTHOMODE
 70
     1
  9
$REGENMODE
 70
     1
  9
$FILLMODE
 70
     1
  9
$QTEXTMODE
 70
     0
  9
$MIRRTEXT
 70
     1
  9
$LTSCALE
 40
1.0
  9
$ATTMODE
 70
     1
  9
$TEXTSIZE
 40
3.5
  9
$TRACEWID
 40
1.0
  9
$TEXTSTYLE
  7
Standard
  9
$CLAYER
  8
0
  9
$CELTYPE
  6
ByLayer
  9
$CECOLOR
 62
   256
  9
$CELTSCALE
 40
1.0
  9
$DISPSILH
 70
     0
  9
$DIMSCALE
 40
1.0
  9
$DIMASZ
 40
3.302
  9
$DIMEXO
 40
1.0
  9
$DIMDLI
 40
3.75
  9
$DIMRND
 40
0.0
  9
$DIMDLE
 40
0.0
  9
$DIMEXE
 40
1.0
  9
$DIMTP
 40
0.0
  9
$DIMTM
 40
0.0
  9
$DIMTXT
 40
3.5
  9
$DIMCEN
 40
2.5
  9
$DIMTSZ
 40
0.0
  9
$DIMTOL
 70
     0
  9
$DIMLIM
 70
     0
  9
$DIMTIH
 70
     1
  9
$DIMTOH
 70
     1
  9
$DIMSE1
 70
     0
  9
$DIMSE2
 70
     0
  9
$DIMTAD
 70
     1
  9
$DIMZIN
 70
     0
  9
$DIMBLK
  1

  9
$DIMASO
 70
     1
  9
$DIMSHO
 70
     1
  9
$DIMPOST
  1

  9
$DIMAPOST
  1

  9
$DIMALT
 70
     0
  9
$DIMALTD
 70
     3
  9
$DIMALTF
 40
0.0393700787401575
  9
$DIMLFAC
 40
1.0
  9
$DIMTOFL
 70
     1
  9
$DIMTVP
 40
0.0
  9
$DIMTIX
 70
     0
  9
$DIMSOXD
 70
     0
  9
$DIMSAH
 70
     0
  9
$DIMBLK1
  1

  9
$DIMBLK2
  1

  9
$DIMSTYLE
  2
ISO-25
  9
$DIMCLRD
 70
     0
  9
$DIMCLRE
 70
     0
  9
$DIMCLRT
 70
     0
  9
$DIMTFAC
 40
1.0
  9
$DIMGAP
 40
1.524
  9
$DIMJUST
 70
     0
  9
$DIMSD1
 70
     0
  9
$DIMSD2
 70
     0
  9
$DIMTOLJ
 70
     0
  9
$DIMTZIN
 70
     0
  9
$DIMALTZ
 70
     0
  9
$DIMALTTZ
 70
     0
  9
$DIMUPT
 70
     0
  9
$DIMDEC
 70
     2
  9
$DIMTDEC
 70
     2
  9
$DIMALTU
 70
     2
  9
$DIMALTTD
 70
     3
  9
$DIMTXSTY
  7
Standard
  9
$DIMAUNIT
 70
     0
  9
$DIMADEC
 70
     2
  9
$DIMALTRND
 40
0.0
  9
$DIMAZIN
 70
     0
  9
$DIMDSEP
 70
    44
  9
$DIMATFIT
 70
     3
  9
$DIMFRAC
 70
     0
  9
$DIMLDRBLK
  1

  9
$DIMLUNIT
 70
     2
  9
$DIMLWD
 70
    -2
  9
$DIMLWE
 70
    -2
  9
$DIMTMOVE
 70
     0
  9
$LUNITS
 70
     2
  9
$LUPREC
 70
     2
  9
$SKETCHINC
 40
1.0
  9
$FILLETRAD
 40
10.0
  9
$AUNITS
 70
     0
  9
$AUPREC
 70
     2
  9
$MENU
  1
.
  9
$ELEVATION
 40
0.0
  9
$PELEVATION
 40
0.0
  9
$THICKNESS
 40
0.0
  9
$LIMCHECK
 70
     0
  9
$CHAMFERA
 40
0.0
  9
$CHAMFERB
 40
0.0
  9
$CHAMFERC
 40
0.0
  9
$CHAMFERD
 40
0.0
  9
$SKPOLY
 70
     0
  9
$TDCREATE
 40
2458260.773645359
  9
$TDUCREATE
 40
2458260.398645359
  9
$TDUPDATE
 40
2459677.748139016
  9
$TDUUPDATE
 40
2459677.373139016
  9
$TDINDWG
 40
0.0016457523
  9
$TDUSRTIMER
 40
0.0004390509
  9
$USRTIMER
 70
     1
  9
$ANGBASE
 50
0.0
  9
$ANGDIR
 70
     0
  9
$PDMODE
 70
     0
  9
$PDSIZE
 40
-1.0
  9
$PLINEWID
 40
0.0
  9
$SPLFRAME
 70
     0
  9
$SPLINETYPE
 70
     6
  9
$SPLINESEGS
 70
     8
  9
$HANDSEED
  5
185
  9
$SURFTAB1
 70
     6
  9
$SURFTAB2
 70
     6
  9
$SURFTYPE
 70
     6
  9
$SURFU
 70
     6
  9
$SURFV
 70
     6
  9
$UCSBASE
  2

  9
$UCSNAME
  2

  9
$UCSORG
 10
0.0
 20
0.0
 30
0.0
  9
$UCSXDIR
 10
1.0
 20
0.0
 30
0.0
  9
$UCSYDIR
 10
0.0
 20
1.0
 30
0.0
  9
$UCSORTHOREF
  2

  9
$UCSORTHOVIEW
 70
     0
  9
$UCSORGTOP
 10
0.0
 20
0.0
 30
0.0
  9
$UCSORGBOTTOM
 10
0.0
 20
0.0
 30
0.0
  9
$UCSORGLEFT
 10
0.0
 20
0.0
 30
0.0
  9
$UCSORGRIGHT
 10
0.0
 20
0.0
 30
0.0
  9
$UCSORGFRONT
 10
0.0
 20
0.0
 30
0.0
  9
$UCSORGBACK
 10
0.0
 20
0.0
 30
0.0
  9
$PUCSBASE
  2

  9
$PUCSNAME
  2

  9
$PUCSORG
 10
0.0
 20
0.0
 30
0.0
  9
$PUCSXDIR
 10
1.0
 20
0.0
 30
0.0
  9
$PUCSYDIR
 10
0.0
 20
1.0
 30
0.0
  9
$PUCSORTHOREF
  2

  9
$PUCSORTHOVIEW
 70
     0
  9
$PUCSORGTOP
 10
0.0
 20
0.0
 30
0.0
  9
$PUCSORGBOTTOM
 10
0.0
 20
0.0
 30
0.0
  9
$PUCSORGLEFT
 10
0.0
 20
0.0
 30
0.0
  9
$PUCSORGRIGHT
 10
0.0
 20
0.0
 30
0.0
  9
$PUCSORGFRONT
 10
0.0
 20
0.0
 30
0.0
  9
$PUCSORGBACK
 10
0.0
 20
0.0
 30
0.0
  9
$USERI1
 70
     0
  9
$USERI2
 70
     0
  9
$USERI3
 70
     0
  9
$USERI4
 70
     0
  9
$USERI5
 70
     0
  9
$USERR1
 40
0.0
  9
$USERR2
 40
0.0
  9
$USERR3
 40
0.0
  9
$USERR4
 40
0.0
  9
$USERR5
 40
0.0
  9
$WORLDVIEW
 70
     1
  9
$SHADEDGE
 70
     3
  9
$SHADEDIF
 70
    70
  9
$TILEMODE
 70
     1
  9
$MAXACTVP
 70
    64
  9
$PINSBASE
 10
0.0
 20
0.0
 30
0.0
  9
$PLIMCHECK
 70
     0
  9
$PEXTMIN
 10
1.000000000000000E+20
 20
1.000000000000000E+20
 30
1.000000000000000E+20
  9
$PEXTMAX
 10
-1.000000000000000E+20
 20
-1.000000000000000E+20
 30
-1.000000000000000E+20
  9
$PLIMMIN
 10
0.0
 20
0.0
  9
$PLIMMAX
 10
0.0
 20
0.0
  9
$UNITMODE
 70
     0
  9
$VISRETAIN
 70
     1
  9
$PLINEGEN
 70
     0
  9
$PSLTSCALE
 70
     1
  9
$TREEDEPTH
 70
  3020
  9
$CMLSTYLE
  2
Standard
  9
$CMLJUST
 70
     0
  9
$CMLSCALE
 40
20.0
  9
$PROXYGRAPHICS
 70
     1
  9
$MEASUREMENT
 70
     1
  9
$CELWEIGHT
370
    -1
  9
$ENDCAPS
280
     0
  9
$JOINSTYLE
280
     0
  9
$LWDISPLAY
290
     1
  9
$INSUNITS
 70
     4
  9
$HYPERLINKBASE
  1

  9
$STYLESHEET
  1

  9
$XEDIT
290
     1
  9
$CEPSNTYPE
380
     0
  9
$PSTYLEMODE
290
     1
  9
$FINGERPRINTGUID
  2
{39F98EB3-4D17-4B71-8F47-8B8E72A0325D}
  9
$VERSIONGUID
  2
{FAEB1C32-E019-11D5-929B-00C0DF256EC4}
  9
$EXTNAMES
290
     1
  9
$PSVPSCALE
 40
0.0
  9
$OLESTARTUP
290
     0
  0
ENDSEC
  0
SECTION
  2
CLASSES
  0
CLASS
  1
ACDBDICTIONARYWDFLT
  2
AcDbDictionaryWithDefault
  3
ObjectDBX Classes
 90
        0
280
     0
281
     0
  0
CLASS
  1
VISUALSTYLE
  2
AcDbVisualStyle
  3
ObjectDBX Classes
 90
     4095
280
     0
281
     0
  0
CLASS
  1
MATERIAL
  2
AcDbMaterial
  3
ObjectDBX Classes
 90
     1153
280
     0
281
     0
  0
CLASS
  1
SCALE
  2
AcDbScale
  3
ObjectDBX Classes
 90
     1153
280
     0
281
     0
  0
CLASS
  1
TABLESTYLE
  2
AcDbTableStyle
  3
ObjectDBX Classes
 90
     4095
280
     0
281
     0
  0
CLASS
  1
MLEADERSTYLE
  2
AcDbMLeaderStyle
  3
ACDB_MLEADERSTYLE_CLASS
 90
     4095
280
     0
281
     0
  0
CLASS
  1
SUN
  2
AcDbSun
  3
SCENEOE
 90
     1153
280
     0
281
     0
  0
CLASS
  1
ACDBPLACEHOLDER
  2
AcDbPlaceHolder
  3
ObjectDBX Classes
 90
        0
280
     0
281
     0
  0
CLASS
  1
LAYOUT
  2
AcDbLayout
  3
ObjectDBX Classes
 90
        0
280
     0
281
     0
  0
ENDSEC
  0
SECTION
  2
TABLES
  0
TABLE
  2
VPORT
  5
8
330
0
100
AcDbSymbolTable
 70
     1
  0
VPORT
  5
29
330
8
100
AcDbSymbolTableRecord
100
AcDbViewportTableRecord
  2
*Active
 70
     0
 10
0.0
 20
0.0
 11
1.0
 21
1.0
 12
-18.96869680916564
 22
-2.371925388728819
 13
0.0
 23
0.0
 14
10.0
 24
10.0
 15
10.0
 25
10.0
 16
0.0
 26
0.0
 36
1.0
 17
0.0
 27
0.0
 37
0.0
 40
28.21919331799723
 41
1.531481481481481
 42
50.0
 43
0.0
 44
0.0
 50
0.0
 51
0.0
 71
    16
 72
  2000
 73
     1
 74
     3
 75
     0
 76
     0
 77
     0
 78
     0
281
     0
 65
     1
110
0.0
120
0.0
130
0.0
111
1.0
121
0.0
131
0.0
112
0.0
122
1.0
132
0.0
 79
     0
146
0.0
  0
ENDTAB
  0
TABLE
  2
LTYPE
  5
5
330
0
100
AcDbSymbolTable
 70
     6
  0
LTYPE
  5
14
330
5
100
AcDbSymbolTableRecord
100
AcDbLinetypeTableRecord
  2
ByBlock
 70
     0
  3

 72
    65
 73
     0
 40
0.0
  0
LTYPE
  5
15
330
5
100
AcDbSymbolTableRecord
100
AcDbLinetypeTableRecord
  2
ByLayer
 70
     0
  3

 72
    65
 73
     0
 40
0.0
  0
LTYPE
  5
16
330
5
100
AcDbSymbolTableRecord
100
AcDbLinetypeTableRecord
  2
Continuous
 70
     0
  3
Solid line
 72
    65
 73
     0
 40
0.0
  0
LTYPE
  5
6E
330
5
100
AcDbSymbolTableRecord
100
AcDbLinetypeTableRecord
  2
HIDDEN
 70
     0
  3
Hidden __ __ __ __ __ __ __ __ __ __ __ __ __ __
 72
    65
 73
     2
 40
1.905
 49
1.27
 74
     0
 49
-0.635
 74
     0
  0
LTYPE
  5
6F
330
5
100
AcDbSymbolTableRecord
100
AcDbLinetypeTableRecord
  2
PHANTOM
 70
     0
  3
Phantom ______  __  __  ______  __  __  ______
 72
    65
 73
     6
 40
12.7
 49
6.35
 74
     0
 49
-1.27
 74
     0
 49
1.27
 74
     0
 49
-1.27
 74
     0
 49
1.27
 74
     0
 49
-1.27
 74
     0
  0
LTYPE
  5
70
330
5
100
AcDbSymbolTableRecord
100
AcDbLinetypeTableRecord
  2
CENTER
 70
     0
  3
Center ____ _ ____ _ ____ _ ____ _ ____ _ ____
 72
    65
 73
     4
 40
10.16
 49
6.35
 74
     0
 49
-1.27
 74
     0
 49
1.27
 74
     0
 49
-1.27
 74
     0
  0
LTYPE
  5
71
330
5
100
AcDbSymbolTableRecord
100
AcDbLinetypeTableRecord
  2
CENTERX2
 70
     0
  3
Center (2x) ________  __  ________  __  _____
 72
    65
 73
     4
 40
20.32
 49
12.7
 74
     0
 49
-2.54
 74
     0
 49
2.54
 74
     0
 49
-2.54
 74
     0
  0
LTYPE
  5
72
330
5
100
AcDbSymbolTableRecord
100
AcDbLinetypeTableRecord
  2
DOT2
 70
     0
  3
Dot (.5x) ........................................
 72
    65
 73
     2
 40
0.635
 49
0.0
 74
     0
 49
-0.635
 74
     0
  0
ENDTAB
  0
TABLE
  2
LAYER
  5
2
330
0
100
AcDbSymbolTable
 70
    17
  0
LAYER
  5
10
330
2
100
AcDbSymbolTableRecord
100
AcDbLayerTableRecord
  2
0
 70
     0
 62
     7
  6
Continuous
370
    -3
390
F
  0
LAYER
  5
73
330
2
100
AcDbSymbolTableRecord
100
AcDbLayerTableRecord
  2
FORMAT
 70
     0
 62
     2
  6
Continuous
370
    -3
390
F
  0
LAYER
  5
74
330
2
100
AcDbSymbolTableRecord
100
AcDbLayerTableRecord
  2
외형선
 70
     0
 62
   100
  6
Continuous
370
    35
390
F
  0
LAYER
  5
75
330
2
100
AcDbSymbolTableRecord
100
AcDbLayerTableRecord
  2
숨은선
 70
     0
 62
     2
  6
HIDDEN
370
    25
390
F
  0
LAYER
  5
76
330
2
100
AcDbSymbolTableRecord
100
AcDbLayerTableRecord
  2
중심선
 70
     0
 62
     1
  6
CENTERX2
370
    -3
390
F
  0
LAYER
  5
77
330
2
100
AcDbSymbolTableRecord
100
AcDbLayerTableRecord
  2
파단선
 70
     0
 62
     4
  6
Continuous
370
    -3
390
F
  0
LAYER
  5
78
330
2
100
AcDbSymbolTableRecord
100
AcDbLayerTableRecord
  2
해칭선
 70
     0
 62
   100
  6
Continuous
370
    -3
390
F
  0
LAYER
  5
79
330
2
100
AcDbSymbolTableRecord
100
AcDbLayerTableRecord
  2
가는실선
 70
     0
 62
     4
  6
Continuous
370
    -3
390
F
  0
LAYER
  5
7A
330
2
100
AcDbSymbolTableRecord
100
AcDbLayerTableRecord
  2
치수_보조선
 70
     0
 62
     4
  6
Continuous
370
    -3
390
F
  0
LAYER
  5
7B
330
2
100
AcDbSymbolTableRecord
100
AcDbLayerTableRecord
  2
치수문자_일반주서
 70
     0
 62
     7
  6
Continuous
370
    25
390
F
  0
LAYER
  5
7C
330
2
100
AcDbSymbolTableRecord
100
AcDbLayerTableRecord
  2
개별주서
 70
     0
 62
   100
  6
Continuous
370
    35
390
F
  0
LAYER
  5
7D
330
2
100
AcDbSymbolTableRecord
100
AcDbLayerTableRecord
  2
중간선
 70
     0
 62
     2
  6
Continuous
370
    25
390
F
  0
LAYER
  5
7E
330
2
100
AcDbSymbolTableRecord
100
AcDbLayerTableRecord
  2
윤곽선
 70
     0
 62
     3
  6
Continuous
370
    50
390
F
  0
LAYER
  5
7F
330
2
100
AcDbSymbolTableRecord
100
AcDbLayerTableRecord
  2
중심마크
 70
     0
 62
   100
  6
Continuous
370
    35
390
F
  0
LAYER
  5
80
330
2
100
AcDbSymbolTableRecord
100
AcDbLayerTableRecord
  2
가상선
 70
     0
 62
     4
  6
PHANTOM
370
    -3
390
F
  0
LAYER
  5
81
330
2
100
AcDbSymbolTableRecord
100
AcDbLayerTableRecord
  2
특수지정선
 70
     0
 62
     5
  6
CENTERX2
370
    70
390
F
  0
LAYER
  5
152
330
2
100
AcDbSymbolTableRecord
100
AcDbLayerTableRecord
  2
Defpoints
 70
     0
 62
     7
  6
Continuous
290
     0
370
    -3
390
F
  0
ENDTAB
  0
TABLE
  2
STYLE
  5
3
330
0
100
AcDbSymbolTable
 70
     2
  0
STYLE
  5
11
330
3
100
AcDbSymbolTableRecord
100
AcDbTextStyleTableRecord
  2
Standard
 70
     0
 40
0.0
 41
1.0
 50
0.0
 71
     0
 42
3.5
  3
txt
  4

  0
STYLE
  5
97
330
3
100
AcDbSymbolTableRecord
100
AcDbTextStyleTableRecord
  2
SLDTEXTSTYLE0
 70
     0
 40
0.0
 41
0.75
 50
0.0
 71
     0
 42
3.5
  3
TXT
  4

  0
ENDTAB
  0
TABLE
  2
VIEW
  5
6
330
0
100
AcDbSymbolTable
 70
     0
  0
ENDTAB
  0
TABLE
  2
UCS
  5
7
330
0
100
AcDbSymbolTable
 70
     0
  0
ENDTAB
  0
TABLE
  2
APPID
  5
9
330
0
100
AcDbSymbolTable
 70
     2
  0
APPID
  5
12
330
9
100
AcDbSymbolTableRecord
100
AcDbRegAppTableRecord
  2
ACAD
 70
     0
  0
APPID
  5
15A
330
9
100
AcDbSymbolTableRecord
100
AcDbRegAppTableRecord
  2
PE_URL
 70
     0
  0
ENDTAB
  0
TABLE
  2
DIMSTYLE
  5
A
330
0
100
AcDbSymbolTable
 70
     5
100
AcDbDimStyleTable
  0
DIMSTYLE
105
27
330
A
100
AcDbSymbolTableRecord
100
AcDbDimStyleTableRecord
  2
ISO-25
 70
     0
 41
2.5
 42
0.625
 43
3.75
 44
1.25
 73
     0
 74
     0
 77
     1
 78
     8
140
2.5
141
2.5
143
0.03937007874016
147
0.625
171
     3
172
     1
178
     0
271
     2
272
     2
274
     3
278
    44
283
     0
284
     8
340
11
  0
DIMSTYLE
105
EA
102
{ACAD_REACTORS
330
E9
102
}
330
A
100
AcDbSymbolTableRecord
100
AcDbDimStyleTableRecord
  2
SLDDIMSTYLE0
 70
     0
 41
3.302
 44
0.0
 45
0.000000001
 73
     0
 74
     0
 77
     1
 78
    12
 79
     3
140
3.5
147
0.875
172
     1
173
     1
178
     0
271
     1
272
     1
276
     2
284
    12
289
     0
340
97
  0
DIMSTYLE
105
F8
102
{ACAD_REACTORS
330
F7
102
}
330
A
100
AcDbSymbolTableRecord
100
AcDbDimStyleTableRecord
  2
SLDDIMSTYLE1
 70
     0
 41
3.302
 44
0.0
 45
0.000000001
 73
     0
 74
     0
 77
     1
 78
    12
 79
     3
140
3.5
147
0.875
173
     1
178
     0
271
     2
272
     2
276
     2
284
    12
340
97
  0
DIMSTYLE
105
103
102
{ACAD_REACTORS
330
102
330
11D
102
}
330
A
100
AcDbSymbolTableRecord
100
AcDbDimStyleTableRecord
  2
SLDDIMSTYLE2
 70
     0
 41
3.302
 44
0.0
 45
0.000000001
 73
     0
 74
     0
 77
     1
 78
    12
 79
     3
140
3.5
147
0.875
172
     1
173
     1
178
     0
271
     2
272
     2
276
     2
284
    12
289
     0
340
97
  0
DIMSTYLE
105
111
102
{ACAD_REACTORS
330
110
102
}
330
A
100
AcDbSymbolTableRecord
100
AcDbDimStyleTableRecord
  2
SLDDIMSTYLE3
 70
     0
 41
3.302
 44
0.0
 45
0.000000001
 73
     0
 74
     0
 77
     1
 78
     4
 79
     1
140
3.5
147
0.875
172
     1
173
     1
178
     0
271
     2
272
     2
276
     2
284
    12
289
     0
340
97
  0
ENDTAB
  0
TABLE
  2
BLOCK_RECORD
  5
1
330
0
100
AcDbSymbolTable
 70
     8
  0
BLOCK_RECORD
  5
1F
102
{ACAD_XDICTIONARY
360
182
102
}
330
1
100
AcDbSymbolTableRecord
100
AcDbBlockTableRecord
  2
*Model_Space
340
22
  0
BLOCK_RECORD
  5
1B
330
1
100
AcDbSymbolTableRecord
100
AcDbBlockTableRecord
  2
*Paper_Space
340
1E
  0
BLOCK_RECORD
  5
23
330
1
100
AcDbSymbolTableRecord
100
AcDbBlockTableRecord
  2
*Paper_Space0
340
26
  0
BLOCK_RECORD
  5
82
330
1
100
AcDbSymbolTableRecord
100
AcDbBlockTableRecord
  2
블럭10
340
0
102
{BLKREFS
331
E2
102
}
  0
BLOCK_RECORD
  5
EB
330
1
100
AcDbSymbolTableRecord
100
AcDbBlockTableRecord
  2
_D
340
0
  0
BLOCK_RECORD
  5
F9
330
1
100
AcDbSymbolTableRecord
100
AcDbBlockTableRecord
  2
_D_1
340
0
  0
BLOCK_RECORD
  5
104
330
1
100
AcDbSymbolTableRecord
100
AcDbBlockTableRecord
  2
_D_2
340
0
  0
BLOCK_RECORD
  5
112
330
1
100
AcDbSymbolTableRecord
100
AcDbBlockTableRecord
  2
_D_3
340
0
  0
BLOCK_RECORD
  5
11E
330
1
100
AcDbSymbolTableRecord
100
AcDbBlockTableRecord
  2
_D_4
340
0
  0
BLOCK_RECORD
  5
129
330
1
100
AcDbSymbolTableRecord
100
AcDbBlockTableRecord
  2
SW_DOWELSYMBOL_0
340
0
102
{BLKREFS
331
12F
102
}
  0
ENDTAB
  0
ENDSEC
  0
SECTION
  2
BLOCKS
  0
BLOCK
  5
20
330
1F
100
AcDbEntity
  8
0
100
AcDbBlockBegin
  2
*Model_Space
 70
     0
 10
0.0
 20
0.0
 30
0.0
  3
*Model_Space
  1

  0
ENDBLK
  5
21
330
1F
100
AcDbEntity
  8
0
100
AcDbBlockEnd
  0
BLOCK
  5
1C
330
1B
100
AcDbEntity
 67
     1
  8
0
100
AcDbBlockBegin
  2
*Paper_Space
 70
     0
 10
0.0
 20
0.0
 30
0.0
  3
*Paper_Space
  1

  0
ENDBLK
  5
1D
330
1B
100
AcDbEntity
 67
     1
  8
0
100
AcDbBlockEnd
  0
BLOCK
  5
24
330
23
100
AcDbEntity
  8
0
100
AcDbBlockBegin
  2
*Paper_Space0
 70
     0
 10
0.0
 20
0.0
 30
0.0
  3
*Paper_Space0
  1

  0
ENDBLK
  5
25
330
23
100
AcDbEntity
  8
0
100
AcDbBlockEnd
  0
BLOCK
  5
83
330
82
100
AcDbEntity
  8
0
100
AcDbBlockBegin
  2
블럭10
 70
     2
 10
0.0
 20
0.0
 30
0.0
  3
블럭10
  1

  0
ELLIPSE
  5
85
330
82
100
AcDbEntity
  8
중심선
100
AcDbEllipse
 10
20.54032771741204
 20
12.0471743016438
 30
0.0
 11
6.600054785286829
 21
-1.261213355974178E-13
 31
0.0
210
0.0
220
0.0
230
1.0
 40
0.636358354079598
 41
0.9219305317359503
 42
6.513795318482858
  0
ELLIPSE
  5
86
330
82
100
AcDbEntity
  8
중심선
100
AcDbEllipse
 10
20.54032771746488
 20
12.04717430159265
 30
0.0
 11
3.960054785062283
 21
1.540847449632565E-10
 31
0.0
210
0.0
220
0.0
230
1.0
 40
0.3939339440162632
 41
1.131841032648279
 42
5.62031148352944
  0
LINE
  5
87
330
82
100
AcDbEntity
  8
중심선
100
AcDbLine
 10
2.268634060543552
 20
16.24717430164393
 30
0.0
 11
5.714909304380834
 21
16.24717430164393
 31
0.0
  0
LINE
  5
88
330
82
100
AcDbEntity
  8
중심선
100
AcDbLine
 10
5.245725140726316
 20
7.84717430164391
 30
0.0
 11
8.692000384563599
 21
7.84717430164391
 31
0.0
  0
LINE
  5
89
330
82
100
AcDbEntity
  8
중심선
100
AcDbLine
 10
15.74043728645272
 20
16.24717430164393
 30
0.0
 11
8.692000384563599
 21
7.84717430164391
 31
0.0
  0
LINE
  5
8A
330
82
100
AcDbEntity
  8
중심선
100
AcDbLine
 10
0.1404042013395286
 20
13.71084872107135
 30
0.0
 11
3.58671253028996
 21
13.71088815037384
 31
0.0
  0
LINE
  5
8B
330
82
100
AcDbEntity
  8
중심선
100
AcDbLine
 10
2.750260043222114
 20
10.84717430164391
 30
0.0
 11
6.196535287059397
 21
10.84717430164391
 31
0.0
  0
LINE
  5
8C
330
82
100
AcDbEntity
  8
중심선
100
AcDbLine
 10
12.29416204261559
 20
16.24717430164393
 30
0.0
 11
5.245725140726316
 21
7.84717430164391
 31
0.0
  0
LINE
  5
8D
330
82
100
AcDbEntity
  8
중심선
100
AcDbLine
 10
10.72767329541681
 20
16.24717430164393
 30
0.0
 11
6.196535287059397
 21
10.84717430164391
 31
0.0
  0
LINE
  5
8E
330
82
100
AcDbEntity
  8
중심선
100
AcDbLine
 10
7.28139805157953
 20
16.24717430164393
 30
0.0
 11
2.750260043222114
 21
10.84717430164391
 31
0.0
  0
LINE
  5
8F
330
82
100
AcDbEntity
  8
중심선
100
AcDbLine
 10
5.714909304380834
 20
16.24717430164393
 30
0.0
 11
3.58671253028996
 21
13.71088815037384
 31
0.0
  0
LINE
  5
90
330
82
100
AcDbEntity
  8
중심선
100
AcDbLine
 10
2.268634060543552
 20
16.24717430164393
 30
0.0
 11
0.1404042013395286
 21
13.71084872107135
 31
0.0
  0
LINE
  5
91
330
82
100
AcDbEntity
  8
중심선
100
AcDbLine
 10
7.28139805157953
 20
16.24717430164393
 30
0.0
 11
10.72767329541681
 21
16.24717430164393
 31
0.0
  0
LINE
  5
92
330
82
100
AcDbEntity
  8
중심선
100
AcDbLine
 10
12.29416204261559
 20
16.24717430164393
 30
0.0
 11
15.74043728645272
 21
16.24717430164393
 31
0.0
  0
LINE
  5
93
330
82
100
AcDbEntity
  8
중심선
100
AcDbLine
 10
19.22036997980202
 20
11.08717430171403
 30
0.0
 11
23.66174974927406
 21
11.08717430171406
 31
0.0
  0
LINE
  5
94
330
82
100
AcDbEntity
  8
중심선
100
AcDbLine
 10
19.22039502424796
 20
13.00717430171391
 30
0.0
 11
19.22036997980202
 21
11.08717430171403
 31
0.0
  0
LINE
  5
95
330
82
100
AcDbEntity
  8
중심선
100
AcDbLine
 10
19.22039502424796
 20
13.00717430171391
 30
0.0
 11
26.96566020931264
 21
13.00717430171391
 31
0.0
  0
LINE
  5
96
330
82
100
AcDbEntity
  8
중심선
100
AcDbLine
 10
22.22332737316547
 20
13.45928029700563
 30
0.0
 11
24.52862924686651
 21
15.39360700705356
 31
0.0
  0
ATTDEF
  5
98
330
82
100
AcDbEntity
  8
FORMAT
 62
     2
100
AcDbText
 10
-16.11926103943555
 20
2.075366912832191
 30
0.0
 40
4.233333333333333
  1
SEME7301206E [ 4 FLUTE ]
 41
0.75
  7
SLDTEXTSTYLE0
 11
-16.11926103943555
 21
-0.0412997538344756
 31
0.0
100
AcDbAttributeDefinition
  3

  2
AUTOATTR0
 70
     0
 74
     1
  0
ENDBLK
  5
84
330
82
100
AcDbEntity
  8
0
100
AcDbBlockEnd
  0
BLOCK
  5
EC
330
EB
100
AcDbEntity
  8
0
100
AcDbBlockBegin
  2
_D
 70
     0
 10
0.0
 20
0.0
 30
0.0
  3
_D
  1

  0
LINE
  5
EE
330
EB
100
AcDbEntity
  8
치수문자_일반주서
 62
     0
370
    -2
100
AcDbLine
 10
11.38067240078565
 20
-0.6000000000000062
 30
0.0
 11
24.75870500855263
 21
-0.599999999999957
 31
0.0
  0
LINE
  5
EF
330
EB
100
AcDbEntity
  8
치수문자_일반주서
 62
     0
370
    -2
100
AcDbLine
 10
11.38067240078565
 20
0.6000000000000013
 30
0.0
 11
24.75870500855263
 21
0.6000000000000512
 31
0.0
  0
LINE
  5
F0
330
EB
100
AcDbEntity
  8
치수문자_일반주서
 62
     0
370
    -2
100
AcDbLine
 10
24.75870500855263
 20
0.6000000000000512
 30
0.0
 11
24.75870500855258
 21
15.95400000000006
 31
0.0
  0
LINE
  5
F1
330
EB
100
AcDbEntity
  8
치수문자_일반주서
 62
     0
370
    -2
100
AcDbLine
 10
24.75870500855263
 20
-0.599999999999957
 30
0.0
 11
24.75870500855263
 21
0.6000000000000512
 31
0.0
  0
LINE
  5
F2
330
EB
100
AcDbEntity
  8
치수문자_일반주서
 62
     0
370
    -2
100
AcDbLine
 10
24.75870500855264
 20
-3.901999999999957
 30
0.0
 11
24.75870500855265
 21
-7.203999999999957
 31
0.0
  0
LINE
  5
F3
330
EB
100
AcDbEntity
  8
치수문자_일반주서
 62
     0
370
    -2
100
AcDbLine
 10
24.75870500855262
 20
3.902000000000051
 30
0.0
 11
24.75870500855261
 21
7.204000000000051
 31
0.0
  0
SOLID
  5
F4
330
EB
100
AcDbEntity
  8
치수문자_일반주서
 62
     0
100
AcDbTrace
 10
25.30903834188598
 20
-3.901999999999955
 30
0.0
 11
24.20837167521931
 21
-3.901999999999959
 31
0.0
 12
24.75870500855263
 22
-0.599999999999957
 32
0.0
 13
24.75870500855263
 23
-0.599999999999957
 33
0.0
  0
SOLID
  5
F5
330
EB
100
AcDbEntity
  8
치수문자_일반주서
 62
     0
100
AcDbTrace
 10
24.20837167521928
 20
3.902000000000049
 30
0.0
 11
25.30903834188595
 21
3.902000000000053
 31
0.0
 12
24.75870500855263
 22
0.6000000000000512
 32
0.0
 13
24.75870500855263
 23
0.6000000000000512
 33
0.0
  0
MTEXT
  5
F6
330
EB
100
AcDbEntity
  8
치수문자_일반주서
 62
     0
100
AcDbMText
 10
20.3837050085526
 20
11.57900000000004
 30
0.0
 40
3.5
 41
0.0
 71
     2
 72
     1
  1
\A1;%%c1.2
  7
SLDTEXTSTYLE0
 11
-2.960594732333732E-15
 21
1.0
 31
0.0
 73
     1
 44
1.0
  0
POINT
  5
153
330
EB
100
AcDbEntity
  8
Defpoints
 62
     0
100
AcDbPoint
 10
11.31817240078565
 20
-0.6000000000000064
 30
0.0
  0
POINT
  5
154
330
EB
100
AcDbEntity
  8
Defpoints
 62
     0
100
AcDbPoint
 10
11.31817240078565
 20
0.6000000000000011
 30
0.0
  0
POINT
  5
155
330
EB
100
AcDbEntity
  8
Defpoints
 62
     0
100
AcDbPoint
 10
24.75870500855262
 20
0.6000000000000513
 30
0.0
  0
ENDBLK
  5
ED
330
EB
100
AcDbEntity
  8
0
100
AcDbBlockEnd
  0
BLOCK
  5
FA
330
F9
100
AcDbEntity
  8
0
100
AcDbBlockBegin
  2
_D_1
 70
     0
 10
0.0
 20
0.0
 30
0.0
  3
_D_1
  1

  0
LINE
  5
FC
330
F9
100
AcDbEntity
  8
치수문자_일반주서
 62
     0
370
    -2
100
AcDbLine
 10
-38.68182759921436
 20
1.56249999999999
 30
0.0
 11
-38.68182759921436
 21
36.00000000000003
 31
0.0
  0
LINE
  5
FD
330
F9
100
AcDbEntity
  8
치수문자_일반주서
 62
     0
370
    -2
100
AcDbLine
 10
11.31817240078564
 20
0.0024999999999984
 30
0.0
 11
11.31817240078564
 21
36.00000000000003
 31
0.0
  0
LINE
  5
FE
330
F9
100
AcDbEntity
  8
치수문자_일반주서
 62
     0
370
    -2
100
AcDbLine
 10
-35.37982759921436
 20
36.00000000000003
 30
0.0
 11
8.016172400785642
 21
36.00000000000003
 31
0.0
  0
SOLID
  5
FF
330
F9
100
AcDbEntity
  8
치수문자_일반주서
 62
     0
100
AcDbTrace
 10
-35.37982759921436
 20
36.55033333333336
 30
0.0
 11
-35.37982759921436
 21
35.44966666666669
 31
0.0
 12
-38.68182759921436
 22
36.00000000000003
 32
0.0
 13
-38.68182759921436
 23
36.00000000000003
 33
0.0
  0
SOLID
  5
100
330
F9
100
AcDbEntity
  8
치수문자_일반주서
 62
     0
100
AcDbTrace
 10
8.016172400785642
 20
35.44966666666669
 30
0.0
 11
8.016172400785642
 21
36.55033333333336
 31
0.0
 12
11.31817240078564
 22
36.00000000000003
 32
0.0
 13
11.31817240078564
 23
36.00000000000003
 33
0.0
  0
MTEXT
  5
101
330
F9
100
AcDbEntity
  8
치수문자_일반주서
 62
     0
100
AcDbMText
 10
-13.68182759921435
 20
40.37500000000003
 30
0.0
 40
3.5
 41
0.0
 71
     2
 72
     1
  1
\A1;50
  7
SLDTEXTSTYLE0
 73
     1
 44
1.0
  0
POINT
  5
15C
330
F9
100
AcDbEntity
  8
Defpoints
 62
     0
100
AcDbPoint
 10
-38.68182759921436
 20
1.49999999999999
 30
0.0
  0
POINT
  5
15D
330
F9
100
AcDbEntity
  8
Defpoints
 62
     0
100
AcDbPoint
 10
11.31817240078564
 20
-0.0600000000000016
 30
0.0
  0
POINT
  5
15E
330
F9
100
AcDbEntity
  8
Defpoints
 62
     0
100
AcDbPoint
 10
11.31817240078564
 20
36.00000000000003
 30
0.0
  0
ENDBLK
  5
FB
330
F9
100
AcDbEntity
  8
0
100
AcDbBlockEnd
  0
BLOCK
  5
105
330
104
100
AcDbEntity
  8
0
100
AcDbBlockBegin
  2
_D_2
 70
     0
 10
0.0
 20
0.0
 30
0.0
  3
_D_2
  1

  0
LINE
  5
107
330
104
100
AcDbEntity
  8
치수문자_일반주서
 62
     0
370
    -2
100
AcDbLine
 10
-38.24432759921436
 20
1.999999999999989
 30
0.0
 11
-52.17446716083424
 21
1.999999999999937
 31
0.0
  0
LINE
  5
108
330
104
100
AcDbEntity
  8
치수문자_일반주서
 62
     0
370
    -2
100
AcDbLine
 10
-38.24432759921436
 20
-2.000000000000011
 30
0.0
 11
-52.17446716083423
 21
-2.000000000000063
 31
0.0
  0
LINE
  5
109
330
104
100
AcDbEntity
  8
치수문자_일반주서
 62
     0
370
    -2
100
AcDbLine
 10
-52.17446716083423
 20
-1.302000000000063
 30
0.0
 11
-52.17446716083424
 21
1.301999999999937
 31
0.0
  0
SOLID
  5
10A
330
104
100
AcDbEntity
  8
치수문자_일반주서
 62
     0
100
AcDbTrace
 10
-51.62413382750089
 20
-1.302000000000061
 30
0.0
 11
-52.72480049416756
 21
-1.302000000000065
 31
0.0
 12
-52.17446716083424
 22
1.999999999999937
 32
0.0
 13
-52.17446716083424
 23
1.999999999999937
 33
0.0
  0
SOLID
  5
10B
330
104
100
AcDbEntity
  8
치수문자_일반주서
 62
     0
100
AcDbTrace
 10
-52.72480049416757
 20
1.301999999999935
 30
0.0
 11
-51.62413382750091
 21
1.301999999999939
 31
0.0
 12
-52.17446716083423
 22
-2.000000000000063
 32
0.0
 13
-52.17446716083423
 23
-2.000000000000063
 33
0.0
  0
MTEXT
  5
10C
330
104
100
AcDbEntity
  8
치수문자_일반주서
 62
     0
100
AcDbMText
 10
-56.54946716083423
 20
-0.726463899203109
 30
0.0
 40
3.5
 41
0.0
 71
     2
 72
     1
  1
\A1;%%c4
  7
SLDTEXTSTYLE0
 11
-3.552713678800501E-15
 21
1.0
 31
0.0
 73
     1
 44
1.0
  0
POINT
  5
10D
330
104
100
AcDbEntity
  8
Defpoints
 62
     0
100
AcDbPoint
 10
-38.18182759921436
 20
1.99999999999999
 30
0.0
  0
POINT
  5
10E
330
104
100
AcDbEntity
  8
Defpoints
 62
     0
100
AcDbPoint
 10
-38.18182759921436
 20
-2.000000000000011
 30
0.0
  0
POINT
  5
10F
330
104
100
AcDbEntity
  8
Defpoints
 62
     0
100
AcDbPoint
 10
-52.17446716083423
 20
-2.000000000000063
 30
0.0
  0
ENDBLK
  5
106
330
104
100
AcDbEntity
  8
0
100
AcDbBlockEnd
  0
BLOCK
  5
113
330
112
100
AcDbEntity
  8
0
100
AcDbBlockBegin
  2
_D_3
 70
     0
 10
0.0
 20
0.0
 30
0.0
  3
_D_3
  1

  0
LINE
  5
115
330
112
100
AcDbEntity
  8
치수문자_일반주서
 62
     0
370
    -2
100
AcDbLine
 10
9.518172400785648
 20
0.5981229458249184
 30
0.0
 11
9.518172400785648
 21
18.97000000000002
 31
0.0
  0
LINE
  5
116
330
112
100
AcDbEntity
  8
치수문자_일반주서
 62
     0
370
    -2
100
AcDbLine
 10
11.31817240078564
 20
0.0024999999999984
 30
0.0
 11
11.31817240078564
 21
18.97000000000002
 31
0.0
  0
LINE
  5
117
330
112
100
AcDbEntity
  8
치수문자_일반주서
 62
     0
370
    -2
100
AcDbLine
 10
11.31817240078564
 20
18.97000000000002
 30
0.0
 11
26.23467240078564
 21
18.97000000000002
 31
0.0
  0
LINE
  5
118
330
112
100
AcDbEntity
  8
치수문자_일반주서
 62
     0
370
    -2
100
AcDbLine
 10
9.518172400785648
 20
18.97000000000002
 30
0.0
 11
11.31817240078564
 21
18.97000000000002
 31
0.0
  0
LINE
  5
119
330
112
100
AcDbEntity
  8
치수문자_일반주서
 62
     0
370
    -2
100
AcDbLine
 10
6.216172400785648
 20
18.97000000000002
 30
0.0
 11
2.914172400785648
 21
18.97000000000002
 31
0.0
  0
LINE
  5
11A
330
112
100
AcDbEntity
  8
치수문자_일반주서
 62
     0
370
    -2
100
AcDbLine
 10
14.62017240078564
 20
18.97000000000002
 30
0.0
 11
17.92217240078564
 21
18.97000000000002
 31
0.0
  0
SOLID
  5
11B
330
112
100
AcDbEntity
  8
치수문자_일반주서
 62
     0
100
AcDbTrace
 10
6.216172400785648
 20
18.41966666666668
 30
0.0
 11
6.216172400785648
 21
19.52033333333335
 31
0.0
 12
9.518172400785648
 22
18.97000000000002
 32
0.0
 13
9.518172400785648
 23
18.97000000000002
 33
0.0
  0
SOLID
  5
11C
330
112
100
AcDbEntity
  8
치수문자_일반주서
 62
     0
100
AcDbTrace
 10
14.62017240078564
 20
19.52033333333335
 30
0.0
 11
14.62017240078564
 21
18.41966666666668
 31
0.0
 12
11.31817240078564
 22
18.97000000000002
 32
0.0
 13
11.31817240078564
 23
18.97000000000002
 33
0.0
  0
MTEXT
  5
156
330
112
100
AcDbEntity
  8
치수문자_일반주서
 62
     0
100
AcDbMText
 10
22.07842240078564
 20
23.34500000000002
 30
0.0
 40
3.5
 41
0.0
 71
     2
 72
     1
  1
\A1;1.80
  7
SLDTEXTSTYLE0
 73
     1
 44
1.0
  0
POINT
  5
157
330
112
100
AcDbEntity
  8
Defpoints
 62
     0
100
AcDbPoint
 10
9.518172400785648
 20
0.5356229458249184
 30
0.0
  0
POINT
  5
158
330
112
100
AcDbEntity
  8
Defpoints
 62
     0
100
AcDbPoint
 10
11.31817240078564
 20
-0.0600000000000016
 30
0.0
  0
POINT
  5
159
330
112
100
AcDbEntity
  8
Defpoints
 62
     0
100
AcDbPoint
 10
11.31817240078564
 20
18.97000000000002
 30
0.0
  0
ENDBLK
  5
114
330
112
100
AcDbEntity
  8
0
100
AcDbBlockEnd
  0
BLOCK
  5
11F
330
11E
100
AcDbEntity
  8
0
100
AcDbBlockBegin
  2
_D_4
 70
     0
 10
0.0
 20
0.0
 30
0.0
  3
_D_4
  1

  0
LINE
  5
121
330
11E
100
AcDbEntity
  8
치수문자_일반주서
 62
     0
370
    -2
100
AcDbLine
 10
11.31817240078564
 20
0.65949246226397
 30
0.0
 11
11.31817240078564
 21
25.29678198861815
 31
0.0
  0
LINE
  5
122
330
11E
100
AcDbEntity
  8
치수문자_일반주서
 62
     0
370
    -2
100
AcDbLine
 10
5.31817240078564
 20
0.6374999999999971
 30
0.0
 11
5.31817240078564
 21
25.29678198861815
 31
0.0
  0
LINE
  5
123
330
11E
100
AcDbEntity
  8
치수문자_일반주서
 62
     0
370
    -2
100
AcDbLine
 10
8.016172400785642
 20
25.29678198861815
 30
0.0
 11
8.62017240078564
 21
25.29678198861815
 31
0.0
  0
SOLID
  5
124
330
11E
100
AcDbEntity
  8
치수문자_일반주서
 62
     0
100
AcDbTrace
 10
8.016172400785642
 20
24.74644865528481
 30
0.0
 11
8.016172400785642
 21
25.84711532195148
 31
0.0
 12
11.31817240078564
 22
25.29678198861815
 32
0.0
 13
11.31817240078564
 23
25.29678198861815
 33
0.0
  0
SOLID
  5
125
330
11E
100
AcDbEntity
  8
치수문자_일반주서
 62
     0
100
AcDbTrace
 10
8.62017240078564
 20
25.84711532195148
 30
0.0
 11
8.62017240078564
 21
24.74644865528481
 31
0.0
 12
5.31817240078564
 22
25.29678198861815
 32
0.0
 13
5.31817240078564
 23
25.29678198861815
 33
0.0
  0
MTEXT
  5
126
330
11E
100
AcDbEntity
  8
치수문자_일반주서
 62
     0
100
AcDbMText
 10
8.452965776978655
 20
29.67178198861815
 30
0.0
 40
3.5
 41
0.0
 71
     2
 72
     1
  1
\A1;6
  7
SLDTEXTSTYLE0
 73
     1
 44
1.0
  0
POINT
  5
127
330
11E
100
AcDbEntity
  8
Defpoints
 62
     0
100
AcDbPoint
 10
11.31817240078564
 20
0.59699246226397
 30
0.0
  0
POINT
  5
128
330
11E
100
AcDbEntity
  8
Defpoints
 62
     0
100
AcDbPoint
 10
5.31817240078564
 20
0.5749999999999971
 30
0.0
  0
POINT
  5
15F
330
11E
100
AcDbEntity
  8
Defpoints
 62
     0
100
AcDbPoint
 10
5.31817240078564
 20
25.29678198861815
 30
0.0
  0
ENDBLK
  5
120
330
11E
100
AcDbEntity
  8
0
100
AcDbBlockEnd
  0
BLOCK
  5
12A
330
129
100
AcDbEntity
  8
0
100
AcDbBlockBegin
  2
SW_DOWELSYMBOL_0
 70
     0
 10
0.0
 20
0.0
 30
0.0
  3
SW_DOWELSYMBOL_0
  1

  0
CIRCLE
  5
12C
330
129
100
AcDbEntity
  8
해칭선
 62
     0
100
AcDbCircle
 10
0.0
 20
0.0
 30
0.0
 40
3.000000000000003
  0
HATCH
  5
12D
330
129
100
AcDbEntity
  8
0
  6
Continuous
 62
     0
370
    18
100
AcDbHatch
 10
0.0
 20
0.0
 30
0.0
210
0.0
220
0.0
230
1.0
  2
SOLID
 70
     1
 71
     0
 91
        1
 92
        0
 93
        3
 72
     2
 10
-0.0000000000000017
 20
-0.0000000000000035
 40
3.000000000000003
 50
0.0
 51
90.0
 73
     1
 72
     1
 10
-0.0000000000000017
 20
2.999999999999999
 11
-0.0000000000000017
 21
-0.0000000000000036
 72
     1
 10
-0.0000000000000017
 20
-0.0000000000000035
 11
3.000000000000001
 21
-0.0000000000000035
 97
        0
 75
     0
 76
     1
 98
        1
 10
0.0
 20
0.0
  0
HATCH
  5
12E
330
129
100
AcDbEntity
  8
0
  6
Continuous
 62
     0
370
    18
100
AcDbHatch
 10
0.0
 20
0.0
 30
0.0
210
0.0
220
0.0
230
1.0
  2
SOLID
 70
     1
 71
     0
 91
        1
 92
        0
 93
        3
 72
     2
 10
-0.0000000000000017
 20
-0.0000000000000035
 40
3.000000000000003
 50
180.0
 51
270.0000000000007
 73
     1
 72
     1
 10
-0.0000000000000017
 20
-3.000000000000006
 11
-0.0000000000000017
 21
-0.0000000000000036
 72
     1
 10
-0.0000000000000017
 20
-0.0000000000000035
 11
-3.000000000000004
 21
-0.0000000000000035
 97
        0
 75
     0
 76
     1
 98
        1
 10
0.0
 20
0.0
  0
ENDBLK
  5
12B
330
129
100
AcDbEntity
  8
0
100
AcDbBlockEnd
  0
ENDSEC
  0
SECTION
  2
ENTITIES
  0
LINE
  5
99
330
1F
100
AcDbEntity
  8
0
  6
Continuous
 62
     4
370
    25
100
AcDbLine
 10
-0.0000000000000004
 20
2.0
 30
0.0
 11
-38.18182759921436
 21
1.999999999999986
 31
0.0
  0
LINE
  5
9A
330
1F
100
AcDbEntity
  8
0
  6
Continuous
 62
     4
370
    25
100
AcDbLine
 10
-38.18182759921436
 20
-2.000000000000006
 30
0.0
 11
0.0
 21
-1.999999999999992
 31
0.0
  0
LINE
  5
9B
330
1F
100
AcDbEntity
  8
0
  6
Continuous
 62
     4
370
    25
100
AcDbLine
 10
-38.18182759921436
 20
1.999999999999988
 30
0.0
 11
-38.68182759921436
 21
1.49999999999999
 31
0.0
  0
LINE
  5
9C
330
1F
100
AcDbEntity
  8
0
  6
Continuous
 62
     4
370
    25
100
AcDbLine
 10
-38.68182759921436
 20
-1.500000000000012
 30
0.0
 11
-38.18182759921436
 21
-2.000000000000012
 31
0.0
  0
LINE
  5
9D
330
1F
100
AcDbEntity
  8
0
  6
Continuous
 62
     4
370
    25
100
AcDbLine
 10
0.0000000000000036
 20
-1.999999999999992
 30
0.0
 11
5.318172400785639
 21
-0.5749999999999853
 31
0.0
  0
LINE
  5
9E
330
1F
100
AcDbEntity
  8
0
  6
Continuous
 62
     4
370
    25
100
AcDbLine
 10
5.31817240078564
 20
0.5749999999999968
 30
0.0
 11
0.0
 21
1.999999999999992
 31
0.0
  0
LINE
  5
9F
330
1F
100
AcDbEntity
  8
0
  6
Continuous
 62
     4
370
    25
100
AcDbLine
 10
9.001713910196244
 20
0.5749999999999983
 30
0.0
 11
5.31817240078564
 21
0.5749999999999968
 31
0.0
  0
LINE
  5
A0
330
1F
100
AcDbEntity
  8
0
  6
Continuous
 62
     4
370
    25
100
AcDbLine
 10
5.31817240078564
 20
-0.5749999999999849
 30
0.0
 11
9.00171391019624
 21
-0.5749999999999834
 31
0.0
  0
LINE
  5
A1
330
1F
100
AcDbEntity
  8
0
  6
Continuous
 62
     1
370
    25
100
AcDbLine
 10
11.14031868821824
 20
-0.6000000000000016
 30
0.0
 11
11.32364337230145
 21
-0.6000000000000016
 31
0.0
1001
PE_URL
1000

  0
LINE
  5
A2
330
1F
100
AcDbEntity
  8
0
  6
Continuous
 62
     1
370
    25
100
AcDbLine
 10
11.12729900641817
 20
0.0091392018751674
 30
0.0
 11
11.10796747187294
 21
0.0243820048658477
 31
0.0
1001
PE_URL
1000

  0
SPLINE
  5
A3
330
1F
100
AcDbEntity
  8
0
  6
Continuous
 62
     1
370
    25
100
AcDbSpline
210
0.0
220
0.0
230
1.0
 70
     8
 71
     3
 72
     9
 73
     5
 74
     0
 42
0.000000001
 43
0.00000001
 40
0.0
 40
0.0
 40
0.0
 40
0.0
 40
0.5188093728459949
 40
1.0
 40
1.0
 40
1.0
 40
1.0
 10
11.26573033922798
 20
-0.0965685336146253
 30
0.0
 10
11.24179182681068
 20
-0.0791391904669242
 30
0.0
 10
11.1956505778853
 20
-0.045544301746834
 30
0.0
 10
11.14950420738169
 20
-0.0086256886935826
 30
0.0
 10
11.12729900641817
 20
0.0091392018751674
 30
0.0
1001
PE_URL
1000

  0
LINE
  5
A4
330
1F
100
AcDbEntity
  8
0
  6
Continuous
 62
     1
370
    25
100
AcDbLine
 10
10.06767323156294
 20
0.5999999999999981
 30
0.0
 11
9.888964719602157
 21
0.5999999999999981
 31
0.0
1001
PE_URL
1000

  0
LINE
  5
A5
330
1F
100
AcDbEntity
  8
0
  6
Continuous
 62
     1
370
    25
100
AcDbLine
 10
9.888964719602154
 20
-0.6000000000000016
 30
0.0
 11
10.06767323156311
 21
-0.6000000000000016
 31
0.0
1001
PE_URL
1000

  0
LINE
  5
A6
330
1F
100
AcDbEntity
  8
0
  6
Continuous
 62
     1
370
    25
100
AcDbLine
 10
11.31817240078564
 20
0.5999999999999981
 30
0.0
 11
11.14031868821824
 21
0.5999999999999981
 31
0.0
1001
PE_URL
1000

  0
LINE
  5
A7
330
1F
100
AcDbEntity
  8
0
  6
Continuous
 62
     4
370
    25
100
AcDbLine
 10
0.0
 20
1.999999999999992
 30
0.0
 11
0.0
 21
-1.999999999999992
 31
0.0
  0
LINE
  5
A8
330
1F
100
AcDbEntity
  8
0
  6
Continuous
 62
     4
370
    25
100
AcDbLine
 10
-38.18182759921436
 20
1.99999999999999
 30
0.0
 11
-38.18182759921436
 21
-2.000000000000011
 31
0.0
  0
LINE
  5
A9
330
1F
100
AcDbEntity
  8
0
  6
Continuous
 62
     4
370
    25
100
AcDbLine
 10
-38.68182759921436
 20
1.49999999999999
 30
0.0
 11
-38.68182759921436
 21
-1.500000000000012
 31
0.0
  0
LINE
  5
AA
330
1F
100
AcDbEntity
  8
0
  6
Continuous
 62
     4
370
    25
100
AcDbLine
 10
5.31817240078564
 20
0.5749999999999971
 30
0.0
 11
5.31817240078564
 21
-0.5749999999999853
 31
0.0
  0
SPLINE
  5
AB
330
1F
100
AcDbEntity
  8
0
  6
Continuous
 62
     4
370
    25
100
AcDbSpline
210
0.0
220
0.0
230
1.0
 70
    24
 71
     3
 72
    14
 73
    10
 74
     0
 42
0.000000001
 43
0.00000001
 40
0.0
 40
0.0
 40
0.0
 40
0.0
 40
0.25
 40
0.25
 40
0.5
 40
0.5
 40
0.75
 40
0.75
 40
1.0
 40
1.0
 40
1.0
 40
1.0
 10
9.518172400785645
 20
0.2551953505319364
 30
0.0
 10
9.518172400785645
 20
0.2323553370329245
 30
0.0
 10
9.518172400785645
 20
0.204772575137577
 30
0.0
 10
9.518172400785645
 20
0.1301481146340805
 30
0.0
 10
9.518172400785645
 20
0.0835518423951876
 30
0.0
 10
9.518172400785645
 20
-0.0278576955571525
 30
0.0
 10
9.518172400785645
 20
-0.0929376589825612
 30
0.0
 10
9.518172400785645
 20
-0.2258322464924067
 30
0.0
 10
9.518172400785645
 20
-0.2929280854496931
 30
0.0
 10
9.518172400785645
 20
-0.3475363252148668
 30
0.0
  0
SPLINE
  5
AC
330
1F
100
AcDbEntity
  8
0
  6
Continuous
 62
     4
370
    25
100
AcDbSpline
210
0.0
220
0.0
230
1.0
 70
     8
 71
     3
 72
    14
 73
    10
 74
     0
 42
0.000000001
 43
0.00000001
 40
0.0
 40
0.0
 40
0.0
 40
0.0
 40
0.2500000000000001
 40
0.2500000000000001
 40
0.5000000000000001
 40
0.5000000000000001
 40
0.7500000000000002
 40
0.7500000000000002
 40
1.0
 40
1.0
 40
1.0
 40
1.0
 10
9.518172400782053
 20
-0.3475363252128135
 30
0.0
 10
9.45634456654729
 20
-0.3122124645152924
 30
0.0
 10
9.393499342725686
 20
-0.2735589973542097
 30
0.0
 10
9.270753989383262
 20
-0.192694956976584
 30
0.0
 10
9.212416212040658
 20
-0.1508933161495203
 30
0.0
 10
9.090221173453656
 20
-0.0641220155684381
 30
0.0
 10
9.02743766342098
 20
-0.019378130322386
 30
0.0
 10
8.903462718277485
 20
0.0692928713921104
 30
0.0
 10
8.843749121076517
 20
0.112855379848715
 30
0.0
 10
8.78372838354678
 20
0.155132346311582
 30
0.0
  0
LINE
  5
AD
330
1F
100
AcDbEntity
  8
0
  6
Continuous
 62
     4
370
    25
100
AcDbLine
 10
8.790084153678851
 20
0.1507264732934178
 30
0.0
 11
8.787368342782926
 21
0.1526090961227735
 31
0.0
  0
SPLINE
  5
AE
330
1F
100
AcDbEntity
  8
0
  6
Continuous
 62
     4
370
    25
100
AcDbSpline
210
0.0
220
0.0
230
1.0
 70
     8
 71
     3
 72
    10
 73
     6
 74
     0
 42
0.000000001
 43
0.00000001
 40
0.0
 40
0.0
 40
0.0
 40
0.0
 40
0.5
 40
0.5
 40
1.0
 40
1.0
 40
1.0
 40
1.0
 10
9.518172400782053
 20
0.2551953505341403
 30
0.0
 10
9.42518024888868
 20
0.3149559849016494
 30
0.0
 10
9.329941492515104
 20
0.3698450928877343
 30
0.0
 10
9.151529616694372
 20
0.460821726837389
 30
0.0
 10
9.057156575874828
 20
0.4988068042130225
 30
0.0
 10
8.96394406728809
 20
0.5258151383839669
 30
0.0
  0
SPLINE
  5
AF
330
1F
100
AcDbEntity
  8
0
  6
Continuous
 62
     4
370
    25
100
AcDbSpline
210
0.0
220
0.0
230
1.0
 70
     8
 71
     3
 72
    14
 73
    10
 74
     0
 42
0.000000001
 43
0.00000001
 40
0.0000000000000004
 40
0.0000000000000004
 40
0.0000000000000004
 40
0.0000000000000004
 40
0.0000514808473846
 40
0.0000514808473846
 40
0.0000514808473846
 40
0.0001028875534114
 40
0.0001028875534114
 40
0.0001028875534114
 40
0.0001587596474825
 40
0.0001587596474825
 40
0.0001587596474825
 40
0.0001587596474825
 10
8.783728383547402
 20
-0.5536776635624691
 30
0.0
 10
8.769878135829835
 20
-0.5509442497275425
 30
0.0
 10
8.757598173485928
 20
-0.5472540893291347
 30
0.0
 10
8.747876545332588
 20
-0.5425723761620929
 30
0.0
 10
8.738162112141092
 20
-0.5378941279236689
 30
0.0
 10
8.73075051072427
 20
-0.5320893499338316
 30
0.0
 10
8.725954337589915
 20
-0.525400360578847
 30
0.0
 10
8.72073777667418
 20
-0.5181250768354374
 30
0.0
 10
8.718478746826733
 20
-0.509638169244104
 30
0.0
 10
8.718478746826541
 20
-0.5004541639252478
 30
0.0
  0
SPLINE
  5
B0
330
1F
100
AcDbEntity
  8
0
  6
Continuous
 62
     4
370
    25
100
AcDbSpline
210
0.0
220
0.0
230
1.0
 70
     8
 71
     3
 72
    10
 73
     6
 74
     0
 42
0.000000001
 43
0.00000001
 40
0.0
 40
0.0
 40
0.0
 40
0.0
 40
0.201753813168448
 40
0.510493059902876
 40
1.0
 40
1.0
 40
1.0
 40
1.0
 10
9.443520002967112
 20
-0.4845579389253393
 30
0.0
 10
9.398986288645109
 20
-0.5014693834069803
 30
0.0
 10
9.286303649660244
 20
-0.5442600246604494
 30
0.0
 10
9.0678395926371
 20
-0.5851333007955526
 30
0.0
 10
8.891726108965468
 20
-0.5656347323582547
 30
0.0
 10
8.78372838354678
 20
-0.5536776635623467
 30
0.0
  0
LINE
  5
B1
330
1F
100
AcDbEntity
  8
0
  6
Continuous
 62
     4
370
    25
100
AcDbLine
 10
9.443520002967116
 20
0.4845579389253367
 30
0.0
 11
9.518172400782053
 21
0.5152672443167302
 31
0.0
  0
SPLINE
  5
B2
330
1F
100
AcDbEntity
  8
0
  6
Continuous
 62
     4
370
    25
100
AcDbSpline
210
0.0
220
0.0
230
1.0
 70
     8
 71
     3
 72
    10
 73
     6
 74
     0
 42
0.000000001
 43
0.00000001
 40
0.0
 40
0.0
 40
0.0
 40
0.0
 40
0.4019009455211387
 40
0.7962636628288654
 40
1.0
 40
1.0
 40
1.0
 40
1.0
 10
9.518172400782053
 20
0.45808678507196
 30
0.0
 10
9.448680130341035
 20
0.4843962800842779
 30
0.0
 10
9.310999016583239
 20
0.5365217978247783
 30
0.0
 10
9.140082558372946
 20
0.5766085764687379
 30
0.0
 10
9.036871651862938
 20
0.5676854532851636
 30
0.0
 10
9.001713910196244
 20
0.5646458824650221
 30
0.0
  0
LINE
  5
B3
330
1F
100
AcDbEntity
  8
0
  6
Continuous
 62
     4
370
    25
100
AcDbLine
 10
9.518172400785645
 20
0.4580867850704026
 30
0.0
 11
9.518172400785645
 21
0.3783721784349707
 31
0.0
  0
SPLINE
  5
B4
330
1F
100
AcDbEntity
  8
0
  6
Continuous
 62
     4
370
    25
100
AcDbSpline
210
0.0
220
0.0
230
1.0
 70
     8
 71
     3
 72
    12
 73
     8
 74
     0
 42
0.000000001
 43
0.00000001
 40
0.0
 40
0.0
 40
0.0
 40
0.0
 40
0.25
 40
0.25
 40
0.5
 40
0.5
 40
1.0
 40
1.0
 40
1.0
 40
1.0
 10
8.718478746832265
 20
0.4541502815804945
 30
0.0
 10
8.718478746832265
 20
0.4722717580322783
 30
0.0
 10
8.72431732585541
 20
0.4884416559679419
 30
0.0
 10
8.750889009997646
 20
0.5138131109992714
 30
0.0
 10
8.77162717049368
 20
0.5231305177744322
 30
0.0
 10
8.84844448066583
 20
0.5406230752730012
 30
0.0
 10
8.915723267708955
 20
0.5397871201358727
 30
0.0
 10
8.96394406728809
 20
0.5258151383839652
 30
0.0
  0
LINE
  5
B5
330
1F
100
AcDbEntity
  8
0
  6
Continuous
 62
     4
370
    25
100
AcDbLine
 10
8.718478746832265
 20
0.4541502815804944
 30
0.0
 11
8.718478746832265
 21
0.2831441855498569
 31
0.0
  0
SPLINE
  5
B6
330
1F
100
AcDbEntity
  8
0
  6
Continuous
 62
     4
370
    25
100
AcDbSpline
210
0.0
220
0.0
230
1.0
 70
     8
 71
     3
 72
    14
 73
    10
 74
     0
 42
0.000000001
 43
0.00000001
 40
0.0000000000000004
 40
0.0000000000000004
 40
0.0000000000000004
 40
0.0000000000000004
 40
0.0000514808473846
 40
0.0000514808473846
 40
0.0000514808473846
 40
0.0001028875534114
 40
0.0001028875534114
 40
0.0001028875534114
 40
0.0001587596474825
 40
0.0001587596474825
 40
0.0001587596474825
 40
0.0001587596474825
 10
8.783728383547402
 20
0.1551323463111444
 30
0.0
 10
8.769878135829835
 20
0.1648880821177567
 30
0.0
 10
8.757598173485928
 20
0.1770252155844766
 30
0.0
 10
8.747876545332588
 20
0.1903686335135172
 30
0.0
 10
8.738162112141092
 20
0.2037021759997462
 30
0.0
 10
8.73075051072427
 20
0.2185794134503194
 30
0.0
 10
8.725954337589911
 20
0.2336224755959946
 30
0.0
 10
8.72073777667418
 20
0.2499840721947373
 30
0.0
 10
8.718478746826733
 20
0.2669115594239005
 30
0.0
 10
8.718478746826541
 20
0.2831441855484026
 30
0.0
  0
LINE
  5
B7
330
1F
100
AcDbEntity
  8
0
  6
Continuous
 62
     4
370
    25
100
AcDbLine
 10
9.518172400785645
 20
-0.3475363252148667
 30
0.0
 11
9.518172400785645
 21
-0.4606106759874959
 31
0.0
  0
SPLINE
  5
B8
330
1F
100
AcDbEntity
  8
0
  6
Continuous
 62
     4
370
    25
100
AcDbSpline
210
0.0
220
0.0
230
1.0
 70
     8
 71
     3
 72
    10
 73
     6
 74
     0
 42
0.000000001
 43
0.00000001
 40
0.0
 40
0.0
 40
0.0
 40
0.0
 40
0.5
 40
0.5
 40
1.0
 40
1.0
 40
1.0
 40
1.0
 10
9.518172400782056
 20
-0.515267244316735
 30
0.0
 10
9.42518024888868
 20
-0.485669717589062
 30
0.0
 10
9.329941492515104
 20
-0.4451585554817997
 30
0.0
 10
9.151529616694372
 20
-0.3501354999516407
 30
0.0
 10
9.057156575874828
 20
-0.2937194807254604
 30
0.0
 10
8.96394406728809
 20
-0.2326874303572334
 30
0.0
  0
SPLINE
  5
B9
330
1F
100
AcDbEntity
  8
0
  6
Continuous
 62
     4
370
    25
100
AcDbSpline
210
0.0
220
0.0
230
1.0
 70
     8
 71
     3
 72
    12
 73
     8
 74
     0
 42
0.000000001
 43
0.00000001
 40
0.0
 40
0.0
 40
0.0
 40
0.0
 40
0.25
 40
0.25
 40
0.5
 40
0.5
 40
1.0
 40
1.0
 40
1.0
 40
1.0
 10
8.718478746832268
 20
-0.352664885890759
 30
0.0
 10
8.718478746832268
 20
-0.329328642441273
 30
0.0
 10
8.724317325855413
 20
-0.3044980235448475
 30
0.0
 10
8.75088900999765
 20
-0.2594039024237594
 30
0.0
 10
8.77162717049368
 20
-0.2391247164272157
 30
0.0
 10
8.848444480665833
 20
-0.1980817129765788
 30
0.0
 10
8.915723267708959
 20
-0.2011142615483333
 30
0.0
 10
8.96394406728809
 20
-0.2326874303572299
 30
0.0
  0
LINE
  5
BA
330
1F
100
AcDbEntity
  8
0
  6
Continuous
 62
     4
370
    25
100
AcDbLine
 10
8.718478746832265
 20
-0.3526648858907588
 30
0.0
 11
8.718478746832268
 21
-0.500454163924426
 31
0.0
  0
SPLINE
  5
BB
330
1F
100
AcDbEntity
  8
0
  6
Continuous
 62
     4
370
    25
100
AcDbSpline
210
0.0
220
0.0
230
1.0
 70
    24
 71
     3
 72
     9
 73
     5
 74
     0
 42
0.000000001
 43
0.00000001
 40
0.0
 40
0.0
 40
0.0
 40
0.0
 40
0.5066409968710823
 40
1.0
 40
1.0
 40
1.0
 40
1.0
 10
9.518172400785645
 20
0.5152672443178811
 30
0.0
 10
9.518172400785645
 20
0.507298830469508
 30
0.0
 10
9.518172400785648
 20
0.4915709010331131
 30
0.0
 10
9.518172400785645
 20
0.4773739169937474
 30
0.0
 10
9.518172400785645
 20
0.4703697071006491
 30
0.0
  0
SPLINE
  5
BC
330
1F
100
AcDbEntity
  8
0
  6
Continuous
 62
     1
370
    25
100
AcDbSpline
210
0.0
220
0.0
230
1.0
 70
     8
 71
     3
 72
    13
 73
     9
 74
     0
 42
0.000000001
 43
0.00000001
 40
0.0
 40
0.0
 40
0.0
 40
0.0
 40
0.200585632560607
 40
0.4013126257089924
 40
0.6029999558134364
 40
0.7618998688256097
 40
0.9190975103870096
 40
1.0
 40
1.0
 40
1.0
 40
1.0
 10
9.518172400780685
 20
0.2703850216423374
 30
0.0
 10
9.626584133563803
 20
0.192820155725112
 30
0.0
 10
9.843484001143853
 20
0.0376357608776778
 30
0.0
 10
10.16933414135466
 20
-0.2135570928029125
 30
0.0
 10
10.47328344348345
 20
-0.4117849500775664
 30
0.0
 10
10.75392513644178
 20
-0.5374786442756526
 30
0.0
 10
10.96732655976806
 20
-0.5980456910306212
 30
0.0
 10
11.09644602710804
 20
-0.5936655719646166
 30
0.0
 10
11.14031868821824
 20
-0.5921772798939936
 30
0.0
  0
SPLINE
  5
BD
330
1F
100
AcDbEntity
  8
0
  6
Continuous
 62
     1
370
    25
100
AcDbSpline
210
0.0
220
0.0
230
1.0
 70
     8
 71
     3
 72
    26
 73
    22
 74
     0
 42
0.000000001
 43
0.00000001
 40
0.0
 40
0.0
 40
0.0
 40
0.0
 40
0.0746477830516998
 40
0.1495984751672694
 40
0.2254366075426245
 40
0.3015850994727503
 40
0.3511647209839121
 40
0.4008287250289622
 40
0.4507559837809073
 40
0.5007751748055568
 40
0.5501658068550113
 40
0.5996439460045913
 40
0.6493805650518141
 40
0.6992017172975759
 40
0.7483052632838377
 40
0.797492319182363
 40
0.8469371334463591
 40
0.8964698028056074
 40
0.9455737147598053
 40
0.9947612528770474
 40
1.0
 40
1.0
 40
1.0
 40
1.0
 10
9.518172400780685
 20
-0.341721406613487
 30
0.0
 10
9.546859735972618
 20
-0.3575908930513789
 30
0.0
 10
9.604350815089504
 20
-0.3893942618286149
 30
0.0
 10
9.69006795561869
 20
-0.4325426489378953
 30
0.0
 10
9.777179526568677
 20
-0.4702521301203811
 30
0.0
 10
9.854810439269023
 20
-0.49853392799333
 30
0.0
 10
9.922343707933813
 20
-0.5193696445854923
 30
0.0
 10
9.97966820649
 20
-0.5345087449745326
 30
0.0
 10
10.03697527525669
 20
-0.5470222240788387
 30
0.0
 10
10.09376874936769
 20
-0.5567547848843946
 30
0.0
 10
10.15077137709536
 20
-0.5634121996315397
 30
0.0
 10
10.20786709987848
 20
-0.5671474065029123
 30
0.0
 10
10.26524662662225
 20
-0.567996390296319
 30
0.0
 10
10.32250153967936
 20
-0.565967344629425
 30
0.0
 10
10.3794570498698
 20
-0.5610852154926246
 30
0.0
 10
10.43612973751911
 20
-0.5533768978229219
 30
0.0
 10
10.49255231113907
 20
-0.5426382418695279
 30
0.0
 10
10.54909882911418
 20
-0.5291875441797986
 30
0.0
 10
10.60585137772022
 20
-0.5129633930310586
 30
0.0
 10
10.64568532580107
 20
-0.5005092694267135
 30
0.0
 10
10.6666425329185
 20
-0.4927582213150025
 30
0.0
 10
10.66865974772578
 20
-0.492012152006471
 30
0.0
  0
SPLINE
  5
BE
330
1F
100
AcDbEntity
  8
0
  6
Continuous
 62
     4
370
    25
100
AcDbSpline
210
0.0
220
0.0
230
1.0
 70
    24
 71
     3
 72
    14
 73
    10
 74
     0
 42
0.000000001
 43
0.00000001
 40
0.0
 40
0.0
 40
0.0
 40
0.0
 40
0.25
 40
0.25
 40
0.5
 40
0.5
 40
0.75
 40
0.75
 40
1.0
 40
1.0
 40
1.0
 40
1.0
 10
9.518172400785645
 20
0.2703850216533463
 30
0.0
 10
9.518172400785648
 20
0.2470240228019474
 30
0.0
 10
9.518172400785648
 20
0.2222812721049071
 30
0.0
 10
9.518172400785648
 20
0.1505807332153631
 30
0.0
 10
9.518172400785648
 20
0.1050095979778596
 30
0.0
 10
9.518172400785648
 20
-0.0068741459989788
 30
0.0
 10
9.518172400785648
 20
-0.0735850503172406
 30
0.0
 10
9.518172400785648
 20
-0.2123641755998995
 30
0.0
 10
9.518172400785648
 20
-0.2836482956063411
 30
0.0
 10
9.518172400785648
 20
-0.3417214066156619
 30
0.0
  0
SPLINE
  5
BF
330
1F
100
AcDbEntity
  8
0
  6
Continuous
 62
     1
370
    25
100
AcDbSpline
210
0.0
220
0.0
230
1.0
 70
     8
 71
     3
 72
     9
 73
     5
 74
     0
 42
0.000000001
 43
0.00000001
 40
0.0
 40
0.0
 40
0.0
 40
0.0
 40
0.4222458047854006
 40
1.0
 40
1.0
 40
1.0
 40
1.0
 10
11.31817240078564
 20
-0.6000000000000016
 30
0.0
 10
11.29038997762141
 20
-0.599425121486825
 30
0.0
 10
11.22459317668374
 20
-0.598063643156759
 30
0.0
 10
11.1582062386655
 20
-0.587541885827958
 30
0.0
 10
11.11985090671801
 20
-0.5814628963902131
 30
0.0
1001
PE_URL
1000

  0
LINE
  5
C0
330
1F
100
AcDbEntity
  8
0
  6
Continuous
 62
     4
370
    25
100
AcDbLine
 10
9.518172400785645
 20
0.2703850216420602
 30
0.0
 11
9.518172400785645
 21
0.3822981188404356
 31
0.0
  0
SPLINE
  5
C1
330
1F
100
AcDbEntity
  8
0
  6
Continuous
 62
     1
370
    25
100
AcDbSpline
210
0.0
220
0.0
230
1.0
 70
     8
 71
     3
 72
    18
 73
    14
 74
     0
 42
0.000000001
 43
0.00000001
 40
0.0
 40
0.0
 40
0.0
 40
0.0
 40
0.0547568766192407
 40
0.1248267580556862
 40
0.2509534068092747
 40
0.3745522742651702
 40
0.4376827433050915
 40
0.5010065246667683
 40
0.6027226644213756
 40
0.8020876935744607
 40
0.9011262543678207
 40
0.9483302000702399
 40
1.0
 40
1.0
 40
1.0
 40
1.0
 10
10.90072749336217
 20
-0.5194063257509705
 30
0.0
 10
10.87563426356759
 20
-0.509330057172207
 30
0.0
 10
10.81843037032538
 20
-0.4863596465563564
 30
0.0
 10
10.7024795855612
 20
-0.4312289342698292
 30
0.0
 10
10.55419029712496
 20
-0.3484420830752936
 30
0.0
 10
10.41128406204088
 20
-0.2510784726181496
 30
0.0
 10
10.29561834630283
 20
-0.1697220612614463
 30
0.0
 10
10.18994058455059
 20
-0.0932399582983111
 30
0.0
 10
10.02287833814817
 20
0.0343260877119283
 30
0.0
 10
9.837292958390016
 20
0.172735903185001
 30
0.0
 10
9.678177098580981
 20
0.2821270226977972
 30
0.0
 10
9.587649893987205
 20
0.3412974327391102
 30
0.0
 10
9.542018578710149
 20
0.3682257968426337
 30
0.0
 10
9.518172400780685
 20
0.3822981188404357
 30
0.0
  0
ELLIPSE
  5
C2
330
1F
100
AcDbEntity
  8
0
  6
Continuous
 62
     1
370
    25
100
AcDbEllipse
 10
11.31667692361767
 20
-0.0000000000000016
 30
0.0
 11
0.8567683309929208
 21
-0.02052926689862462
 31
0.0
210
0.0
220
0.0
230
1.0
 40
0.6998959537352996
 41
4.222316360145543
 42
4.497389990925721
1001
PE_URL
1000

  0
SPLINE
  5
C3
330
1F
100
AcDbEntity
  8
0
  6
Continuous
 62
     1
370
    25
100
AcDbSpline
210
0.0
220
0.0
230
1.0
 70
     8
 71
     3
 72
    20
 73
    16
 74
     0
 42
0.000000001
 43
0.00000001
 40
0.0
 40
0.0
 40
0.0
 40
0.0
 40
0.125
 40
0.125
 40
0.25
 40
0.25
 40
0.375
 40
0.375
 40
0.5
 40
0.5
 40
0.625
 40
0.625
 40
0.75
 40
0.75
 40
1.0
 40
1.0
 40
1.0
 40
1.0
 10
9.518172400780667
 20
0.4531764991888804
 30
0.0
 10
9.574309417530792
 20
0.4292511722548779
 30
0.0
 10
9.628344215108488
 20
0.4023179810676886
 30
0.0
 10
9.73730153824404
 20
0.3429633012974644
 30
0.0
 10
9.793699075841246
 20
0.3102243676528835
 30
0.0
 10
9.906719711352522
 20
0.2405771294395065
 30
0.0
 10
9.963315683431045
 20
0.2036853441107843
 30
0.0
 10
10.07302485378474
 20
0.1282636135893256
 30
0.0
 10
10.12644964832878
 20
0.0896864429987504
 30
0.0
 10
10.23833608432293
 20
0.0106116442829877
 30
0.0
 10
10.29531252238753
 20
-0.0295376983703719
 30
0.0
 10
10.40759696361224
 20
-0.1084276162277058
 30
0.0
 10
10.46165396385659
 20
-0.1468740841587836
 30
0.0
 10
10.62505444958698
 20
-0.2585200810105859
 30
0.0
 10
10.74173396575381
 20
-0.3290692669827605
 30
0.0
 10
10.85146456679067
 20
-0.3867923435046268
 30
0.0
  0
SPLINE
  5
C4
330
1F
100
AcDbEntity
  8
0
  6
Continuous
 62
     1
370
    25
100
AcDbSpline
210
0.0
220
0.0
230
1.0
 70
    24
 71
     3
 72
     8
 73
     4
 74
     0
 42
0.000000001
 43
0.00000001
 40
0.0
 40
0.0
 40
0.0
 40
0.0
 40
1.0
 40
1.0
 40
1.0
 40
1.0
 10
10.76727631309692
 20
-0.4457415933698872
 30
0.0
 10
10.79611423310211
 20
-0.4255490643959631
 30
0.0
 10
10.82418975785196
 20
-0.4058903703269522
 30
0.0
 10
10.85146456679085
 20
-0.3867923435047143
 30
0.0
1001
PE_URL
1000

  0
SPLINE
  5
C5
330
1F
100
AcDbEntity
  8
0
  6
Continuous
 62
     1
370
    25
100
AcDbSpline
210
0.0
220
0.0
230
1.0
 70
     8
 71
     3
 72
     8
 73
     4
 74
     0
 42
0.000000001
 43
0.00000001
 40
0.0
 40
0.0
 40
0.0
 40
0.0
 40
1.0
 40
1.0
 40
1.0
 40
1.0
 10
10.76727631308944
 20
-0.4457415933645396
 30
0.0
 10
10.80962551123296
 20
-0.4760352930406663
 30
0.0
 10
10.85430208923469
 20
-0.5000717134452235
 30
0.0
 10
10.90072749336219
 20
-0.5194063257509763
 30
0.0
1001
PE_URL
1000

  0
LINE
  5
C6
330
1F
100
AcDbEntity
  8
0
  6
Continuous
 62
     4
370
    25
100
AcDbLine
 10
9.518172400785648
 20
0.4531764991867583
 30
0.0
 11
9.518172400785648
 21
0.3822981188375735
 31
0.0
  0
SPLINE
  5
C7
330
1F
100
AcDbEntity
  8
0
  6
Continuous
 62
     1
370
    25
100
AcDbSpline
210
0.0
220
0.0
230
1.0
 70
     8
 71
     3
 72
    22
 73
    18
 74
     0
 42
0.000000001
 43
0.00000001
 40
0.0
 40
0.0
 40
0.0
 40
0.0
 40
0.125
 40
0.125
 40
0.25
 40
0.25
 40
0.375
 40
0.375
 40
0.5
 40
0.5
 40
0.625
 40
0.625
 40
0.75
 40
0.75
 40
0.875
 40
0.875
 40
1.0
 40
1.0
 40
1.0
 40
1.0
 10
11.26795244406866
 20
-0.0951643922612505
 30
0.0
 10
11.19593700367997
 20
-0.0411408941736205
 30
0.0
 10
11.12092875763853
 20
0.0148284911921664
 30
0.0
 10
10.97326255243813
 20
0.124424811535739
 30
0.0
 10
10.90322797018275
 20
0.1774037346583067
 30
0.0
 10
10.75815725613711
 20
0.2788587999183528
 30
0.0
 10
10.68300648673377
 20
0.3272697636511148
 30
0.0
 10
10.53586085812064
 20
0.4139440151429222
 30
0.0
 10
10.46628197258853
 20
0.4518824449847785
 30
0.0
 10
10.32031021440592
 20
0.5167644064633234
 30
0.0
 10
10.24509497966291
 20
0.5433156931088031
 30
0.0
 10
10.09861556293892
 20
0.5816247698220912
 30
0.0
 10
10.02914816940313
 20
0.5934771392173549
 30
0.0
 10
9.882417114565083
 20
0.6024931881067075
 30
0.0
 10
9.807215699318679
 20
0.5993426385575239
 30
0.0
 10
9.661545918632779
 20
0.5781837997968552
 30
0.0
 10
9.591845447585555
 20
0.5604672951004824
 30
0.0
 10
9.518172400784
 20
0.5356229458048513
 30
0.0
  0
SPLINE
  5
C8
330
1F
100
AcDbEntity
  8
0
  6
Continuous
 62
     1
370
    25
100
AcDbSpline
210
0.0
220
0.0
230
1.0
 70
    24
 71
     3
 72
    32
 73
    28
 74
     0
 42
0.000000001
 43
0.00000001
 40
0.0
 40
0.0
 40
0.0
 40
0.0
 40
0.0133887728310618
 40
0.0616844193878282
 40
0.1104878819748262
 40
0.141900013143867
 40
0.2056967814395166
 40
0.2381894417316291
 40
0.2696087875639747
 40
0.3336252410189315
 40
0.3663010520626081
 40
0.3964788797671354
 40
0.4577095337030868
 40
0.4887933759546463
 40
0.5221588833418828
 40
0.5557079000200598
 40
0.5897872948755941
 40
0.6240312610714285
 40
0.663333667184922
 40
0.7028506126262324
 40
0.7429923397501987
 40
0.7833301950744566
 40
0.8295501734110795
 40
0.8760307385191448
 40
0.9232345650345657
 40
0.9706520149429416
 40
1.0
 40
1.0
 40
1.0
 40
1.0
 10
11.25587775012415
 20
-0.1036191839837959
 30
0.0
 10
11.25531663926673
 20
-0.1040120780357159
 30
0.0
 10
11.25273150335557
 20
-0.1058222096870192
 30
0.0
 10
11.24599224718111
 20
-0.1105410876669252
 30
0.0
 10
11.23659796559065
 20
-0.1171190344480817
 30
0.0
 10
11.22392679403597
 20
-0.1259914842896633
 30
0.0
 10
11.21055933513498
 20
-0.135351479778468
 30
0.0
 10
11.19515841057496
 20
-0.1461353232507691
 30
0.0
 10
11.17847633512245
 20
-0.1578162382356396
 30
0.0
 10
11.16001218167071
 20
-0.1707449776691863
 30
0.0
 10
11.14050426614572
 20
-0.1844045671745289
 30
0.0
 10
11.12078637791032
 20
-0.1982111811545438
 30
0.0
 10
11.10058172183927
 20
-0.2123586336424161
 30
0.0
 10
11.07955529832924
 20
-0.2270814938857516
 30
0.0
 10
11.0630672980311
 20
-0.2386265159844335
 30
0.0
 10
11.04608208328308
 20
-0.2505196913894248
 30
0.0
 10
11.02904089817595
 20
-0.2624520576611418
 30
0.0
 10
11.01121935437311
 20
-0.2749308369745164
 30
0.0
 10
10.99278306339826
 20
-0.2878400668917062
 30
0.0
 10
10.97380237281435
 20
-0.3011304895189933
 30
0.0
 10
10.95516233129052
 20
-0.3141823871065211
 30
0.0
 10
10.93609893547742
 20
-0.32753072055869
 30
0.0
 10
10.91685060864848
 20
-0.3410085441023251
 30
0.0
 10
10.89757030842911
 20
-0.3545087556546375
 30
0.0
 10
10.87913573876842
 20
-0.3674167802949319
 30
0.0
 10
10.86379362472095
 20
-0.378159444202994
 30
0.0
 10
10.85487443717136
 20
-0.3844047265599299
 30
0.0
 10
10.85146456679097
 20
-0.3867923435046002
 30
0.0
1001
PE_URL
1000

  0
SPLINE
  5
C9
330
1F
100
AcDbEntity
  8
0
  6
Continuous
 62
     4
370
    25
100
AcDbSpline
210
0.0
220
0.0
230
1.0
 70
    24
 71
     3
 72
    10
 73
     6
 74
     0
 42
0.000000001
 43
0.00000001
 40
0.0
 40
0.0
 40
0.0
 40
0.0
 40
0.3416740417506596
 40
0.6850633187227253
 40
1.0
 40
1.0
 40
1.0
 40
1.0
 10
9.518172400785648
 20
0.5356229458258647
 30
0.0
 10
9.518172400785648
 20
0.5276564696631544
 30
0.0
 10
9.518172400785648
 20
0.5116835248922011
 30
0.0
 10
9.518172400785648
 20
0.4897966821096836
 30
0.0
 10
9.518172400785648
 20
0.4766560544730066
 30
0.0
 10
9.518172400785645
 20
0.4703697071006491
 30
0.0
  0
SPLINE
  5
CA
330
1F
100
AcDbEntity
  8
0
  6
Continuous
 62
     1
370
    25
100
AcDbSpline
210
0.0
220
0.0
230
1.0
 70
     8
 71
     3
 72
     9
 73
     5
 74
     0
 42
0.000000001
 43
0.00000001
 40
0.0
 40
0.0
 40
0.0
 40
0.0
 40
0.4222458047853402
 40
1.0
 40
1.0
 40
1.0
 40
1.0
 10
11.31817240078564
 20
-0.0000000000000017
 30
0.0
 10
11.29038997762142
 20
0.0212392845043805
 30
0.0
 10
11.22459317668374
 20
0.0715400435970131
 30
0.0
 10
11.1582062386655
 20
0.1199946658073855
 30
0.0
 10
11.11985090671801
 20
0.1479895270669697
 30
0.0
1001
PE_URL
1000

  0
LINE
  5
CB
330
1F
100
AcDbEntity
  8
0
  6
Continuous
 62
     1
370
    25
100
AcDbLine
 10
11.31817240078564
 20
-0.0600000000000038
 30
0.0
 11
11.31817240078564
 21
-0.0000000000000016
 31
0.0
1001
PE_URL
1000

  0
SPLINE
  5
CC
330
1F
100
AcDbEntity
  8
0
  6
Continuous
 62
     1
370
    25
100
AcDbSpline
210
0.0
220
0.0
230
1.0
 70
     8
 71
     3
 72
    17
 73
    13
 74
     0
 42
0.000000001
 43
0.00000001
 40
0.0
 40
0.0
 40
0.0
 40
0.0
 40
0.0577429428129912
 40
0.1267793291609124
 40
0.2071101858736153
 40
0.3412248972597435
 40
0.4421941586473823
 40
0.5704758354295717
 40
0.6850831866998652
 40
0.8313597389533429
 40
0.912707306107287
 40
1.0
 40
1.0
 40
1.0
 40
1.0
 10
10.9007274933623
 20
0.3003615634028827
 30
0.0
 10
10.88479546583139
 20
0.3108261188059732
 30
0.0
 10
10.84981540308878
 20
0.3338019016348406
 30
0.0
 10
10.79231293720416
 20
0.3689792233246805
 30
0.0
 10
10.71337740452558
 20
0.414205428902192
 30
0.0
 10
10.62539370279638
 20
0.4594378493999108
 30
0.0
 10
10.52438242803037
 20
0.5046849126483293
 30
0.0
 10
10.42936950124077
 20
0.5406646174973095
 30
0.0
 10
10.32155121418056
 20
0.5717616838980144
 30
0.0
 10
10.22577086596216
 20
0.5892240417599631
 30
0.0
 10
10.13842952001872
 20
0.5988289874016149
 30
0.0
 10
10.09180653253084
 20
0.5988873691162723
 30
0.0
 10
10.06767323156294
 20
0.598917589047829
 30
0.0
1001
PE_URL
1000

  0
ELLIPSE
  5
CD
330
1F
100
AcDbEntity
  8
0
  6
Continuous
 62
     1
370
    25
100
AcDbEllipse
 10
11.31667692361767
 20
-0.0000000000000017
 30
0.0
 11
0.8568746795567784
 21
-0.5999588519790768
 31
0.0
210
0.0
220
0.0
230
1.0
 40
0.0082005002038563
 41
1.808305837886463
 42
2.083379468665979
1001
PE_URL
1000

  0
LINE
  5
CE
330
1F
100
AcDbEntity
  8
0
  6
Continuous
 62
     1
370
    25
100
AcDbLine
 10
11.31817240078564
 20
-0.0600000000000036
 30
0.0
 11
11.26795244406904
 21
-0.0951643922615353
 31
0.0
1001
PE_URL
1000

  0
SPLINE
  5
CF
330
1F
100
AcDbEntity
  8
0
  6
Continuous
 62
     1
370
    25
100
AcDbSpline
210
0.0
220
0.0
230
1.0
 70
     8
 71
     3
 72
     8
 73
     4
 74
     0
 42
0.000000001
 43
0.00000001
 40
0.0
 40
0.0
 40
0.0
 40
0.0
 40
1.0
 40
1.0
 40
1.0
 40
1.0
 10
11.11985090672367
 20
0.1479895270628226
 30
0.0
 10
11.18570195632034
 20
0.1020650375238553
 30
0.0
 10
11.25181372669437
 20
0.0558521777963848
 30
0.0
 10
11.31817240078564
 20
0.0093662302384433
 30
0.0
1001
PE_URL
1000

  0
LINE
  5
D0
330
1F
100
AcDbEntity
  8
0
  6
Continuous
 62
     1
370
    25
100
AcDbLine
 10
11.31817240078564
 20
-0.0000000000000016
 30
0.0
 11
11.31817240078564
 21
0.0093662302384429
 31
0.0
1001
PE_URL
1000

  0
SPLINE
  5
D1
330
1F
100
AcDbEntity
  8
0
  6
Continuous
 62
     1
370
    25
100
AcDbSpline
210
0.0
220
0.0
230
1.0
 70
     8
 71
     3
 72
    10
 73
     6
 74
     0
 42
0.000000001
 43
0.00000001
 40
0.0
 40
0.0
 40
0.0
 40
0.0
 40
0.1430765358737347
 40
0.5685120994642204
 40
0.9999999999999999
 40
0.9999999999999999
 40
0.9999999999999999
 40
0.9999999999999999
 10
10.66865974772578
 20
0.49201215200647
 30
0.0
 10
10.69728813900207
 20
0.5055050595650059
 30
0.0
 10
10.8110425483423
 20
0.5591188904921782
 30
0.0
 10
11.00963008607826
 20
0.603344970513543
 30
0.0
 10
11.18144050000492
 20
0.5960688176271819
 30
0.0
 10
11.26795244406866
 20
0.5924050459318714
 30
0.0
1001
PE_URL
1000

  0
SPLINE
  5
D2
330
1F
100
AcDbEntity
  8
0
  6
Continuous
 62
     1
370
    25
100
AcDbSpline
210
0.0
220
0.0
230
1.0
 70
     8
 71
     3
 72
    14
 73
    10
 74
     0
 42
0.000000001
 43
0.00000001
 40
0.0
 40
0.0
 40
0.0
 40
0.0
 40
0.2500000000000001
 40
0.2500000000000001
 40
0.5000000000000001
 40
0.5000000000000001
 40
0.75
 40
0.75
 40
1.0
 40
1.0
 40
1.0
 40
1.0
 10
11.26795244406904
 20
0.5924050459318263
 30
0.0
 10
11.26862741276581
 20
0.5308844880925853
 30
0.0
 10
11.26055492424985
 20
0.4692966419645425
 30
0.0
 10
11.21239675236417
 20
0.3608513366077941
 30
0.0
 10
11.17091988262928
 20
0.3189875549224694
 30
0.0
 10
11.07445653447115
 20
0.2849595455450977
 30
0.0
 10
11.02156640906146
 20
0.2910129366114804
 30
0.0
 10
10.92773724365833
 20
0.3337153439532726
 30
0.0
 10
10.88584469941774
 20
0.3703952132263418
 30
0.0
 10
10.85146456679097
 20
0.4153722934440359
 30
0.0
1001
PE_URL
1000

  0
SPLINE
  5
D3
330
1F
100
AcDbEntity
  8
0
  6
Continuous
 62
     1
370
    25
100
AcDbSpline
210
0.0
220
0.0
230
1.0
 70
     8
 71
     3
 72
    17
 73
    13
 74
     0
 42
0.000000001
 43
0.00000001
 40
0.0
 40
0.0
 40
0.0
 40
0.0
 40
0.0543460257018509
 40
0.1677277008116823
 40
0.2817035378349821
 40
0.3958818906967407
 40
0.5090719096988644
 40
0.6224546963768667
 40
0.7364134718013631
 40
0.8505635346968247
 40
0.9252538105923372
 40
1.0
 40
1.0
 40
1.0
 40
1.0
 10
10.35220769046991
 20
0.5629483144582128
 30
0.0
 10
10.36127531471049
 20
0.5622347708879969
 30
0.0
 10
10.38926065027193
 20
0.560032567122116
 30
0.0
 10
10.43612591989976
 20
0.5532774590494403
 30
0.0
 10
10.49255326220289
 20
0.5426754710650085
 30
0.0
 10
10.54909886142776
 20
0.5291386582588713
 30
0.0
 10
10.60585031665193
 20
0.5131205485041364
 30
0.0
 10
10.66269529560907
 20
0.4946097666564754
 30
0.0
 10
10.71975554281324
 20
0.4736199065351331
 30
0.0
 10
10.77030737923555
 20
0.4528335169159244
 30
0.0
 10
10.81422934148188
 20
0.4332953682352451
 30
0.0
 10
10.83904972940222
 20
0.4213481417756911
 30
0.0
 10
10.85146456679082
 20
0.4153722934442255
 30
0.0
1001
PE_URL
1000

  0
SPLINE
  5
D4
330
1F
100
AcDbEntity
  8
0
  6
Continuous
 62
     1
370
    25
100
AcDbSpline
210
0.0
220
0.0
230
1.0
 70
     8
 71
     3
 72
     8
 73
     4
 74
     0
 42
0.000000001
 43
0.00000001
 40
0.0
 40
0.0
 40
0.0
 40
0.0
 40
1.0
 40
1.0
 40
1.0
 40
1.0
 10
10.76727631309692
 20
0.3925334971900323
 30
0.0
 10
10.79611423310211
 20
0.3965563282074407
 30
0.0
 10
10.82418975785196
 20
0.4041101012753543
 30
0.0
 10
10.85146456679085
 20
0.4153722934442216
 30
0.0
1001
PE_URL
1000

  0
SPLINE
  5
D5
330
1F
100
AcDbEntity
  8
0
  6
Continuous
 62
     1
370
    25
100
AcDbSpline
210
0.0
220
0.0
230
1.0
 70
     8
 71
     3
 72
     8
 73
     4
 74
     0
 42
0.000000001
 43
0.00000001
 40
0.0
 40
0.0
 40
0.0
 40
0.0
 40
1.0
 40
1.0
 40
1.0
 40
1.0
 10
10.76727631308944
 20
0.3925334971951743
 30
0.0
 10
10.80962551123296
 20
0.3634045308945273
 30
0.0
 10
10.85430208923469
 20
0.3325364462156948
 30
0.0
 10
10.90072749336219
 20
0.3003615634029604
 30
0.0
1001
PE_URL
1000

  0
SPLINE
  5
D6
330
1F
100
AcDbEntity
  8
0
  6
Continuous
 62
     1
370
    25
100
AcDbSpline
210
0.0
220
0.0
230
1.0
 70
     8
 71
     3
 72
    19
 73
    15
 74
     0
 42
0.000000001
 43
0.00000001
 40
0.0
 40
0.0
 40
0.0
 40
0.0
 40
0.0206123625715603
 40
0.1675861414101334
 40
0.2493214513761191
 40
0.3744529147831929
 40
0.4621034073602668
 40
0.5837596813997105
 40
0.6500866595208566
 40
0.7071281792676162
 40
0.754884025045721
 40
0.793354226395042
 40
0.9309110296556021
 40
1.0
 40
1.0
 40
1.0
 40
1.0
 10
10.34725215625823
 20
-0.5628801008419201
 30
0.0
 10
10.3415651776912
 20
-0.5645430523225884
 30
0.0
 10
10.2953279357922
 20
-0.5780634637276342
 30
0.0
 10
10.22574856604886
 20
-0.5891304428379961
 30
0.0
 10
10.12810264028208
 20
-0.5995222484922694
 30
0.0
 10
10.04714484494779
 20
-0.6010280279747368
 30
0.0
 10
9.954865258048883
 20
-0.5950932828080736
 30
0.0
 10
9.878375545324202
 20
-0.5840607383186653
 30
0.0
 10
9.810402117195341
 20
-0.5695132609413321
 30
0.0
 10
9.76300232677739
 20
-0.5571721643095506
 30
0.0
 10
9.723374709753468
 20
-0.5453176417277242
 30
0.0
 10
9.661693002498254
 20
-0.5247549381686114
 30
0.0
 10
9.594282561503178
 20
-0.498136897627909
 30
0.0
 10
9.53724280359517
 20
-0.471382216601867
 30
0.0
 10
9.518172400780685
 20
-0.462437183119035
 30
0.0
  0
LINE
  5
D7
330
1F
100
AcDbEntity
  8
0
  6
Continuous
 62
     4
370
    25
100
AcDbLine
 10
9.518172400785648
 20
-0.3417214066162924
 30
0.0
 11
9.518172400785648
 21
-0.4624371831214015
 31
0.0
  0
ELLIPSE
  5
D8
330
1F
100
AcDbEntity
  8
0
  6
Continuous
 62
     1
370
    25
100
AcDbEllipse
 10
11.40386128119017
 20
-0.0000000000000017
 30
0.0
 11
0.8568888040452638
 21
0.0
 31
0.0
210
0.0
220
0.0
230
1.0
 40
0.7002075382097136
 41
1.670963747956459
 42
1.730076284964939
1001
PE_URL
1000

  0
LINE
  5
D9
330
1F
100
AcDbEntity
  8
0
  6
Continuous
 62
     1
370
    25
100
AcDbLine
 10
11.31817240078564
 20
0.0104604245416037
 30
0.0
 11
11.31817240078564
 21
0.59699246226397
 31
0.0
1001
PE_URL
1000

  0
SPLINE
  5
DA
330
1F
100
AcDbEntity
  8
0
  6
Continuous
 62
     1
370
    25
100
AcDbSpline
210
0.0
220
0.0
230
1.0
 70
     8
 71
     3
 72
     8
 73
     4
 74
     0
 42
0.000000001
 43
0.00000001
 40
0.0
 40
0.0
 40
0.0
 40
0.0
 40
1.0
 40
1.0
 40
1.0
 40
1.0
 10
11.11985090672367
 20
-0.581462896391256
 30
0.0
 10
11.18570195632034
 20
-0.5924588762599434
 30
0.0
 10
11.25181372669437
 20
-0.5973945105268549
 30
0.0
 10
11.31817240078564
 20
-0.5965909709859215
 30
0.0
1001
PE_URL
1000

  0
LINE
  5
DB
330
1F
100
AcDbEntity
  8
0
  6
Continuous
 62
     1
370
    25
100
AcDbLine
 10
11.31817240078564
 20
-0.0600000000000016
 30
0.0
 11
11.31817240078564
 21
-0.5965909709859203
 31
0.0
1001
PE_URL
1000

  0
SPLINE
  5
DC
330
1F
100
AcDbEntity
  8
0
  6
Continuous
 62
     1
370
    25
100
AcDbSpline
210
0.0
220
0.0
230
1.0
 70
     8
 71
     3
 72
     9
 73
     5
 74
     0
 42
0.000000001
 43
0.00000001
 40
0.0
 40
0.0
 40
0.0
 40
0.0
 40
0.877134627037546
 40
0.9999999999999999
 40
0.9999999999999999
 40
0.9999999999999999
 40
0.9999999999999999
 10
9.518172400780685
 20
-0.5356229458037375
 30
0.0
 10
9.626570218462795
 20
-0.5712363290453166
 30
0.0
 10
9.750151951917122
 20
-0.6118382869931639
 30
0.0
 10
9.873775648067621
 20
-0.5959429634909118
 30
0.0
 10
9.888964719602154
 20
-0.5939899786404488
 30
0.0
  0
LINE
  5
DD
330
1F
100
AcDbEntity
  8
0
  6
Continuous
 62
     4
370
    25
100
AcDbLine
 10
9.518172400785645
 20
-0.5356229458038801
 30
0.0
 11
9.518172400785645
 21
-0.462437183119035
 31
0.0
  0
LINE
  5
DE
330
1F
100
AcDbEntity
  8
0
  6
Continuous
 62
     1
370
    25
100
AcDbLine
 10
11.31817240078564
 20
-0.5999999999999994
 30
0.0
 11
11.31817240078564
 21
-0.5965909709859216
 31
0.0
1001
PE_URL
1000

  0
LINE
  5
DF
330
1F
100
AcDbEntity
  8
0
  6
Continuous
 62
     1
370
    25
100
AcDbLine
 10
11.31817240078564
 20
0.5969924622639701
 30
0.0
 11
11.31817240078564
 21
0.5999999999999981
 31
0.0
1001
PE_URL
1000

  0
LINE
  5
E0
330
1F
100
AcDbEntity
  8
중심선
100
AcDbLine
 10
-41.68182759921436
 20
-0.0000000000000061
 30
0.0
 11
12.81817240078564
 21
0.0000000000000008
 31
0.0
  0
CIRCLE
  5
E1
330
1F
100
AcDbEntity
  8
해칭선
100
AcDbCircle
 10
0.0
 20
0.0
 30
0.0
 40
3.000000000000003
  0
INSERT
  5
E2
330
1F
100
AcDbEntity
  8
0
  6
Continuous
 62
     7
100
AcDbBlockReference
 66
     1
  2
블럭10
 10
-31.5152729321252
 20
-52.04717430164394
 30
0.0
  0
ATTRIB
  5
E3
330
E2
100
AcDbEntity
  8
FORMAT
 62
     2
100
AcDbText
 10
-47.63453397156076
 20
-49.97180738881174
 30
0.0
 40
4.233333333333333
  1
SEME7301206E [ 4 FLUTE ]
 41
0.75
  7
SLDTEXTSTYLE0
 11
-47.63453397156076
 21
-52.08847405547841
 31
0.0
100
AcDbAttribute
  2
AUTOATTR0
 70
     0
 74
     1
  0
SEQEND
  5
E4
330
E2
100
AcDbEntity
  8
0
  6
Continuous
 62
     7
  0
HATCH
  5
E5
330
1F
100
AcDbEntity
  8
중심선
100
AcDbHatch
 10
0.0
 20
0.0
 30
0.0
210
0.0
220
0.0
230
1.0
  2
SOLID
 70
     1
 71
     0
 91
        1
 92
        0
 93
        4
 72
     1
 10
-25.80036362774436
 20
-35.8
 11
-29.24663887158164
 21
-35.8
 72
     1
 10
-29.24663887158164
 20
-35.8
 11
-31.37486873078566
 21
-38.3363255805726
 72
     1
 10
-31.37486873078566
 20
-38.3363255805726
 11
-27.92856040183523
 21
-38.33628615127011
 72
     1
 10
-27.92856040183523
 20
-38.33628615127011
 11
-25.80036362774436
 21
-35.8
 97
        0
 75
     0
 76
     1
 98
        1
 10
-5.87505492098981
 20
-0.0000000000000082
  0
HATCH
  5
E6
330
1F
100
AcDbEntity
  8
중심선
100
AcDbHatch
 10
0.0
 20
0.0
 30
0.0
210
0.0
220
0.0
230
1.0
  2
SOLID
 70
     1
 71
     0
 91
        1
 92
        0
 93
        4
 72
     1
 10
-20.78759963670838
 20
-35.79999999999998
 11
-24.23387488054569
 21
-35.80000000000003
 72
     1
 10
-24.23387488054569
 20
-35.80000000000003
 11
-28.76501288890308
 21
-41.20000000000002
 72
     1
 10
-28.76501288890308
 20
-41.20000000000002
 11
-25.3187376450658
 21
-41.20000000000002
 72
     1
 10
-25.3187376450658
 20
-41.20000000000002
 11
-20.78759963670838
 21
-35.79999999999998
 97
        0
 75
     0
 76
     1
 98
        1
 10
-5.87505492098981
 20
-0.0000000000000082
  0
HATCH
  5
E7
330
1F
100
AcDbEntity
  8
중심선
100
AcDbHatch
 10
0.0
 20
0.0
 30
0.0
210
0.0
220
0.0
230
1.0
  2
SOLID
 70
     1
 71
     0
 91
        1
 92
        0
 93
        4
 72
     1
 10
-15.77483564567251
 20
-35.79999999999998
 11
-19.22111088950965
 21
-35.80000000000003
 72
     1
 10
-19.22111088950965
 20
-35.80000000000003
 11
-26.26954779139887
 21
-44.20000000000002
 72
     1
 10
-26.26954779139887
 20
-44.20000000000002
 11
-22.82327254756159
 21
-44.20000000000002
 72
     1
 10
-22.82327254756159
 20
-44.20000000000002
 11
-15.77483564567251
 21
-35.79999999999998
 97
        0
 75
     0
 76
     1
 98
        1
 10
-5.87505492098981
 20
-0.0000000000000082
  0
HATCH
  5
E8
330
1F
100
AcDbEntity
  8
중심선
100
AcDbHatch
 10
0.0
 20
0.0
 30
0.0
210
0.0
220
0.0
230
1.0
  2
SOLID
 70
     1
 71
     0
 91
        1
 92
        0
 93
        6
 72
     3
 10
-10.97494521466031
 20
-40.00000000005128
 11
3.960054785062283
 21
1.540882976769353E-10
 40
0.3939339440162628
 50
17.09539180608436
 51
320.0019657685078
 73
     0
 72
     1
 10
-9.291945558959714
 20
-38.58789400463831
 11
-6.986643685258649
 21
-36.65356729459039
 72
     3
 10
-10.97494521471316
 20
-40.00000000000016
 11
6.600054785286829
 21
-1.278976924368180E-13
 40
0.636358354079598
 50
39.99873849337385
 51
368.4976242363724
 73
     1
 72
     1
 10
-4.549612722812547
 20
-39.03999999993002
 11
-12.29487790787723
 21
-39.03999999993002
 72
     1
 10
-12.29487790787724
 20
-39.03999999993002
 11
-12.29490295232317
 21
-40.95999999992992
 72
     1
 10
-12.29490295232317
 20
-40.95999999992992
 11
-7.853523182851132
 21
-40.95999999992989
 97
        0
 75
     0
 76
     1
 98
        1
 10
-5.87505492098981
 20
-0.0000000000000082
  0
DIMENSION
  5
E9
330
1F
100
AcDbEntity
  8
치수문자_일반주서
100
AcDbDimension
  2
_D
 10
24.75870500855263
 20
0.6000000000000512
 30
0.0
 11
24.7587050085526
 21
11.57900000000006
 31
0.0
 70
   160
  1
%%c<>
 71
     2
 42
1.200000000000008
 52
-270.0
  3
SLDDIMSTYLE0
100
AcDbAlignedDimension
 13
11.31817240078565
 23
-0.6000000000000064
 33
0.0
 14
11.31817240078565
 24
0.6000000000000011
 34
0.0
 50
90.0000000000002
100
AcDbRotatedDimension
  0
DIMENSION
  5
F7
330
1F
100
AcDbEntity
  8
치수문자_일반주서
100
AcDbDimension
  2
_D_1
 10
11.31817240078564
 20
36.00000000000003
 30
0.0
 11
-13.68182759921435
 21
36.00000000000003
 31
0.0
 70
   160
  1
<>
 71
     2
 42
50.0
  3
SLDDIMSTYLE1
100
AcDbAlignedDimension
 13
-38.68182759921436
 23
1.49999999999999
 33
0.0
 14
11.31817240078564
 24
-0.0600000000000016
 34
0.0
100
AcDbRotatedDimension
  0
DIMENSION
  5
102
330
1F
100
AcDbEntity
  8
치수문자_일반주서
100
AcDbDimension
  2
_D_2
 10
-52.17446716083423
 20
-2.000000000000063
 30
0.0
 11
-52.17446716083423
 21
-0.7264638992030936
 31
0.0
 70
   160
  1
%%c<>
 71
     2
 42
4.0
 52
-270.0
  3
SLDDIMSTYLE2
100
AcDbAlignedDimension
 13
-38.18182759921436
 23
1.99999999999999
 33
0.0
 14
-38.18182759921436
 24
-2.000000000000011
 34
0.0
 50
90.0000000000002
100
AcDbRotatedDimension
  0
DIMENSION
  5
110
330
1F
100
AcDbEntity
  8
치수문자_일반주서
100
AcDbDimension
  2
_D_3
 10
11.31817240078564
 20
18.97000000000002
 30
0.0
 11
22.07842240078564
 21
18.97000000000002
 31
0.0
 70
   160
  1
<>
 71
     2
 42
1.799999999999996
  3
SLDDIMSTYLE3
100
AcDbAlignedDimension
 13
9.518172400785648
 23
0.5356229458249184
 33
0.0
 14
11.31817240078564
 24
-0.0600000000000016
 34
0.0
 50
-0.0000000000002262
100
AcDbRotatedDimension
  0
DIMENSION
  5
11D
330
1F
100
AcDbEntity
  8
치수문자_일반주서
100
AcDbDimension
  2
_D_4
 10
5.31817240078564
 20
25.29678198861815
 30
0.0
 11
8.452965776978655
 21
25.29678198861815
 31
0.0
 70
   160
  1
<>
 71
     2
 42
6.000000000000002
  3
SLDDIMSTYLE2
100
AcDbAlignedDimension
 13
11.31817240078564
 23
0.59699246226397
 33
0.0
 14
5.31817240078564
 24
0.5749999999999971
 34
0.0
100
AcDbRotatedDimension
  0
INSERT
  5
12F
330
1F
100
AcDbEntity
  8
해칭선
100
AcDbBlockReference
  2
SW_DOWELSYMBOL_0
 10
0.0
 20
0.0
 30
0.0
  0
ENDSEC
  0
SECTION
  2
OBJECTS
  0
DICTIONARY
  5
C
330
0
100
AcDbDictionary
281
     1
  3
ACAD_GROUP
350
D
  3
ACAD_LAYOUT
350
1A
  3
ACAD_MLINESTYLE
350
17
  3
ACAD_PLOTSETTINGS
350
19
  3
ACAD_PLOTSTYLENAME
350
E
  3
ACAD_SCALELIST
350
47
  3
APPDATA
350
151
  3
DWGPROPS
350
184
  0
DICTIONARY
  5
182
330
1F
100
AcDbDictionary
280
     1
281
     1
  3
DIM_BOUNDING_BOXES_V1
360
183
  0
DICTIONARY
  5
D
102
{ACAD_REACTORS
330
C
102
}
330
C
100
AcDbDictionary
281
     1
  0
DICTIONARY
  5
1A
102
{ACAD_REACTORS
330
C
102
}
330
C
100
AcDbDictionary
281
     1
  3
Layout1
350
1E
  3
Layout2
350
26
  3
Model
350
22
  0
DICTIONARY
  5
17
102
{ACAD_REACTORS
330
C
102
}
330
C
100
AcDbDictionary
281
     1
  3
Standard
350
18
  0
DICTIONARY
  5
19
102
{ACAD_REACTORS
330
C
102
}
330
C
100
AcDbDictionary
281
     1
  0
ACDBDICTIONARYWDFLT
  5
E
102
{ACAD_REACTORS
330
C
102
}
330
C
100
AcDbDictionary
281
     1
  3
Normal
350
F
100
AcDbDictionaryWithDefault
340
F
  0
DICTIONARY
  5
47
102
{ACAD_REACTORS
330
C
102
}
330
C
100
AcDbDictionary
281
     1
  3
A0
350
48
  3
A1
350
49
  3
A2
350
4A
  3
A3
350
4B
  3
A4
350
4C
  3
A5
350
4D
  3
A6
350
4E
  3
A7
350
4F
  3
A8
350
50
  3
A9
350
51
  3
B0
350
52
  3
B1
350
53
  3
B2
350
54
  3
B3
350
55
  3
B4
350
56
  3
B5
350
57
  3
B6
350
58
  3
B7
350
59
  3
B8
350
5A
  3
B9
350
5B
  3
C0
350
5C
  3
C1
350
5D
  3
C2
350
5E
  3
C3
350
5F
  3
C4
350
60
  3
C5
350
61
  3
C6
350
62
  3
C7
350
63
  3
C8
350
64
  3
C9
350
65
  3
D0
350
66
  3
D1
350
67
  3
D2
350
68
  0
DICTIONARY
  5
151
102
{ACAD_REACTORS
330
C
102
}
330
C
100
AcDbDictionary
281
     1
  0
XRECORD
  5
184
102
{ACAD_REACTORS
330
C
102
}
330
C
100
AcDbXrecord
280
     1
  1
DWGPROPS COOKIE
  2

  3

  4

  6

  7

  8
12016016
  9

300
=
301
=
302
=
303
=
304
=
305
=
306
=
307
=
308
=
309
=
 40
0.0
 41
2458260.398645359
 42
2459677.373139016
  1

 90
        0
  0
DICTIONARY
  5
183
102
{ACAD_REACTORS
330
182
102
}
330
182
100
AcDbDictionary
281
     1
  0
LAYOUT
  5
1E
102
{ACAD_REACTORS
330
1A
102
}
330
1A
100
AcDbPlotSettings
  1

  2
none_device
  4

  6

 40
0.0
 41
0.0
 42
0.0
 43
0.0
 44
0.0
 45
0.0
 46
0.0
 47
0.0
 48
0.0
 49
0.0
140
0.0
141
0.0
142
1.0
143
1.0
 70
   688
 72
     1
 73
     0
 74
     5
  7

 75
    16
147
1.0
148
0.0
149
0.0
100
AcDbLayout
  1
Layout1
 70
     1
 71
     1
 10
0.0
 20
0.0
 11
420.0
 21
297.0
 12
0.0
 22
0.0
 32
0.0
 14
1.000000000000000E+20
 24
1.000000000000000E+20
 34
1.000000000000000E+20
 15
-1.000000000000000E+20
 25
-1.000000000000000E+20
 35
-1.000000000000000E+20
146
0.0
 13
0.0
 23
0.0
 33
0.0
 16
1.0
 26
0.0
 36
0.0
 17
0.0
 27
1.0
 37
0.0
 76
     0
330
1B
  0
LAYOUT
  5
26
102
{ACAD_REACTORS
330
1A
102
}
330
1A
100
AcDbPlotSettings
  1

  2
none_device
  4

  6

 40
0.0
 41
0.0
 42
0.0
 43
0.0
 44
0.0
 45
0.0
 46
0.0
 47
0.0
 48
0.0
 49
0.0
140
0.0
141
0.0
142
1.0
143
1.0
 70
   688
 72
     1
 73
     0
 74
     5
  7

 75
    16
147
1.0
148
0.0
149
0.0
100
AcDbLayout
  1
Layout2
 70
     1
 71
     2
 10
0.0
 20
0.0
 11
0.0
 21
0.0
 12
0.0
 22
0.0
 32
0.0
 14
0.0
 24
0.0
 34
0.0
 15
0.0
 25
0.0
 35
0.0
146
0.0
 13
0.0
 23
0.0
 33
0.0
 16
1.0
 26
0.0
 36
0.0
 17
0.0
 27
1.0
 37
0.0
 76
     0
330
23
  0
LAYOUT
  5
22
102
{ACAD_REACTORS
330
1A
102
}
330
1A
100
AcDbPlotSettings
  1

  2
none_device
  4
ANSI_A_(11.00_x_8.50_Inches)
  6

 40
6.35
 41
19.05
 42
6.35000508
 43
19.05000254
 44
279.4
 45
215.9
 46
162.2260605084696
 47
100.8537443875621
 48
0.0
 49
0.0
140
0.0
141
0.0
142
0.0922419125129433
143
1.0
 70
  1696
 72
     0
 73
     0
 74
     0
  7

 75
     0
147
0.0235690232323232
148
0.0
149
0.0
100
AcDbLayout
  1
Model
 70
     1
 71
     0
 10
0.0
 20
0.0
 11
420.0
 21
297.0
 12
0.0
 22
0.0
 32
0.0
 14
-56.54946716083424
 24
-49.97180738881174
 34
0.0
 15
26.23467240078564
 25
40.37500000000003
 35
0.0
146
0.0
 13
0.0
 23
0.0
 33
0.0
 16
1.0
 26
0.0
 36
0.0
 17
0.0
 27
1.0
 37
0.0
 76
     0
330
1F
331
29
  0
MLINESTYLE
  5
18
102
{ACAD_REACTORS
330
17
102
}
330
17
100
AcDbMlineStyle
  2
Standard
 70
     0
  3

 62
   256
 51
90.0
 52
90.0
 71
     2
 49
0.5
 62
   256
  6
BYLAYER
 49
-0.5
 62
   256
  6
BYLAYER
  0
ACDBPLACEHOLDER
  5
F
102
{ACAD_REACTORS
330
E
102
}
330
E
  0
SCALE
  5
48
102
{ACAD_REACTORS
330
47
102
}
330
47
100
AcDbScale
 70
     0
300
1:1
140
1.0
141
1.0
290
     1
  0
SCALE
  5
49
102
{ACAD_REACTORS
330
47
102
}
330
47
100
AcDbScale
 70
     0
300
1:2
140
1.0
141
2.0
290
     0
  0
SCALE
  5
4A
102
{ACAD_REACTORS
330
47
102
}
330
47
100
AcDbScale
 70
     0
300
1:4
140
1.0
141
4.0
290
     0
  0
SCALE
  5
4B
102
{ACAD_REACTORS
330
47
102
}
330
47
100
AcDbScale
 70
     0
300
1:5
140
1.0
141
5.0
290
     0
  0
SCALE
  5
4C
102
{ACAD_REACTORS
330
47
102
}
330
47
100
AcDbScale
 70
     0
300
1:8
140
1.0
141
8.0
290
     0
  0
SCALE
  5
4D
102
{ACAD_REACTORS
330
47
102
}
330
47
100
AcDbScale
 70
     0
300
1:10
140
1.0
141
10.0
290
     0
  0
SCALE
  5
4E
102
{ACAD_REACTORS
330
47
102
}
330
47
100
AcDbScale
 70
     0
300
1:16
140
1.0
141
16.0
290
     0
  0
SCALE
  5
4F
102
{ACAD_REACTORS
330
47
102
}
330
47
100
AcDbScale
 70
     0
300
1:20
140
1.0
141
20.0
290
     0
  0
SCALE
  5
50
102
{ACAD_REACTORS
330
47
102
}
330
47
100
AcDbScale
 70
     0
300
1:30
140
1.0
141
30.0
290
     0
  0
SCALE
  5
51
102
{ACAD_REACTORS
330
47
102
}
330
47
100
AcDbScale
 70
     0
300
1:40
140
1.0
141
40.0
290
     0
  0
SCALE
  5
52
102
{ACAD_REACTORS
330
47
102
}
330
47
100
AcDbScale
 70
     0
300
1:50
140
1.0
141
50.0
290
     0
  0
SCALE
  5
53
102
{ACAD_REACTORS
330
47
102
}
330
47
100
AcDbScale
 70
     0
300
1:100
140
1.0
141
100.0
290
     0
  0
SCALE
  5
54
102
{ACAD_REACTORS
330
47
102
}
330
47
100
AcDbScale
 70
     0
300
2:1
140
2.0
141
1.0
290
     0
  0
SCALE
  5
55
102
{ACAD_REACTORS
330
47
102
}
330
47
100
AcDbScale
 70
     0
300
4:1
140
4.0
141
1.0
290
     0
  0
SCALE
  5
56
102
{ACAD_REACTORS
330
47
102
}
330
47
100
AcDbScale
 70
     0
300
8:1
140
8.0
141
1.0
290
     0
  0
SCALE
  5
57
102
{ACAD_REACTORS
330
47
102
}
330
47
100
AcDbScale
 70
     0
300
10:1
140
10.0
141
1.0
290
     0
  0
SCALE
  5
58
102
{ACAD_REACTORS
330
47
102
}
330
47
100
AcDbScale
 70
     0
300
100:1
140
100.0
141
1.0
290
     0
  0
SCALE
  5
59
102
{ACAD_REACTORS
330
47
102
}
330
47
100
AcDbScale
 70
     0
300
1/128" = 1'-0"
140
0.0078125
141
12.0
290
     0
  0
SCALE
  5
5A
102
{ACAD_REACTORS
330
47
102
}
330
47
100
AcDbScale
 70
     0
300
1/64" = 1'-0"
140
0.015625
141
12.0
290
     0
  0
SCALE
  5
5B
102
{ACAD_REACTORS
330
47
102
}
330
47
100
AcDbScale
 70
     0
300
1/32" = 1'-0"
140
0.03125
141
12.0
290
     0
  0
SCALE
  5
5C
102
{ACAD_REACTORS
330
47
102
}
330
47
100
AcDbScale
 70
     0
300
1/16" = 1'-0"
140
0.0625
141
12.0
290
     0
  0
SCALE
  5
5D
102
{ACAD_REACTORS
330
47
102
}
330
47
100
AcDbScale
 70
     0
300
3/32" = 1'-0"
140
0.09375
141
12.0
290
     0
  0
SCALE
  5
5E
102
{ACAD_REACTORS
330
47
102
}
330
47
100
AcDbScale
 70
     0
300
1/8" = 1'-0"
140
0.125
141
12.0
290
     0
  0
SCALE
  5
5F
102
{ACAD_REACTORS
330
47
102
}
330
47
100
AcDbScale
 70
     0
300
3/16" = 1'-0"
140
0.1875
141
12.0
290
     0
  0
SCALE
  5
60
102
{ACAD_REACTORS
330
47
102
}
330
47
100
AcDbScale
 70
     0
300
1/4" = 1'-0"
140
0.25
141
12.0
290
     0
  0
SCALE
  5
61
102
{ACAD_REACTORS
330
47
102
}
330
47
100
AcDbScale
 70
     0
300
3/8" = 1'-0"
140
0.375
141
12.0
290
     0
  0
SCALE
  5
62
102
{ACAD_REACTORS
330
47
102
}
330
47
100
AcDbScale
 70
     0
300
1/2" = 1'-0"
140
0.5
141
12.0
290
     0
  0
SCALE
  5
63
102
{ACAD_REACTORS
330
47
102
}
330
47
100
AcDbScale
 70
     0
300
3/4" = 1'-0"
140
0.75
141
12.0
290
     0
  0
SCALE
  5
64
102
{ACAD_REACTORS
330
47
102
}
330
47
100
AcDbScale
 70
     0
300
1" = 1'-0"
140
1.0
141
12.0
290
     0
  0
SCALE
  5
65
102
{ACAD_REACTORS
330
47
102
}
330
47
100
AcDbScale
 70
     0
300
1-1/2" = 1'-0"
140
1.5
141
12.0
290
     0
  0
SCALE
  5
66
102
{ACAD_REACTORS
330
47
102
}
330
47
100
AcDbScale
 70
     0
300
3" = 1'-0"
140
3.0
141
12.0
290
     0
  0
SCALE
  5
67
102
{ACAD_REACTORS
330
47
102
}
330
47
100
AcDbScale
 70
     0
300
6" = 1'-0"
140
6.0
141
12.0
290
     0
  0
SCALE
  5
68
102
{ACAD_REACTORS
330
47
102
}
330
47
100
AcDbScale
 70
     0
300
1'-0" = 1'-0"
140
12.0
141
12.0
290
     0
  0
ENDSEC
  0
EOF
