  0
SECTION
  2
HEADER
  9
$ACADVER
  1
AC1015
  9
$ACADMAINTVER
 70
     6
  9
$DWGCODEPAGE
  3
ANSI_949
  9
$INSBASE
 10
0.0
 20
0.0
 30
0.0
  9
$EXTMIN
 10
-58.5494671608343
 20
-49.97180738881173
 30
0.0
  9
$EXTMAX
 10
29.8424441999167
 20
40.37500000000004
 30
0.0
  9
$LIMMIN
 10
0.0
 20
0.0
  9
$LIMMAX
 10
420.0
 20
297.0
  9
$ORTHOMODE
 70
     0
  9
$REGENMODE
 70
     1
  9
$FILLMODE
 70
     1
  9
$QTEXTMODE
 70
     0
  9
$MIRRTEXT
 70
     1
  9
$LTSCALE
 40
1.0
  9
$ATTMODE
 70
     1
  9
$TEXTSIZE
 40
3.5
  9
$TRACEWID
 40
1.0
  9
$TEXTSTYLE
  7
Standard
  9
$CLAYER
  8
0
  9
$CELTYPE
  6
ByLayer
  9
$CECOLOR
 62
   256
  9
$CELTSCALE
 40
1.0
  9
$DISPSILH
 70
     0
  9
$DIMSCALE
 40
1.0
  9
$DIMASZ
 40
3.302
  9
$DIMEXO
 40
1.0
  9
$DIMDLI
 40
3.75
  9
$DIMRND
 40
0.0
  9
$DIMDLE
 40
0.0
  9
$DIMEXE
 40
1.0
  9
$DIMTP
 40
0.0
  9
$DIMTM
 40
0.0
  9
$DIMTXT
 40
3.5
  9
$DIMCEN
 40
2.5
  9
$DIMTSZ
 40
0.0
  9
$DIMTOL
 70
     0
  9
$DIMLIM
 70
     0
  9
$DIMTIH
 70
     1
  9
$DIMTOH
 70
     1
  9
$DIMSE1
 70
     0
  9
$DIMSE2
 70
     0
  9
$DIMTAD
 70
     1
  9
$DIMZIN
 70
     0
  9
$DIMBLK
  1

  9
$DIMASO
 70
     1
  9
$DIMSHO
 70
     1
  9
$DIMPOST
  1

  9
$DIMAPOST
  1

  9
$DIMALT
 70
     0
  9
$DIMALTD
 70
     3
  9
$DIMALTF
 40
0.0393700787401575
  9
$DIMLFAC
 40
1.0
  9
$DIMTOFL
 70
     1
  9
$DIMTVP
 40
0.0
  9
$DIMTIX
 70
     0
  9
$DIMSOXD
 70
     0
  9
$DIMSAH
 70
     0
  9
$DIMBLK1
  1

  9
$DIMBLK2
  1

  9
$DIMSTYLE
  2
ISO-25
  9
$DIMCLRD
 70
     0
  9
$DIMCLRE
 70
     0
  9
$DIMCLRT
 70
     0
  9
$DIMTFAC
 40
1.0
  9
$DIMGAP
 40
1.524
  9
$DIMJUST
 70
     0
  9
$DIMSD1
 70
     0
  9
$DIMSD2
 70
     0
  9
$DIMTOLJ
 70
     0
  9
$DIMTZIN
 70
     0
  9
$DIMALTZ
 70
     0
  9
$DIMALTTZ
 70
     0
  9
$DIMUPT
 70
     0
  9
$DIMDEC
 70
     2
  9
$DIMTDEC
 70
     2
  9
$DIMALTU
 70
     2
  9
$DIMALTTD
 70
     3
  9
$DIMTXSTY
  7
Standard
  9
$DIMAUNIT
 70
     0
  9
$DIMADEC
 70
     2
  9
$DIMALTRND
 40
0.0
  9
$DIMAZIN
 70
     0
  9
$DIMDSEP
 70
    44
  9
$DIMATFIT
 70
     3
  9
$DIMFRAC
 70
     0
  9
$DIMLDRBLK
  1

  9
$DIMLUNIT
 70
     2
  9
$DIMLWD
 70
    -2
  9
$DIMLWE
 70
    -2
  9
$DIMTMOVE
 70
     0
  9
$LUNITS
 70
     2
  9
$LUPREC
 70
     2
  9
$SKETCHINC
 40
1.0
  9
$FILLETRAD
 40
10.0
  9
$AUNITS
 70
     0
  9
$AUPREC
 70
     2
  9
$MENU
  1
.
  9
$ELEVATION
 40
0.0
  9
$PELEVATION
 40
0.0
  9
$THICKNESS
 40
0.0
  9
$LIMCHECK
 70
     0
  9
$CHAMFERA
 40
0.0
  9
$CHAMFERB
 40
0.0
  9
$CHAMFERC
 40
0.0
  9
$CHAMFERD
 40
0.0
  9
$SKPOLY
 70
     0
  9
$TDCREATE
 40
2458260.773456864
  9
$TDUCREATE
 40
2458260.398456864
  9
$TDUPDATE
 40
2459677.747682234
  9
$TDUUPDATE
 40
2459677.372682234
  9
$TDINDWG
 40
0.0136785995
  9
$TDUSRTIMER
 40
0.0008253704
  9
$USRTIMER
 70
     1
  9
$ANGBASE
 50
0.0
  9
$ANGDIR
 70
     0
  9
$PDMODE
 70
     0
  9
$PDSIZE
 40
-1.0
  9
$PLINEWID
 40
0.0
  9
$SPLFRAME
 70
     0
  9
$SPLINETYPE
 70
     6
  9
$SPLINESEGS
 70
     8
  9
$HANDSEED
  5
1A8
  9
$SURFTAB1
 70
     6
  9
$SURFTAB2
 70
     6
  9
$SURFTYPE
 70
     6
  9
$SURFU
 70
     6
  9
$SURFV
 70
     6
  9
$UCSBASE
  2

  9
$UCSNAME
  2

  9
$UCSORG
 10
0.0
 20
0.0
 30
0.0
  9
$UCSXDIR
 10
1.0
 20
0.0
 30
0.0
  9
$UCSYDIR
 10
0.0
 20
1.0
 30
0.0
  9
$UCSORTHOREF
  2

  9
$UCSORTHOVIEW
 70
     0
  9
$UCSORGTOP
 10
0.0
 20
0.0
 30
0.0
  9
$UCSORGBOTTOM
 10
0.0
 20
0.0
 30
0.0
  9
$UCSORGLEFT
 10
0.0
 20
0.0
 30
0.0
  9
$UCSORGRIGHT
 10
0.0
 20
0.0
 30
0.0
  9
$UCSORGFRONT
 10
0.0
 20
0.0
 30
0.0
  9
$UCSORGBACK
 10
0.0
 20
0.0
 30
0.0
  9
$PUCSBASE
  2

  9
$PUCSNAME
  2

  9
$PUCSORG
 10
0.0
 20
0.0
 30
0.0
  9
$PUCSXDIR
 10
1.0
 20
0.0
 30
0.0
  9
$PUCSYDIR
 10
0.0
 20
1.0
 30
0.0
  9
$PUCSORTHOREF
  2

  9
$PUCSORTHOVIEW
 70
     0
  9
$PUCSORGTOP
 10
0.0
 20
0.0
 30
0.0
  9
$PUCSORGBOTTOM
 10
0.0
 20
0.0
 30
0.0
  9
$PUCSORGLEFT
 10
0.0
 20
0.0
 30
0.0
  9
$PUCSORGRIGHT
 10
0.0
 20
0.0
 30
0.0
  9
$PUCSORGFRONT
 10
0.0
 20
0.0
 30
0.0
  9
$PUCSORGBACK
 10
0.0
 20
0.0
 30
0.0
  9
$USERI1
 70
     0
  9
$USERI2
 70
     0
  9
$USERI3
 70
     0
  9
$USERI4
 70
     0
  9
$USERI5
 70
     0
  9
$USERR1
 40
0.0
  9
$USERR2
 40
0.0
  9
$USERR3
 40
0.0
  9
$USERR4
 40
0.0
  9
$USERR5
 40
0.0
  9
$WORLDVIEW
 70
     1
  9
$SHADEDGE
 70
     3
  9
$SHADEDIF
 70
    70
  9
$TILEMODE
 70
     1
  9
$MAXACTVP
 70
    64
  9
$PINSBASE
 10
0.0
 20
0.0
 30
0.0
  9
$PLIMCHECK
 70
     0
  9
$PEXTMIN
 10
1.000000000000000E+20
 20
1.000000000000000E+20
 30
1.000000000000000E+20
  9
$PEXTMAX
 10
-1.000000000000000E+20
 20
-1.000000000000000E+20
 30
-1.000000000000000E+20
  9
$PLIMMIN
 10
0.0
 20
0.0
  9
$PLIMMAX
 10
0.0
 20
0.0
  9
$UNITMODE
 70
     0
  9
$VISRETAIN
 70
     1
  9
$PLINEGEN
 70
     0
  9
$PSLTSCALE
 70
     1
  9
$TREEDEPTH
 70
  3020
  9
$CMLSTYLE
  2
Standard
  9
$CMLJUST
 70
     0
  9
$CMLSCALE
 40
20.0
  9
$PROXYGRAPHICS
 70
     1
  9
$MEASUREMENT
 70
     1
  9
$CELWEIGHT
370
    -1
  9
$ENDCAPS
280
     0
  9
$JOINSTYLE
280
     0
  9
$LWDISPLAY
290
     1
  9
$INSUNITS
 70
     4
  9
$HYPERLINKBASE
  1

  9
$STYLESHEET
  1

  9
$XEDIT
290
     1
  9
$CEPSNTYPE
380
     0
  9
$PSTYLEMODE
290
     1
  9
$FINGERPRINTGUID
  2
{F3F7E2ED-06A7-41A0-82C3-1F4BD4981898}
  9
$VERSIONGUID
  2
{FAEB1C32-E019-11D5-929B-00C0DF256EC4}
  9
$EXTNAMES
290
     1
  9
$PSVPSCALE
 40
0.0
  9
$OLESTARTUP
290
     0
  0
ENDSEC
  0
SECTION
  2
CLASSES
  0
CLASS
  1
ACDBDICTIONARYWDFLT
  2
AcDbDictionaryWithDefault
  3
ObjectDBX Classes
 90
        0
280
     0
281
     0
  0
CLASS
  1
VISUALSTYLE
  2
AcDbVisualStyle
  3
ObjectDBX Classes
 90
     4095
280
     0
281
     0
  0
CLASS
  1
MATERIAL
  2
AcDbMaterial
  3
ObjectDBX Classes
 90
     1153
280
     0
281
     0
  0
CLASS
  1
SCALE
  2
AcDbScale
  3
ObjectDBX Classes
 90
     1153
280
     0
281
     0
  0
CLASS
  1
TABLESTYLE
  2
AcDbTableStyle
  3
ObjectDBX Classes
 90
     4095
280
     0
281
     0
  0
CLASS
  1
MLEADERSTYLE
  2
AcDbMLeaderStyle
  3
ACDB_MLEADERSTYLE_CLASS
 90
     4095
280
     0
281
     0
  0
CLASS
  1
SUN
  2
AcDbSun
  3
SCENEOE
 90
     1153
280
     0
281
     0
  0
CLASS
  1
ACDBPLACEHOLDER
  2
AcDbPlaceHolder
  3
ObjectDBX Classes
 90
        0
280
     0
281
     0
  0
CLASS
  1
LAYOUT
  2
AcDbLayout
  3
ObjectDBX Classes
 90
        0
280
     0
281
     0
  0
ENDSEC
  0
SECTION
  2
TABLES
  0
TABLE
  2
VPORT
  5
8
330
0
100
AcDbSymbolTable
 70
     1
  0
VPORT
  5
29
330
8
100
AcDbSymbolTableRecord
100
AcDbViewportTableRecord
  2
*Active
 70
     0
 10
0.0
 20
0.0
 11
1.0
 21
1.0
 12
-33.87122865193924
 22
6.327129321866167
 13
0.0
 23
0.0
 14
10.0
 24
10.0
 15
10.0
 25
10.0
 16
0.0
 26
0.0
 36
1.0
 17
0.0
 27
0.0
 37
0.0
 40
44.0924895593706
 41
1.531481481481481
 42
50.0
 43
0.0
 44
0.0
 50
0.0
 51
0.0
 71
    16
 72
  2000
 73
     1
 74
     3
 75
     0
 76
     0
 77
     0
 78
     0
281
     0
 65
     1
110
0.0
120
0.0
130
0.0
111
1.0
121
0.0
131
0.0
112
0.0
122
1.0
132
0.0
 79
     0
146
0.0
  0
ENDTAB
  0
TABLE
  2
LTYPE
  5
5
330
0
100
AcDbSymbolTable
 70
     6
  0
LTYPE
  5
14
330
5
100
AcDbSymbolTableRecord
100
AcDbLinetypeTableRecord
  2
ByBlock
 70
     0
  3

 72
    65
 73
     0
 40
0.0
  0
LTYPE
  5
15
330
5
100
AcDbSymbolTableRecord
100
AcDbLinetypeTableRecord
  2
ByLayer
 70
     0
  3

 72
    65
 73
     0
 40
0.0
  0
LTYPE
  5
16
330
5
100
AcDbSymbolTableRecord
100
AcDbLinetypeTableRecord
  2
Continuous
 70
     0
  3
Solid line
 72
    65
 73
     0
 40
0.0
  0
LTYPE
  5
6E
330
5
100
AcDbSymbolTableRecord
100
AcDbLinetypeTableRecord
  2
HIDDEN
 70
     0
  3
Hidden __ __ __ __ __ __ __ __ __ __ __ __ __ __
 72
    65
 73
     2
 40
1.905
 49
1.27
 74
     0
 49
-0.635
 74
     0
  0
LTYPE
  5
6F
330
5
100
AcDbSymbolTableRecord
100
AcDbLinetypeTableRecord
  2
PHANTOM
 70
     0
  3
Phantom ______  __  __  ______  __  __  ______
 72
    65
 73
     6
 40
12.7
 49
6.35
 74
     0
 49
-1.27
 74
     0
 49
1.27
 74
     0
 49
-1.27
 74
     0
 49
1.27
 74
     0
 49
-1.27
 74
     0
  0
LTYPE
  5
70
330
5
100
AcDbSymbolTableRecord
100
AcDbLinetypeTableRecord
  2
CENTER
 70
     0
  3
Center ____ _ ____ _ ____ _ ____ _ ____ _ ____
 72
    65
 73
     4
 40
10.16
 49
6.35
 74
     0
 49
-1.27
 74
     0
 49
1.27
 74
     0
 49
-1.27
 74
     0
  0
LTYPE
  5
71
330
5
100
AcDbSymbolTableRecord
100
AcDbLinetypeTableRecord
  2
CENTERX2
 70
     0
  3
Center (2x) ________  __  ________  __  _____
 72
    65
 73
     4
 40
20.32
 49
12.7
 74
     0
 49
-2.54
 74
     0
 49
2.54
 74
     0
 49
-2.54
 74
     0
  0
LTYPE
  5
72
330
5
100
AcDbSymbolTableRecord
100
AcDbLinetypeTableRecord
  2
DOT2
 70
     0
  3
Dot (.5x) ........................................
 72
    65
 73
     2
 40
0.635
 49
0.0
 74
     0
 49
-0.635
 74
     0
  0
ENDTAB
  0
TABLE
  2
LAYER
  5
2
330
0
100
AcDbSymbolTable
 70
    17
  0
LAYER
  5
10
330
2
100
AcDbSymbolTableRecord
100
AcDbLayerTableRecord
  2
0
 70
     0
 62
     7
  6
Continuous
370
    -3
390
F
  0
LAYER
  5
73
330
2
100
AcDbSymbolTableRecord
100
AcDbLayerTableRecord
  2
FORMAT
 70
     0
 62
     2
  6
Continuous
370
    -3
390
F
  0
LAYER
  5
74
330
2
100
AcDbSymbolTableRecord
100
AcDbLayerTableRecord
  2
외형선
 70
     0
 62
   100
  6
Continuous
370
    35
390
F
  0
LAYER
  5
75
330
2
100
AcDbSymbolTableRecord
100
AcDbLayerTableRecord
  2
숨은선
 70
     0
 62
     2
  6
HIDDEN
370
    25
390
F
  0
LAYER
  5
76
330
2
100
AcDbSymbolTableRecord
100
AcDbLayerTableRecord
  2
중심선
 70
     0
 62
     1
  6
CENTERX2
370
    -3
390
F
  0
LAYER
  5
77
330
2
100
AcDbSymbolTableRecord
100
AcDbLayerTableRecord
  2
파단선
 70
     0
 62
     4
  6
Continuous
370
    -3
390
F
  0
LAYER
  5
78
330
2
100
AcDbSymbolTableRecord
100
AcDbLayerTableRecord
  2
해칭선
 70
     0
 62
   100
  6
Continuous
370
    -3
390
F
  0
LAYER
  5
79
330
2
100
AcDbSymbolTableRecord
100
AcDbLayerTableRecord
  2
가는실선
 70
     0
 62
     4
  6
Continuous
370
    -3
390
F
  0
LAYER
  5
7A
330
2
100
AcDbSymbolTableRecord
100
AcDbLayerTableRecord
  2
치수_보조선
 70
     0
 62
     4
  6
Continuous
370
    -3
390
F
  0
LAYER
  5
7B
330
2
100
AcDbSymbolTableRecord
100
AcDbLayerTableRecord
  2
치수문자_일반주서
 70
     0
 62
     7
  6
Continuous
370
    25
390
F
  0
LAYER
  5
7C
330
2
100
AcDbSymbolTableRecord
100
AcDbLayerTableRecord
  2
개별주서
 70
     0
 62
   100
  6
Continuous
370
    35
390
F
  0
LAYER
  5
7D
330
2
100
AcDbSymbolTableRecord
100
AcDbLayerTableRecord
  2
중간선
 70
     0
 62
     2
  6
Continuous
370
    25
390
F
  0
LAYER
  5
7E
330
2
100
AcDbSymbolTableRecord
100
AcDbLayerTableRecord
  2
윤곽선
 70
     0
 62
     3
  6
Continuous
370
    50
390
F
  0
LAYER
  5
7F
330
2
100
AcDbSymbolTableRecord
100
AcDbLayerTableRecord
  2
중심마크
 70
     0
 62
   100
  6
Continuous
370
    35
390
F
  0
LAYER
  5
80
330
2
100
AcDbSymbolTableRecord
100
AcDbLayerTableRecord
  2
가상선
 70
     0
 62
     4
  6
PHANTOM
370
    -3
390
F
  0
LAYER
  5
81
330
2
100
AcDbSymbolTableRecord
100
AcDbLayerTableRecord
  2
특수지정선
 70
     0
 62
     5
  6
CENTERX2
370
    70
390
F
  0
LAYER
  5
152
330
2
100
AcDbSymbolTableRecord
100
AcDbLayerTableRecord
  2
Defpoints
 70
     0
 62
     7
  6
Continuous
290
     0
370
    -3
390
F
  0
ENDTAB
  0
TABLE
  2
STYLE
  5
3
330
0
100
AcDbSymbolTable
 70
     2
  0
STYLE
  5
11
330
3
100
AcDbSymbolTableRecord
100
AcDbTextStyleTableRecord
  2
Standard
 70
     0
 40
0.0
 41
1.0
 50
0.0
 71
     0
 42
3.5
  3
txt
  4

  0
STYLE
  5
97
330
3
100
AcDbSymbolTableRecord
100
AcDbTextStyleTableRecord
  2
SLDTEXTSTYLE0
 70
     0
 40
0.0
 41
0.75
 50
0.0
 71
     0
 42
3.5
  3
TXT
  4

  0
ENDTAB
  0
TABLE
  2
VIEW
  5
6
330
0
100
AcDbSymbolTable
 70
     0
  0
ENDTAB
  0
TABLE
  2
UCS
  5
7
330
0
100
AcDbSymbolTable
 70
     0
  0
ENDTAB
  0
TABLE
  2
APPID
  5
9
330
0
100
AcDbSymbolTable
 70
     2
  0
APPID
  5
12
330
9
100
AcDbSymbolTableRecord
100
AcDbRegAppTableRecord
  2
ACAD
 70
     0
  0
APPID
  5
15A
330
9
100
AcDbSymbolTableRecord
100
AcDbRegAppTableRecord
  2
PE_URL
 70
     0
  0
ENDTAB
  0
TABLE
  2
DIMSTYLE
  5
A
330
0
100
AcDbSymbolTable
 70
     5
100
AcDbDimStyleTable
  0
DIMSTYLE
105
27
330
A
100
AcDbSymbolTableRecord
100
AcDbDimStyleTableRecord
  2
ISO-25
 70
     0
 41
2.5
 42
0.625
 43
3.75
 44
1.25
 73
     0
 74
     0
 77
     1
 78
     8
140
2.5
141
2.5
143
0.03937007874016
147
0.625
171
     3
172
     1
178
     0
271
     2
272
     2
274
     3
278
    44
283
     0
284
     8
340
11
  0
DIMSTYLE
105
EA
102
{ACAD_REACTORS
330
E9
102
}
330
A
100
AcDbSymbolTableRecord
100
AcDbDimStyleTableRecord
  2
SLDDIMSTYLE0
 70
     0
 41
3.302
 44
0.0
 45
0.000000001
 73
     0
 74
     0
 77
     1
 78
    12
 79
     3
140
3.5
147
0.875
172
     1
173
     1
178
     0
271
     1
272
     1
276
     2
284
    12
289
     0
340
97
  0
DIMSTYLE
105
F8
102
{ACAD_REACTORS
330
F7
102
}
330
A
100
AcDbSymbolTableRecord
100
AcDbDimStyleTableRecord
  2
SLDDIMSTYLE1
 70
     0
 41
3.302
 44
0.0
 45
0.000000001
 73
     0
 74
     0
 77
     1
 78
    12
 79
     3
140
3.5
147
0.875
173
     1
178
     0
271
     2
272
     2
276
     2
284
    12
340
97
  0
DIMSTYLE
105
103
102
{ACAD_REACTORS
330
102
330
11D
102
}
330
A
100
AcDbSymbolTableRecord
100
AcDbDimStyleTableRecord
  2
SLDDIMSTYLE2
 70
     0
 41
3.302
 44
0.0
 45
0.000000001
 73
     0
 74
     0
 77
     1
 78
    12
 79
     3
140
3.5
147
0.875
172
     1
173
     1
178
     0
271
     2
272
     2
276
     2
284
    12
289
     0
340
97
  0
DIMSTYLE
105
111
102
{ACAD_REACTORS
330
110
102
}
330
A
100
AcDbSymbolTableRecord
100
AcDbDimStyleTableRecord
  2
SLDDIMSTYLE3
 70
     0
 41
3.302
 44
0.0
 45
0.000000001
 73
     0
 74
     0
 77
     1
 78
     4
 79
     1
140
3.5
147
0.875
172
     1
173
     1
178
     0
271
     2
272
     2
276
     2
284
    12
289
     0
340
97
  0
ENDTAB
  0
TABLE
  2
BLOCK_RECORD
  5
1
330
0
100
AcDbSymbolTable
 70
     8
  0
BLOCK_RECORD
  5
1F
102
{ACAD_XDICTIONARY
360
1A5
102
}
330
1
100
AcDbSymbolTableRecord
100
AcDbBlockTableRecord
  2
*Model_Space
340
22
  0
BLOCK_RECORD
  5
1B
330
1
100
AcDbSymbolTableRecord
100
AcDbBlockTableRecord
  2
*Paper_Space
340
1E
  0
BLOCK_RECORD
  5
23
330
1
100
AcDbSymbolTableRecord
100
AcDbBlockTableRecord
  2
*Paper_Space0
340
26
  0
BLOCK_RECORD
  5
82
330
1
100
AcDbSymbolTableRecord
100
AcDbBlockTableRecord
  2
블럭10
340
0
102
{BLKREFS
331
E2
102
}
  0
BLOCK_RECORD
  5
EB
330
1
100
AcDbSymbolTableRecord
100
AcDbBlockTableRecord
  2
_D
340
0
  0
BLOCK_RECORD
  5
F9
330
1
100
AcDbSymbolTableRecord
100
AcDbBlockTableRecord
  2
_D_1
340
0
  0
BLOCK_RECORD
  5
104
330
1
100
AcDbSymbolTableRecord
100
AcDbBlockTableRecord
  2
_D_2
340
0
  0
BLOCK_RECORD
  5
112
330
1
100
AcDbSymbolTableRecord
100
AcDbBlockTableRecord
  2
_D_3
340
0
  0
BLOCK_RECORD
  5
11E
330
1
100
AcDbSymbolTableRecord
100
AcDbBlockTableRecord
  2
_D_4
340
0
  0
BLOCK_RECORD
  5
129
330
1
100
AcDbSymbolTableRecord
100
AcDbBlockTableRecord
  2
SW_DOWELSYMBOL_0
340
0
102
{BLKREFS
331
12F
102
}
  0
ENDTAB
  0
ENDSEC
  0
SECTION
  2
BLOCKS
  0
BLOCK
  5
20
330
1F
100
AcDbEntity
  8
0
100
AcDbBlockBegin
  2
*Model_Space
 70
     0
 10
0.0
 20
0.0
 30
0.0
  3
*Model_Space
  1

  0
ENDBLK
  5
21
330
1F
100
AcDbEntity
  8
0
100
AcDbBlockEnd
  0
BLOCK
  5
1C
330
1B
100
AcDbEntity
 67
     1
  8
0
100
AcDbBlockBegin
  2
*Paper_Space
 70
     0
 10
0.0
 20
0.0
 30
0.0
  3
*Paper_Space
  1

  0
ENDBLK
  5
1D
330
1B
100
AcDbEntity
 67
     1
  8
0
100
AcDbBlockEnd
  0
BLOCK
  5
24
330
23
100
AcDbEntity
  8
0
100
AcDbBlockBegin
  2
*Paper_Space0
 70
     0
 10
0.0
 20
0.0
 30
0.0
  3
*Paper_Space0
  1

  0
ENDBLK
  5
25
330
23
100
AcDbEntity
  8
0
100
AcDbBlockEnd
  0
BLOCK
  5
83
330
82
100
AcDbEntity
  8
0
100
AcDbBlockBegin
  2
블럭10
 70
     2
 10
0.0
 20
0.0
 30
0.0
  3
블럭10
  1

  0
ELLIPSE
  5
85
330
82
100
AcDbEntity
  8
중심선
100
AcDbEllipse
 10
20.54032771741204
 20
12.0471743016438
 30
0.0
 11
6.600054785286829
 21
-1.261213355974178E-13
 31
0.0
210
0.0
220
0.0
230
1.0
 40
0.636358354079598
 41
0.9219305317359503
 42
6.513795318482858
  0
ELLIPSE
  5
86
330
82
100
AcDbEntity
  8
중심선
100
AcDbEllipse
 10
20.54032771746488
 20
12.04717430159265
 30
0.0
 11
3.960054785062283
 21
1.540847449632565E-10
 31
0.0
210
0.0
220
0.0
230
1.0
 40
0.3939339440162632
 41
1.131841032648279
 42
5.62031148352944
  0
LINE
  5
87
330
82
100
AcDbEntity
  8
중심선
100
AcDbLine
 10
2.268634060543552
 20
16.24717430164393
 30
0.0
 11
5.714909304380834
 21
16.24717430164393
 31
0.0
  0
LINE
  5
88
330
82
100
AcDbEntity
  8
중심선
100
AcDbLine
 10
5.245725140726316
 20
7.84717430164391
 30
0.0
 11
8.692000384563599
 21
7.84717430164391
 31
0.0
  0
LINE
  5
89
330
82
100
AcDbEntity
  8
중심선
100
AcDbLine
 10
15.74043728645272
 20
16.24717430164393
 30
0.0
 11
8.692000384563599
 21
7.84717430164391
 31
0.0
  0
LINE
  5
8A
330
82
100
AcDbEntity
  8
중심선
100
AcDbLine
 10
0.1404042013395286
 20
13.71084872107135
 30
0.0
 11
3.58671253028996
 21
13.71088815037384
 31
0.0
  0
LINE
  5
8B
330
82
100
AcDbEntity
  8
중심선
100
AcDbLine
 10
2.750260043222114
 20
10.84717430164391
 30
0.0
 11
6.196535287059397
 21
10.84717430164391
 31
0.0
  0
LINE
  5
8C
330
82
100
AcDbEntity
  8
중심선
100
AcDbLine
 10
12.29416204261559
 20
16.24717430164393
 30
0.0
 11
5.245725140726316
 21
7.84717430164391
 31
0.0
  0
LINE
  5
8D
330
82
100
AcDbEntity
  8
중심선
100
AcDbLine
 10
10.72767329541681
 20
16.24717430164393
 30
0.0
 11
6.196535287059397
 21
10.84717430164391
 31
0.0
  0
LINE
  5
8E
330
82
100
AcDbEntity
  8
중심선
100
AcDbLine
 10
7.28139805157953
 20
16.24717430164393
 30
0.0
 11
2.750260043222114
 21
10.84717430164391
 31
0.0
  0
LINE
  5
8F
330
82
100
AcDbEntity
  8
중심선
100
AcDbLine
 10
5.714909304380834
 20
16.24717430164393
 30
0.0
 11
3.58671253028996
 21
13.71088815037384
 31
0.0
  0
LINE
  5
90
330
82
100
AcDbEntity
  8
중심선
100
AcDbLine
 10
2.268634060543552
 20
16.24717430164393
 30
0.0
 11
0.1404042013395286
 21
13.71084872107135
 31
0.0
  0
LINE
  5
91
330
82
100
AcDbEntity
  8
중심선
100
AcDbLine
 10
7.28139805157953
 20
16.24717430164393
 30
0.0
 11
10.72767329541681
 21
16.24717430164393
 31
0.0
  0
LINE
  5
92
330
82
100
AcDbEntity
  8
중심선
100
AcDbLine
 10
12.29416204261559
 20
16.24717430164393
 30
0.0
 11
15.74043728645272
 21
16.24717430164393
 31
0.0
  0
LINE
  5
93
330
82
100
AcDbEntity
  8
중심선
100
AcDbLine
 10
19.22036997980202
 20
11.08717430171403
 30
0.0
 11
23.66174974927406
 21
11.08717430171406
 31
0.0
  0
LINE
  5
94
330
82
100
AcDbEntity
  8
중심선
100
AcDbLine
 10
19.22039502424796
 20
13.00717430171391
 30
0.0
 11
19.22036997980202
 21
11.08717430171403
 31
0.0
  0
LINE
  5
95
330
82
100
AcDbEntity
  8
중심선
100
AcDbLine
 10
19.22039502424796
 20
13.00717430171391
 30
0.0
 11
26.96566020931264
 21
13.00717430171391
 31
0.0
  0
LINE
  5
96
330
82
100
AcDbEntity
  8
중심선
100
AcDbLine
 10
22.22332737316547
 20
13.45928029700563
 30
0.0
 11
24.52862924686651
 21
15.39360700705356
 31
0.0
  0
ATTDEF
  5
98
330
82
100
AcDbEntity
  8
FORMAT
 62
     2
100
AcDbText
 10
-16.11926103943555
 20
2.075366912832191
 30
0.0
 40
4.233333333333333
  1
SEME7301204E [ 4 FLUTE ]
 41
0.75
  7
SLDTEXTSTYLE0
 11
-16.11926103943555
 21
-0.0412997538344756
 31
0.0
100
AcDbAttributeDefinition
  3

  2
AUTOATTR0
 70
     0
 74
     1
  0
ENDBLK
  5
84
330
82
100
AcDbEntity
  8
0
100
AcDbBlockEnd
  0
BLOCK
  5
EC
330
EB
100
AcDbEntity
  8
0
100
AcDbBlockBegin
  2
_D
 70
     0
 10
0.0
 20
0.0
 30
0.0
  3
_D
  1

  0
LINE
  5
EE
330
EB
100
AcDbEntity
  8
치수문자_일반주서
 62
     0
370
    -2
100
AcDbLine
 10
9.380672400785626
 20
-0.5999999999999991
 30
0.0
 11
29.29211086658335
 21
-0.599999999999925
 31
0.0
  0
LINE
  5
EF
330
EB
100
AcDbEntity
  8
치수문자_일반주서
 62
     0
370
    -2
100
AcDbLine
 10
9.380672400785626
 20
0.6000000000000084
 30
0.0
 11
29.29211086658335
 21
0.6000000000000831
 31
0.0
  0
LINE
  5
F0
330
EB
100
AcDbEntity
  8
치수문자_일반주서
 62
     0
370
    -2
100
AcDbLine
 10
29.29211086658335
 20
0.6000000000000831
 30
0.0
 11
29.2921108665833
 21
15.95400000000008
 31
0.0
  0
LINE
  5
F1
330
EB
100
AcDbEntity
  8
치수문자_일반주서
 62
     0
370
    -2
100
AcDbLine
 10
29.29211086658335
 20
-0.599999999999925
 30
0.0
 11
29.29211086658335
 21
0.6000000000000831
 31
0.0
  0
LINE
  5
F2
330
EB
100
AcDbEntity
  8
치수문자_일반주서
 62
     0
370
    -2
100
AcDbLine
 10
29.29211086658336
 20
-3.901999999999925
 30
0.0
 11
29.29211086658337
 21
-7.203999999999925
 31
0.0
  0
LINE
  5
F3
330
EB
100
AcDbEntity
  8
치수문자_일반주서
 62
     0
370
    -2
100
AcDbLine
 10
29.29211086658334
 20
3.902000000000083
 30
0.0
 11
29.29211086658333
 21
7.204000000000083
 31
0.0
  0
SOLID
  5
F4
330
EB
100
AcDbEntity
  8
치수문자_일반주서
 62
     0
100
AcDbTrace
 10
29.8424441999167
 20
-3.901999999999923
 30
0.0
 11
28.74177753325003
 21
-3.901999999999927
 31
0.0
 12
29.29211086658335
 22
-0.599999999999925
 32
0.0
 13
29.29211086658335
 23
-0.599999999999925
 33
0.0
  0
SOLID
  5
F5
330
EB
100
AcDbEntity
  8
치수문자_일반주서
 62
     0
100
AcDbTrace
 10
28.74177753325
 20
3.902000000000081
 30
0.0
 11
29.84244419991667
 21
3.902000000000085
 31
0.0
 12
29.29211086658335
 22
0.6000000000000831
 32
0.0
 13
29.29211086658335
 23
0.6000000000000831
 33
0.0
  0
MTEXT
  5
F6
330
EB
100
AcDbEntity
  8
치수문자_일반주서
 62
     0
100
AcDbMText
 10
24.91711086658332
 20
11.57900000000007
 30
0.0
 40
3.5
 41
0.0
 71
     2
 72
     1
  1
\A1;%%c1.2
  7
SLDTEXTSTYLE0
 11
-2.960594732333732E-15
 21
1.0
 31
0.0
 73
     1
 44
1.0
  0
POINT
  5
157
330
EB
100
AcDbEntity
  8
Defpoints
 62
     0
100
AcDbPoint
 10
9.318172400785626
 20
-0.5999999999999993
 30
0.0
  0
POINT
  5
158
330
EB
100
AcDbEntity
  8
Defpoints
 62
     0
100
AcDbPoint
 10
9.318172400785626
 20
0.6000000000000082
 30
0.0
  0
POINT
  5
159
330
EB
100
AcDbEntity
  8
Defpoints
 62
     0
100
AcDbPoint
 10
29.29211086658335
 20
0.6000000000000828
 30
0.0
  0
ENDBLK
  5
ED
330
EB
100
AcDbEntity
  8
0
100
AcDbBlockEnd
  0
BLOCK
  5
FA
330
F9
100
AcDbEntity
  8
0
100
AcDbBlockBegin
  2
_D_1
 70
     0
 10
0.0
 20
0.0
 30
0.0
  3
_D_1
  1

  0
LINE
  5
FC
330
F9
100
AcDbEntity
  8
치수문자_일반주서
 62
     0
370
    -2
100
AcDbLine
 10
-40.68182759921439
 20
1.562499999999998
 30
0.0
 11
-40.68182759921439
 21
36.00000000000004
 31
0.0
  0
LINE
  5
FD
330
F9
100
AcDbEntity
  8
치수문자_일반주서
 62
     0
370
    -2
100
AcDbLine
 10
9.318172400785615
 20
0.0025000000000055
 30
0.0
 11
9.318172400785613
 21
36.00000000000004
 31
0.0
  0
LINE
  5
FE
330
F9
100
AcDbEntity
  8
치수문자_일반주서
 62
     0
370
    -2
100
AcDbLine
 10
-37.37982759921439
 20
36.00000000000004
 30
0.0
 11
6.016172400785614
 21
36.00000000000004
 31
0.0
  0
SOLID
  5
FF
330
F9
100
AcDbEntity
  8
치수문자_일반주서
 62
     0
100
AcDbTrace
 10
-37.37982759921439
 20
36.55033333333338
 30
0.0
 11
-37.37982759921439
 21
35.44966666666671
 31
0.0
 12
-40.68182759921439
 22
36.00000000000004
 32
0.0
 13
-40.68182759921439
 23
36.00000000000004
 33
0.0
  0
SOLID
  5
100
330
F9
100
AcDbEntity
  8
치수문자_일반주서
 62
     0
100
AcDbTrace
 10
6.016172400785614
 20
35.44966666666671
 30
0.0
 11
6.016172400785614
 21
36.55033333333338
 31
0.0
 12
9.318172400785613
 22
36.00000000000004
 32
0.0
 13
9.318172400785613
 23
36.00000000000004
 33
0.0
  0
MTEXT
  5
101
330
F9
100
AcDbEntity
  8
치수문자_일반주서
 62
     0
100
AcDbMText
 10
-15.68182759921438
 20
40.37500000000004
 30
0.0
 40
3.5
 41
0.0
 71
     2
 72
     1
  1
\A1;50
  7
SLDTEXTSTYLE0
 73
     1
 44
1.0
  0
POINT
  5
17F
330
F9
100
AcDbEntity
  8
Defpoints
 62
     0
100
AcDbPoint
 10
-40.68182759921439
 20
1.499999999999998
 30
0.0
  0
POINT
  5
180
330
F9
100
AcDbEntity
  8
Defpoints
 62
     0
100
AcDbPoint
 10
9.318172400785615
 20
-0.0599999999999945
 30
0.0
  0
POINT
  5
181
330
F9
100
AcDbEntity
  8
Defpoints
 62
     0
100
AcDbPoint
 10
9.318172400785615
 20
36.00000000000004
 30
0.0
  0
ENDBLK
  5
FB
330
F9
100
AcDbEntity
  8
0
100
AcDbBlockEnd
  0
BLOCK
  5
105
330
104
100
AcDbEntity
  8
0
100
AcDbBlockBegin
  2
_D_2
 70
     0
 10
0.0
 20
0.0
 30
0.0
  3
_D_2
  1

  0
LINE
  5
107
330
104
100
AcDbEntity
  8
치수문자_일반주서
 62
     0
370
    -2
100
AcDbLine
 10
-40.24432759921442
 20
2.000000000000007
 30
0.0
 11
-54.17446716083429
 21
1.999999999999955
 31
0.0
  0
LINE
  5
108
330
104
100
AcDbEntity
  8
치수문자_일반주서
 62
     0
370
    -2
100
AcDbLine
 10
-40.24432759921442
 20
-1.999999999999996
 30
0.0
 11
-54.17446716083428
 21
-2.000000000000049
 31
0.0
  0
LINE
  5
109
330
104
100
AcDbEntity
  8
치수문자_일반주서
 62
     0
370
    -2
100
AcDbLine
 10
-54.17446716083428
 20
-1.302000000000045
 30
0.0
 11
-54.17446716083429
 21
1.301999999999951
 31
0.0
  0
SOLID
  5
10A
330
104
100
AcDbEntity
  8
치수문자_일반주서
 62
     0
100
AcDbTrace
 10
-53.62413382750094
 20
-1.302000000000043
 30
0.0
 11
-54.72480049416761
 21
-1.302000000000047
 31
0.0
 12
-54.17446716083429
 22
1.999999999999955
 32
0.0
 13
-54.17446716083429
 23
1.999999999999955
 33
0.0
  0
SOLID
  5
10B
330
104
100
AcDbEntity
  8
치수문자_일반주서
 62
     0
100
AcDbTrace
 10
-54.72480049416762
 20
1.301999999999949
 30
0.0
 11
-53.62413382750096
 21
1.301999999999953
 31
0.0
 12
-54.17446716083428
 22
-2.000000000000049
 32
0.0
 13
-54.17446716083428
 23
-2.000000000000049
 33
0.0
  0
MTEXT
  5
10C
330
104
100
AcDbEntity
  8
치수문자_일반주서
 62
     0
100
AcDbMText
 10
-58.54946716083428
 20
-0.7264638992030916
 30
0.0
 40
3.5
 41
0.0
 71
     2
 72
     1
  1
\A1;%%c4
  7
SLDTEXTSTYLE0
 11
-3.552713678800498E-15
 21
1.0
 31
0.0
 73
     1
 44
1.0
  0
POINT
  5
10D
330
104
100
AcDbEntity
  8
Defpoints
 62
     0
100
AcDbPoint
 10
-40.18182759921442
 20
2.000000000000008
 30
0.0
  0
POINT
  5
10E
330
104
100
AcDbEntity
  8
Defpoints
 62
     0
100
AcDbPoint
 10
-40.18182759921442
 20
-1.999999999999996
 30
0.0
  0
POINT
  5
10F
330
104
100
AcDbEntity
  8
Defpoints
 62
     0
100
AcDbPoint
 10
-54.17446716083428
 20
-2.000000000000048
 30
0.0
  0
ENDBLK
  5
106
330
104
100
AcDbEntity
  8
0
100
AcDbBlockEnd
  0
BLOCK
  5
113
330
112
100
AcDbEntity
  8
0
100
AcDbBlockBegin
  2
_D_3
 70
     0
 10
0.0
 20
0.0
 30
0.0
  3
_D_3
  1

  0
LINE
  5
115
330
112
100
AcDbEntity
  8
치수문자_일반주서
 62
     0
370
    -2
100
AcDbLine
 10
7.518172400785614
 20
0.5981229458249252
 30
0.0
 11
7.518172400785614
 21
17.23334603283829
 31
0.0
  0
LINE
  5
116
330
112
100
AcDbEntity
  8
치수문자_일반주서
 62
     0
370
    -2
100
AcDbLine
 10
9.318172400785615
 20
0.0025000000000055
 30
0.0
 11
9.318172400785615
 21
17.23334603283829
 31
0.0
  0
LINE
  5
117
330
112
100
AcDbEntity
  8
치수문자_일반주서
 62
     0
370
    -2
100
AcDbLine
 10
9.318172400785615
 20
17.23334603283829
 30
0.0
 11
24.70650257743662
 21
17.23334603283829
 31
0.0
  0
LINE
  5
118
330
112
100
AcDbEntity
  8
치수문자_일반주서
 62
     0
370
    -2
100
AcDbLine
 10
7.518172400785614
 20
17.23334603283829
 30
0.0
 11
9.318172400785615
 21
17.23334603283829
 31
0.0
  0
LINE
  5
119
330
112
100
AcDbEntity
  8
치수문자_일반주서
 62
     0
370
    -2
100
AcDbLine
 10
4.216172400785615
 20
17.23334603283829
 30
0.0
 11
0.9141724007856147
 21
17.23334603283829
 31
0.0
  0
LINE
  5
11A
330
112
100
AcDbEntity
  8
치수문자_일반주서
 62
     0
370
    -2
100
AcDbLine
 10
12.62017240078561
 20
17.23334603283829
 30
0.0
 11
15.92217240078561
 21
17.23334603283829
 31
0.0
  0
SOLID
  5
11B
330
112
100
AcDbEntity
  8
치수문자_일반주서
 62
     0
100
AcDbTrace
 10
4.216172400785615
 20
16.68301269950496
 30
0.0
 11
4.216172400785615
 21
17.78367936617163
 31
0.0
 12
7.518172400785614
 22
17.23334603283829
 32
0.0
 13
7.518172400785614
 23
17.23334603283829
 33
0.0
  0
SOLID
  5
11C
330
112
100
AcDbEntity
  8
치수문자_일반주서
 62
     0
100
AcDbTrace
 10
12.62017240078561
 20
17.78367936617163
 30
0.0
 11
12.62017240078561
 21
16.68301269950496
 31
0.0
 12
9.318172400785615
 22
17.23334603283829
 32
0.0
 13
9.318172400785615
 23
17.23334603283829
 33
0.0
  0
MTEXT
  5
153
330
112
100
AcDbEntity
  8
치수문자_일반주서
 62
     0
100
AcDbMText
 10
20.55025257743662
 20
21.60834603283829
 30
0.0
 40
3.5
 41
0.0
 71
     2
 72
     1
  1
\A1;1.80
  7
SLDTEXTSTYLE0
 73
     1
 44
1.0
  0
POINT
  5
154
330
112
100
AcDbEntity
  8
Defpoints
 62
     0
100
AcDbPoint
 10
7.518172400785614
 20
0.5356229458249252
 30
0.0
  0
POINT
  5
155
330
112
100
AcDbEntity
  8
Defpoints
 62
     0
100
AcDbPoint
 10
9.318172400785615
 20
-0.0599999999999945
 30
0.0
  0
POINT
  5
156
330
112
100
AcDbEntity
  8
Defpoints
 62
     0
100
AcDbPoint
 10
9.318172400785615
 20
17.23334603283829
 30
0.0
  0
ENDBLK
  5
114
330
112
100
AcDbEntity
  8
0
100
AcDbBlockEnd
  0
BLOCK
  5
11F
330
11E
100
AcDbEntity
  8
0
100
AcDbBlockBegin
  2
_D_4
 70
     0
 10
0.0
 20
0.0
 30
0.0
  3
_D_4
  1

  0
LINE
  5
121
330
11E
100
AcDbEntity
  8
치수문자_일반주서
 62
     0
370
    -2
100
AcDbLine
 10
9.318172400785615
 20
0.6594924622639771
 30
0.0
 11
9.318172400785615
 21
25.29678198861816
 31
0.0
  0
LINE
  5
122
330
11E
100
AcDbEntity
  8
치수문자_일반주서
 62
     0
370
    -2
100
AcDbLine
 10
5.318172400785611
 20
0.6375000000000051
 30
0.0
 11
5.318172400785611
 21
25.29678198861816
 31
0.0
  0
LINE
  5
123
330
11E
100
AcDbEntity
  8
치수문자_일반주서
 62
     0
370
    -2
100
AcDbLine
 10
6.016172400785615
 20
25.29678198861816
 30
0.0
 11
8.620172400785611
 21
25.29678198861816
 31
0.0
  0
SOLID
  5
124
330
11E
100
AcDbEntity
  8
치수문자_일반주서
 62
     0
100
AcDbTrace
 10
6.016172400785615
 20
24.74644865528483
 30
0.0
 11
6.016172400785615
 21
25.8471153219515
 31
0.0
 12
9.318172400785615
 22
25.29678198861816
 32
0.0
 13
9.318172400785615
 23
25.29678198861816
 33
0.0
  0
SOLID
  5
125
330
11E
100
AcDbEntity
  8
치수문자_일반주서
 62
     0
100
AcDbTrace
 10
8.620172400785611
 20
25.8471153219515
 30
0.0
 11
8.620172400785611
 21
24.74644865528483
 31
0.0
 12
5.318172400785611
 22
25.29678198861816
 32
0.0
 13
5.318172400785611
 23
25.29678198861816
 33
0.0
  0
MTEXT
  5
126
330
11E
100
AcDbEntity
  8
치수문자_일반주서
 62
     0
100
AcDbMText
 10
7.408034651580955
 20
29.67178198861816
 30
0.0
 40
3.5
 41
0.0
 71
     2
 72
     1
  1
\A1;4
  7
SLDTEXTSTYLE0
 73
     1
 44
1.0
  0
POINT
  5
127
330
11E
100
AcDbEntity
  8
Defpoints
 62
     0
100
AcDbPoint
 10
9.318172400785615
 20
0.5969924622639771
 30
0.0
  0
POINT
  5
128
330
11E
100
AcDbEntity
  8
Defpoints
 62
     0
100
AcDbPoint
 10
5.318172400785611
 20
0.5750000000000051
 30
0.0
  0
POINT
  5
182
330
11E
100
AcDbEntity
  8
Defpoints
 62
     0
100
AcDbPoint
 10
5.318172400785611
 20
25.29678198861816
 30
0.0
  0
ENDBLK
  5
120
330
11E
100
AcDbEntity
  8
0
100
AcDbBlockEnd
  0
BLOCK
  5
12A
330
129
100
AcDbEntity
  8
0
100
AcDbBlockBegin
  2
SW_DOWELSYMBOL_0
 70
     0
 10
0.0
 20
0.0
 30
0.0
  3
SW_DOWELSYMBOL_0
  1

  0
CIRCLE
  5
12C
330
129
100
AcDbEntity
  8
해칭선
 62
     0
100
AcDbCircle
 10
0.0
 20
0.0
 30
0.0
 40
3.000000000000003
  0
HATCH
  5
12D
330
129
100
AcDbEntity
  8
0
  6
Continuous
 62
     0
370
    18
100
AcDbHatch
 10
0.0
 20
0.0
 30
0.0
210
0.0
220
0.0
230
1.0
  2
SOLID
 70
     1
 71
     0
 91
        1
 92
        0
 93
        3
 72
     2
 10
-0.0000000000000017
 20
-0.0000000000000035
 40
3.000000000000003
 50
0.0
 51
90.0
 73
     1
 72
     1
 10
-0.0000000000000017
 20
2.999999999999999
 11
-0.0000000000000017
 21
-0.0000000000000036
 72
     1
 10
-0.0000000000000017
 20
-0.0000000000000035
 11
3.000000000000001
 21
-0.0000000000000035
 97
        0
 75
     0
 76
     1
 98
        1
 10
0.0
 20
0.0
  0
HATCH
  5
12E
330
129
100
AcDbEntity
  8
0
  6
Continuous
 62
     0
370
    18
100
AcDbHatch
 10
0.0
 20
0.0
 30
0.0
210
0.0
220
0.0
230
1.0
  2
SOLID
 70
     1
 71
     0
 91
        1
 92
        0
 93
        3
 72
     2
 10
-0.0000000000000017
 20
-0.0000000000000035
 40
3.000000000000003
 50
180.0
 51
270.0000000000007
 73
     1
 72
     1
 10
-0.0000000000000017
 20
-3.000000000000006
 11
-0.0000000000000017
 21
-0.0000000000000036
 72
     1
 10
-0.0000000000000017
 20
-0.0000000000000035
 11
-3.000000000000004
 21
-0.0000000000000035
 97
        0
 75
     0
 76
     1
 98
        1
 10
0.0
 20
0.0
  0
ENDBLK
  5
12B
330
129
100
AcDbEntity
  8
0
100
AcDbBlockEnd
  0
ENDSEC
  0
SECTION
  2
ENTITIES
  0
LINE
  5
99
330
1F
100
AcDbEntity
  8
0
  6
Continuous
 62
     4
370
    25
100
AcDbLine
 10
0.0
 20
-2.000000000000003
 30
0.0
 11
5.318172400785611
 21
-0.5750000000000067
 31
0.0
  0
LINE
  5
9A
330
1F
100
AcDbEntity
  8
0
  6
Continuous
 62
     4
370
    25
100
AcDbLine
 10
5.318172400785611
 20
0.5750000000000051
 30
0.0
 11
-0.0000000000000018
 21
2.000000000000001
 31
0.0
  0
LINE
  5
9B
330
1F
100
AcDbEntity
  8
0
  6
Continuous
 62
     4
370
    25
100
AcDbLine
 10
-0.0000000000000018
 20
2.000000000000001
 30
0.0
 11
-40.18182759921439
 21
1.999999999999999
 31
0.0
  0
LINE
  5
9C
330
1F
100
AcDbEntity
  8
0
  6
Continuous
 62
     4
370
    25
100
AcDbLine
 10
-40.18182759921439
 20
-2.000000000000005
 30
0.0
 11
0.0000000000000031
 21
-2.000000000000003
 31
0.0
  0
LINE
  5
9D
330
1F
100
AcDbEntity
  8
0
  6
Continuous
 62
     4
370
    25
100
AcDbLine
 10
-40.18182759921439
 20
1.999999999999997
 30
0.0
 11
-40.68182759921439
 21
1.499999999999997
 31
0.0
  0
LINE
  5
9E
330
1F
100
AcDbEntity
  8
0
  6
Continuous
 62
     4
370
    25
100
AcDbLine
 10
-40.68182759921439
 20
-1.500000000000004
 30
0.0
 11
-40.18182759921439
 21
-2.000000000000004
 31
0.0
  0
LINE
  5
9F
330
1F
100
AcDbEntity
  8
0
  6
Continuous
 62
     4
370
    25
100
AcDbLine
 10
7.001713910196216
 20
0.5750000000000053
 30
0.0
 11
5.318172400785611
 21
0.5750000000000052
 31
0.0
  0
LINE
  5
A0
330
1F
100
AcDbEntity
  8
0
  6
Continuous
 62
     4
370
    25
100
AcDbLine
 10
5.318172400785611
 20
-0.5750000000000067
 30
0.0
 11
7.001713910196204
 21
-0.5750000000000066
 31
0.0
  0
LINE
  5
A1
330
1F
100
AcDbEntity
  8
0
  6
Continuous
 62
     1
370
    25
100
AcDbLine
 10
9.140318688218215
 20
-0.5999999999999945
 30
0.0
 11
9.323643372301413
 21
-0.5999999999999945
 31
0.0
1001
PE_URL
1000

  0
LINE
  5
A2
330
1F
100
AcDbEntity
  8
0
  6
Continuous
 62
     1
370
    25
100
AcDbLine
 10
9.127252045443335
 20
0.0091734902283357
 30
0.0
 11
9.107967471872914
 21
0.0243820048658549
 31
0.0
1001
PE_URL
1000

  0
SPLINE
  5
A3
330
1F
100
AcDbEntity
  8
0
  6
Continuous
 62
     1
370
    25
100
AcDbSpline
210
0.0
220
0.0
230
1.0
 70
     8
 71
     3
 72
     9
 73
     5
 74
     0
 42
0.000000001
 43
0.00000001
 40
0.0
 40
0.0
 40
0.0
 40
0.0
 40
0.5590861941067243
 40
0.9999999999999999
 40
0.9999999999999999
 40
0.9999999999999999
 40
0.9999999999999999
 10
9.278429479964336
 20
-0.1059934861964264
 30
0.0
 10
9.250258551610324
 20
-0.0855072534969922
 30
0.0
 10
9.199871100353334
 20
-0.0488649022542361
 30
0.0
 10
9.149473182994925
 20
-0.008586023500214
 30
0.0
 10
9.127252045443335
 20
0.0091734902283357
 30
0.0
1001
PE_URL
1000

  0
LINE
  5
A4
330
1F
100
AcDbEntity
  8
0
  6
Continuous
 62
     1
370
    25
100
AcDbLine
 10
8.067673231562946
 20
0.6000000000000052
 30
0.0
 11
7.888964719602124
 21
0.6000000000000052
 31
0.0
  0
LINE
  5
A5
330
1F
100
AcDbEntity
  8
0
  6
Continuous
 62
     1
370
    25
100
AcDbLine
 10
7.888964719602124
 20
-0.5999999999999945
 30
0.0
 11
8.067673231563026
 21
-0.5999999999999945
 31
0.0
  0
LINE
  5
A6
330
1F
100
AcDbEntity
  8
0
  6
Continuous
 62
     1
370
    25
100
AcDbLine
 10
9.318172400785615
 20
0.6000000000000052
 30
0.0
 11
9.140318688218215
 21
0.6000000000000052
 31
0.0
1001
PE_URL
1000

  0
LINE
  5
A7
330
1F
100
AcDbEntity
  8
0
  6
Continuous
 62
     4
370
    25
100
AcDbLine
 10
5.318172400785611
 20
0.5750000000000051
 30
0.0
 11
5.318172400785611
 21
-0.5750000000000066
 31
0.0
  0
LINE
  5
A8
330
1F
100
AcDbEntity
  8
0
  6
Continuous
 62
     4
370
    25
100
AcDbLine
 10
0.0
 20
2.000000000000003
 30
0.0
 11
0.0
 21
-2.000000000000003
 31
0.0
  0
LINE
  5
A9
330
1F
100
AcDbEntity
  8
0
  6
Continuous
 62
     4
370
    25
100
AcDbLine
 10
-40.18182759921439
 20
1.999999999999997
 30
0.0
 11
-40.18182759921439
 21
-2.000000000000004
 31
0.0
  0
LINE
  5
AA
330
1F
100
AcDbEntity
  8
0
  6
Continuous
 62
     4
370
    25
100
AcDbLine
 10
-40.68182759921439
 20
1.499999999999998
 30
0.0
 11
-40.68182759921439
 21
-1.500000000000004
 31
0.0
  0
SPLINE
  5
AB
330
1F
100
AcDbEntity
  8
0
  6
Continuous
 62
     4
370
    25
100
AcDbSpline
210
0.0
220
0.0
230
1.0
 70
    24
 71
     3
 72
    14
 73
    10
 74
     0
 42
0.000000001
 43
0.00000001
 40
0.0
 40
0.0
 40
0.0
 40
0.0
 40
0.25
 40
0.25
 40
0.5
 40
0.5
 40
0.75
 40
0.75
 40
1.0
 40
1.0
 40
1.0
 40
1.0
 10
7.518172400785614
 20
0.255195350531957
 30
0.0
 10
7.518172400785614
 20
0.232355337032944
 30
0.0
 10
7.518172400785614
 20
0.2047725751375991
 30
0.0
 10
7.518172400785614
 20
0.1301481146341028
 30
0.0
 10
7.518172400785614
 20
0.0835518423952091
 30
0.0
 10
7.518172400785614
 20
-0.0278576955571358
 30
0.0
 10
7.518172400785614
 20
-0.0929376589825481
 30
0.0
 10
7.518172400785614
 20
-0.2258322464924021
 30
0.0
 10
7.518172400785614
 20
-0.2929280854496931
 30
0.0
 10
7.518172400785614
 20
-0.3475363252148692
 30
0.0
  0
SPLINE
  5
AC
330
1F
100
AcDbEntity
  8
0
  6
Continuous
 62
     4
370
    25
100
AcDbSpline
210
0.0
220
0.0
230
1.0
 70
     8
 71
     3
 72
    14
 73
    10
 74
     0
 42
0.000000001
 43
0.00000001
 40
0.0
 40
0.0
 40
0.0
 40
0.0
 40
0.25
 40
0.25
 40
0.5
 40
0.5
 40
0.75
 40
0.75
 40
1.0
 40
1.0
 40
1.0
 40
1.0
 10
7.518172400782024
 20
-0.3475363252128159
 30
0.0
 10
7.456344566547266
 20
-0.3122124645152942
 30
0.0
 10
7.393499342725654
 20
-0.2735589973542107
 30
0.0
 10
7.270753989383224
 20
-0.1926949569765831
 30
0.0
 10
7.212416212040624
 20
-0.1508933161495187
 30
0.0
 10
7.090221173453624
 20
-0.0641220155684346
 30
0.0
 10
7.027437663420946
 20
-0.0193781303223812
 30
0.0
 10
6.903462718277455
 20
0.0692928713921172
 30
0.0
 10
6.843749121076485
 20
0.1128553798487228
 30
0.0
 10
6.783728383546745
 20
0.1551323463115908
 30
0.0
  0
LINE
  5
AD
330
1F
100
AcDbEntity
  8
0
  6
Continuous
 62
     4
370
    25
100
AcDbLine
 10
6.790882164923875
 20
0.1529384883634206
 30
0.0
 11
6.787818305986915
 21
0.1538780853298648
 31
0.0
  0
SPLINE
  5
AE
330
1F
100
AcDbEntity
  8
0
  6
Continuous
 62
     4
370
    25
100
AcDbSpline
210
0.0
220
0.0
230
1.0
 70
     8
 71
     3
 72
    10
 73
     6
 74
     0
 42
0.000000001
 43
0.00000001
 40
0.0
 40
0.0
 40
0.0
 40
0.0
 40
0.5
 40
0.5
 40
1.0
 40
1.0
 40
1.0
 40
1.0
 10
7.518172400782024
 20
0.2551953505341464
 30
0.0
 10
7.425180248888646
 20
0.3149559849016557
 30
0.0
 10
7.329941492515076
 20
0.3698450928877405
 30
0.0
 10
7.151529616694345
 20
0.4608217268373953
 30
0.0
 10
7.057156575874796
 20
0.498806804213029
 30
0.0
 10
6.963944067288056
 20
0.5258151383839733
 30
0.0
  0
SPLINE
  5
AF
330
1F
100
AcDbEntity
  8
0
  6
Continuous
 62
     4
370
    25
100
AcDbSpline
210
0.0
220
0.0
230
1.0
 70
     8
 71
     3
 72
    14
 73
    10
 74
     0
 42
0.000000001
 43
0.00000001
 40
0.0000000000000004
 40
0.0000000000000004
 40
0.0000000000000004
 40
0.0000000000000004
 40
0.0000514808473846
 40
0.0000514808473846
 40
0.0000514808473846
 40
0.0001028875534114
 40
0.0001028875534114
 40
0.0001028875534114
 40
0.0001587596474825
 40
0.0001587596474825
 40
0.0001587596474825
 40
0.0001587596474825
 10
6.783728383547365
 20
-0.5536776635624734
 30
0.0
 10
6.769878135829805
 20
-0.550944249727547
 30
0.0
 10
6.757598173485896
 20
-0.5472540893291571
 30
0.0
 10
6.747876545332556
 20
-0.5425723761621155
 30
0.0
 10
6.738162112141055
 20
-0.5378941279236917
 30
0.0
 10
6.730750510724234
 20
-0.532089349933855
 30
0.0
 10
6.725954337589885
 20
-0.5254003605788707
 30
0.0
 10
6.720737776674156
 20
-0.5181250768354618
 30
0.0
 10
6.718478746826705
 20
-0.5096381692441292
 30
0.0
 10
6.718478746826515
 20
-0.5004541639252739
 30
0.0
  0
SPLINE
  5
B0
330
1F
100
AcDbEntity
  8
0
  6
Continuous
 62
     4
370
    25
100
AcDbSpline
210
0.0
220
0.0
230
1.0
 70
     8
 71
     3
 72
    10
 73
     6
 74
     0
 42
0.000000001
 43
0.00000001
 40
0.0
 40
0.0
 40
0.0
 40
0.0
 40
0.2017538131684623
 40
0.5104930599028851
 40
1.0
 40
1.0
 40
1.0
 40
1.0
 10
7.443520002967094
 20
-0.4845579389253367
 30
0.0
 10
7.398986288645085
 20
-0.5014693834069797
 30
0.0
 10
7.286303649660216
 20
-0.5442600246604518
 30
0.0
 10
7.067839592637075
 20
-0.5851333007955576
 30
0.0
 10
6.891726108965434
 20
-0.565634732358259
 30
0.0
 10
6.783728383546745
 20
-0.5536776635623507
 30
0.0
  0
LINE
  5
B1
330
1F
100
AcDbEntity
  8
0
  6
Continuous
 62
     4
370
    25
100
AcDbLine
 10
7.443520002967094
 20
0.4845579389253475
 30
0.0
 11
7.518172400782024
 21
0.5152672443167367
 31
0.0
  0
SPLINE
  5
B2
330
1F
100
AcDbEntity
  8
0
  6
Continuous
 62
     4
370
    25
100
AcDbSpline
210
0.0
220
0.0
230
1.0
 70
     8
 71
     3
 72
    10
 73
     6
 74
     0
 42
0.000000001
 43
0.00000001
 40
0.0
 40
0.0
 40
0.0
 40
0.0
 40
0.4019009455211361
 40
0.7962636628288604
 40
1.0
 40
1.0
 40
1.0
 40
1.0
 10
7.518172400782024
 20
0.4580867850719743
 30
0.0
 10
7.448680130341004
 20
0.4843962800842931
 30
0.0
 10
7.310999016583205
 20
0.5365217978247954
 30
0.0
 10
7.140082558372915
 20
0.5766085764687557
 30
0.0
 10
7.036871651862905
 20
0.5676854532851817
 30
0.0
 10
7.001713910196216
 20
0.5646458824650401
 30
0.0
  0
LINE
  5
B3
330
1F
100
AcDbEntity
  8
0
  6
Continuous
 62
     4
370
    25
100
AcDbLine
 10
7.518172400785614
 20
0.4580867850704168
 30
0.0
 11
7.518172400785614
 21
0.3822981188404428
 31
0.0
  0
SPLINE
  5
B4
330
1F
100
AcDbEntity
  8
0
  6
Continuous
 62
     4
370
    25
100
AcDbSpline
210
0.0
220
0.0
230
1.0
 70
     8
 71
     3
 72
    12
 73
     8
 74
     0
 42
0.000000001
 43
0.00000001
 40
0.0
 40
0.0
 40
0.0
 40
0.0
 40
0.2499999999999999
 40
0.2499999999999999
 40
0.4999999999999998
 40
0.4999999999999998
 40
1.0
 40
1.0
 40
1.0
 40
1.0
 10
6.718478746832234
 20
0.4541502815805351
 30
0.0
 10
6.718478746832234
 20
0.4722717580323176
 30
0.0
 10
6.724317325855385
 20
0.4884416559679592
 30
0.0
 10
6.750889009997625
 20
0.5138131109992844
 30
0.0
 10
6.771627170493655
 20
0.5231305177744439
 30
0.0
 10
6.848444480665805
 20
0.5406230752730085
 30
0.0
 10
6.915723267708936
 20
0.5397871201358798
 30
0.0
 10
6.963944067288056
 20
0.5258151383839734
 30
0.0
  0
LINE
  5
B5
330
1F
100
AcDbEntity
  8
0
  6
Continuous
 62
     4
370
    25
100
AcDbLine
 10
6.718478746832234
 20
0.4541502815805351
 30
0.0
 11
6.718478746832234
 21
0.2831441855498603
 31
0.0
  0
SPLINE
  5
B6
330
1F
100
AcDbEntity
  8
0
  6
Continuous
 62
     4
370
    25
100
AcDbSpline
210
0.0
220
0.0
230
1.0
 70
     8
 71
     3
 72
    14
 73
    10
 74
     0
 42
0.000000001
 43
0.00000001
 40
0.0000000000000004
 40
0.0000000000000004
 40
0.0000000000000004
 40
0.0000000000000004
 40
0.0000514808473846
 40
0.0000514808473846
 40
0.0000514808473846
 40
0.0001028875534114
 40
0.0001028875534114
 40
0.0001028875534114
 40
0.0001587596474825
 40
0.0001587596474825
 40
0.0001587596474825
 40
0.0001587596474825
 10
6.783728383547365
 20
0.1551323463111533
 30
0.0
 10
6.769878135829805
 20
0.1648880821177657
 30
0.0
 10
6.757598173485896
 20
0.1770252155844858
 30
0.0
 10
6.747876545332556
 20
0.1903686335135265
 30
0.0
 10
6.738162112141065
 20
0.2037021759997555
 30
0.0
 10
6.730750510724234
 20
0.2185794134503284
 30
0.0
 10
6.725954337589885
 20
0.2336224755960033
 30
0.0
 10
6.720737776674156
 20
0.2499840721947423
 30
0.0
 10
6.718478746826705
 20
0.2669115594239014
 30
0.0
 10
6.718478746826515
 20
0.2831441855484
 30
0.0
  0
LINE
  5
B7
330
1F
100
AcDbEntity
  8
0
  6
Continuous
 62
     4
370
    25
100
AcDbLine
 10
7.518172400785614
 20
-0.347536325214869
 30
0.0
 11
7.518172400785614
 21
-0.462114142708451
 31
0.0
  0
SPLINE
  5
B8
330
1F
100
AcDbEntity
  8
0
  6
Continuous
 62
     4
370
    25
100
AcDbSpline
210
0.0
220
0.0
230
1.0
 70
     8
 71
     3
 72
    10
 73
     6
 74
     0
 42
0.000000001
 43
0.00000001
 40
0.0
 40
0.0
 40
0.0
 40
0.0
 40
0.5
 40
0.5
 40
1.0
 40
1.0
 40
1.0
 40
1.0
 10
7.518172400782024
 20
-0.5152672443167275
 30
0.0
 10
7.425180248888646
 20
-0.4856697175890546
 30
0.0
 10
7.329941492515076
 20
-0.4451585554817923
 30
0.0
 10
7.151529616694345
 20
-0.3501354999516331
 30
0.0
 10
7.057156575874796
 20
-0.2937194807254531
 30
0.0
 10
6.963944067288056
 20
-0.2326874303572261
 30
0.0
  0
SPLINE
  5
B9
330
1F
100
AcDbEntity
  8
0
  6
Continuous
 62
     4
370
    25
100
AcDbSpline
210
0.0
220
0.0
230
1.0
 70
     8
 71
     3
 72
    12
 73
     8
 74
     0
 42
0.000000001
 43
0.00000001
 40
0.0
 40
0.0
 40
0.0
 40
0.0
 40
0.2500000000000001
 40
0.2500000000000001
 40
0.5000000000000001
 40
0.5000000000000001
 40
1.0
 40
1.0
 40
1.0
 40
1.0
 10
6.718478746832234
 20
-0.3526648858907525
 30
0.0
 10
6.718478746832234
 20
-0.3293286424412658
 30
0.0
 10
6.724317325855385
 20
-0.304498023544839
 30
0.0
 10
6.750889009997625
 20
-0.2594039024237519
 30
0.0
 10
6.771627170493655
 20
-0.2391247164272089
 30
0.0
 10
6.848444480665805
 20
-0.1980817129765762
 30
0.0
 10
6.915723267708936
 20
-0.2011142615483323
 30
0.0
 10
6.963944067288056
 20
-0.2326874303572281
 30
0.0
  0
LINE
  5
BA
330
1F
100
AcDbEntity
  8
0
  6
Continuous
 62
     4
370
    25
100
AcDbLine
 10
6.718478746832234
 20
-0.3526648858907523
 30
0.0
 11
6.718478746832234
 21
-0.5004541639244469
 31
0.0
  0
SPLINE
  5
BB
330
1F
100
AcDbEntity
  8
0
  6
Continuous
 62
     4
370
    25
100
AcDbSpline
210
0.0
220
0.0
230
1.0
 70
    24
 71
     3
 72
     9
 73
     5
 74
     0
 42
0.000000001
 43
0.00000001
 40
0.0
 40
0.0
 40
0.0
 40
0.0
 40
0.5267234934532291
 40
1.0
 40
1.0
 40
1.0
 40
1.0
 10
7.518172400785614
 20
0.5152672443179058
 30
0.0
 10
7.518172400785614
 20
0.5072936382089761
 30
0.0
 10
7.518172400785614
 20
0.4921555131622758
 30
0.0
 10
7.518172400785614
 20
0.478489962837886
 30
0.0
 10
7.518172400785614
 20
0.4720223789203198
 30
0.0
  0
SPLINE
  5
BC
330
1F
100
AcDbEntity
  8
0
  6
Continuous
 62
     1
370
    25
100
AcDbSpline
210
0.0
220
0.0
230
1.0
 70
     8
 71
     3
 72
    20
 73
    16
 74
     0
 42
0.000000001
 43
0.00000001
 40
0.0
 40
0.0
 40
0.0
 40
0.0
 40
0.1249999999999999
 40
0.1249999999999999
 40
0.2499999999999999
 40
0.2499999999999999
 40
0.3749999999999998
 40
0.3749999999999998
 40
0.4999999999999997
 40
0.4999999999999997
 40
0.6249999999999996
 40
0.6249999999999996
 40
0.7499999999999996
 40
0.7499999999999996
 40
1.0
 40
1.0
 40
1.0
 40
1.0
 10
7.518172400780646
 20
0.4548291710085635
 30
0.0
 10
7.574235125293495
 20
0.4307969858559321
 30
0.0
 10
7.628205047742094
 20
0.4037538448247895
 30
0.0
 10
7.737008140224805
 20
0.344178060037121
 30
0.0
 10
7.793325675167845
 20
0.3113251087450528
 30
0.0
 10
7.906195680987334
 20
0.2414440499205507
 30
0.0
 10
7.962721205225074
 20
0.2044324199899571
 30
0.0
 10
8.072312458248074
 20
0.1287661575507241
 30
0.0
 10
8.125646261207375
 20
0.0900742392456212
 30
0.0
 10
8.237362786523976
 20
0.0107602209768873
 30
0.0
 10
8.294261301879166
 20
-0.0295124728129962
 30
0.0
 10
8.406418992725095
 20
-0.1086553877928433
 30
0.0
 10
8.460459207620755
 20
-0.1472373209333558
 30
0.0
 10
8.623552621713856
 20
-0.25923240326282
 30
0.0
 10
8.740063721289134
 20
-0.3300349334567172
 30
0.0
 10
8.849721369523586
 20
-0.3880129433715894
 30
0.0
  0
SPLINE
  5
BD
330
1F
100
AcDbEntity
  8
0
  6
Continuous
 62
     1
370
    25
100
AcDbSpline
210
0.0
220
0.0
230
1.0
 70
    24
 71
     3
 72
     8
 73
     4
 74
     0
 42
0.000000001
 43
0.00000001
 40
0.0
 40
0.0
 40
0.0
 40
0.0
 40
1.0
 40
1.0
 40
1.0
 40
1.0
 10
8.766847978036255
 20
-0.4460415168082156
 30
0.0
 10
8.795308912524575
 20
-0.4261129559350003
 30
0.0
 10
8.822944259096605
 20
-0.4067624779442606
 30
0.0
 10
8.849721369523724
 20
-0.3880129433717182
 30
0.0
1001
PE_URL
1000

  0
SPLINE
  5
BE
330
1F
100
AcDbEntity
  8
0
  6
Continuous
 62
     1
370
    25
100
AcDbSpline
210
0.0
220
0.0
230
1.0
 70
     8
 71
     3
 72
     8
 73
     4
 74
     0
 42
0.000000001
 43
0.00000001
 40
0.0
 40
0.0
 40
0.0
 40
0.0
 40
1.0
 40
1.0
 40
1.0
 40
1.0
 10
8.766847978030675
 20
-0.4460415168042685
 30
0.0
 10
8.809401547196885
 20
-0.4761198952913778
 30
0.0
 10
8.854209891894104
 20
-0.5000815387952585
 30
0.0
 10
8.900727493362155
 20
-0.5194063257509705
 30
0.0
1001
PE_URL
1000

  0
SPLINE
  5
BF
330
1F
100
AcDbEntity
  8
0
  6
Continuous
 62
     1
370
    25
100
AcDbSpline
210
0.0
220
0.0
230
1.0
 70
     8
 71
     3
 72
    18
 73
    14
 74
     0
 42
0.000000001
 43
0.00000001
 40
0.0
 40
0.0
 40
0.0
 40
0.0
 40
0.0547568766129786
 40
0.1248267580556839
 40
0.2509534068092727
 40
0.3745522742651689
 40
0.43768274330509
 40
0.5010065246667669
 40
0.6027226644213758
 40
0.8020876935744602
 40
0.9011262543678201
 40
0.9483302000693549
 40
0.9999999999999999
 40
0.9999999999999999
 40
0.9999999999999999
 40
0.9999999999999999
 10
8.900727493362155
 20
-0.5194063257509675
 30
0.0
 10
8.875634263570415
 20
-0.5093300571734242
 30
0.0
 10
8.818430370328155
 20
-0.4863596465577293
 30
0.0
 10
8.702479585564134
 20
-0.4312289342714083
 30
0.0
 10
8.554190297124915
 20
-0.3484420830753046
 30
0.0
 10
8.411284062040854
 20
-0.2510784726181459
 30
0.0
 10
8.295618346302804
 20
-0.1697220612614446
 30
0.0
 10
8.189940584550564
 20
-0.0932399582983081
 30
0.0
 10
8.022878338148145
 20
0.0343260877119359
 30
0.0
 10
7.837292958389995
 20
0.1727359031850124
 30
0.0
 10
7.678177098581354
 20
0.2821270226975151
 30
0.0
 10
7.587649893987596
 20
0.341297432738872
 30
0.0
 10
7.542018578710525
 20
0.3682257968423985
 30
0.0
 10
7.518172400780655
 20
0.382298118840443
 30
0.0
  0
LINE
  5
C0
330
1F
100
AcDbEntity
  8
0
  6
Continuous
 62
     4
370
    25
100
AcDbLine
 10
7.518172400785614
 20
0.4548291710064292
 30
0.0
 11
7.518172400785614
 21
0.3822981188375799
 31
0.0
  0
SPLINE
  5
C1
330
1F
100
AcDbEntity
  8
0
  6
Continuous
 62
     1
370
    25
100
AcDbSpline
210
0.0
220
0.0
230
1.0
 70
     8
 71
     3
 72
    13
 73
     9
 74
     0
 42
0.000000001
 43
0.00000001
 40
0.0
 40
0.0
 40
0.0
 40
0.0
 40
0.200585632560607
 40
0.4013126257089925
 40
0.6029999558134366
 40
0.7618998688256099
 40
0.9190975103870102
 40
1.0
 40
1.0
 40
1.0
 40
1.0
 10
7.518172400780655
 20
0.270385021642344
 30
0.0
 10
7.626584133563775
 20
0.1928201557251186
 30
0.0
 10
7.843484001143825
 20
0.037635760877684
 30
0.0
 10
8.169334141354636
 20
-0.2135570928029063
 30
0.0
 10
8.473283443483416
 20
-0.4117849500775604
 30
0.0
 10
8.753925136441746
 20
-0.5374786442756472
 30
0.0
 10
8.967326559768026
 20
-0.5980456910306157
 30
0.0
 10
9.096446027108016
 20
-0.5936655719646109
 30
0.0
 10
9.140318688218215
 20
-0.592177279893988
 30
0.0
  0
SPLINE
  5
C2
330
1F
100
AcDbEntity
  8
0
  6
Continuous
 62
     1
370
    25
100
AcDbSpline
210
0.0
220
0.0
230
1.0
 70
     8
 71
     3
 72
    17
 73
    13
 74
     0
 42
0.000000001
 43
0.00000001
 40
0.0
 40
0.0
 40
0.0
 40
0.0
 40
0.1490917124656734
 40
0.3005715005262581
 40
0.3993608800882422
 40
0.4988478391189772
 40
0.5972398964888982
 40
0.6963184926649157
 40
0.7941645518204005
 40
0.8926933445893592
 40
0.9905406900286811
 40
1.0
 40
1.0
 40
1.0
 40
1.0
 10
7.518172400780655
 20
-0.3437025035265922
 30
0.0
 10
7.575265798198386
 20
-0.3750966315769158
 30
0.0
 10
7.690367086178695
 20
-0.4383877429320946
 30
0.0
 10
7.844140506765845
 20
-0.4993568947559124
 30
0.0
 10
7.979194726996875
 20
-0.5382324376057863
 30
0.0
 10
8.092332600157825
 20
-0.560616697079294
 30
0.0
 10
8.206393478693625
 20
-0.5710875438325749
 30
0.0
 10
8.320406127426034
 20
-0.5699145790546145
 30
0.0
 10
8.434188556201326
 20
-0.5576766515650106
 30
0.0
 10
8.546234569111794
 20
-0.5326230932123499
 30
0.0
 10
8.625604404245856
 20
-0.5105777344739885
 30
0.0
 10
8.666974936771615
 20
-0.4943286602665926
 30
0.0
 10
8.670621837230325
 20
-0.4928962698050082
 30
0.0
  0
SPLINE
  5
C3
330
1F
100
AcDbEntity
  8
0
  6
Continuous
 62
     4
370
    25
100
AcDbSpline
210
0.0
220
0.0
230
1.0
 70
    24
 71
     3
 72
    14
 73
    10
 74
     0
 42
0.000000001
 43
0.00000001
 40
0.0
 40
0.0
 40
0.0
 40
0.0
 40
0.25
 40
0.25
 40
0.5
 40
0.5
 40
0.75
 40
0.75
 40
1.0
 40
1.0
 40
1.0
 40
1.0
 10
7.518172400785614
 20
0.2703850216533528
 30
0.0
 10
7.518172400785614
 20
0.2469574413847078
 30
0.0
 10
7.518172400785614
 20
0.2221300568320495
 30
0.0
 10
7.518172400785614
 20
0.1501184302678925
 30
0.0
 10
7.518172400785614
 20
0.1043240735380624
 30
0.0
 10
7.518172400785614
 20
-0.0081038286909489
 30
0.0
 10
7.518172400785614
 20
-0.0751382342208969
 30
0.0
 10
7.518172400785614
 20
-0.2143715725039121
 30
0.0
 10
7.518172400785614
 20
-0.285762344541044
 30
0.0
 10
7.518172400785614
 20
-0.3437025035287807
 30
0.0
  0
SPLINE
  5
C4
330
1F
100
AcDbEntity
  8
0
  6
Continuous
 62
     1
370
    25
100
AcDbSpline
210
0.0
220
0.0
230
1.0
 70
     8
 71
     3
 72
     9
 73
     5
 74
     0
 42
0.000000001
 43
0.00000001
 40
0.0
 40
0.0
 40
0.0
 40
0.0
 40
0.4222458047852786
 40
1.0
 40
1.0
 40
1.0
 40
1.0
 10
9.318172400785615
 20
-0.5999999999999946
 30
0.0
 10
9.290389977621386
 20
-0.5994251214868186
 30
0.0
 10
9.224593176683715
 20
-0.598063643156753
 30
0.0
 10
9.158206238665475
 20
-0.5875418858279521
 30
0.0
 10
9.119850906717986
 20
-0.5814628963902061
 30
0.0
1001
PE_URL
1000

  0
LINE
  5
C5
330
1F
100
AcDbEntity
  8
0
  6
Continuous
 62
     4
370
    25
100
AcDbLine
 10
7.518172400785614
 20
0.2703850216420668
 30
0.0
 11
7.518172400785614
 21
0.3822981188404428
 31
0.0
  0
ELLIPSE
  5
C6
330
1F
100
AcDbEntity
  8
0
  6
Continuous
 62
     1
370
    25
100
AcDbEllipse
 10
9.316676923617635
 20
0.0000000000000055
 30
0.0
 11
0.8567683309929208
 21
-0.02052926689862462
 31
0.0
210
0.0
220
0.0
230
1.0
 40
0.6998959537352996
 41
4.22231636014557
 42
4.497389990925717
1001
PE_URL
1000

  0
SPLINE
  5
C7
330
1F
100
AcDbEntity
  8
0
  6
Continuous
 62
     1
370
    25
100
AcDbSpline
210
0.0
220
0.0
230
1.0
 70
     8
 71
     3
 72
    22
 73
    18
 74
     0
 42
0.000000001
 43
0.00000001
 40
0.0
 40
0.0
 40
0.0
 40
0.0
 40
0.125
 40
0.125
 40
0.25
 40
0.25
 40
0.375
 40
0.375
 40
0.5
 40
0.5
 40
0.625
 40
0.625
 40
0.75
 40
0.75
 40
0.875
 40
0.875
 40
1.0
 40
1.0
 40
1.0
 40
1.0
 10
9.267952444068635
 20
-0.0951643922612441
 30
0.0
 10
9.195937003679942
 20
-0.041140894173614
 30
0.0
 10
9.120928757638495
 20
0.0148284911921729
 30
0.0
 10
8.973262552438104
 20
0.1244248115357456
 30
0.0
 10
8.903227970182725
 20
0.1774037346583134
 30
0.0
 10
8.758157256137075
 20
0.2788587999183594
 30
0.0
 10
8.683006486733735
 20
0.3272697636511216
 30
0.0
 10
8.535860858120605
 20
0.4139440151429289
 30
0.0
 10
8.466281972588495
 20
0.4518824449847852
 30
0.0
 10
8.320310214405895
 20
0.5167644064633301
 30
0.0
 10
8.245094979662886
 20
0.5433156931088099
 30
0.0
 10
8.098615562938894
 20
0.5816247698220978
 30
0.0
 10
8.029148169403104
 20
0.5934771392173616
 30
0.0
 10
7.882417114565055
 20
0.6024931881067139
 30
0.0
 10
7.807215699318656
 20
0.5993426385575306
 30
0.0
 10
7.661545918632753
 20
0.5781837997968621
 30
0.0
 10
7.591845447585525
 20
0.5604672951004893
 30
0.0
 10
7.518172400783975
 20
0.5356229458048581
 30
0.0
  0
SPLINE
  5
C8
330
1F
100
AcDbEntity
  8
0
  6
Continuous
 62
     1
370
    25
100
AcDbSpline
210
0.0
220
0.0
230
1.0
 70
    24
 71
     3
 72
    14
 73
    10
 74
     0
 42
0.000000001
 43
0.00000001
 40
0.0
 40
0.0
 40
0.0
 40
0.0
 40
0.25
 40
0.25
 40
0.5
 40
0.5
 40
0.75
 40
0.75
 40
1.0
 40
1.0
 40
1.0
 40
1.0
 10
9.267952444069016
 20
-0.0951643922615279
 30
0.0
 10
9.268630275412946
 20
-0.0946897696448666
 30
0.0
 10
9.260495828798705
 20
-0.1003855704833211
 30
0.0
 10
9.211841259451765
 20
-0.1344538667083909
 30
0.0
 10
9.169967523999695
 20
-0.1637741719249409
 30
0.0
 10
9.072952387958464
 20
-0.2317049015014487
 30
0.0
 10
9.019857381368345
 20
-0.2688824253571052
 30
0.0
 10
8.925869320362436
 20
-0.3346935741751622
 30
0.0
 10
8.883989341180085
 20
-0.3640182512987412
 30
0.0
 10
8.849721369523825
 20
-0.3880129433716144
 30
0.0
1001
PE_URL
1000

  0
SPLINE
  5
C9
330
1F
100
AcDbEntity
  8
0
  6
Continuous
 62
     4
370
    25
100
AcDbSpline
210
0.0
220
0.0
230
1.0
 70
    24
 71
     3
 72
     9
 73
     5
 74
     0
 42
0.000000001
 43
0.00000001
 40
0.0
 40
0.0
 40
0.0
 40
0.0
 40
0.694775175938469
 40
1.0
 40
1.0
 40
1.0
 40
1.0
 10
7.518172400785614
 20
0.5356229458258719
 30
0.0
 10
7.518172400785614
 20
0.5195280958297137
 30
0.0
 10
7.518172400785614
 20
0.4963625445067005
 30
0.0
 10
7.518172400785614
 20
0.4777142893266924
 30
0.0
 10
7.518172400785614
 20
0.4720223789203198
 30
0.0
  0
SPLINE
  5
CA
330
1F
100
AcDbEntity
  8
0
  6
Continuous
 62
     1
370
    25
100
AcDbSpline
210
0.0
220
0.0
230
1.0
 70
     8
 71
     3
 72
     9
 73
     5
 74
     0
 42
0.000000001
 43
0.00000001
 40
0.0
 40
0.0
 40
0.0
 40
0.0
 40
0.4222458047852112
 40
1.0
 40
1.0
 40
1.0
 40
1.0
 10
9.318172400785615
 20
0.0000000000000054
 30
0.0
 10
9.290389977621395
 20
0.0212392845043808
 30
0.0
 10
9.224593176683715
 20
0.0715400435970129
 30
0.0
 10
9.158206238665485
 20
0.1199946658073855
 30
0.0
 10
9.119850906717986
 20
0.1479895270669759
 30
0.0
1001
PE_URL
1000

  0
LINE
  5
CB
330
1F
100
AcDbEntity
  8
0
  6
Continuous
 62
     1
370
    25
100
AcDbLine
 10
9.318172400785615
 20
-0.0599999999999966
 30
0.0
 11
9.318172400785615
 21
0.0000000000000048
 31
0.0
1001
PE_URL
1000

  0
SPLINE
  5
CC
330
1F
100
AcDbEntity
  8
0
  6
Continuous
 62
     1
370
    25
100
AcDbSpline
210
0.0
220
0.0
230
1.0
 70
     8
 71
     3
 72
    17
 73
    13
 74
     0
 42
0.000000001
 43
0.00000001
 40
0.0
 40
0.0
 40
0.0
 40
0.0
 40
0.0577429428129944
 40
0.126779329160916
 40
0.2071101858736172
 40
0.341224897256128
 40
0.4421941586474221
 40
0.5704758354296373
 40
0.6850831866962274
 40
0.8313597389533539
 40
0.9127073060907703
 40
1.0
 40
1.0
 40
1.0
 40
1.0
 10
8.900727493362306
 20
0.3003615634028698
 30
0.0
 10
8.884795465831395
 20
0.3108261188059611
 30
0.0
 10
8.849815403088774
 20
0.3338019016348298
 30
0.0
 10
8.792312937204155
 20
0.3689792233246718
 30
0.0
 10
8.713377404526584
 20
0.4142054289016059
 30
0.0
 10
8.625393702797394
 20
0.4594378493994281
 30
0.0
 10
8.524382428031315
 20
0.5046849126479421
 30
0.0
 10
8.429369501241714
 20
0.54066461749692
 30
0.0
 10
8.321551214181534
 20
0.5717616838977728
 30
0.0
 10
8.225770865967766
 20
0.5892240417590249
 30
0.0
 10
8.138429520023335
 20
0.5988289874012294
 30
0.0
 10
8.091806532535426
 20
0.5988873691160079
 30
0.0
 10
8.067673231562946
 20
0.598917589047633
 30
0.0
1001
PE_URL
1000

  0
ELLIPSE
  5
CD
330
1F
100
AcDbEntity
  8
0
  6
Continuous
 62
     1
370
    25
100
AcDbEllipse
 10
9.316676923617635
 20
0.0000000000000054
 30
0.0
 11
0.8568746795567784
 21
-0.5999588519790768
 31
0.0
210
0.0
220
0.0
230
1.0
 40
0.0082005002038563
 41
1.808305837886454
 42
2.083379468666096
1001
PE_URL
1000

  0
LINE
  5
CE
330
1F
100
AcDbEntity
  8
0
  6
Continuous
 62
     1
370
    25
100
AcDbLine
 10
9.318172400785615
 20
-0.0599999999999965
 30
0.0
 11
9.267952444069016
 21
-0.0951643922615281
 31
0.0
1001
PE_URL
1000

  0
SPLINE
  5
CF
330
1F
100
AcDbEntity
  8
0
  6
Continuous
 62
     1
370
    25
100
AcDbSpline
210
0.0
220
0.0
230
1.0
 70
     8
 71
     3
 72
     8
 73
     4
 74
     0
 42
0.000000001
 43
0.00000001
 40
0.0
 40
0.0
 40
0.0
 40
0.0
 40
1.0
 40
1.0
 40
1.0
 40
1.0
 10
9.119850906723634
 20
0.1479895270628288
 30
0.0
 10
9.185699181195055
 20
0.1020676796372997
 30
0.0
 10
9.251810973104504
 20
0.0558558867962509
 30
0.0
 10
9.318172400785615
 20
0.0093694223886947
 30
0.0
1001
PE_URL
1000

  0
LINE
  5
D0
330
1F
100
AcDbEntity
  8
0
  6
Continuous
 62
     1
370
    25
100
AcDbLine
 10
9.318172400785615
 20
0.0000000000000046
 30
0.0
 11
9.318172400785615
 21
0.0093694223886947
 31
0.0
1001
PE_URL
1000

  0
SPLINE
  5
D1
330
1F
100
AcDbEntity
  8
0
  6
Continuous
 62
     1
370
    25
100
AcDbSpline
210
0.0
220
0.0
230
1.0
 70
     8
 71
     3
 72
    10
 73
     6
 74
     0
 42
0.000000001
 43
0.00000001
 40
0.0
 40
0.0
 40
0.0
 40
0.0
 40
0.140264584745235
 40
0.5670961936807527
 40
1.0
 40
1.0
 40
1.0
 40
1.0
 10
8.670621837230325
 20
0.49289626980502
 30
0.0
 10
8.698595492827925
 20
0.5060709671962899
 30
0.0
 10
8.811694274259816
 20
0.5593368771696097
 30
0.0
 10
9.009629309387755
 20
0.6033191071222738
 30
0.0
 10
9.181440239891895
 20
0.5960601559988389
 30
0.0
 10
9.267952444068625
 20
0.5924050459318784
 30
0.0
1001
PE_URL
1000

  0
SPLINE
  5
D2
330
1F
100
AcDbEntity
  8
0
  6
Continuous
 62
     1
370
    25
100
AcDbSpline
210
0.0
220
0.0
230
1.0
 70
     8
 71
     3
 72
    14
 73
    10
 74
     0
 42
0.000000001
 43
0.00000001
 40
0.0
 40
0.0
 40
0.0
 40
0.0
 40
0.25
 40
0.25
 40
0.5
 40
0.5
 40
0.75
 40
0.75
 40
1.0
 40
1.0
 40
1.0
 40
1.0
 10
9.267952444069016
 20
0.5924050459318334
 30
0.0
 10
9.268630275412946
 20
0.530623569843576
 30
0.0
 10
9.260495828798705
 20
0.4687792261850834
 30
0.0
 10
9.211841259451775
 20
0.3599896846240992
 30
0.0
 10
9.169967523999695
 20
0.3182427756200167
 30
0.0
 10
9.072952387958464
 20
0.2848482778257383
 30
0.0
 10
9.019857381368345
 20
0.2913560177184509
 30
0.0
 10
8.925869320362436
 20
0.3350170152182362
 30
0.0
 10
8.883989341180085
 20
0.3722202739214431
 30
0.0
 10
8.849721369523825
 20
0.4176684588363629
 30
0.0
1001
PE_URL
1000

  0
SPLINE
  5
D3
330
1F
100
AcDbEntity
  8
0
  6
Continuous
 62
     1
370
    25
100
AcDbSpline
210
0.0
220
0.0
230
1.0
 70
     8
 71
     3
 72
    12
 73
     8
 74
     0
 42
0.000000001
 43
0.00000001
 40
0.0
 40
0.0
 40
0.0
 40
0.0
 40
0.1964087188125918
 40
0.4157846570396615
 40
0.6336433418518642
 40
0.8529806880546691
 40
1.0
 40
1.0
 40
1.0
 40
1.0
 10
8.331947063265785
 20
0.5668152559279657
 30
0.0
 10
8.365932856719125
 20
0.5637701527064533
 30
0.0
 10
8.437878601086505
 20
0.5573238645464301
 30
0.0
 10
8.546237996476284
 20
0.5331098573073845
 30
0.0
 10
8.659907032194255
 20
0.498642985729586
 30
0.0
 10
8.761211008447376
 20
0.4595572123838524
 30
0.0
 10
8.824373996168674
 20
0.4296644541372612
 30
0.0
 10
8.849721369523746
 20
0.4176684588364608
 30
0.0
1001
PE_URL
1000

  0
SPLINE
  5
D4
330
1F
100
AcDbEntity
  8
0
  6
Continuous
 62
     1
370
    25
100
AcDbSpline
210
0.0
220
0.0
230
1.0
 70
     8
 71
     3
 72
     8
 73
     4
 74
     0
 42
0.000000001
 43
0.00000001
 40
0.0
 40
0.0
 40
0.0
 40
0.0
 40
1.0
 40
1.0
 40
1.0
 40
1.0
 10
8.766847978036255
 20
0.3928387014982131
 30
0.0
 10
8.795308912524575
 20
0.3975815592520681
 30
0.0
 10
8.822944259096605
 20
0.4058121701331927
 30
0.0
 10
8.849721369523724
 20
0.4176684588364334
 30
0.0
1001
PE_URL
1000

  0
SPLINE
  5
D5
330
1F
100
AcDbEntity
  8
0
  6
Continuous
 62
     1
370
    25
100
AcDbSpline
210
0.0
220
0.0
230
1.0
 70
     8
 71
     3
 72
     8
 73
     4
 74
     0
 42
0.000000001
 43
0.00000001
 40
0.0
 40
0.0
 40
0.0
 40
0.0
 40
1.0
 40
1.0
 40
1.0
 40
1.0
 10
8.766847978030675
 20
0.3928387015020547
 30
0.0
 10
8.809401547196885
 20
0.3635628528269169
 30
0.0
 10
8.854209891894104
 20
0.3326011848245671
 30
0.0
 10
8.900727493362155
 20
0.300361563402967
 30
0.0
1001
PE_URL
1000

  0
SPLINE
  5
D6
330
1F
100
AcDbEntity
  8
0
  6
Continuous
 62
     1
370
    25
100
AcDbSpline
210
0.0
220
0.0
230
1.0
 70
     8
 71
     3
 72
    19
 73
    15
 74
     0
 42
0.000000001
 43
0.00000001
 40
0.0
 40
0.0
 40
0.0
 40
0.0
 40
0.0039196931113454
 40
0.1533984910194526
 40
0.2365268964847275
 40
0.3637910988410566
 40
0.4529355052327084
 40
0.5766652871175094
 40
0.6441227413230048
 40
0.7021364759430389
 40
0.7507062717087586
 40
0.7898321586635134
 40
0.9297334781925067
 40
1.0
 40
1.0
 40
1.0
 40
1.0
 10
8.333374655026995
 20
-0.5668613630148325
 30
0.0
 10
8.332310934474545
 20
-0.5671677745352381
 30
0.0
 10
8.290681877561756
 20
-0.5791592910968668
 30
0.0
 10
8.225741132851924
 20
-0.5890454467918018
 30
0.0
 10
8.128105073707886
 20
-0.5995500738689598
 30
0.0
 10
8.047144334168586
 20
-0.601022187447993
 30
0.0
 10
7.954865428257675
 20
-0.59509522914997
 30
0.0
 10
7.878375518552145
 20
-0.5840604321884999
 30
0.0
 10
7.810402121704715
 20
-0.5695133123552603
 30
0.0
 10
7.763002325867895
 20
-0.5571721536975286
 30
0.0
 10
7.723374709939614
 20
-0.5453176437082949
 30
0.0
 10
7.661693002330946
 20
-0.5247549361920419
 30
0.0
 10
7.594282561531565
 20
-0.4981368979529542
 30
0.0
 10
7.537242803602256
 20
-0.4713822166833042
 30
0.0
 10
7.518172400780655
 20
-0.462437183119028
 30
0.0
  0
LINE
  5
D7
330
1F
100
AcDbEntity
  8
0
  6
Continuous
 62
     4
370
    25
100
AcDbLine
 10
7.518172400785614
 20
-0.343702503529408
 30
0.0
 11
7.518172400785614
 21
-0.4624371831213948
 31
0.0
  0
ELLIPSE
  5
D8
330
1F
100
AcDbEntity
  8
0
  6
Continuous
 62
     1
370
    25
100
AcDbEllipse
 10
9.403861281190146
 20
0.0000000000000054
 30
0.0
 11
0.8568888040452638
 21
0.0
 31
0.0
210
0.0
220
0.0
230
1.0
 40
0.7002075382097136
 41
1.670963747956457
 42
1.730076284964937
1001
PE_URL
1000

  0
LINE
  5
D9
330
1F
100
AcDbEntity
  8
0
  6
Continuous
 62
     1
370
    25
100
AcDbLine
 10
9.318172400785615
 20
0.0104636166918555
 30
0.0
 11
9.318172400785615
 21
0.5969924622639771
 31
0.0
1001
PE_URL
1000

  0
SPLINE
  5
DA
330
1F
100
AcDbEntity
  8
0
  6
Continuous
 62
     1
370
    25
100
AcDbSpline
210
0.0
220
0.0
230
1.0
 70
     8
 71
     3
 72
     8
 73
     4
 74
     0
 42
0.000000001
 43
0.00000001
 40
0.0
 40
0.0
 40
0.0
 40
0.0
 40
1.0
 40
1.0
 40
1.0
 40
1.0
 10
9.119850906723634
 20
-0.5814628963912506
 30
0.0
 10
9.185699181195055
 20
-0.5924989021102341
 30
0.0
 10
9.251810973104504
 20
-0.5974965222812881
 30
0.0
 10
9.318172400785615
 20
-0.596773849150994
 30
0.0
1001
PE_URL
1000

  0
LINE
  5
DB
330
1F
100
AcDbEntity
  8
0
  6
Continuous
 62
     1
370
    25
100
AcDbLine
 10
9.318172400785615
 20
-0.0599999999999945
 30
0.0
 11
9.318172400785615
 21
-0.596773849150993
 31
0.0
1001
PE_URL
1000

  0
SPLINE
  5
DC
330
1F
100
AcDbEntity
  8
0
  6
Continuous
 62
     1
370
    25
100
AcDbSpline
210
0.0
220
0.0
230
1.0
 70
     8
 71
     3
 72
     9
 73
     5
 74
     0
 42
0.000000001
 43
0.00000001
 40
0.0
 40
0.0
 40
0.0
 40
0.0
 40
0.8771346270375475
 40
1.0
 40
1.0
 40
1.0
 40
1.0
 10
7.518172400780655
 20
-0.5356229458037308
 30
0.0
 10
7.626570218462765
 20
-0.5712363290453101
 30
0.0
 10
7.750151951917095
 20
-0.6118382869931575
 30
0.0
 10
7.873775648067594
 20
-0.5959429634909053
 30
0.0
 10
7.888964719602124
 20
-0.5939899786404423
 30
0.0
  0
LINE
  5
DD
330
1F
100
AcDbEntity
  8
0
  6
Continuous
 62
     4
370
    25
100
AcDbLine
 10
7.518172400785614
 20
-0.5356229458038734
 30
0.0
 11
7.518172400785614
 21
-0.4624371831190278
 31
0.0
  0
LINE
  5
DE
330
1F
100
AcDbEntity
  8
0
  6
Continuous
 62
     1
370
    25
100
AcDbLine
 10
9.318172400785615
 20
-0.5999999999999942
 30
0.0
 11
9.318172400785615
 21
-0.596773849150994
 31
0.0
1001
PE_URL
1000

  0
LINE
  5
DF
330
1F
100
AcDbEntity
  8
0
  6
Continuous
 62
     1
370
    25
100
AcDbLine
 10
9.318172400785615
 20
0.5969924622639772
 30
0.0
 11
9.318172400785615
 21
0.6000000000000052
 31
0.0
1001
PE_URL
1000

  0
LINE
  5
E0
330
1F
100
AcDbEntity
  8
중심선
100
AcDbLine
 10
-43.68182759921437
 20
0.000000000000001
 30
0.0
 11
10.81817240078562
 21
0.0000000000000077
 31
0.0
  0
CIRCLE
  5
E1
330
1F
100
AcDbEntity
  8
해칭선
100
AcDbCircle
 10
-0.0000000000000004
 20
0.0
 30
0.0
 40
3.000000000000003
  0
INSERT
  5
E2
330
1F
100
AcDbEntity
  8
0
  6
Continuous
 62
     7
100
AcDbBlockReference
 66
     1
  2
블럭10
 10
-33.5152729321252
 20
-52.04717430164392
 30
0.0
  0
ATTRIB
  5
E3
330
E2
100
AcDbEntity
  8
FORMAT
 62
     2
100
AcDbText
 10
-49.63453397156077
 20
-49.97180738881173
 30
0.0
 40
4.233333333333333
  1
SEME7301204E [ 4 FLUTE ]
 41
0.75
  7
SLDTEXTSTYLE0
 11
-49.63453397156077
 21
-52.0884740554784
 31
0.0
100
AcDbAttribute
  2
AUTOATTR0
 70
     0
 74
     1
  0
SEQEND
  5
E4
330
E2
100
AcDbEntity
  8
0
  6
Continuous
 62
     7
  0
HATCH
  5
E5
330
1F
100
AcDbEntity
  8
중심선
100
AcDbHatch
 10
0.0
 20
0.0
 30
0.0
210
0.0
220
0.0
230
1.0
  2
SOLID
 70
     1
 71
     0
 91
        1
 92
        0
 93
        4
 72
     1
 10
-27.80036362774436
 20
-35.79999999999999
 11
-31.24663887158164
 21
-35.79999999999999
 72
     1
 10
-31.24663887158164
 20
-35.79999999999999
 11
-33.37486873078566
 21
-38.33632558057258
 72
     1
 10
-33.37486873078566
 20
-38.33632558057258
 11
-29.92856040183523
 21
-38.33628615127009
 72
     1
 10
-29.92856040183523
 20
-38.33628615127009
 11
-27.80036362774436
 21
-35.79999999999999
 97
        0
 75
     0
 76
     1
 98
        1
 10
-7.875054920989815
 20
0.0000000000000058
  0
HATCH
  5
E6
330
1F
100
AcDbEntity
  8
중심선
100
AcDbHatch
 10
0.0
 20
0.0
 30
0.0
210
0.0
220
0.0
230
1.0
  2
SOLID
 70
     1
 71
     0
 91
        1
 92
        0
 93
        4
 72
     1
 10
-22.78759963670839
 20
-35.79999999999996
 11
-26.2338748805457
 21
-35.80000000000003
 72
     1
 10
-26.2338748805457
 20
-35.80000000000003
 11
-30.76501288890308
 21
-41.20000000000001
 72
     1
 10
-30.76501288890308
 20
-41.20000000000001
 11
-27.3187376450658
 21
-41.20000000000001
 72
     1
 10
-27.3187376450658
 20
-41.20000000000001
 11
-22.78759963670839
 21
-35.79999999999996
 97
        0
 75
     0
 76
     1
 98
        1
 10
-7.875054920989815
 20
0.0000000000000058
  0
HATCH
  5
E7
330
1F
100
AcDbEntity
  8
중심선
100
AcDbHatch
 10
0.0
 20
0.0
 30
0.0
210
0.0
220
0.0
230
1.0
  2
SOLID
 70
     1
 71
     0
 91
        1
 92
        0
 93
        4
 72
     1
 10
-17.77483564567251
 20
-35.79999999999996
 11
-21.22111088950965
 21
-35.80000000000003
 72
     1
 10
-21.22111088950965
 20
-35.80000000000003
 11
-28.26954779139887
 21
-44.20000000000001
 72
     1
 10
-28.26954779139887
 20
-44.20000000000001
 11
-24.82327254756159
 21
-44.20000000000001
 72
     1
 10
-24.82327254756159
 20
-44.20000000000001
 11
-17.77483564567251
 21
-35.79999999999996
 97
        0
 75
     0
 76
     1
 98
        1
 10
-7.875054920989815
 20
0.0000000000000058
  0
HATCH
  5
E8
330
1F
100
AcDbEntity
  8
중심선
100
AcDbHatch
 10
0.0
 20
0.0
 30
0.0
210
0.0
220
0.0
230
1.0
  2
SOLID
 70
     1
 71
     0
 91
        1
 92
        0
 93
        6
 72
     3
 10
-12.97494521466032
 20
-40.00000000005127
 11
3.960054785062285
 21
1.540882976769353E-10
 40
0.3939339440162626
 50
17.09539180608436
 51
320.0019657685078
 73
     0
 72
     1
 10
-11.29194555895972
 20
-38.58789400463829
 11
-8.986643685258654
 21
-36.65356729459037
 72
     3
 10
-12.97494521471316
 20
-40.00000000000014
 11
6.60005478528683
 21
-1.278976924368180E-13
 40
0.636358354079598
 50
39.99873849337385
 51
368.4976242363724
 73
     1
 72
     1
 10
-6.549612722812553
 20
-39.03999999993001
 11
-14.29487790787724
 21
-39.03999999993001
 72
     1
 10
-14.29487790787724
 20
-39.03999999993001
 11
-14.29490295232317
 21
-40.95999999992991
 72
     1
 10
-14.29490295232317
 20
-40.95999999992991
 11
-9.853523182851136
 21
-40.95999999992987
 97
        0
 75
     0
 76
     1
 98
        1
 10
-7.875054920989815
 20
0.0000000000000058
  0
DIMENSION
  5
E9
330
1F
100
AcDbEntity
  8
치수문자_일반주서
100
AcDbDimension
  2
_D
 10
29.29211086658335
 20
0.6000000000000831
 30
0.0
 11
29.29211086658332
 21
11.57900000000008
 31
0.0
 70
   160
  1
%%c<>
 71
     2
 42
1.200000000000008
 52
-270.0
  3
SLDDIMSTYLE0
100
AcDbAlignedDimension
 13
9.318172400785626
 23
-0.5999999999999993
 33
0.0
 14
9.318172400785626
 24
0.6000000000000082
 34
0.0
 50
90.0000000000002
100
AcDbRotatedDimension
  0
DIMENSION
  5
F7
330
1F
100
AcDbEntity
  8
치수문자_일반주서
100
AcDbDimension
  2
_D_1
 10
9.318172400785613
 20
36.00000000000004
 30
0.0
 11
-15.68182759921438
 21
36.00000000000004
 31
0.0
 70
   160
  1
<>
 71
     2
 42
50.0
  3
SLDDIMSTYLE1
100
AcDbAlignedDimension
 13
-40.68182759921439
 23
1.499999999999998
 33
0.0
 14
9.318172400785615
 24
-0.0599999999999945
 34
0.0
100
AcDbRotatedDimension
  0
DIMENSION
  5
102
330
1F
100
AcDbEntity
  8
치수문자_일반주서
100
AcDbDimension
  2
_D_2
 10
-54.17446716083428
 20
-2.000000000000049
 30
0.0
 11
-54.17446716083428
 21
-0.7264638992030762
 31
0.0
 70
   160
  1
%%c<>
 71
     2
 42
4.000000000000004
 52
-270.0
  3
SLDDIMSTYLE2
100
AcDbAlignedDimension
 13
-40.18182759921442
 23
2.000000000000008
 33
0.0
 14
-40.18182759921442
 24
-1.999999999999996
 34
0.0
 50
90.0000000000002
100
AcDbRotatedDimension
  0
DIMENSION
  5
110
330
1F
100
AcDbEntity
  8
치수문자_일반주서
100
AcDbDimension
  2
_D_3
 10
9.318172400785615
 20
17.23334603283829
 30
0.0
 11
20.55025257743662
 21
17.23334603283829
 31
0.0
 70
   160
  1
<>
 71
     2
 42
1.800000000000001
  3
SLDDIMSTYLE3
100
AcDbAlignedDimension
 13
7.518172400785614
 23
0.5356229458249252
 33
0.0
 14
9.318172400785615
 24
-0.0599999999999945
 34
0.0
100
AcDbRotatedDimension
  0
DIMENSION
  5
11D
330
1F
100
AcDbEntity
  8
치수문자_일반주서
100
AcDbDimension
  2
_D_4
 10
5.318172400785611
 20
25.29678198861816
 30
0.0
 11
7.408034651580955
 21
25.29678198861816
 31
0.0
 70
   160
  1
<>
 71
     2
 42
4.000000000000004
  3
SLDDIMSTYLE2
100
AcDbAlignedDimension
 13
9.318172400785615
 23
0.5969924622639771
 33
0.0
 14
5.318172400785611
 24
0.5750000000000051
 34
0.0
100
AcDbRotatedDimension
  0
INSERT
  5
12F
330
1F
100
AcDbEntity
  8
해칭선
100
AcDbBlockReference
  2
SW_DOWELSYMBOL_0
 10
-0.0000000000000004
 20
0.0
 30
0.0
  0
ENDSEC
  0
SECTION
  2
OBJECTS
  0
DICTIONARY
  5
C
330
0
100
AcDbDictionary
281
     1
  3
ACAD_GROUP
350
D
  3
ACAD_LAYOUT
350
1A
  3
ACAD_MLINESTYLE
350
17
  3
ACAD_PLOTSETTINGS
350
19
  3
ACAD_PLOTSTYLENAME
350
E
  3
ACAD_SCALELIST
350
47
  3
APPDATA
350
151
  3
DWGPROPS
350
1A7
  0
DICTIONARY
  5
1A5
330
1F
100
AcDbDictionary
280
     1
281
     1
  3
DIM_BOUNDING_BOXES_V1
360
1A6
  0
DICTIONARY
  5
D
102
{ACAD_REACTORS
330
C
102
}
330
C
100
AcDbDictionary
281
     1
  0
DICTIONARY
  5
1A
102
{ACAD_REACTORS
330
C
102
}
330
C
100
AcDbDictionary
281
     1
  3
Layout1
350
1E
  3
Layout2
350
26
  3
Model
350
22
  0
DICTIONARY
  5
17
102
{ACAD_REACTORS
330
C
102
}
330
C
100
AcDbDictionary
281
     1
  3
Standard
350
18
  0
DICTIONARY
  5
19
102
{ACAD_REACTORS
330
C
102
}
330
C
100
AcDbDictionary
281
     1
  0
ACDBDICTIONARYWDFLT
  5
E
102
{ACAD_REACTORS
330
C
102
}
330
C
100
AcDbDictionary
281
     1
  3
Normal
350
F
100
AcDbDictionaryWithDefault
340
F
  0
DICTIONARY
  5
47
102
{ACAD_REACTORS
330
C
102
}
330
C
100
AcDbDictionary
281
     1
  3
A0
350
48
  3
A1
350
49
  3
A2
350
4A
  3
A3
350
4B
  3
A4
350
4C
  3
A5
350
4D
  3
A6
350
4E
  3
A7
350
4F
  3
A8
350
50
  3
A9
350
51
  3
B0
350
52
  3
B1
350
53
  3
B2
350
54
  3
B3
350
55
  3
B4
350
56
  3
B5
350
57
  3
B6
350
58
  3
B7
350
59
  3
B8
350
5A
  3
B9
350
5B
  3
C0
350
5C
  3
C1
350
5D
  3
C2
350
5E
  3
C3
350
5F
  3
C4
350
60
  3
C5
350
61
  3
C6
350
62
  3
C7
350
63
  3
C8
350
64
  3
C9
350
65
  3
D0
350
66
  3
D1
350
67
  3
D2
350
68
  0
DICTIONARY
  5
151
102
{ACAD_REACTORS
330
C
102
}
330
C
100
AcDbDictionary
281
     1
  0
XRECORD
  5
1A7
102
{ACAD_REACTORS
330
C
102
}
330
C
100
AcDbXrecord
280
     1
  1
DWGPROPS COOKIE
  2

  3

  4

  6

  7

  8
12016016
  9

300
=
301
=
302
=
303
=
304
=
305
=
306
=
307
=
308
=
309
=
 40
0.0
 41
2458260.398456864
 42
2459677.372682234
  1

 90
        0
  0
DICTIONARY
  5
1A6
102
{ACAD_REACTORS
330
1A5
102
}
330
1A5
100
AcDbDictionary
281
     1
  0
LAYOUT
  5
1E
102
{ACAD_REACTORS
330
1A
102
}
330
1A
100
AcDbPlotSettings
  1

  2
none_device
  4

  6

 40
0.0
 41
0.0
 42
0.0
 43
0.0
 44
0.0
 45
0.0
 46
0.0
 47
0.0
 48
0.0
 49
0.0
140
0.0
141
0.0
142
1.0
143
1.0
 70
   688
 72
     1
 73
     0
 74
     5
  7

 75
    16
147
1.0
148
0.0
149
0.0
100
AcDbLayout
  1
Layout1
 70
     1
 71
     1
 10
0.0
 20
0.0
 11
420.0
 21
297.0
 12
0.0
 22
0.0
 32
0.0
 14
1.000000000000000E+20
 24
1.000000000000000E+20
 34
1.000000000000000E+20
 15
-1.000000000000000E+20
 25
-1.000000000000000E+20
 35
-1.000000000000000E+20
146
0.0
 13
0.0
 23
0.0
 33
0.0
 16
1.0
 26
0.0
 36
0.0
 17
0.0
 27
1.0
 37
0.0
 76
     0
330
1B
  0
LAYOUT
  5
26
102
{ACAD_REACTORS
330
1A
102
}
330
1A
100
AcDbPlotSettings
  1

  2
none_device
  4

  6

 40
0.0
 41
0.0
 42
0.0
 43
0.0
 44
0.0
 45
0.0
 46
0.0
 47
0.0
 48
0.0
 49
0.0
140
0.0
141
0.0
142
1.0
143
1.0
 70
   688
 72
     1
 73
     0
 74
     5
  7

 75
    16
147
1.0
148
0.0
149
0.0
100
AcDbLayout
  1
Layout2
 70
     1
 71
     2
 10
0.0
 20
0.0
 11
0.0
 21
0.0
 12
0.0
 22
0.0
 32
0.0
 14
0.0
 24
0.0
 34
0.0
 15
0.0
 25
0.0
 35
0.0
146
0.0
 13
0.0
 23
0.0
 33
0.0
 16
1.0
 26
0.0
 36
0.0
 17
0.0
 27
1.0
 37
0.0
 76
     0
330
23
  0
LAYOUT
  5
22
102
{ACAD_REACTORS
330
1A
102
}
330
1A
100
AcDbPlotSettings
  1

  2
none_device
  4
ANSI_A_(11.00_x_8.50_Inches)
  6

 40
6.35
 41
19.05
 42
6.35000508
 43
19.05000254
 44
279.4
 45
215.9
 46
162.2260605084696
 47
100.8537443875621
 48
0.0
 49
0.0
140
0.0
141
0.0
142
0.0922419125129433
143
1.0
 70
  1696
 72
     0
 73
     0
 74
     0
  7

 75
     0
147
0.0235690232323232
148
0.0
149
0.0
100
AcDbLayout
  1
Model
 70
     1
 71
     0
 10
0.0
 20
0.0
 11
420.0
 21
297.0
 12
0.0
 22
0.0
 32
0.0
 14
-58.5494671608343
 24
-49.97180738881173
 34
0.0
 15
29.8424441999167
 25
40.37500000000004
 35
0.0
146
0.0
 13
0.0
 23
0.0
 33
0.0
 16
1.0
 26
0.0
 36
0.0
 17
0.0
 27
1.0
 37
0.0
 76
     0
330
1F
331
29
  0
MLINESTYLE
  5
18
102
{ACAD_REACTORS
330
17
102
}
330
17
100
AcDbMlineStyle
  2
Standard
 70
     0
  3

 62
   256
 51
90.0
 52
90.0
 71
     2
 49
0.5
 62
   256
  6
BYLAYER
 49
-0.5
 62
   256
  6
BYLAYER
  0
ACDBPLACEHOLDER
  5
F
102
{ACAD_REACTORS
330
E
102
}
330
E
  0
SCALE
  5
48
102
{ACAD_REACTORS
330
47
102
}
330
47
100
AcDbScale
 70
     0
300
1:1
140
1.0
141
1.0
290
     1
  0
SCALE
  5
49
102
{ACAD_REACTORS
330
47
102
}
330
47
100
AcDbScale
 70
     0
300
1:2
140
1.0
141
2.0
290
     0
  0
SCALE
  5
4A
102
{ACAD_REACTORS
330
47
102
}
330
47
100
AcDbScale
 70
     0
300
1:4
140
1.0
141
4.0
290
     0
  0
SCALE
  5
4B
102
{ACAD_REACTORS
330
47
102
}
330
47
100
AcDbScale
 70
     0
300
1:5
140
1.0
141
5.0
290
     0
  0
SCALE
  5
4C
102
{ACAD_REACTORS
330
47
102
}
330
47
100
AcDbScale
 70
     0
300
1:8
140
1.0
141
8.0
290
     0
  0
SCALE
  5
4D
102
{ACAD_REACTORS
330
47
102
}
330
47
100
AcDbScale
 70
     0
300
1:10
140
1.0
141
10.0
290
     0
  0
SCALE
  5
4E
102
{ACAD_REACTORS
330
47
102
}
330
47
100
AcDbScale
 70
     0
300
1:16
140
1.0
141
16.0
290
     0
  0
SCALE
  5
4F
102
{ACAD_REACTORS
330
47
102
}
330
47
100
AcDbScale
 70
     0
300
1:20
140
1.0
141
20.0
290
     0
  0
SCALE
  5
50
102
{ACAD_REACTORS
330
47
102
}
330
47
100
AcDbScale
 70
     0
300
1:30
140
1.0
141
30.0
290
     0
  0
SCALE
  5
51
102
{ACAD_REACTORS
330
47
102
}
330
47
100
AcDbScale
 70
     0
300
1:40
140
1.0
141
40.0
290
     0
  0
SCALE
  5
52
102
{ACAD_REACTORS
330
47
102
}
330
47
100
AcDbScale
 70
     0
300
1:50
140
1.0
141
50.0
290
     0
  0
SCALE
  5
53
102
{ACAD_REACTORS
330
47
102
}
330
47
100
AcDbScale
 70
     0
300
1:100
140
1.0
141
100.0
290
     0
  0
SCALE
  5
54
102
{ACAD_REACTORS
330
47
102
}
330
47
100
AcDbScale
 70
     0
300
2:1
140
2.0
141
1.0
290
     0
  0
SCALE
  5
55
102
{ACAD_REACTORS
330
47
102
}
330
47
100
AcDbScale
 70
     0
300
4:1
140
4.0
141
1.0
290
     0
  0
SCALE
  5
56
102
{ACAD_REACTORS
330
47
102
}
330
47
100
AcDbScale
 70
     0
300
8:1
140
8.0
141
1.0
290
     0
  0
SCALE
  5
57
102
{ACAD_REACTORS
330
47
102
}
330
47
100
AcDbScale
 70
     0
300
10:1
140
10.0
141
1.0
290
     0
  0
SCALE
  5
58
102
{ACAD_REACTORS
330
47
102
}
330
47
100
AcDbScale
 70
     0
300
100:1
140
100.0
141
1.0
290
     0
  0
SCALE
  5
59
102
{ACAD_REACTORS
330
47
102
}
330
47
100
AcDbScale
 70
     0
300
1/128" = 1'-0"
140
0.0078125
141
12.0
290
     0
  0
SCALE
  5
5A
102
{ACAD_REACTORS
330
47
102
}
330
47
100
AcDbScale
 70
     0
300
1/64" = 1'-0"
140
0.015625
141
12.0
290
     0
  0
SCALE
  5
5B
102
{ACAD_REACTORS
330
47
102
}
330
47
100
AcDbScale
 70
     0
300
1/32" = 1'-0"
140
0.03125
141
12.0
290
     0
  0
SCALE
  5
5C
102
{ACAD_REACTORS
330
47
102
}
330
47
100
AcDbScale
 70
     0
300
1/16" = 1'-0"
140
0.0625
141
12.0
290
     0
  0
SCALE
  5
5D
102
{ACAD_REACTORS
330
47
102
}
330
47
100
AcDbScale
 70
     0
300
3/32" = 1'-0"
140
0.09375
141
12.0
290
     0
  0
SCALE
  5
5E
102
{ACAD_REACTORS
330
47
102
}
330
47
100
AcDbScale
 70
     0
300
1/8" = 1'-0"
140
0.125
141
12.0
290
     0
  0
SCALE
  5
5F
102
{ACAD_REACTORS
330
47
102
}
330
47
100
AcDbScale
 70
     0
300
3/16" = 1'-0"
140
0.1875
141
12.0
290
     0
  0
SCALE
  5
60
102
{ACAD_REACTORS
330
47
102
}
330
47
100
AcDbScale
 70
     0
300
1/4" = 1'-0"
140
0.25
141
12.0
290
     0
  0
SCALE
  5
61
102
{ACAD_REACTORS
330
47
102
}
330
47
100
AcDbScale
 70
     0
300
3/8" = 1'-0"
140
0.375
141
12.0
290
     0
  0
SCALE
  5
62
102
{ACAD_REACTORS
330
47
102
}
330
47
100
AcDbScale
 70
     0
300
1/2" = 1'-0"
140
0.5
141
12.0
290
     0
  0
SCALE
  5
63
102
{ACAD_REACTORS
330
47
102
}
330
47
100
AcDbScale
 70
     0
300
3/4" = 1'-0"
140
0.75
141
12.0
290
     0
  0
SCALE
  5
64
102
{ACAD_REACTORS
330
47
102
}
330
47
100
AcDbScale
 70
     0
300
1" = 1'-0"
140
1.0
141
12.0
290
     0
  0
SCALE
  5
65
102
{ACAD_REACTORS
330
47
102
}
330
47
100
AcDbScale
 70
     0
300
1-1/2" = 1'-0"
140
1.5
141
12.0
290
     0
  0
SCALE
  5
66
102
{ACAD_REACTORS
330
47
102
}
330
47
100
AcDbScale
 70
     0
300
3" = 1'-0"
140
3.0
141
12.0
290
     0
  0
SCALE
  5
67
102
{ACAD_REACTORS
330
47
102
}
330
47
100
AcDbScale
 70
     0
300
6" = 1'-0"
140
6.0
141
12.0
290
     0
  0
SCALE
  5
68
102
{ACAD_REACTORS
330
47
102
}
330
47
100
AcDbScale
 70
     0
300
1'-0" = 1'-0"
140
12.0
141
12.0
290
     0
  0
ENDSEC
  0
EOF
