  0
SECTION
  2
HEADER
  9
$ACADVER
  1
AC1015
  9
$ACADMAINTVER
 70
     6
  9
$DWGCODEPAGE
  3
ANSI_949
  9
$INSBASE
 10
0.0
 20
0.0
 30
0.0
  9
$EXTMIN
 10
1.000000000000000E+20
 20
1.000000000000000E+20
 30
1.000000000000000E+20
  9
$EXTMAX
 10
-1.000000000000000E+20
 20
-1.000000000000000E+20
 30
-1.000000000000000E+20
  9
$LIMMIN
 10
0.0
 20
0.0
  9
$LIMMAX
 10
420.0
 20
297.0
  9
$ORTHOMODE
 70
     0
  9
$REGENMODE
 70
     1
  9
$FILLMODE
 70
     1
  9
$QTEXTMODE
 70
     0
  9
$MIRRTEXT
 70
     1
  9
$LTSCALE
 40
1.0
  9
$ATTMODE
 70
     1
  9
$TEXTSIZE
 40
3.5
  9
$TRACEWID
 40
1.0
  9
$TEXTSTYLE
  7
Standard
  9
$CLAYER
  8
0
  9
$CELTYPE
  6
ByLayer
  9
$CECOLOR
 62
   256
  9
$CELTSCALE
 40
1.0
  9
$DISPSILH
 70
     0
  9
$DIMSCALE
 40
1.0
  9
$DIMASZ
 40
3.302
  9
$DIMEXO
 40
1.0
  9
$DIMDLI
 40
3.75
  9
$DIMRND
 40
0.0
  9
$DIMDLE
 40
0.0
  9
$DIMEXE
 40
1.0
  9
$DIMTP
 40
0.0
  9
$DIMTM
 40
0.0
  9
$DIMTXT
 40
3.5
  9
$DIMCEN
 40
2.5
  9
$DIMTSZ
 40
0.0
  9
$DIMTOL
 70
     0
  9
$DIMLIM
 70
     0
  9
$DIMTIH
 70
     1
  9
$DIMTOH
 70
     1
  9
$DIMSE1
 70
     0
  9
$DIMSE2
 70
     0
  9
$DIMTAD
 70
     1
  9
$DIMZIN
 70
     0
  9
$DIMBLK
  1

  9
$DIMASO
 70
     1
  9
$DIMSHO
 70
     1
  9
$DIMPOST
  1

  9
$DIMAPOST
  1

  9
$DIMALT
 70
     0
  9
$DIMALTD
 70
     3
  9
$DIMALTF
 40
0.0393700787401575
  9
$DIMLFAC
 40
1.0
  9
$DIMTOFL
 70
     1
  9
$DIMTVP
 40
0.0
  9
$DIMTIX
 70
     0
  9
$DIMSOXD
 70
     0
  9
$DIMSAH
 70
     0
  9
$DIMBLK1
  1

  9
$DIMBLK2
  1

  9
$DIMSTYLE
  2
ISO-25
  9
$DIMCLRD
 70
     0
  9
$DIMCLRE
 70
     0
  9
$DIMCLRT
 70
     0
  9
$DIMTFAC
 40
1.0
  9
$DIMGAP
 40
1.524
  9
$DIMJUST
 70
     0
  9
$DIMSD1
 70
     0
  9
$DIMSD2
 70
     0
  9
$DIMTOLJ
 70
     0
  9
$DIMTZIN
 70
     0
  9
$DIMALTZ
 70
     0
  9
$DIMALTTZ
 70
     0
  9
$DIMUPT
 70
     0
  9
$DIMDEC
 70
     2
  9
$DIMTDEC
 70
     2
  9
$DIMALTU
 70
     2
  9
$DIMALTTD
 70
     3
  9
$DIMTXSTY
  7
Standard
  9
$DIMAUNIT
 70
     0
  9
$DIMADEC
 70
     2
  9
$DIMALTRND
 40
0.0
  9
$DIMAZIN
 70
     0
  9
$DIMDSEP
 70
    44
  9
$DIMATFIT
 70
     3
  9
$DIMFRAC
 70
     0
  9
$DIMLDRBLK
  1

  9
$DIMLUNIT
 70
     2
  9
$DIMLWD
 70
    -2
  9
$DIMLWE
 70
    -2
  9
$DIMTMOVE
 70
     0
  9
$LUNITS
 70
     2
  9
$LUPREC
 70
     2
  9
$SKETCHINC
 40
1.0
  9
$FILLETRAD
 40
10.0
  9
$AUNITS
 70
     0
  9
$AUPREC
 70
     2
  9
$MENU
  1
.
  9
$ELEVATION
 40
0.0
  9
$PELEVATION
 40
0.0
  9
$THICKNESS
 40
0.0
  9
$LIMCHECK
 70
     0
  9
$CHAMFERA
 40
0.0
  9
$CHAMFERB
 40
0.0
  9
$CHAMFERC
 40
0.0
  9
$CHAMFERD
 40
0.0
  9
$SKPOLY
 70
     0
  9
$TDCREATE
 40
2458271.401901261
  9
$TDUCREATE
 40
2458271.026901261
  9
$TDUPDATE
 40
2458271.490307998
  9
$TDUUPDATE
 40
2458271.115307998
  9
$TDINDWG
 40
0.0006101273
  9
$TDUSRTIMER
 40
2458271.114698113
  9
$USRTIMER
 70
     1
  9
$ANGBASE
 50
0.0
  9
$ANGDIR
 70
     0
  9
$PDMODE
 70
     0
  9
$PDSIZE
 40
-1.0
  9
$PLINEWID
 40
0.0
  9
$SPLFRAME
 70
     0
  9
$SPLINETYPE
 70
     6
  9
$SPLINESEGS
 70
     8
  9
$HANDSEED
  5
1AC
  9
$SURFTAB1
 70
     6
  9
$SURFTAB2
 70
     6
  9
$SURFTYPE
 70
     6
  9
$SURFU
 70
     6
  9
$SURFV
 70
     6
  9
$UCSBASE
  2

  9
$UCSNAME
  2

  9
$UCSORG
 10
0.0
 20
0.0
 30
0.0
  9
$UCSXDIR
 10
1.0
 20
0.0
 30
0.0
  9
$UCSYDIR
 10
0.0
 20
1.0
 30
0.0
  9
$UCSORTHOREF
  2

  9
$UCSORTHOVIEW
 70
     0
  9
$UCSORGTOP
 10
0.0
 20
0.0
 30
0.0
  9
$UCSORGBOTTOM
 10
0.0
 20
0.0
 30
0.0
  9
$UCSORGLEFT
 10
0.0
 20
0.0
 30
0.0
  9
$UCSORGRIGHT
 10
0.0
 20
0.0
 30
0.0
  9
$UCSORGFRONT
 10
0.0
 20
0.0
 30
0.0
  9
$UCSORGBACK
 10
0.0
 20
0.0
 30
0.0
  9
$PUCSBASE
  2

  9
$PUCSNAME
  2

  9
$PUCSORG
 10
0.0
 20
0.0
 30
0.0
  9
$PUCSXDIR
 10
1.0
 20
0.0
 30
0.0
  9
$PUCSYDIR
 10
0.0
 20
1.0
 30
0.0
  9
$PUCSORTHOREF
  2

  9
$PUCSORTHOVIEW
 70
     0
  9
$PUCSORGTOP
 10
0.0
 20
0.0
 30
0.0
  9
$PUCSORGBOTTOM
 10
0.0
 20
0.0
 30
0.0
  9
$PUCSORGLEFT
 10
0.0
 20
0.0
 30
0.0
  9
$PUCSORGRIGHT
 10
0.0
 20
0.0
 30
0.0
  9
$PUCSORGFRONT
 10
0.0
 20
0.0
 30
0.0
  9
$PUCSORGBACK
 10
0.0
 20
0.0
 30
0.0
  9
$USERI1
 70
     0
  9
$USERI2
 70
     0
  9
$USERI3
 70
     0
  9
$USERI4
 70
     0
  9
$USERI5
 70
     0
  9
$USERR1
 40
0.0
  9
$USERR2
 40
0.0
  9
$USERR3
 40
0.0
  9
$USERR4
 40
0.0
  9
$USERR5
 40
0.0
  9
$WORLDVIEW
 70
     1
  9
$SHADEDGE
 70
     3
  9
$SHADEDIF
 70
    70
  9
$TILEMODE
 70
     1
  9
$MAXACTVP
 70
    64
  9
$PINSBASE
 10
0.0
 20
0.0
 30
0.0
  9
$PLIMCHECK
 70
     0
  9
$PEXTMIN
 10
1.000000000000000E+20
 20
1.000000000000000E+20
 30
1.000000000000000E+20
  9
$PEXTMAX
 10
-1.000000000000000E+20
 20
-1.000000000000000E+20
 30
-1.000000000000000E+20
  9
$PLIMMIN
 10
0.0
 20
0.0
  9
$PLIMMAX
 10
0.0
 20
0.0
  9
$UNITMODE
 70
     0
  9
$VISRETAIN
 70
     1
  9
$PLINEGEN
 70
     0
  9
$PSLTSCALE
 70
     1
  9
$TREEDEPTH
 70
  3020
  9
$CMLSTYLE
  2
Standard
  9
$CMLJUST
 70
     0
  9
$CMLSCALE
 40
20.0
  9
$PROXYGRAPHICS
 70
     1
  9
$MEASUREMENT
 70
     1
  9
$CELWEIGHT
370
    -1
  9
$ENDCAPS
280
     0
  9
$JOINSTYLE
280
     0
  9
$LWDISPLAY
290
     1
  9
$INSUNITS
 70
     4
  9
$HYPERLINKBASE
  1

  9
$STYLESHEET
  1

  9
$XEDIT
290
     1
  9
$CEPSNTYPE
380
     0
  9
$PSTYLEMODE
290
     1
  9
$FINGERPRINTGUID
  2
{E34AD82F-3FD6-4C98-843E-24E739D566FA}
  9
$VERSIONGUID
  2
{FAEB1C32-E019-11D5-929B-00C0DF256EC4}
  9
$EXTNAMES
290
     1
  9
$PSVPSCALE
 40
0.0
  9
$OLESTARTUP
290
     0
  0
ENDSEC
  0
SECTION
  2
CLASSES
  0
CLASS
  1
ACDBDICTIONARYWDFLT
  2
AcDbDictionaryWithDefault
  3
ObjectDBX Classes
 90
        0
280
     0
281
     0
  0
CLASS
  1
VISUALSTYLE
  2
AcDbVisualStyle
  3
ObjectDBX Classes
 90
     4095
280
     0
281
     0
  0
CLASS
  1
MATERIAL
  2
AcDbMaterial
  3
ObjectDBX Classes
 90
     1153
280
     0
281
     0
  0
CLASS
  1
SCALE
  2
AcDbScale
  3
ObjectDBX Classes
 90
     1153
280
     0
281
     0
  0
CLASS
  1
SUN
  2
AcDbSun
  3
SCENEOE
 90
     1153
280
     0
281
     0
  0
CLASS
  1
ACDBPLACEHOLDER
  2
AcDbPlaceHolder
  3
ObjectDBX Classes
 90
        0
280
     0
281
     0
  0
CLASS
  1
LAYOUT
  2
AcDbLayout
  3
ObjectDBX Classes
 90
        0
280
     0
281
     0
  0
CLASS
  1
TABLESTYLE
  2
AcDbTableStyle
  3
ObjectDBX Classes
 90
     4095
280
     0
281
     0
  0
CLASS
  1
MLEADERSTYLE
  2
AcDbMLeaderStyle
  3
ACDB_MLEADERSTYLE_CLASS
 90
     4095
280
     0
281
     0
  0
CLASS
  1
RASTERVARIABLES
  2
AcDbRasterVariables
  3
ISM
 90
        0
280
     0
281
     0
  0
ENDSEC
  0
SECTION
  2
TABLES
  0
TABLE
  2
VPORT
  5
8
330
0
100
AcDbSymbolTable
 70
     1
  0
VPORT
  5
29
330
8
100
AcDbSymbolTableRecord
100
AcDbViewportTableRecord
  2
*Active
 70
     0
 10
0.0
 20
0.0
 11
1.0
 21
1.0
 12
5.920177338469088
 22
-2.475676107085624
 13
0.0
 23
0.0
 14
10.0
 24
10.0
 15
10.0
 25
10.0
 16
0.0
 26
0.0
 36
1.0
 17
0.0
 27
0.0
 37
0.0
 40
32.90984728738412
 41
1.49034749034749
 42
50.0
 43
0.0
 44
0.0
 50
0.0
 51
0.0
 71
    16
 72
  2000
 73
     1
 74
     3
 75
     0
 76
     0
 77
     0
 78
     0
281
     0
 65
     1
110
0.0
120
0.0
130
0.0
111
1.0
121
0.0
131
0.0
112
0.0
122
1.0
132
0.0
 79
     0
146
0.0
  0
ENDTAB
  0
TABLE
  2
LTYPE
  5
5
330
0
100
AcDbSymbolTable
 70
     6
  0
LTYPE
  5
14
330
5
100
AcDbSymbolTableRecord
100
AcDbLinetypeTableRecord
  2
ByBlock
 70
     0
  3

 72
    65
 73
     0
 40
0.0
  0
LTYPE
  5
15
330
5
100
AcDbSymbolTableRecord
100
AcDbLinetypeTableRecord
  2
ByLayer
 70
     0
  3

 72
    65
 73
     0
 40
0.0
  0
LTYPE
  5
16
330
5
100
AcDbSymbolTableRecord
100
AcDbLinetypeTableRecord
  2
Continuous
 70
     0
  3
Solid line
 72
    65
 73
     0
 40
0.0
  0
LTYPE
  5
6A
330
5
100
AcDbSymbolTableRecord
100
AcDbLinetypeTableRecord
  2
HIDDEN
 70
     0
  3
Hidden __ __ __ __ __ __ __ __ __ __ __ __ __ __
 72
    65
 73
     2
 40
1.905
 49
1.27
 74
     0
 49
-0.635
 74
     0
  0
LTYPE
  5
6B
330
5
100
AcDbSymbolTableRecord
100
AcDbLinetypeTableRecord
  2
PHANTOM
 70
     0
  3
Phantom ______  __  __  ______  __  __  ______
 72
    65
 73
     6
 40
12.7
 49
6.35
 74
     0
 49
-1.27
 74
     0
 49
1.27
 74
     0
 49
-1.27
 74
     0
 49
1.27
 74
     0
 49
-1.27
 74
     0
  0
LTYPE
  5
6C
330
5
100
AcDbSymbolTableRecord
100
AcDbLinetypeTableRecord
  2
CENTER
 70
     0
  3
Center ____ _ ____ _ ____ _ ____ _ ____ _ ____
 72
    65
 73
     4
 40
10.16
 49
6.35
 74
     0
 49
-1.27
 74
     0
 49
1.27
 74
     0
 49
-1.27
 74
     0
  0
LTYPE
  5
6D
330
5
100
AcDbSymbolTableRecord
100
AcDbLinetypeTableRecord
  2
CENTERX2
 70
     0
  3
Center (2x) ________  __  ________  __  _____
 72
    65
 73
     4
 40
20.32
 49
12.7
 74
     0
 49
-2.54
 74
     0
 49
2.54
 74
     0
 49
-2.54
 74
     0
  0
LTYPE
  5
6E
330
5
100
AcDbSymbolTableRecord
100
AcDbLinetypeTableRecord
  2
DOT2
 70
     0
  3
Dot (.5x) ........................................
 72
    65
 73
     2
 40
0.635
 49
0.0
 74
     0
 49
-0.635
 74
     0
  0
ENDTAB
  0
TABLE
  2
LAYER
  5
2
330
0
100
AcDbSymbolTable
 70
    18
  0
LAYER
  5
10
330
2
100
AcDbSymbolTableRecord
100
AcDbLayerTableRecord
  2
0
 70
     0
 62
     7
  6
Continuous
370
    -3
390
F
  0
LAYER
  5
6F
330
2
100
AcDbSymbolTableRecord
100
AcDbLayerTableRecord
  2
FORMAT
 70
     0
 62
     2
  6
Continuous
370
    -3
390
F
  0
LAYER
  5
70
330
2
100
AcDbSymbolTableRecord
100
AcDbLayerTableRecord
  2
외형선
 70
     0
 62
     4
  6
Continuous
370
    30
390
F
  0
LAYER
  5
71
330
2
100
AcDbSymbolTableRecord
100
AcDbLayerTableRecord
  2
숨은선
 70
     0
 62
     2
  6
HIDDEN
370
    15
390
F
  0
LAYER
  5
72
330
2
100
AcDbSymbolTableRecord
100
AcDbLayerTableRecord
  2
중심선
 70
     0
 62
     1
  6
CENTERX2
370
    -3
390
F
  0
LAYER
  5
73
330
2
100
AcDbSymbolTableRecord
100
AcDbLayerTableRecord
  2
파단선
 70
     0
 62
     4
  6
Continuous
370
    -3
390
F
  0
LAYER
  5
74
330
2
100
AcDbSymbolTableRecord
100
AcDbLayerTableRecord
  2
해칭선
 70
     0
 62
   100
  6
Continuous
370
    -3
390
F
  0
LAYER
  5
75
330
2
100
AcDbSymbolTableRecord
100
AcDbLayerTableRecord
  2
가는실선
 70
     0
 62
     4
  6
Continuous
370
    -3
390
F
  0
LAYER
  5
76
330
2
100
AcDbSymbolTableRecord
100
AcDbLayerTableRecord
  2
치수_보조선
 70
     0
 62
     4
  6
Continuous
370
    -3
390
F
  0
LAYER
  5
77
330
2
100
AcDbSymbolTableRecord
100
AcDbLayerTableRecord
  2
치수문자_일반주서
 70
     0
 62
     7
  6
Continuous
370
    15
390
F
  0
LAYER
  5
78
330
2
100
AcDbSymbolTableRecord
100
AcDbLayerTableRecord
  2
개별주서
 70
     0
 62
   100
  6
Continuous
370
    30
390
F
  0
LAYER
  5
79
330
2
100
AcDbSymbolTableRecord
100
AcDbLayerTableRecord
  2
중간선
 70
     0
 62
     2
  6
Continuous
370
    15
390
F
  0
LAYER
  5
7A
330
2
100
AcDbSymbolTableRecord
100
AcDbLayerTableRecord
  2
윤곽선
 70
     0
 62
     3
  6
Continuous
370
    40
390
F
  0
LAYER
  5
7B
330
2
100
AcDbSymbolTableRecord
100
AcDbLayerTableRecord
  2
중심마크
 70
     0
 62
   100
  6
Continuous
370
    30
390
F
  0
LAYER
  5
7C
330
2
100
AcDbSymbolTableRecord
100
AcDbLayerTableRecord
  2
가상선
 70
     0
 62
     4
  6
PHANTOM
370
    -3
390
F
  0
LAYER
  5
7D
330
2
100
AcDbSymbolTableRecord
100
AcDbLayerTableRecord
  2
특수지정선
 70
     0
 62
     5
  6
CENTERX2
370
    60
390
F
  0
LAYER
  5
7E
330
2
100
AcDbSymbolTableRecord
100
AcDbLayerTableRecord
  2
참조1
 70
     0
 62
    -4
  6
Continuous
370
    -3
390
F
  0
LAYER
  5
19E
330
2
100
AcDbSymbolTableRecord
100
AcDbLayerTableRecord
  2
Defpoints
 70
     0
 62
     7
  6
Continuous
290
     0
370
    -3
390
F
  0
ENDTAB
  0
TABLE
  2
STYLE
  5
3
330
0
100
AcDbSymbolTable
 70
     2
  0
STYLE
  5
11
330
3
100
AcDbSymbolTableRecord
100
AcDbTextStyleTableRecord
  2
Standard
 70
     0
 40
0.0
 41
1.0
 50
0.0
 71
     0
 42
3.5
  3
txt
  4

  0
STYLE
  5
94
330
3
100
AcDbSymbolTableRecord
100
AcDbTextStyleTableRecord
  2
SLDTEXTSTYLE0
 70
     0
 40
0.0
 41
0.75
 50
0.0
 71
     0
 42
3.5
  3
TXT
  4

  0
ENDTAB
  0
TABLE
  2
VIEW
  5
6
330
0
100
AcDbSymbolTable
 70
     0
  0
ENDTAB
  0
TABLE
  2
UCS
  5
7
330
0
100
AcDbSymbolTable
 70
     0
  0
ENDTAB
  0
TABLE
  2
APPID
  5
9
330
0
100
AcDbSymbolTable
 70
     1
  0
APPID
  5
12
330
9
100
AcDbSymbolTableRecord
100
AcDbRegAppTableRecord
  2
ACAD
 70
     0
  0
ENDTAB
  0
TABLE
  2
DIMSTYLE
  5
A
330
0
100
AcDbSymbolTable
 70
     4
100
AcDbDimStyleTable
  0
DIMSTYLE
105
27
330
A
100
AcDbSymbolTableRecord
100
AcDbDimStyleTableRecord
  2
ISO-25
 70
     0
 41
2.5
 42
0.625
 43
3.75
 44
1.25
 73
     0
 74
     0
 77
     1
 78
     8
140
2.5
141
2.5
143
0.03937007874016
147
0.625
171
     3
172
     1
178
     0
271
     2
272
     2
274
     3
278
    44
283
     0
284
     8
340
11
  0
DIMSTYLE
105
D7
102
{ACAD_REACTORS
330
D6
330
107
102
}
330
A
100
AcDbSymbolTableRecord
100
AcDbDimStyleTableRecord
  2
SLDDIMSTYLE0
 70
     0
 41
3.302
 44
0.0
 45
0.000000001
 73
     0
 74
     0
 77
     1
 78
    12
 79
     3
140
3.5
147
0.875
172
     1
173
     1
178
     0
271
     2
272
     2
276
     2
284
    12
289
     0
340
94
  0
DIMSTYLE
105
E5
102
{ACAD_REACTORS
330
E4
102
}
330
A
100
AcDbSymbolTableRecord
100
AcDbDimStyleTableRecord
  2
SLDDIMSTYLE1
 70
     0
 41
3.302
 44
0.0
 45
0.000000001
 73
     0
 74
     0
 77
     1
 78
     4
 79
     1
140
3.5
147
0.875
172
     1
173
     1
178
     0
271
     2
272
     2
276
     2
284
    12
289
     0
340
94
  0
DIMSTYLE
105
F2
102
{ACAD_REACTORS
330
F1
330
FD
102
}
330
A
100
AcDbSymbolTableRecord
100
AcDbDimStyleTableRecord
  2
SLDDIMSTYLE2
 70
     0
 41
3.302
 44
0.0
 45
0.000000001
 73
     0
 74
     0
 77
     1
 78
    12
 79
     3
140
3.5
147
0.875
173
     1
178
     0
271
     2
272
     2
276
     2
284
    12
340
94
  0
ENDTAB
  0
TABLE
  2
BLOCK_RECORD
  5
1
330
0
100
AcDbSymbolTable
 70
     9
  0
BLOCK_RECORD
  5
1F
330
1
100
AcDbSymbolTableRecord
100
AcDbBlockTableRecord
  2
*Model_Space
340
22
  0
BLOCK_RECORD
  5
1B
330
1
100
AcDbSymbolTableRecord
100
AcDbBlockTableRecord
  2
*Paper_Space
340
1E
  0
BLOCK_RECORD
  5
23
330
1
100
AcDbSymbolTableRecord
100
AcDbBlockTableRecord
  2
*Paper_Space0
340
26
  0
BLOCK_RECORD
  5
7F
330
1
100
AcDbSymbolTableRecord
100
AcDbBlockTableRecord
  2
블럭10
340
0
102
{BLKREFS
331
CD
102
}
  0
BLOCK_RECORD
  5
D8
330
1
100
AcDbSymbolTableRecord
100
AcDbBlockTableRecord
  2
_D
340
0
  0
BLOCK_RECORD
  5
E6
330
1
100
AcDbSymbolTableRecord
100
AcDbBlockTableRecord
  2
_D_1
340
0
  0
BLOCK_RECORD
  5
F3
330
1
100
AcDbSymbolTableRecord
100
AcDbBlockTableRecord
  2
_D_2
340
0
  0
BLOCK_RECORD
  5
FE
330
1
100
AcDbSymbolTableRecord
100
AcDbBlockTableRecord
  2
_D_3
340
0
  0
BLOCK_RECORD
  5
108
330
1
100
AcDbSymbolTableRecord
100
AcDbBlockTableRecord
  2
_D_4
340
0
  0
BLOCK_RECORD
  5
11B
330
1
100
AcDbSymbolTableRecord
100
AcDbBlockTableRecord
  2
SW_DOWELSYMBOL_0
340
0
102
{BLKREFS
331
121
102
}
  0
ENDTAB
  0
ENDSEC
  0
SECTION
  2
BLOCKS
  0
BLOCK
  5
20
330
1F
100
AcDbEntity
  8
0
100
AcDbBlockBegin
  2
*Model_Space
 70
     0
 10
0.0
 20
0.0
 30
0.0
  3
*Model_Space
  1
*Model_Space
  0
ENDBLK
  5
21
330
1F
100
AcDbEntity
  8
0
100
AcDbBlockEnd
  0
BLOCK
  5
1C
330
1B
100
AcDbEntity
 67
     1
  8
0
100
AcDbBlockBegin
  2
*Paper_Space
 70
     0
 10
0.0
 20
0.0
 30
0.0
  3
*Paper_Space
  1
*Paper_Space
  0
ENDBLK
  5
1D
330
1B
100
AcDbEntity
 67
     1
  8
0
100
AcDbBlockEnd
  0
BLOCK
  5
24
330
23
100
AcDbEntity
  8
0
100
AcDbBlockBegin
  2
*Paper_Space0
 70
     0
 10
0.0
 20
0.0
 30
0.0
  3
*Paper_Space0
  1
*Paper_Space0
  0
ENDBLK
  5
25
330
23
100
AcDbEntity
  8
0
100
AcDbBlockEnd
  0
BLOCK
  5
80
330
7F
100
AcDbEntity
  8
0
100
AcDbBlockBegin
  2
블럭10
 70
     2
 10
0.0
 20
0.0
 30
0.0
  3
블럭10
  1
블럭10
  0
ELLIPSE
  5
82
330
7F
100
AcDbEntity
  8
중심선
100
AcDbEllipse
 10
20.54032771741204
 20
12.0471743016438
 30
0.0
 11
6.600054785286829
 21
-1.261213355974178E-13
 31
0.0
210
0.0
220
0.0
230
1.0
 40
0.636358354079598
 41
0.9219305317359503
 42
6.513795318482858
  0
ELLIPSE
  5
83
330
7F
100
AcDbEntity
  8
중심선
100
AcDbEllipse
 10
20.54032771746488
 20
12.04717430159265
 30
0.0
 11
3.960054785062283
 21
1.540847449632565E-10
 31
0.0
210
0.0
220
0.0
230
1.0
 40
0.3939339440162632
 41
1.131841032648279
 42
5.62031148352944
  0
LINE
  5
84
330
7F
100
AcDbEntity
  8
중심선
100
AcDbLine
 10
2.268634060543552
 20
16.24717430164393
 30
0.0
 11
5.714909304380834
 21
16.24717430164393
 31
0.0
  0
LINE
  5
85
330
7F
100
AcDbEntity
  8
중심선
100
AcDbLine
 10
5.245725140726316
 20
7.84717430164391
 30
0.0
 11
8.692000384563599
 21
7.84717430164391
 31
0.0
  0
LINE
  5
86
330
7F
100
AcDbEntity
  8
중심선
100
AcDbLine
 10
15.74043728645272
 20
16.24717430164393
 30
0.0
 11
8.692000384563599
 21
7.84717430164391
 31
0.0
  0
LINE
  5
87
330
7F
100
AcDbEntity
  8
중심선
100
AcDbLine
 10
0.1404042013395286
 20
13.71084872107135
 30
0.0
 11
3.58671253028996
 21
13.71088815037384
 31
0.0
  0
LINE
  5
88
330
7F
100
AcDbEntity
  8
중심선
100
AcDbLine
 10
2.750260043222114
 20
10.84717430164391
 30
0.0
 11
6.196535287059397
 21
10.84717430164391
 31
0.0
  0
LINE
  5
89
330
7F
100
AcDbEntity
  8
중심선
100
AcDbLine
 10
12.29416204261559
 20
16.24717430164393
 30
0.0
 11
5.245725140726316
 21
7.84717430164391
 31
0.0
  0
LINE
  5
8A
330
7F
100
AcDbEntity
  8
중심선
100
AcDbLine
 10
10.72767329541681
 20
16.24717430164393
 30
0.0
 11
6.196535287059397
 21
10.84717430164391
 31
0.0
  0
LINE
  5
8B
330
7F
100
AcDbEntity
  8
중심선
100
AcDbLine
 10
7.28139805157953
 20
16.24717430164393
 30
0.0
 11
2.750260043222114
 21
10.84717430164391
 31
0.0
  0
LINE
  5
8C
330
7F
100
AcDbEntity
  8
중심선
100
AcDbLine
 10
5.714909304380834
 20
16.24717430164393
 30
0.0
 11
3.58671253028996
 21
13.71088815037384
 31
0.0
  0
LINE
  5
8D
330
7F
100
AcDbEntity
  8
중심선
100
AcDbLine
 10
2.268634060543552
 20
16.24717430164393
 30
0.0
 11
0.1404042013395286
 21
13.71084872107135
 31
0.0
  0
LINE
  5
8E
330
7F
100
AcDbEntity
  8
중심선
100
AcDbLine
 10
7.28139805157953
 20
16.24717430164393
 30
0.0
 11
10.72767329541681
 21
16.24717430164393
 31
0.0
  0
LINE
  5
8F
330
7F
100
AcDbEntity
  8
중심선
100
AcDbLine
 10
12.29416204261559
 20
16.24717430164393
 30
0.0
 11
15.74043728645272
 21
16.24717430164393
 31
0.0
  0
LINE
  5
90
330
7F
100
AcDbEntity
  8
중심선
100
AcDbLine
 10
19.22036997980202
 20
11.08717430171403
 30
0.0
 11
23.66174974927406
 21
11.08717430171406
 31
0.0
  0
LINE
  5
91
330
7F
100
AcDbEntity
  8
중심선
100
AcDbLine
 10
19.22039502424796
 20
13.00717430171391
 30
0.0
 11
19.22036997980202
 21
11.08717430171403
 31
0.0
  0
LINE
  5
92
330
7F
100
AcDbEntity
  8
중심선
100
AcDbLine
 10
19.22039502424796
 20
13.00717430171391
 30
0.0
 11
26.96566020931264
 21
13.00717430171391
 31
0.0
  0
LINE
  5
93
330
7F
100
AcDbEntity
  8
중심선
100
AcDbLine
 10
22.22332737316547
 20
13.45928029700563
 30
0.0
 11
24.52862924686651
 21
15.39360700705356
 31
0.0
  0
ATTDEF
  5
95
330
7F
100
AcDbEntity
  8
FORMAT
 62
     2
100
AcDbText
 10
-2.529476536452461
 20
2.075366912832191
 30
0.0
 40
4.233333333333333
  1
SEME7301040E
 41
0.75
  7
SLDTEXTSTYLE0
 11
-2.529476536452461
 21
-0.0412997538344756
 31
0.0
100
AcDbAttributeDefinition
  3

  2
AUTOATTR0
 70
     0
 74
     1
  0
ENDBLK
  5
81
330
7F
100
AcDbEntity
  8
0
100
AcDbBlockEnd
  0
BLOCK
  5
D9
330
D8
100
AcDbEntity
  8
0
100
AcDbBlockBegin
  2
_D
 70
     0
 10
0.0
 20
0.0
 30
0.0
  3
_D
  1
_D
  0
LINE
  5
DB
330
D8
100
AcDbEntity
  8
치수문자_일반주서
 62
     0
370
    -2
100
AcDbLine
 10
44.92757130276388
 20
0.5000000000000002
 30
0.0
 11
61.72294161212799
 21
0.5000000000000622
 31
0.0
  0
LINE
  5
DC
330
D8
100
AcDbEntity
  8
치수문자_일반주서
 62
     0
370
    -2
100
AcDbLine
 10
44.92757130276388
 20
-0.4999999999999998
 30
0.0
 11
61.72294161212799
 21
-0.4999999999999378
 31
0.0
  0
LINE
  5
DD
330
D8
100
AcDbEntity
  8
치수문자_일반주서
 62
     0
370
    -2
100
AcDbLine
 10
61.72294161212799
 20
0.5000000000000622
 30
0.0
 11
61.72294161212799
 21
12.35400000000005
 31
0.0
  0
LINE
  5
DE
330
D8
100
AcDbEntity
  8
치수문자_일반주서
 62
     0
370
    -2
100
AcDbLine
 10
61.72294161212799
 20
0.5000000000000622
 30
0.0
 11
61.72294161212799
 21
-0.4999999999999378
 31
0.0
  0
LINE
  5
DF
330
D8
100
AcDbEntity
  8
치수문자_일반주서
 62
     0
370
    -2
100
AcDbLine
 10
61.72294161212799
 20
3.802000000000062
 30
0.0
 11
61.72294161212799
 21
7.104000000000061
 31
0.0
  0
LINE
  5
E0
330
D8
100
AcDbEntity
  8
치수문자_일반주서
 62
     0
370
    -2
100
AcDbLine
 10
61.72294161212799
 20
-3.801999999999937
 30
0.0
 11
61.72294161212799
 21
-7.103999999999937
 31
0.0
  0
SOLID
  5
E1
330
D8
100
AcDbEntity
  8
치수문자_일반주서
 62
     0
100
AcDbTrace
 10
61.17260827879466
 20
3.802000000000062
 30
0.0
 11
62.27327494546132
 21
3.802000000000062
 31
0.0
 12
61.72294161212799
 22
0.5000000000000622
 32
0.0
 13
61.72294161212799
 23
0.5000000000000622
 33
0.0
  0
SOLID
  5
E2
330
D8
100
AcDbEntity
  8
치수문자_일반주서
 62
     0
100
AcDbTrace
 10
62.27327494546132
 20
-3.801999999999937
 30
0.0
 11
61.17260827879466
 21
-3.801999999999937
 31
0.0
 12
61.72294161212799
 22
-0.4999999999999378
 32
0.0
 13
61.72294161212799
 23
-0.4999999999999378
 33
0.0
  0
MTEXT
  5
E3
330
D8
100
AcDbEntity
  8
치수문자_일반주서
 62
     0
100
AcDbMText
 10
57.34794161212799
 20
9.729000000000058
 30
0.0
 40
3.5
 41
0.0
 71
     2
 72
     1
  1
\A1;%%c1
  7
SLDTEXTSTYLE0
 11
0.0
 21
1.0
 31
0.0
 73
     1
 44
1.0
  0
POINT
  5
19F
330
D8
100
AcDbEntity
  8
Defpoints
 62
     0
100
AcDbPoint
 10
44.86507130276388
 20
0.5
 30
0.0
  0
POINT
  5
1A0
330
D8
100
AcDbEntity
  8
Defpoints
 62
     0
100
AcDbPoint
 10
44.86507130276388
 20
-0.5
 30
0.0
  0
POINT
  5
1A1
330
D8
100
AcDbEntity
  8
Defpoints
 62
     0
100
AcDbPoint
 10
61.72294161212799
 20
-0.499999999999937
 30
0.0
  0
ENDBLK
  5
DA
330
D8
100
AcDbEntity
  8
0
100
AcDbBlockEnd
  0
BLOCK
  5
E7
330
E6
100
AcDbEntity
  8
0
100
AcDbBlockBegin
  2
_D_1
 70
     0
 10
0.0
 20
0.0
 30
0.0
  3
_D_1
  1
_D_1
  0
LINE
  5
E9
330
E6
100
AcDbEntity
  8
치수문자_일반주서
 62
     0
370
    -2
100
AcDbLine
 10
45.66694121457851
 20
0.5588512754521688
 30
0.0
 11
45.66694121457851
 21
10.05046165028006
 31
0.0
  0
LINE
  5
EA
330
E6
100
AcDbEntity
  8
치수문자_일반주서
 62
     0
370
    -2
100
AcDbLine
 10
44.1669412145786
 20
0.5621058104002293
 30
0.0
 11
44.1669412145786
 21
10.05046165028006
 31
0.0
  0
LINE
  5
EB
330
E6
100
AcDbEntity
  8
치수문자_일반주서
 62
     0
370
    -2
100
AcDbLine
 10
45.66694121457851
 20
10.05046165028006
 30
0.0
 11
60.58344121457851
 21
10.05046165028006
 31
0.0
  0
LINE
  5
EC
330
E6
100
AcDbEntity
  8
치수문자_일반주서
 62
     0
370
    -2
100
AcDbLine
 10
45.66694121457851
 20
10.05046165028006
 30
0.0
 11
44.1669412145786
 21
10.05046165028006
 31
0.0
  0
LINE
  5
ED
330
E6
100
AcDbEntity
  8
치수문자_일반주서
 62
     0
370
    -2
100
AcDbLine
 10
48.96894121457851
 20
10.05046165028006
 30
0.0
 11
52.27094121457851
 21
10.05046165028006
 31
0.0
  0
LINE
  5
EE
330
E6
100
AcDbEntity
  8
치수문자_일반주서
 62
     0
370
    -2
100
AcDbLine
 10
40.8649412145786
 20
10.05046165028006
 30
0.0
 11
37.5629412145786
 21
10.05046165028006
 31
0.0
  0
SOLID
  5
EF
330
E6
100
AcDbEntity
  8
치수문자_일반주서
 62
     0
100
AcDbTrace
 10
48.96894121457851
 20
10.6007949836134
 30
0.0
 11
48.96894121457851
 21
9.50012831694673
 31
0.0
 12
45.66694121457851
 22
10.05046165028006
 32
0.0
 13
45.66694121457851
 23
10.05046165028006
 33
0.0
  0
SOLID
  5
F0
330
E6
100
AcDbEntity
  8
치수문자_일반주서
 62
     0
100
AcDbTrace
 10
40.8649412145786
 20
9.50012831694673
 30
0.0
 11
40.8649412145786
 21
10.6007949836134
 31
0.0
 12
44.1669412145786
 22
10.05046165028006
 32
0.0
 13
44.1669412145786
 23
10.05046165028006
 33
0.0
  0
MTEXT
  5
1A4
330
E6
100
AcDbEntity
  8
치수문자_일반주서
 62
     0
100
AcDbMText
 10
56.42719121457851
 20
14.42546165028006
 30
0.0
 40
3.5
 41
0.0
 71
     2
 72
     1
  1
\A1;1.50
  7
SLDTEXTSTYLE0
 73
     1
 44
1.0
  0
POINT
  5
1A5
330
E6
100
AcDbEntity
  8
Defpoints
 62
     0
100
AcDbPoint
 10
45.66694121457851
 20
0.4963512754521688
 30
0.0
  0
POINT
  5
1A6
330
E6
100
AcDbEntity
  8
Defpoints
 62
     0
100
AcDbPoint
 10
44.1669412145786
 20
0.4996058104002293
 30
0.0
  0
POINT
  5
1A7
330
E6
100
AcDbEntity
  8
Defpoints
 62
     0
100
AcDbPoint
 10
44.1669412145786
 20
10.05046165028006
 30
0.0
  0
ENDBLK
  5
E8
330
E6
100
AcDbEntity
  8
0
100
AcDbBlockEnd
  0
BLOCK
  5
F4
330
F3
100
AcDbEntity
  8
0
100
AcDbBlockBegin
  2
_D_2
 70
     0
 10
0.0
 20
0.0
 30
0.0
  3
_D_2
  1
_D_2
  0
LINE
  5
F6
330
F3
100
AcDbEntity
  8
치수문자_일반주서
 62
     0
370
    -2
100
AcDbLine
 10
45.66694121457851
 20
0.5588512754521688
 30
0.0
 11
45.66694121457851
 21
17.42517924691485
 31
0.0
  0
LINE
  5
F7
330
F3
100
AcDbEntity
  8
치수문자_일반주서
 62
     0
370
    -2
100
AcDbLine
 10
5.666941214578523
 20
0.5374999999999952
 30
0.0
 11
5.666941214578522
 21
17.42517924691485
 31
0.0
  0
LINE
  5
F8
330
F3
100
AcDbEntity
  8
치수문자_일반주서
 62
     0
370
    -2
100
AcDbLine
 10
42.36494121457851
 20
17.42517924691485
 30
0.0
 11
8.968941214578521
 21
17.42517924691485
 31
0.0
  0
SOLID
  5
F9
330
F3
100
AcDbEntity
  8
치수문자_일반주서
 62
     0
100
AcDbTrace
 10
42.36494121457851
 20
16.87484591358152
 30
0.0
 11
42.36494121457851
 21
17.97551258024819
 31
0.0
 12
45.66694121457851
 22
17.42517924691485
 32
0.0
 13
45.66694121457851
 23
17.42517924691485
 33
0.0
  0
SOLID
  5
FA
330
F3
100
AcDbEntity
  8
치수문자_일반주서
 62
     0
100
AcDbTrace
 10
8.968941214578521
 20
17.97551258024819
 30
0.0
 11
8.968941214578521
 21
16.87484591358152
 31
0.0
 12
5.666941214578522
 22
17.42517924691485
 32
0.0
 13
5.666941214578522
 23
17.42517924691485
 33
0.0
  0
MTEXT
  5
FB
330
F3
100
AcDbEntity
  8
치수문자_일반주서
 62
     0
100
AcDbMText
 10
25.66694121457852
 20
21.80017924691485
 30
0.0
 40
3.5
 41
0.0
 71
     2
 72
     1
  1
\A1;40
  7
SLDTEXTSTYLE0
 73
     1
 44
1.0
  0
POINT
  5
FC
330
F3
100
AcDbEntity
  8
Defpoints
 62
     0
100
AcDbPoint
 10
45.66694121457851
 20
0.4963512754521688
 30
0.0
  0
POINT
  5
1A2
330
F3
100
AcDbEntity
  8
Defpoints
 62
     0
100
AcDbPoint
 10
5.666941214578523
 20
0.4749999999999953
 30
0.0
  0
POINT
  5
1A3
330
F3
100
AcDbEntity
  8
Defpoints
 62
     0
100
AcDbPoint
 10
5.666941214578523
 20
17.42517924691485
 30
0.0
  0
ENDBLK
  5
F5
330
F3
100
AcDbEntity
  8
0
100
AcDbBlockEnd
  0
BLOCK
  5
FF
330
FE
100
AcDbEntity
  8
0
100
AcDbBlockBegin
  2
_D_3
 70
     0
 10
0.0
 20
0.0
 30
0.0
  3
_D_3
  1
_D_3
  0
LINE
  5
101
330
FE
100
AcDbEntity
  8
치수문자_일반주서
 62
     0
370
    -2
100
AcDbLine
 10
45.66694121457851
 20
0.5588512754521688
 30
0.0
 11
45.66694121457851
 21
28.55513972542639
 31
0.0
  0
LINE
  5
102
330
FE
100
AcDbEntity
  8
치수문자_일반주서
 62
     0
370
    -2
100
AcDbLine
 10
-34.33305878542149
 20
1.662500000000004
 30
0.0
 11
-34.33305878542149
 21
28.55513972542639
 31
0.0
  0
LINE
  5
103
330
FE
100
AcDbEntity
  8
치수문자_일반주서
 62
     0
370
    -2
100
AcDbLine
 10
42.36494121457851
 20
28.55513972542639
 30
0.0
 11
-31.03105878542149
 21
28.55513972542639
 31
0.0
  0
SOLID
  5
104
330
FE
100
AcDbEntity
  8
치수문자_일반주서
 62
     0
100
AcDbTrace
 10
42.36494121457851
 20
28.00480639209306
 30
0.0
 11
42.36494121457851
 21
29.10547305875973
 31
0.0
 12
45.66694121457851
 22
28.55513972542639
 32
0.0
 13
45.66694121457851
 23
28.55513972542639
 33
0.0
  0
SOLID
  5
105
330
FE
100
AcDbEntity
  8
치수문자_일반주서
 62
     0
100
AcDbTrace
 10
-31.03105878542149
 20
29.10547305875973
 30
0.0
 11
-31.03105878542149
 21
28.00480639209306
 31
0.0
 12
-34.33305878542149
 22
28.55513972542639
 32
0.0
 13
-34.33305878542149
 23
28.55513972542639
 33
0.0
  0
MTEXT
  5
106
330
FE
100
AcDbEntity
  8
치수문자_일반주서
 62
     0
100
AcDbMText
 10
5.666941214578517
 20
32.93013972542639
 30
0.0
 40
3.5
 41
0.0
 71
     2
 72
     1
  1
\A1;80
  7
SLDTEXTSTYLE0
 73
     1
 44
1.0
  0
POINT
  5
1A8
330
FE
100
AcDbEntity
  8
Defpoints
 62
     0
100
AcDbPoint
 10
45.66694121457851
 20
0.4963512754521688
 30
0.0
  0
POINT
  5
1A9
330
FE
100
AcDbEntity
  8
Defpoints
 62
     0
100
AcDbPoint
 10
-34.33305878542149
 20
1.600000000000004
 30
0.0
  0
POINT
  5
1AA
330
FE
100
AcDbEntity
  8
Defpoints
 62
     0
100
AcDbPoint
 10
-34.33305878542149
 20
28.55513972542639
 30
0.0
  0
ENDBLK
  5
100
330
FE
100
AcDbEntity
  8
0
100
AcDbBlockEnd
  0
BLOCK
  5
109
330
108
100
AcDbEntity
  8
0
100
AcDbBlockBegin
  2
_D_4
 70
     0
 10
0.0
 20
0.0
 30
0.0
  3
_D_4
  1
_D_4
  0
LINE
  5
10B
330
108
100
AcDbEntity
  8
치수문자_일반주서
 62
     0
370
    -2
100
AcDbLine
 10
-33.99555878542147
 20
2.000000000000001
 30
0.0
 11
-43.00635404316108
 21
1.999999999999968
 31
0.0
  0
LINE
  5
10C
330
108
100
AcDbEntity
  8
치수문자_일반주서
 62
     0
370
    -2
100
AcDbLine
 10
-33.99555878542147
 20
-2.000000000000002
 30
0.0
 11
-43.00635404316107
 21
-2.000000000000036
 31
0.0
  0
LINE
  5
10D
330
108
100
AcDbEntity
  8
치수문자_일반주서
 62
     0
370
    -2
100
AcDbLine
 10
-43.00635404316107
 20
-1.302000000000032
 30
0.0
 11
-43.00635404316108
 21
1.301999999999964
 31
0.0
  0
SOLID
  5
10E
330
108
100
AcDbEntity
  8
치수문자_일반주서
 62
     0
100
AcDbTrace
 10
-42.45602070982773
 20
-1.30200000000003
 30
0.0
 11
-43.5566873764944
 21
-1.302000000000034
 31
0.0
 12
-43.00635404316108
 22
1.999999999999968
 32
0.0
 13
-43.00635404316108
 23
1.999999999999968
 33
0.0
  0
SOLID
  5
10F
330
108
100
AcDbEntity
  8
치수문자_일반주서
 62
     0
100
AcDbTrace
 10
-43.55668737649442
 20
1.301999999999962
 30
0.0
 11
-42.45602070982775
 21
1.301999999999966
 31
0.0
 12
-43.00635404316107
 22
-2.000000000000036
 32
0.0
 13
-43.00635404316107
 23
-2.000000000000036
 33
0.0
  0
MTEXT
  5
110
330
108
100
AcDbEntity
  8
치수문자_일반주서
 62
     0
100
AcDbMText
 10
-47.38135404316107
 20
-0.0000000000000143
 30
0.0
 40
3.5
 41
0.0
 71
     2
 72
     1
  1
\A1;%%c4
  7
SLDTEXTSTYLE0
 11
-3.552713678800498E-15
 21
1.0
 31
0.0
 73
     1
 44
1.0
  0
POINT
  5
111
330
108
100
AcDbEntity
  8
Defpoints
 62
     0
100
AcDbPoint
 10
-33.93305878542147
 20
2.000000000000002
 30
0.0
  0
POINT
  5
112
330
108
100
AcDbEntity
  8
Defpoints
 62
     0
100
AcDbPoint
 10
-33.93305878542147
 20
-2.000000000000002
 30
0.0
  0
POINT
  5
113
330
108
100
AcDbEntity
  8
Defpoints
 62
     0
100
AcDbPoint
 10
-43.00635404316107
 20
-2.000000000000036
 30
0.0
  0
ENDBLK
  5
10A
330
108
100
AcDbEntity
  8
0
100
AcDbBlockEnd
  0
BLOCK
  5
11C
330
11B
100
AcDbEntity
  8
0
100
AcDbBlockBegin
  2
SW_DOWELSYMBOL_0
 70
     0
 10
0.0
 20
0.0
 30
0.0
  3
SW_DOWELSYMBOL_0
  1
SW_DOWELSYMBOL_0
  0
CIRCLE
  5
11E
330
11B
100
AcDbEntity
  8
해칭선
 62
     0
100
AcDbCircle
 10
0.0
 20
0.0
 30
0.0
 40
3.000000000000001
  0
HATCH
  5
11F
330
11B
100
AcDbEntity
  8
0
  6
Continuous
 62
     0
370
     0
100
AcDbHatch
 10
0.0
 20
0.0
 30
0.0
210
0.0
220
0.0
230
1.0
  2
SOLID
 70
     1
 71
     0
 91
        1
 92
        0
 93
        3
 72
     2
 10
0.0
 20
0.0
 40
3.000000000000001
 50
0.0
 51
90.0
 73
     1
 72
     1
 10
0.0
 20
3.000000000000001
 11
0.0
 21
0.0
 72
     1
 10
0.0
 20
0.0
 11
3.000000000000001
 21
0.0
 97
        0
 75
     0
 76
     1
 98
        1
 10
0.0
 20
0.0
  0
HATCH
  5
120
330
11B
100
AcDbEntity
  8
0
  6
Continuous
 62
     0
370
     0
100
AcDbHatch
 10
0.0
 20
0.0
 30
0.0
210
0.0
220
0.0
230
1.0
  2
SOLID
 70
     1
 71
     0
 91
        1
 92
        0
 93
        3
 72
     2
 10
0.0
 20
0.0
 40
3.000000000000001
 50
180.0
 51
270.0000000000008
 73
     1
 72
     1
 10
0.0
 20
-3.000000000000001
 11
0.0
 21
0.0
 72
     1
 10
0.0
 20
0.0
 11
-3.000000000000001
 21
0.0
 97
        0
 75
     0
 76
     1
 98
        1
 10
0.0
 20
0.0
  0
ENDBLK
  5
11D
330
11B
100
AcDbEntity
  8
0
100
AcDbBlockEnd
  0
ENDSEC
  0
SECTION
  2
ENTITIES
  0
LINE
  5
9A
330
1F
100
AcDbEntity
  8
외형선
  6
Continuous
370
    15
100
AcDbLine
 10
-33.93305878542148
 20
2.0
 30
0.0
 11
-34.33305878542149
 21
1.600000000000004
 31
0.0
  0
LINE
  5
9B
330
1F
100
AcDbEntity
  8
외형선
  6
Continuous
370
    15
100
AcDbLine
 10
-34.33305878542149
 20
-1.600000000000004
 30
0.0
 11
-33.93305878542148
 21
-2.0
 31
0.0
  0
LINE
  5
9C
330
1F
100
AcDbEntity
  8
외형선
  6
Continuous
370
    15
100
AcDbLine
 10
-33.93305878542148
 20
-2.0
 30
0.0
 11
0.0
 21
-2.0
 31
0.0
  0
LINE
  5
9D
330
1F
100
AcDbEntity
  8
외형선
  6
Continuous
370
    15
100
AcDbLine
 10
0.0
 20
2.0
 30
0.0
 11
-33.93305878542148
 21
2.0
 31
0.0
  0
LINE
  5
9E
330
1F
100
AcDbEntity
  8
외형선
  6
Continuous
370
    15
100
AcDbLine
 10
0.0
 20
-2.0
 30
0.0
 11
2.801941214578518
 21
-0.9801767997297494
 31
0.0
  0
LINE
  5
9F
330
1F
100
AcDbEntity
  8
외형선
  6
Continuous
370
    15
100
AcDbLine
 10
2.801941214578518
 20
0.9801767997297494
 30
0.0
 11
0.0
 21
2.0
 31
0.0
  0
LINE
  5
A0
330
1F
100
AcDbEntity
  8
외형선
  6
Continuous
370
    15
100
AcDbLine
 10
2.801941214578518
 20
-0.9801767997297494
 30
0.0
 11
5.666941214578523
 21
-0.4749999999999953
 31
0.0
  0
LINE
  5
A1
330
1F
100
AcDbEntity
  8
외형선
  6
Continuous
370
    15
100
AcDbLine
 10
5.666941214578523
 20
0.4749999999999953
 30
0.0
 11
2.801941214578518
 21
0.9801767997297494
 31
0.0
  0
LINE
  5
A2
330
1F
100
AcDbEntity
  8
외형선
  6
Continuous
370
    15
100
AcDbLine
 10
5.666941214578523
 20
-0.4749999999999976
 30
0.0
 11
44.06704689520378
 21
-0.4749999999999976
 31
0.0
  0
LINE
  5
A3
330
1F
100
AcDbEntity
  8
외형선
  6
Continuous
370
    15
100
AcDbLine
 10
44.06704689520378
 20
0.4749999999999976
 30
0.0
 11
5.666941214578523
 21
0.4749999999999976
 31
0.0
  0
SPLINE
  5
A6
330
1F
100
AcDbEntity
  8
외형선
  6
Continuous
370
    15
100
AcDbSpline
210
0.0
220
0.0
230
1.0
 70
    24
 71
     3
 72
    12
 73
     8
 74
     0
 42
0.000000001
 43
0.00000001
 40
0.0
 40
0.0
 40
0.0
 40
0.0
 40
0.2305818922655863
 40
0.4679842535674203
 40
0.696410073789706
 40
0.9314602582730795
 40
0.9999999999999999
 40
0.9999999999999999
 40
0.9999999999999999
 40
0.9999999999999999
 10
44.1669412145786
 20
0.4996058104002293
 30
0.0
 10
44.16694121457857
 20
0.4884781517479212
 30
0.0
 10
44.16694121457849
 20
0.4658936852176725
 30
0.0
 10
44.16694121457845
 20
0.4320123419513931
 30
0.0
 10
44.16694121457854
 20
0.399245945502687
 30
0.0
 10
44.1669412145785
 20
0.37517478726827
 30
0.0
 10
44.16694121457849
 20
0.3631551486568542
 30
0.0
 10
44.16694121457849
 20
0.3604415443671431
 30
0.0
  0
SPLINE
  5
A9
330
1F
100
AcDbEntity
  8
외형선
  6
Continuous
370
    15
100
AcDbSpline
210
0.0
220
0.0
230
1.0
 70
    24
 71
     3
 72
    23
 73
    19
 74
     0
 42
0.000000001
 43
0.00000001
 40
0.0
 40
0.0
 40
0.0
 40
0.0
 40
0.007916173817878
 40
0.0766982572327996
 40
0.1474750257263757
 40
0.2162571091413236
 40
0.2870338776349337
 40
0.3558159610486771
 40
0.426592729540192
 40
0.4953748129561371
 40
0.5661515814508357
 40
0.6349336648659608
 40
0.7057104333597655
 40
0.7744925167750488
 40
0.8452692852690917
 40
0.914051368681801
 40
0.9848281371776367
 40
1.0
 40
1.0
 40
1.0
 40
1.0
 10
44.16694121457847
 20
0.0196151056110699
 30
0.0
 10
44.16694121457847
 20
0.0195072175172458
 30
0.0
 10
44.16694121457842
 20
0.0184619109129624
 30
0.0
 10
44.16694121457863
 20
0.0110679118974857
 30
0.0
 10
44.16694121457841
 20
-0.0025376826367183
 30
0.0
 10
44.16694121457853
 20
-0.0218527624109902
 30
0.0
 10
44.16694121457859
 20
-0.0452370059089815
 30
0.0
 10
44.1669412145785
 20
-0.0726496590498995
 30
0.0
 10
44.16694121457847
 20
-0.1027678862677441
 30
0.0
 10
44.16694121457854
 20
-0.1352956255675095
 30
0.0
 10
44.16694121457851
 20
-0.1687229640420642
 30
0.0
 10
44.16694121457849
 20
-0.2027061578945895
 30
0.0
 10
44.16694121457851
 20
-0.2356723347813192
 30
0.0
 10
44.16694121457846
 20
-0.2672783126088434
 30
0.0
 10
44.16694121457847
 20
-0.2960735924113477
 30
0.0
 10
44.16694121457863
 20
-0.321712866847966
 30
0.0
 10
44.16694121457837
 20
-0.3376633058375196
 30
0.0
 10
44.16694121457853
 20
-0.3451982560051038
 30
0.0
 10
44.16694121457859
 20
-0.346528343855982
 30
0.0
  0
LINE
  5
AE
330
1F
100
AcDbEntity
  8
외형선
  6
Continuous
370
    15
100
AcDbLine
 10
44.1669412145786
 20
0.0198502950690899
 30
0.0
 11
44.16694121457859
 21
0.3604415443695135
 31
0.0
  0
LINE
  5
B1
330
1F
100
AcDbEntity
  8
외형선
  6
Continuous
370
    15
100
AcDbLine
 10
44.20110037856926
 20
-0.4966648345100942
 30
0.0
 11
44.1669412145818
 21
-0.4996058104003031
 31
0.0
  0
LINE
  5
B2
330
1F
100
AcDbEntity
  8
외형선
  6
Continuous
370
    15
100
AcDbLine
 10
44.1669412145786
 20
-0.4996058104002294
 30
0.0
 11
44.16694121457859
 21
-0.346528343855982
 31
0.0
  0
LINE
  5
B4
330
1F
100
AcDbEntity
  8
외형선
  6
Continuous
370
    15
100
AcDbLine
 10
-33.93305878542148
 20
0.0
 30
0.0
 11
-33.93305878542148
 21
2.0
 31
0.0
  0
LINE
  5
B5
330
1F
100
AcDbEntity
  8
외형선
  6
Continuous
370
    15
100
AcDbLine
 10
-33.93305878542148
 20
-2.0
 30
0.0
 11
-33.93305878542148
 21
0.0
 31
0.0
  0
LINE
  5
B6
330
1F
100
AcDbEntity
  8
외형선
  6
Continuous
370
    15
100
AcDbLine
 10
-34.33305878542149
 20
0.0
 30
0.0
 11
-34.33305878542149
 21
1.600000000000004
 31
0.0
  0
LINE
  5
B7
330
1F
100
AcDbEntity
  8
외형선
  6
Continuous
370
    15
100
AcDbLine
 10
-34.33305878542149
 20
-1.600000000000004
 30
0.0
 11
-34.33305878542149
 21
0.0
 31
0.0
  0
LINE
  5
B8
330
1F
100
AcDbEntity
  8
외형선
  6
Continuous
370
    15
100
AcDbLine
 10
0.0
 20
0.0
 30
0.0
 11
0.0
 21
2.0
 31
0.0
  0
LINE
  5
B9
330
1F
100
AcDbEntity
  8
외형선
  6
Continuous
370
    15
100
AcDbLine
 10
0.0
 20
-2.0
 30
0.0
 11
0.0
 21
0.0
 31
0.0
  0
LINE
  5
BA
330
1F
100
AcDbEntity
  8
외형선
  6
Continuous
370
    15
100
AcDbLine
 10
2.801941214578518
 20
0.0
 30
0.0
 11
2.801941214578518
 21
0.9801767997297494
 31
0.0
  0
LINE
  5
BB
330
1F
100
AcDbEntity
  8
외형선
  6
Continuous
370
    15
100
AcDbLine
 10
2.801941214578518
 20
-0.9801767997297494
 30
0.0
 11
2.801941214578518
 21
0.0
 31
0.0
  0
LINE
  5
BC
330
1F
100
AcDbEntity
  8
외형선
  6
Continuous
370
    15
100
AcDbLine
 10
5.666941214578523
 20
0.0
 30
0.0
 11
5.666941214578523
 21
0.4749999999999953
 31
0.0
  0
LINE
  5
BD
330
1F
100
AcDbEntity
  8
외형선
  6
Continuous
370
    15
100
AcDbLine
 10
5.666941214578523
 20
-0.4749999999999953
 30
0.0
 11
5.666941214578523
 21
0.0
 31
0.0
  0
SPLINE
  5
BE
330
1F
100
AcDbEntity
  8
외형선
  6
Continuous
370
    15
100
AcDbSpline
210
0.0
220
0.0
230
1.0
 70
    24
 71
     3
 72
    14
 73
    10
 74
     0
 42
0.000000001
 43
0.00000001
 40
0.0
 40
0.0
 40
0.0
 40
0.0
 40
0.127190282355909
 40
0.2746172943152841
 40
0.422044306256863
 40
0.5694713182233399
 40
0.7168983301773508
 40
0.8643253421313125
 40
0.9999999999999999
 40
0.9999999999999999
 40
0.9999999999999999
 40
0.9999999999999999
 10
44.1669412145785
 20
-0.3317006802203933
 30
0.0
 10
44.16694121457849
 20
-0.3180848681055548
 30
0.0
 10
44.16694121457847
 20
-0.2886868872722451
 30
0.0
 10
44.16694121457849
 20
-0.2281610496849787
 30
0.0
 10
44.16694121457857
 20
-0.1602416762864285
 30
0.0
 10
44.16694121457841
 20
-0.0938194859343859
 30
0.0
 10
44.16694121457861
 20
-0.0374342957633218
 30
0.0
 10
44.16694121457854
 20
0.003962881800733
 30
0.0
 10
44.16694121457853
 20
0.0141324540069487
 30
0.0
 10
44.16694121457851
 20
0.0190061562023953
 30
0.0
  0
SPLINE
  5
BF
330
1F
100
AcDbEntity
  8
외형선
  6
Continuous
370
    15
100
AcDbSpline
210
0.0
220
0.0
230
1.0
 70
     8
 71
     3
 72
     8
 73
     4
 74
     0
 42
0.000000001
 43
0.00000001
 40
0.0
 40
0.0
 40
0.0
 40
0.0
 40
1.0
 40
1.0
 40
1.0
 40
1.0
 10
44.16694121458212
 20
-0.3317006802218079
 30
0.0
 10
44.13332620060648
 20
-0.3184433969704959
 30
0.0
 10
44.10056925496249
 20
-0.3045493636519525
 30
0.0
 10
44.06704689520378
 20
-0.2898907706440302
 30
0.0
  0
SPLINE
  5
C0
330
1F
100
AcDbEntity
  8
외형선
  6
Continuous
370
    15
100
AcDbSpline
210
0.0
220
0.0
230
1.0
 70
     8
 71
     3
 72
     8
 73
     4
 74
     0
 42
0.000000001
 43
0.00000001
 40
0.0
 40
0.0
 40
0.0
 40
0.0
 40
1.0
 40
1.0
 40
1.0
 40
1.0
 10
44.16694121458211
 20
0.0223330171705014
 30
0.0
 10
44.13332620060647
 20
0.0408337663291004
 30
0.0
 10
44.10056925496247
 20
0.0591270957564009
 30
0.0
 10
44.06704689520377
 20
0.077384161807439
 30
0.0
  0
LINE
  5
C1
330
1F
100
AcDbEntity
  8
외형선
  6
Continuous
370
    15
100
AcDbLine
 10
44.06704689520378
 20
0.3762626642634901
 30
0.0
 11
44.06704689520378
 21
0.4749999999999976
 31
0.0
  0
SPLINE
  5
C2
330
1F
100
AcDbEntity
  8
외형선
  6
Continuous
370
    15
100
AcDbSpline
210
0.0
220
0.0
230
1.0
 70
     8
 71
     3
 72
     8
 73
     4
 74
     0
 42
0.000000001
 43
0.00000001
 40
0.0
 40
0.0
 40
0.0
 40
0.0
 40
1.0
 40
1.0
 40
1.0
 40
1.0
 10
44.16694121458212
 20
0.3399994981472623
 30
0.0
 10
44.13332620060648
 20
0.3529331933330379
 30
0.0
 10
44.10056925496249
 20
0.3649891688968208
 30
0.0
 10
44.06704689520378
 20
0.3762822625309497
 30
0.0
  0
LINE
  5
C3
330
1F
100
AcDbEntity
  8
외형선
  6
Continuous
370
    15
100
AcDbLine
 10
44.06704689520378
 20
-0.289916207689981
 30
0.0
 11
44.06704689520378
 21
0.0774207860176558
 31
0.0
  0
LINE
  5
C4
330
1F
100
AcDbEntity
  8
외형선
  6
Continuous
370
    15
100
AcDbLine
 10
44.16694121457851
 20
-0.346528343855982
 30
0.0
 11
44.1669412145785
 21
-0.3317006802203933
 31
0.0
  0
SPLINE
  5
C5
330
1F
100
AcDbEntity
  8
외형선
  6
Continuous
370
    15
100
AcDbSpline
210
0.0
220
0.0
230
1.0
 70
     8
 71
     3
 72
     8
 73
     4
 74
     0
 42
0.000000001
 43
0.00000001
 40
0.0
 40
0.0
 40
0.0
 40
0.0
 40
1.0
 40
1.0
 40
1.0
 40
1.0
 10
44.16694121458211
 20
-0.474474695156717
 30
0.0
 10
44.13332620060647
 20
-0.4736038846522923
 30
0.0
 10
44.10056925496247
 20
-0.4716687342406869
 30
0.0
 10
44.06704689520377
 20
-0.4686541277972032
 30
0.0
  0
LINE
  5
C6
330
1F
100
AcDbEntity
  8
외형선
  6
Continuous
370
    15
100
AcDbLine
 10
44.06704689520378
 20
-0.4749999999999976
 30
0.0
 11
44.06704689520378
 21
-0.4686480789381366
 31
0.0
  0
SPLINE
  5
C7
330
1F
100
AcDbEntity
  8
외형선
  6
Continuous
370
    15
100
AcDbSpline
210
0.0
220
0.0
230
1.0
 70
     8
 71
     3
 72
     8
 73
     4
 74
     0
 42
0.000000001
 43
0.00000001
 40
0.0
 40
0.0
 40
0.0
 40
0.0
 40
1.0
 40
1.0
 40
1.0
 40
1.0
 10
44.16694121458211
 20
0.4744746951567169
 30
0.0
 10
44.13332620060647
 20
0.4736038846522921
 30
0.0
 10
44.10056925496247
 20
0.4716687342406865
 30
0.0
 10
44.06704689520377
 20
0.4686541277972027
 30
0.0
  0
SPLINE
  5
C8
330
1F
100
AcDbEntity
  8
외형선
  6
Continuous
370
    15
100
AcDbSpline
210
0.0
220
0.0
230
1.0
 70
    24
 71
     3
 72
    13
 73
     9
 74
     0
 42
0.000000001
 43
0.00000001
 40
0.0
 40
0.0
 40
0.0
 40
0.0
 40
0.0668747314500396
 40
0.3017036783044529
 40
0.5299144959860443
 40
0.7647434428405024
 40
0.8819399634602624
 40
1.0
 40
1.0
 40
1.0
 40
1.0
 10
44.1669412145785
 20
0.3399994981486241
 30
0.0
 10
44.1669412145785
 20
0.3423889229975122
 30
0.0
 10
44.16694121457845
 20
0.3531687534403475
 30
0.0
 10
44.1669412145786
 20
0.3756980200135741
 30
0.0
 10
44.16694121457847
 20
0.4069335859204322
 30
0.0
 10
44.16694121457854
 20
0.4345954361314489
 30
0.0
 10
44.16694121457846
 20
0.4573219053928431
 30
0.0
 10
44.16694121457849
 20
0.4687431245981453
 30
0.0
 10
44.16694121457851
 20
0.474474695156632
 30
0.0
  0
LINE
  5
C9
330
1F
100
AcDbEntity
  8
중심선
 62
     1
100
AcDbLine
 10
-37.33305878542148
 20
0.0
 30
0.0
 11
48.66694121457853
 21
-0.0000000000000039
 31
0.0
  0
LINE
  5
CA
330
1F
100
AcDbEntity
  8
참조1
100
AcDbLine
 10
-17.33357215297775
 20
-2.499999999999974
 30
0.0
 11
-17.33357215297774
 21
-40.0
 31
0.0
  0
LINE
  5
CB
330
1F
100
AcDbEntity
  8
참조1
100
AcDbLine
 10
-17.33357215297774
 20
-40.0
 30
0.0
 11
-32.49191559973019
 21
-40.0
 31
0.0
  0
CIRCLE
  5
CC
330
1F
100
AcDbEntity
  8
해칭선
100
AcDbCircle
 10
0.0000000000000142
 20
-0.0010749287238931
 30
0.0
 40
3.000000000000002
  0
INSERT
  5
CD
330
1F
100
AcDbEntity
  8
0
  6
Continuous
 62
     7
100
AcDbBlockReference
 66
     1
  2
블럭10
 10
-31.27384508510296
 20
-52.04717430164393
 30
0.0
  0
ATTRIB
  5
CE
330
CD
100
AcDbEntity
  8
FORMAT
 62
     2
100
AcDbText
 10
-47.39310612453851
 20
-49.97180738881174
 30
0.0
 40
4.233333333333333
  1
SEME7301040E [ 4 FLUTE ]
 41
0.75
  7
SLDTEXTSTYLE0
 11
-47.39310612453851
 21
-52.08847405547841
 31
0.0
100
AcDbAttribute
  2
AUTOATTR0
 70
     0
 74
     1
  0
SEQEND
  5
CF
330
CD
100
AcDbEntity
  8
0
  6
Continuous
 62
     7
  0
HATCH
  5
D0
330
1F
100
AcDbEntity
  8
중심선
100
AcDbHatch
 10
0.0
 20
0.0
 30
0.0
210
0.0
220
0.0
230
1.0
  2
SOLID
 70
     1
 71
     0
 91
        1
 92
        0
 93
        4
 72
     1
 10
-25.5589357807221
 20
-35.8
 11
-29.00521102455939
 21
-35.8
 72
     1
 10
-29.00521102455939
 20
-35.8
 11
-31.13344088376341
 21
-38.33632558057259
 72
     1
 10
-31.13344088376341
 20
-38.33632558057259
 11
-27.68713255481298
 21
-38.3362861512701
 72
     1
 10
-27.68713255481298
 20
-38.3362861512701
 11
-25.5589357807221
 21
-35.8
 97
        0
 75
     0
 76
     1
 98
        1
 10
0.0
 20
0.0
  0
HATCH
  5
D1
330
1F
100
AcDbEntity
  8
중심선
100
AcDbHatch
 10
0.0
 20
0.0
 30
0.0
210
0.0
220
0.0
230
1.0
  2
SOLID
 70
     1
 71
     0
 91
        1
 92
        0
 93
        4
 72
     1
 10
-20.54617178968615
 20
-35.8
 11
-23.99244703352343
 21
-35.8
 72
     1
 10
-23.99244703352343
 20
-35.8
 11
-28.52358504188082
 21
-41.20000000000002
 72
     1
 10
-28.52358504188082
 20
-41.20000000000002
 11
-25.07730979804354
 21
-41.20000000000002
 72
     1
 10
-25.07730979804354
 20
-41.20000000000002
 11
-20.54617178968615
 21
-35.8
 97
        0
 75
     0
 76
     1
 98
        1
 10
0.0
 20
0.0
  0
HATCH
  5
D2
330
1F
100
AcDbEntity
  8
중심선
100
AcDbHatch
 10
0.0
 20
0.0
 30
0.0
210
0.0
220
0.0
230
1.0
  2
SOLID
 70
     1
 71
     0
 91
        1
 92
        0
 93
        4
 72
     1
 10
-15.53340779865026
 20
-35.80000000000003
 11
-18.97968304248737
 21
-35.8
 72
     1
 10
-18.97968304248737
 20
-35.8
 11
-26.02811994437662
 21
-44.20000000000002
 72
     1
 10
-26.02811994437662
 20
-44.20000000000002
 11
-22.58184470053934
 21
-44.20000000000002
 72
     1
 10
-22.58184470053934
 20
-44.20000000000002
 11
-15.53340779865026
 21
-35.80000000000003
 97
        0
 75
     0
 76
     1
 98
        1
 10
0.0
 20
0.0
  0
HATCH
  5
D3
330
1F
100
AcDbEntity
  8
중심선
100
AcDbHatch
 10
0.0
 20
0.0
 30
0.0
210
0.0
220
0.0
230
1.0
  2
SOLID
 70
     1
 71
     0
 91
        1
 92
        0
 93
        6
 72
     3
 10
-10.73351736763806
 20
-40.00000000005127
 11
3.960054785062284
 21
1.540850780301639E-10
 40
0.3939339440162633
 50
17.09539180608433
 51
320.0019657685081
 73
     0
 72
     1
 10
-9.050517711937461
 20
-38.5878940046383
 11
-6.745215838236423
 21
-36.65356729459038
 72
     3
 10
-10.7335173676909
 20
-40.00000000000015
 11
6.600054785286829
 21
-1.249000902703301E-13
 40
0.6363583540795982
 50
39.99873849337406
 51
368.4976242363725
 73
     1
 72
     1
 10
-4.308184875790294
 20
-39.03999999993002
 11
-12.05345006085498
 21
-39.03999999992999
 72
     1
 10
-12.05345006085498
 20
-39.03999999992999
 11
-12.05347510530092
 21
-40.95999999992991
 72
     1
 10
-12.05347510530092
 20
-40.95999999992991
 11
-7.612095335828878
 21
-40.95999999992988
 97
        0
 75
     0
 76
     1
 98
        1
 10
0.0
 20
0.0
  0
POINT
  5
D4
330
1F
100
AcDbEntity
  8
치수문자_일반주서
100
AcDbPoint
 10
-44.4556887881695
 20
-7.165176122128969
 30
0.0
  0
POINT
  5
D5
330
1F
100
AcDbEntity
  8
치수문자_일반주서
100
AcDbPoint
 10
-44.4556887881695
 20
-7.165176122128941
 30
0.0
  0
DIMENSION
  5
D6
330
1F
100
AcDbEntity
  8
치수문자_일반주서
100
AcDbDimension
  2
_D
 10
61.72294161212799
 20
-0.4999999999999378
 30
0.0
 11
61.72294161212799
 21
9.729000000000058
 31
0.0
 70
   160
  1
%%c<>
 71
     2
 42
1.0
 52
-270.0
  3
SLDDIMSTYLE0
100
AcDbAlignedDimension
 13
44.86507130276388
 23
0.5
 33
0.0
 14
44.86507130276388
 24
-0.5
 34
0.0
 50
90.0000000000002
100
AcDbRotatedDimension
  0
DIMENSION
  5
E4
330
1F
100
AcDbEntity
  8
치수문자_일반주서
100
AcDbDimension
  2
_D_1
 10
44.1669412145786
 20
10.05046165028006
 30
0.0
 11
56.42719121457851
 21
10.05046165028006
 31
0.0
 70
   160
  1
<>
 71
     2
 42
1.499999999999915
  3
SLDDIMSTYLE1
100
AcDbAlignedDimension
 13
45.66694121457851
 23
0.4963512754521688
 33
0.0
 14
44.1669412145786
 24
0.4996058104002293
 34
0.0
100
AcDbRotatedDimension
  0
DIMENSION
  5
F1
330
1F
100
AcDbEntity
  8
치수문자_일반주서
100
AcDbDimension
  2
_D_2
 10
5.666941214578522
 20
17.42517924691485
 30
0.0
 11
25.66694121457852
 21
17.42517924691485
 31
0.0
 70
   160
  1
<>
 71
     2
 42
39.99999999999999
  3
SLDDIMSTYLE2
100
AcDbAlignedDimension
 13
45.66694121457851
 23
0.4963512754521688
 33
0.0
 14
5.666941214578523
 24
0.4749999999999953
 34
0.0
100
AcDbRotatedDimension
  0
DIMENSION
  5
FD
330
1F
100
AcDbEntity
  8
치수문자_일반주서
100
AcDbDimension
  2
_D_3
 10
-34.33305878542149
 20
28.55513972542639
 30
0.0
 11
5.666941214578517
 21
28.55513972542639
 31
0.0
 70
   160
  1
<>
 71
     2
 42
80.0
  3
SLDDIMSTYLE2
100
AcDbAlignedDimension
 13
45.66694121457851
 23
0.4963512754521688
 33
0.0
 14
-34.33305878542149
 24
1.600000000000004
 34
0.0
 50
0.0000000000000051
100
AcDbRotatedDimension
  0
DIMENSION
  5
107
330
1F
100
AcDbEntity
  8
치수문자_일반주서
100
AcDbDimension
  2
_D_4
 10
-43.00635404316107
 20
-2.000000000000036
 30
0.0
 11
-43.00635404316107
 21
0.0000000000000012
 31
0.0
 70
   160
  1
%%c<>
 71
     2
 42
4.000000000000004
 52
-270.0
  3
SLDDIMSTYLE0
100
AcDbAlignedDimension
 13
-33.93305878542147
 23
2.000000000000002
 33
0.0
 14
-33.93305878542147
 24
-2.000000000000002
 34
0.0
 50
90.0000000000002
100
AcDbRotatedDimension
  0
LINE
  5
114
330
1F
100
AcDbEntity
  8
참조1
100
AcDbLine
 10
65.48042502992408
 20
7.440000000000002
 30
0.0
 11
65.48042502992408
 21
-7.440000000000002
 31
0.0
  0
LINE
  5
115
330
1F
100
AcDbEntity
  8
참조1
100
AcDbLine
 10
78.18042502992408
 20
5.440000000000002
 30
0.0
 11
65.48042502992408
 21
5.440000000000002
 31
0.0
  0
SOLID
  5
116
330
1F
100
AcDbEntity
  8
참조1
100
AcDbTrace
 10
65.48042502992408
 20
5.440000000000002
 30
0.0
 11
71.83042502992407
 21
4.424000000000002
 31
0.0
 12
71.83042502992407
 22
6.456000000000002
 32
0.0
 13
71.83042502992407
 23
6.456000000000002
 33
0.0
  0
LINE
  5
117
330
1F
100
AcDbEntity
  8
참조1
100
AcDbLine
 10
78.18042502992408
 20
-5.440000000000002
 30
0.0
 11
65.48042502992408
 21
-5.440000000000002
 31
0.0
  0
SOLID
  5
118
330
1F
100
AcDbEntity
  8
참조1
100
AcDbTrace
 10
65.48042502992408
 20
-5.440000000000002
 30
0.0
 11
71.83042502992407
 21
-6.456000000000002
 31
0.0
 12
71.83042502992407
 22
-4.424000000000002
 32
0.0
 13
71.83042502992407
 23
-4.424000000000002
 33
0.0
  0
MTEXT
  5
119
330
1F
100
AcDbEntity
  8
참조1
100
AcDbMText
 10
74.87791512239434
 20
10.98821664464994
 30
0.0
 40
3.5
 41
0.0
 71
     1
 72
     1
  1
A
  7
SLDTEXTSTYLE0
 73
     1
 44
1.0
  0
MTEXT
  5
11A
330
1F
100
AcDbEntity
  8
참조1
100
AcDbMText
 10
74.87791512239434
 20
0.1082166446499319
 30
0.0
 40
3.5
 41
0.0
 71
     1
 72
     1
  1
A
  7
SLDTEXTSTYLE0
 73
     1
 44
1.0
  0
INSERT
  5
121
330
1F
100
AcDbEntity
  8
해칭선
100
AcDbBlockReference
  2
SW_DOWELSYMBOL_0
 10
0.0000000000000142
 20
-0.0010749287238931
 30
0.0
  0
LINE
  5
185
330
1F
100
AcDbEntity
  8
0
 62
     1
100
AcDbLine
 10
44.8647511360908
 20
0.4996058104002292
 30
0.0
 11
44.1669412145786
 21
0.4996058104002292
 31
0.0
  0
LINE
  5
186
330
1F
100
AcDbEntity
  8
0
 62
     1
100
AcDbLine
 10
45.56312788430198
 20
-0.5003941895997706
 30
0.0
 11
45.6669412145786
 21
-0.5003941895997706
 31
0.0
  0
LINE
  5
187
330
1F
100
AcDbEntity
  8
0
 62
     1
100
AcDbLine
 10
44.16694121457866
 20
-0.5003941895997706
 30
0.0
 11
44.8647511360908
 21
-0.5003941895997706
 31
0.0
  0
LINE
  5
188
330
1F
100
AcDbEntity
  8
외형선
  6
Continuous
370
    15
100
AcDbLine
 10
45.6669412145786
 20
0.4996058104002292
 30
0.0
 11
45.56312788430201
 21
0.4996058104002292
 31
0.0
  0
LINE
  5
189
330
1F
100
AcDbEntity
  8
0
 62
     1
100
AcDbLine
 10
45.6669412145786
 20
-0.4000998170845396
 30
0.0
 11
45.6669412145786
 21
-0.0606885621149948
 31
0.0
  0
SPLINE
  5
18A
330
1F
100
AcDbEntity
  8
외형선
  6
Continuous
370
    15
100
AcDbSpline
210
0.0
220
0.0
230
1.0
 70
    24
 71
     3
 72
    12
 73
     8
 74
     0
 42
0.000000001
 43
0.00000001
 40
0.0
 40
0.0
 40
0.0
 40
0.0
 40
0.2305818922654458
 40
0.4679842535671509
 40
0.6964100737893051
 40
0.93146025827256
 40
1.0
 40
1.0
 40
1.0
 40
1.0
 10
44.16694121457866
 20
0.499211620800458
 30
0.0
 10
44.16694121457863
 20
0.4880839621481514
 30
0.0
 10
44.1669412145786
 20
0.465499495617905
 30
0.0
 10
44.16694121457849
 20
0.4316181523516347
 30
0.0
 10
44.1669412145786
 20
0.3988517559029243
 30
0.0
 10
44.16694121457866
 20
0.3747805976684901
 30
0.0
 10
44.1669412145786
 20
0.3627609590570553
 30
0.0
 10
44.16694121457863
 20
0.3600473547673229
 30
0.0
  0
SPLINE
  5
18B
330
1F
100
AcDbEntity
  8
0
 62
     1
100
AcDbSpline
210
0.0
220
0.0
230
1.0
 70
     8
 71
     3
 72
    18
 73
    14
 74
     0
 42
0.000000001
 43
0.00000001
 40
0.0
 40
0.0
 40
0.0
 40
0.0
 40
0.2499999999999895
 40
0.2499999999999895
 40
0.4999999999999789
 40
0.4999999999999789
 40
0.6249999999999841
 40
0.6249999999999841
 40
0.7499999999999895
 40
0.7499999999999895
 40
0.8749999999999947
 40
0.8749999999999947
 40
1.0
 40
1.0
 40
1.0
 40
1.0
 10
45.66694121457857
 20
-0.0606885621149948
 30
0.0
 10
45.54514490894812
 20
0.010313205123639
 30
0.0
 10
45.4142781320846
 20
0.0848999432330901
 30
0.0
 10
45.16940863249836
 20
0.2212767272190206
 30
0.0
 10
45.03984325653149
 20
0.2857822947224804
 30
0.0
 10
44.85529948247753
 20
0.3649199811734929
 30
0.0
 10
44.79358418514521
 20
0.3887134211781516
 30
0.0
 10
44.66722331443213
 20
0.4301862450564455
 30
0.0
 10
44.60363778671492
 20
0.4477039122650721
 30
0.0
 10
44.48005892458307
 20
0.4752334819704662
 30
0.0
 10
44.41887643006554
 20
0.4853946485028242
 30
0.0
 10
44.29266286393291
 20
0.4981540061203757
 30
0.0
 10
44.22898276347965
 20
0.5006401613145162
 30
0.0
 10
44.16694121458185
 20
0.4992116208005313
 30
0.0
  0
SPLINE
  5
18C
330
1F
100
AcDbEntity
  8
0
 62
     1
100
AcDbSpline
210
0.0
220
0.0
230
1.0
 70
     8
 71
     3
 72
    10
 73
     6
 74
     0
 42
0.000000001
 43
0.00000001
 40
0.0
 40
0.0
 40
0.0
 40
0.0
 40
0.4039963901389966
 40
0.8081611665729894
 40
0.9999999999999999
 40
0.9999999999999999
 40
0.9999999999999999
 40
0.9999999999999999
 10
44.16694121458151
 20
-0.3469225334552961
 30
0.0
 10
44.30681630804209
 20
-0.3963921075907249
 30
0.0
 10
44.58662479510981
 20
-0.495351874853502
 30
0.0
 10
44.93309403932342
 20
-0.5168690416928774
 30
0.0
 10
45.13924367727596
 20
-0.4692834492746458
 30
0.0
 10
45.20559815131248
 20
-0.4539668230220371
 30
0.0
  0
SPLINE
  5
18D
330
1F
100
AcDbEntity
  8
외형선
  6
Continuous
370
    15
100
AcDbSpline
210
0.0
220
0.0
230
1.0
 70
    24
 71
     3
 72
    23
 73
    19
 74
     0
 42
0.000000001
 43
0.00000001
 40
0.0
 40
0.0
 40
0.0
 40
0.0
 40
0.0079142856571071
 40
0.0766964999799408
 40
0.1474734031777648
 40
0.2162556175006389
 40
0.2870325206985099
 40
0.3558147350201664
 40
0.4265916382159315
 40
0.4953738525398009
 40
0.5661507557387624
 40
0.6349329700618146
 40
0.7057098732598831
 40
0.7744920875830875
 40
0.8452689907813893
 40
0.9140512051020102
 40
0.9848281083020908
 40
1.0
 40
1.0
 40
1.0
 40
1.0
 10
44.16694121457854
 20
0.0192208310236777
 30
0.0
 10
44.16694121457854
 20
0.0191129667584173
 30
0.0
 10
44.16694121457846
 20
0.0180676656438488
 30
0.0
 10
44.16694121457879
 20
0.0106737047434697
 30
0.0
 10
44.16694121457854
 20
-0.0029318676292949
 30
0.0
 10
44.16694121457873
 20
-0.0222469532708773
 30
0.0
 10
44.16694121457857
 20
-0.0456311951780179
 30
0.0
 10
44.1669412145786
 20
-0.0730438487401148
 30
0.0
 10
44.16694121457866
 20
-0.1031620758437586
 30
0.0
 10
44.16694121457854
 20
-0.1356898151737567
 30
0.0
 10
44.16694121457871
 20
-0.1691171536401153
 30
0.0
 10
44.16694121457849
 20
-0.2031003474948123
 30
0.0
 10
44.1669412145786
 20
-0.2360665243809588
 30
0.0
 10
44.16694121457863
 20
-0.2676725022086353
 30
0.0
 10
44.1669412145786
 20
-0.296467782011101
 30
0.0
 10
44.16694121457851
 20
-0.3221070564477158
 30
0.0
 10
44.16694121457871
 20
-0.3380574954373055
 30
0.0
 10
44.16694121457857
 20
-0.3455924456048654
 30
0.0
 10
44.16694121457854
 20
-0.3469225334557429
 30
0.0
  0
SPLINE
  5
18E
330
1F
100
AcDbEntity
  8
0
 62
     1
100
AcDbSpline
210
0.0
220
0.0
230
1.0
 70
     8
 71
     3
 72
    11
 73
     7
 74
     0
 42
0.000000001
 43
0.00000001
 40
0.0
 40
0.0
 40
0.0
 40
0.0
 40
0.2258412261300452
 40
0.5262181594754287
 40
0.7630722187233522
 40
1.0
 40
1.0
 40
1.0
 40
1.0
 10
45.56312788430201
 20
-0.4895538782898505
 30
0.0
 10
45.45802001359637
 20
-0.4875005207983119
 30
0.0
 10
45.21311490385683
 20
-0.4827161241739302
 30
0.0
 10
44.85783258150273
 20
-0.3522946523153796
 30
0.0
 10
44.49767165230054
 20
-0.1722073700528828
 30
0.0
 10
44.27719612939605
 20
-0.0444383468008294
 30
0.0
 10
44.16694121458185
 20
0.0194561054674893
 30
0.0
  0
LINE
  5
18F
330
1F
100
AcDbEntity
  8
0
 62
     1
100
AcDbLine
 10
45.6669412145786
 20
-0.0606885621149948
 30
0.0
 11
45.6669412145786
 21
0.2999979064297433
 31
0.0
  0
LINE
  5
190
330
1F
100
AcDbEntity
  8
0
 62
     1
100
AcDbLine
 10
45.6669412145786
 20
-0.5003941895997706
 30
0.0
 11
45.6669412145786
 21
-0.4000998170845396
 31
0.0
  0
LINE
  5
191
330
1F
100
AcDbEntity
  8
외형선
  6
Continuous
370
    15
100
AcDbLine
 10
44.16694121457866
 20
0.0194561054693327
 30
0.0
 11
44.16694121457854
 21
0.3600473547697485
 31
0.0
  0
SPLINE
  5
192
330
1F
100
AcDbEntity
  8
0
 62
     1
100
AcDbSpline
210
0.0
220
0.0
230
1.0
 70
     8
 71
     3
 72
     9
 73
     5
 74
     0
 42
0.000000001
 43
0.00000001
 40
0.0
 40
0.0
 40
0.0
 40
0.0
 40
0.9085645632455199
 40
1.0
 40
1.0
 40
1.0
 40
1.0
 10
45.6669412145786
 20
0.4959570858523981
 30
0.0
 10
45.5272306537731
 20
0.5025586400140507
 30
0.0
 10
45.37346000669172
 20
0.5098245564152704
 30
0.0
 10
45.21966084484816
 20
0.4579239943799867
 30
0.0
 10
45.20559815131254
 20
0.4531784438224875
 30
0.0
  0
LINE
  5
193
330
1F
100
AcDbEntity
  8
0
 62
     1
100
AcDbLine
 10
45.6669412145786
 20
0.2984618135711437
 30
0.0
 11
45.6669412145786
 21
0.4959570858523981
 31
0.0
  0
LINE
  5
194
330
1F
100
AcDbEntity
  8
외형선
  6
Continuous
370
    15
100
AcDbLine
 10
44.16694121457866
 20
-0.4999999999999996
 30
0.0
 11
44.16694121457854
 21
-0.3469225334557429
 31
0.0
  0
LINE
  5
195
330
1F
100
AcDbEntity
  8
외형선
  6
Continuous
370
    15
100
AcDbLine
 10
45.6669412145786
 20
0.4959570858523981
 30
0.0
 11
45.6669412145786
 21
0.4996058104002292
 31
0.0
  0
SPLINE
  5
196
330
1F
100
AcDbEntity
  8
외형선
  6
Continuous
370
    15
100
AcDbSpline
210
0.0
220
0.0
230
1.0
 70
    24
 71
     3
 72
    14
 73
    10
 74
     0
 42
0.000000001
 43
0.00000001
 40
0.0
 40
0.0
 40
0.0
 40
0.0
 40
0.1271902823558899
 40
0.2746172943152658
 40
0.4220443062568461
 40
0.5694713182233763
 40
0.7168983301773341
 40
0.8643253421313234
 40
1.0
 40
1.0
 40
1.0
 40
1.0
 10
44.1669412145786
 20
-0.3320948698201551
 30
0.0
 10
44.1669412145786
 20
-0.318479057705324
 30
0.0
 10
44.1669412145786
 20
-0.2890810768720287
 30
0.0
 10
44.1669412145786
 20
-0.2285552392847578
 30
0.0
 10
44.16694121457849
 20
-0.1606358658862019
 30
0.0
 10
44.16694121457866
 20
-0.0942136755341569
 30
0.0
 10
44.16694121457851
 20
-0.0378284853630884
 30
0.0
 10
44.1669412145786
 20
0.003568692200961
 30
0.0
 10
44.1669412145786
 20
0.0137382644071788
 30
0.0
 10
44.1669412145786
 20
0.0186119666026254
 30
0.0
  0
LINE
  5
197
330
1F
100
AcDbEntity
  8
외형선
  6
Continuous
370
    15
100
AcDbLine
 10
44.1669412145786
 20
-0.3469225334557429
 30
0.0
 11
44.1669412145786
 21
-0.3320948698201551
 31
0.0
  0
SPLINE
  5
198
330
1F
100
AcDbEntity
  8
외형선
  6
Continuous
370
    15
100
AcDbSpline
210
0.0
220
0.0
230
1.0
 70
    24
 71
     3
 72
    10
 73
     6
 74
     0
 42
0.000000001
 43
0.00000001
 40
0.0
 40
0.0
 40
0.0
 40
0.0
 40
0.3086740529832238
 40
0.7666833235926468
 40
1.0
 40
1.0
 40
1.0
 40
1.0
 10
44.16694121457857
 20
0.3396053085488535
 30
0.0
 10
44.16694121457857
 20
0.3512217865449352
 30
0.0
 10
44.16694121457857
 20
0.3800747460742571
 30
0.0
 10
44.16694121457863
 20
0.4289546715062971
 30
0.0
 10
44.1669412145786
 20
0.4626938256071544
 30
0.0
 10
44.1669412145786
 20
0.4740805055568607
 30
0.0
  0
SPLINE
  5
199
330
1F
100
AcDbEntity
  8
0
 62
     1
100
AcDbSpline
210
0.0
220
0.0
230
1.0
 70
  1064
 71
     3
 72
     9
 73
     5
 74
     3
 42
0.000000001
 43
0.0000000001
 44
0.0
 40
0.0
 40
0.0
 40
0.0
 40
0.0
 40
0.2705141578486037
 40
0.5517256046047518
 40
0.5517256046047518
 40
0.5517256046047518
 40
0.5517256046047518
 10
45.6669412145786
 20
0.1196546721573741
 30
0.0
 10
45.54933332359478
 20
0.1610965650135569
 30
0.0
 10
45.30946682168825
 20
0.2456191407407733
 30
0.0
 10
45.54625275314118
 20
0.3460303959882077
 30
0.0
 10
45.6669412145786
 20
0.3972094497117709
 30
0.0
 11
45.6669412145786
 21
0.1196546721573741
 31
0.0
 11
45.42870459067434
 21
0.247799982751393
 31
0.0
 11
45.6669412145786
 21
0.3972094497117709
 31
0.0
  0
SPLINE
  5
19A
330
1F
100
AcDbEntity
  8
0
 62
     1
100
AcDbSpline
210
0.0
220
0.0
230
1.0
 70
     8
 71
     3
 72
    10
 73
     6
 74
     0
 42
0.000000001
 43
0.00000001
 40
0.0
 40
0.0
 40
0.0
 40
0.0
 40
0.1765886895811387
 40
0.587806887493942
 40
0.8570623643753181
 40
0.8570623643753181
 40
0.8570623643753181
 40
0.8570623643753181
 10
44.8647511360908
 20
0.4865530721811115
 30
0.0
 10
44.91200907632881
 20
0.4901944306928296
 30
0.0
 10
45.06931554270891
 20
0.502315340690517
 30
0.0
 10
45.29825566107585
 20
0.4455515917706485
 30
0.0
 10
45.48022841998134
 20
0.3757922082718816
 30
0.0
 10
45.55224395344336
 20
0.3468486499815495
 30
0.0
  0
SPLINE
  5
19B
330
1F
100
AcDbEntity
  8
0
 62
     1
100
AcDbSpline
210
0.0
220
0.0
230
1.0
 70
  1064
 71
     3
 72
     9
 73
     5
 74
     3
 42
0.000000001
 43
0.0000000001
 44
0.0
 40
0.0
 40
0.0
 40
0.0
 40
0.0
 40
0.4153298092289365
 40
0.5248836989089607
 40
0.5248836989089607
 40
0.5248836989089607
 40
0.5248836989089607
 10
44.68637277117571
 20
-0.4921301201658834
 30
0.0
 10
44.54724065601304
 20
-0.4861010921416825
 30
0.0
 10
44.37140887697656
 20
-0.4784817533418905
 30
0.0
 10
44.20224843491418
 20
-0.4329621355746549
 30
0.0
 10
44.1669412145786
 20
-0.4234612667278714
 30
0.0
 11
44.68637277117571
 21
-0.4921301201658834
 31
0.0
 11
44.27315350683581
 21
-0.4503127791152881
 31
0.0
 11
44.1669412145786
 21
-0.4234612667278714
 31
0.0
  0
SPLINE
  5
19C
330
1F
100
AcDbEntity
  8
0
 62
     1
100
AcDbSpline
210
0.0
220
0.0
230
1.0
 70
     8
 71
     3
 72
     9
 73
     5
 74
     0
 42
0.000000001
 43
0.0000000001
 40
0.058569132177779
 40
0.058569132177779
 40
0.058569132177779
 40
0.058569132177779
 40
0.7315515543734203
 40
1.682373201194459
 40
1.682373201194459
 40
1.682373201194459
 40
1.682373201194459
 10
45.6669412145786
 20
-0.1387320257532374
 30
0.0
 10
45.46907190204713
 20
-0.0319624347861496
 30
0.0
 10
44.99029905101157
 20
0.2224789612336622
 30
0.0
 10
44.47101121945133
 20
0.3811628464017858
 30
0.0
 10
44.1669412145786
 20
0.4740805055568607
 30
0.0
  0
SPLINE
  5
19D
330
1F
100
AcDbEntity
  8
0
 62
     1
100
AcDbSpline
210
0.0
220
0.0
230
1.0
 70
     8
 71
     3
 72
     9
 73
     5
 74
     0
 42
0.000000001
 43
0.0000000001
 40
0.0
 40
0.0
 40
0.0
 40
0.0
 40
0.8886219380994537
 40
1.522796026511876
 40
1.522796026511876
 40
1.522796026511876
 40
1.522796026511876
 10
45.56312788430201
 20
-0.4895538782898505
 30
0.0
 10
45.27637610804933
 20
-0.4084907104382109
 30
0.0
 10
44.78498100879405
 20
-0.2695759879804731
 30
0.0
 10
44.34799333352677
 20
-0.0083037242397674
 30
0.0
 10
44.16694121457863
 20
0.1026023863887722
 30
0.0
  0
ENDSEC
  0
SECTION
  2
OBJECTS
  0
DICTIONARY
  5
C
330
0
100
AcDbDictionary
281
     1
  3
ACAD_GROUP
350
D
  3
ACAD_IMAGE_VARS
350
145
  3
ACAD_LAYOUT
350
1A
  3
ACAD_MLINESTYLE
350
17
  3
ACAD_PLOTSETTINGS
350
19
  3
ACAD_PLOTSTYLENAME
350
E
  3
ACAD_SCALELIST
350
47
  3
APPDATA
350
143
  3
DWGPROPS
350
1AB
  0
DICTIONARY
  5
D
102
{ACAD_REACTORS
330
C
102
}
330
C
100
AcDbDictionary
281
     1
  0
RASTERVARIABLES
  5
145
102
{ACAD_REACTORS
330
C
102
}
330
C
100
AcDbRasterVariables
 90
        0
 70
     1
 71
     1
 72
     1
  0
DICTIONARY
  5
1A
102
{ACAD_REACTORS
330
C
102
}
330
C
100
AcDbDictionary
281
     1
  3
Layout1
350
1E
  3
Layout2
350
26
  3
Model
350
22
  0
DICTIONARY
  5
17
102
{ACAD_REACTORS
330
C
102
}
330
C
100
AcDbDictionary
281
     1
  3
Standard
350
18
  0
DICTIONARY
  5
19
102
{ACAD_REACTORS
330
C
102
}
330
C
100
AcDbDictionary
281
     1
  0
ACDBDICTIONARYWDFLT
  5
E
102
{ACAD_REACTORS
330
C
102
}
330
C
100
AcDbDictionary
281
     1
  3
Normal
350
F
100
AcDbDictionaryWithDefault
340
F
  0
DICTIONARY
  5
47
102
{ACAD_REACTORS
330
C
102
}
330
C
100
AcDbDictionary
281
     1
  3
A0
350
48
  3
A1
350
49
  3
A2
350
4A
  3
A3
350
4B
  3
A4
350
4C
  3
A5
350
4D
  3
A6
350
4E
  3
A7
350
4F
  3
A8
350
50
  3
A9
350
51
  3
B0
350
52
  3
B1
350
53
  3
B2
350
54
  3
B3
350
55
  3
B4
350
56
  3
B5
350
57
  3
B6
350
58
  3
B7
350
59
  3
B8
350
5A
  3
B9
350
5B
  3
C0
350
5C
  3
C1
350
5D
  3
C2
350
5E
  3
C3
350
5F
  3
C4
350
60
  3
C5
350
61
  3
C6
350
62
  3
C7
350
63
  3
C8
350
64
  3
C9
350
65
  3
D0
350
66
  3
D1
350
67
  3
D2
350
68
  0
DICTIONARY
  5
143
102
{ACAD_REACTORS
330
C
102
}
330
C
100
AcDbDictionary
281
     1
  0
XRECORD
  5
1AB
102
{ACAD_REACTORS
330
C
102
}
330
C
100
AcDbXrecord
280
     1
  1
DWGPROPS COOKIE
  2

  3

  4

  6

  7

  8
12016016
  9

300
=
301
=
302
=
303
=
304
=
305
=
306
=
307
=
308
=
309
=
 40
0.0
 41
2458271.026901261
 42
2458271.115307998
  1

 90
        0
  0
LAYOUT
  5
1E
102
{ACAD_REACTORS
330
1A
102
}
330
1A
100
AcDbPlotSettings
  1

  2
none_device
  4

  6

 40
0.0
 41
0.0
 42
0.0
 43
0.0
 44
0.0
 45
0.0
 46
0.0
 47
0.0
 48
0.0
 49
0.0
140
0.0
141
0.0
142
1.0
143
1.0
 70
   688
 72
     1
 73
     0
 74
     5
  7

 75
    16
147
1.0
148
0.0
149
0.0
100
AcDbLayout
  1
Layout1
 70
     1
 71
     1
 10
0.0
 20
0.0
 11
420.0
 21
297.0
 12
0.0
 22
0.0
 32
0.0
 14
1.000000000000000E+20
 24
1.000000000000000E+20
 34
1.000000000000000E+20
 15
-1.000000000000000E+20
 25
-1.000000000000000E+20
 35
-1.000000000000000E+20
146
0.0
 13
0.0
 23
0.0
 33
0.0
 16
1.0
 26
0.0
 36
0.0
 17
0.0
 27
1.0
 37
0.0
 76
     0
330
1B
  0
LAYOUT
  5
26
102
{ACAD_REACTORS
330
1A
102
}
330
1A
100
AcDbPlotSettings
  1

  2
none_device
  4

  6

 40
0.0
 41
0.0
 42
0.0
 43
0.0
 44
0.0
 45
0.0
 46
0.0
 47
0.0
 48
0.0
 49
0.0
140
0.0
141
0.0
142
1.0
143
1.0
 70
   688
 72
     1
 73
     0
 74
     5
  7

 75
    16
147
1.0
148
0.0
149
0.0
100
AcDbLayout
  1
Layout2
 70
     1
 71
     2
 10
0.0
 20
0.0
 11
0.0
 21
0.0
 12
0.0
 22
0.0
 32
0.0
 14
0.0
 24
0.0
 34
0.0
 15
0.0
 25
0.0
 35
0.0
146
0.0
 13
0.0
 23
0.0
 33
0.0
 16
1.0
 26
0.0
 36
0.0
 17
0.0
 27
1.0
 37
0.0
 76
     0
330
23
  0
LAYOUT
  5
22
102
{ACAD_REACTORS
330
1A
102
}
330
1A
100
AcDbPlotSettings
  1

  2
none_device
  4
ANSI_A_(11.00_x_8.50_Inches)
  6

 40
6.35
 41
19.05
 42
6.35000508
 43
19.05000254
 44
279.4
 45
215.9
 46
78.84230030426198
 47
102.207054419021
 48
0.0
 49
0.0
140
0.0
141
0.0
142
0.0593691317382706
143
1.0
 70
  1696
 72
     0
 73
     0
 74
     0
  7

 75
     0
147
0.0235690232323232
148
0.0
149
0.0
100
AcDbLayout
  1
Model
 70
     1
 71
     0
 10
0.0
 20
0.0
 11
420.0
 21
297.0
 12
0.0
 22
0.0
 32
0.0
 14
1.000000000000000E+20
 24
1.000000000000000E+20
 34
1.000000000000000E+20
 15
-1.000000000000000E+20
 25
-1.000000000000000E+20
 35
-1.000000000000000E+20
146
0.0
 13
0.0
 23
0.0
 33
0.0
 16
1.0
 26
0.0
 36
0.0
 17
0.0
 27
1.0
 37
0.0
 76
     0
330
1F
331
29
  0
MLINESTYLE
  5
18
102
{ACAD_REACTORS
330
17
102
}
330
17
100
AcDbMlineStyle
  2
Standard
 70
     0
  3

 62
   256
 51
90.0
 52
90.0
 71
     2
 49
0.5
 62
   256
  6
BYLAYER
 49
-0.5
 62
   256
  6
BYLAYER
  0
ACDBPLACEHOLDER
  5
F
102
{ACAD_REACTORS
330
E
102
}
330
E
  0
SCALE
  5
48
102
{ACAD_REACTORS
330
47
102
}
330
47
100
AcDbScale
 70
     0
300
1:1
140
1.0
141
1.0
290
     1
  0
SCALE
  5
49
102
{ACAD_REACTORS
330
47
102
}
330
47
100
AcDbScale
 70
     0
300
1:2
140
1.0
141
2.0
290
     0
  0
SCALE
  5
4A
102
{ACAD_REACTORS
330
47
102
}
330
47
100
AcDbScale
 70
     0
300
1:4
140
1.0
141
4.0
290
     0
  0
SCALE
  5
4B
102
{ACAD_REACTORS
330
47
102
}
330
47
100
AcDbScale
 70
     0
300
1:5
140
1.0
141
5.0
290
     0
  0
SCALE
  5
4C
102
{ACAD_REACTORS
330
47
102
}
330
47
100
AcDbScale
 70
     0
300
1:8
140
1.0
141
8.0
290
     0
  0
SCALE
  5
4D
102
{ACAD_REACTORS
330
47
102
}
330
47
100
AcDbScale
 70
     0
300
1:10
140
1.0
141
10.0
290
     0
  0
SCALE
  5
4E
102
{ACAD_REACTORS
330
47
102
}
330
47
100
AcDbScale
 70
     0
300
1:16
140
1.0
141
16.0
290
     0
  0
SCALE
  5
4F
102
{ACAD_REACTORS
330
47
102
}
330
47
100
AcDbScale
 70
     0
300
1:20
140
1.0
141
20.0
290
     0
  0
SCALE
  5
50
102
{ACAD_REACTORS
330
47
102
}
330
47
100
AcDbScale
 70
     0
300
1:30
140
1.0
141
30.0
290
     0
  0
SCALE
  5
51
102
{ACAD_REACTORS
330
47
102
}
330
47
100
AcDbScale
 70
     0
300
1:40
140
1.0
141
40.0
290
     0
  0
SCALE
  5
52
102
{ACAD_REACTORS
330
47
102
}
330
47
100
AcDbScale
 70
     0
300
1:50
140
1.0
141
50.0
290
     0
  0
SCALE
  5
53
102
{ACAD_REACTORS
330
47
102
}
330
47
100
AcDbScale
 70
     0
300
1:100
140
1.0
141
100.0
290
     0
  0
SCALE
  5
54
102
{ACAD_REACTORS
330
47
102
}
330
47
100
AcDbScale
 70
     0
300
2:1
140
2.0
141
1.0
290
     0
  0
SCALE
  5
55
102
{ACAD_REACTORS
330
47
102
}
330
47
100
AcDbScale
 70
     0
300
4:1
140
4.0
141
1.0
290
     0
  0
SCALE
  5
56
102
{ACAD_REACTORS
330
47
102
}
330
47
100
AcDbScale
 70
     0
300
8:1
140
8.0
141
1.0
290
     0
  0
SCALE
  5
57
102
{ACAD_REACTORS
330
47
102
}
330
47
100
AcDbScale
 70
     0
300
10:1
140
10.0
141
1.0
290
     0
  0
SCALE
  5
58
102
{ACAD_REACTORS
330
47
102
}
330
47
100
AcDbScale
 70
     0
300
100:1
140
100.0
141
1.0
290
     0
  0
SCALE
  5
59
102
{ACAD_REACTORS
330
47
102
}
330
47
100
AcDbScale
 70
     0
300
1/128" = 1'-0"
140
0.0078125
141
12.0
290
     0
  0
SCALE
  5
5A
102
{ACAD_REACTORS
330
47
102
}
330
47
100
AcDbScale
 70
     0
300
1/64" = 1'-0"
140
0.015625
141
12.0
290
     0
  0
SCALE
  5
5B
102
{ACAD_REACTORS
330
47
102
}
330
47
100
AcDbScale
 70
     0
300
1/32" = 1'-0"
140
0.03125
141
12.0
290
     0
  0
SCALE
  5
5C
102
{ACAD_REACTORS
330
47
102
}
330
47
100
AcDbScale
 70
     0
300
1/16" = 1'-0"
140
0.0625
141
12.0
290
     0
  0
SCALE
  5
5D
102
{ACAD_REACTORS
330
47
102
}
330
47
100
AcDbScale
 70
     0
300
3/32" = 1'-0"
140
0.09375
141
12.0
290
     0
  0
SCALE
  5
5E
102
{ACAD_REACTORS
330
47
102
}
330
47
100
AcDbScale
 70
     0
300
1/8" = 1'-0"
140
0.125
141
12.0
290
     0
  0
SCALE
  5
5F
102
{ACAD_REACTORS
330
47
102
}
330
47
100
AcDbScale
 70
     0
300
3/16" = 1'-0"
140
0.1875
141
12.0
290
     0
  0
SCALE
  5
60
102
{ACAD_REACTORS
330
47
102
}
330
47
100
AcDbScale
 70
     0
300
1/4" = 1'-0"
140
0.25
141
12.0
290
     0
  0
SCALE
  5
61
102
{ACAD_REACTORS
330
47
102
}
330
47
100
AcDbScale
 70
     0
300
3/8" = 1'-0"
140
0.375
141
12.0
290
     0
  0
SCALE
  5
62
102
{ACAD_REACTORS
330
47
102
}
330
47
100
AcDbScale
 70
     0
300
1/2" = 1'-0"
140
0.5
141
12.0
290
     0
  0
SCALE
  5
63
102
{ACAD_REACTORS
330
47
102
}
330
47
100
AcDbScale
 70
     0
300
3/4" = 1'-0"
140
0.75
141
12.0
290
     0
  0
SCALE
  5
64
102
{ACAD_REACTORS
330
47
102
}
330
47
100
AcDbScale
 70
     0
300
1" = 1'-0"
140
1.0
141
12.0
290
     0
  0
SCALE
  5
65
102
{ACAD_REACTORS
330
47
102
}
330
47
100
AcDbScale
 70
     0
300
1-1/2" = 1'-0"
140
1.5
141
12.0
290
     0
  0
SCALE
  5
66
102
{ACAD_REACTORS
330
47
102
}
330
47
100
AcDbScale
 70
     0
300
3" = 1'-0"
140
3.0
141
12.0
290
     0
  0
SCALE
  5
67
102
{ACAD_REACTORS
330
47
102
}
330
47
100
AcDbScale
 70
     0
300
6" = 1'-0"
140
6.0
141
12.0
290
     0
  0
SCALE
  5
68
102
{ACAD_REACTORS
330
47
102
}
330
47
100
AcDbScale
 70
     0
300
1'-0" = 1'-0"
140
12.0
141
12.0
290
     0
  0
ENDSEC
  0
EOF
