  0
SECTION
  2
HEADER
  9
$ACADVER
  1
AC1015
  9
$ACADMAINTVER
 70
     6
  9
$DWGCODEPAGE
  3
ANSI_949
  9
$INSBASE
 10
0.0
 20
0.0
 30
0.0
  9
$EXTMIN
 10
-65.39560865778428
 20
-49.97180738881174
 30
0.0
  9
$EXTMAX
 10
117.1049514643145
 20
34.26413260158164
 30
0.0
  9
$LIMMIN
 10
0.0
 20
0.0
  9
$LIMMAX
 10
420.0
 20
297.0
  9
$ORTHOMODE
 70
     0
  9
$REGENMODE
 70
     1
  9
$FILLMODE
 70
     1
  9
$QTEXTMODE
 70
     0
  9
$MIRRTEXT
 70
     1
  9
$LTSCALE
 40
1.0
  9
$ATTMODE
 70
     1
  9
$TEXTSIZE
 40
3.5
  9
$TRACEWID
 40
1.0
  9
$TEXTSTYLE
  7
Standard
  9
$CLAYER
  8
0
  9
$CELTYPE
  6
ByLayer
  9
$CECOLOR
 62
   256
  9
$CELTSCALE
 40
1.0
  9
$DISPSILH
 70
     0
  9
$DIMSCALE
 40
1.0
  9
$DIMASZ
 40
3.302
  9
$DIMEXO
 40
1.0
  9
$DIMDLI
 40
3.75
  9
$DIMRND
 40
0.0
  9
$DIMDLE
 40
0.0
  9
$DIMEXE
 40
1.0
  9
$DIMTP
 40
0.0
  9
$DIMTM
 40
0.0
  9
$DIMTXT
 40
3.5
  9
$DIMCEN
 40
2.5
  9
$DIMTSZ
 40
0.0
  9
$DIMTOL
 70
     0
  9
$DIMLIM
 70
     0
  9
$DIMTIH
 70
     1
  9
$DIMTOH
 70
     1
  9
$DIMSE1
 70
     0
  9
$DIMSE2
 70
     0
  9
$DIMTAD
 70
     1
  9
$DIMZIN
 70
     0
  9
$DIMBLK
  1

  9
$DIMASO
 70
     1
  9
$DIMSHO
 70
     1
  9
$DIMPOST
  1

  9
$DIMAPOST
  1

  9
$DIMALT
 70
     0
  9
$DIMALTD
 70
     3
  9
$DIMALTF
 40
0.0393700787401575
  9
$DIMLFAC
 40
1.0
  9
$DIMTOFL
 70
     1
  9
$DIMTVP
 40
0.0
  9
$DIMTIX
 70
     0
  9
$DIMSOXD
 70
     0
  9
$DIMSAH
 70
     0
  9
$DIMBLK1
  1

  9
$DIMBLK2
  1

  9
$DIMSTYLE
  2
ISO-25
  9
$DIMCLRD
 70
     0
  9
$DIMCLRE
 70
     0
  9
$DIMCLRT
 70
     0
  9
$DIMTFAC
 40
1.0
  9
$DIMGAP
 40
1.524
  9
$DIMJUST
 70
     0
  9
$DIMSD1
 70
     0
  9
$DIMSD2
 70
     0
  9
$DIMTOLJ
 70
     0
  9
$DIMTZIN
 70
     0
  9
$DIMALTZ
 70
     0
  9
$DIMALTTZ
 70
     0
  9
$DIMUPT
 70
     0
  9
$DIMDEC
 70
     2
  9
$DIMTDEC
 70
     2
  9
$DIMALTU
 70
     2
  9
$DIMALTTD
 70
     3
  9
$DIMTXSTY
  7
Standard
  9
$DIMAUNIT
 70
     0
  9
$DIMADEC
 70
     2
  9
$DIMALTRND
 40
0.0
  9
$DIMAZIN
 70
     0
  9
$DIMDSEP
 70
    44
  9
$DIMATFIT
 70
     3
  9
$DIMFRAC
 70
     0
  9
$DIMLDRBLK
  1

  9
$DIMLUNIT
 70
     2
  9
$DIMLWD
 70
    -2
  9
$DIMLWE
 70
    -2
  9
$DIMTMOVE
 70
     0
  9
$LUNITS
 70
     2
  9
$LUPREC
 70
     2
  9
$SKETCHINC
 40
1.0
  9
$FILLETRAD
 40
10.0
  9
$AUNITS
 70
     0
  9
$AUPREC
 70
     2
  9
$MENU
  1
.
  9
$ELEVATION
 40
0.0
  9
$PELEVATION
 40
0.0
  9
$THICKNESS
 40
0.0
  9
$LIMCHECK
 70
     0
  9
$CHAMFERA
 40
0.0
  9
$CHAMFERB
 40
0.0
  9
$CHAMFERC
 40
0.0
  9
$CHAMFERD
 40
0.0
  9
$SKPOLY
 70
     0
  9
$TDCREATE
 40
2458260.587610764
  9
$TDUCREATE
 40
2458260.212610764
  9
$TDUPDATE
 40
2458268.604484734
  9
$TDUUPDATE
 40
2458268.229484734
  9
$TDINDWG
 40
0.0008000694
  9
$TDUSRTIMER
 40
2458268.228684699
  9
$USRTIMER
 70
     1
  9
$ANGBASE
 50
0.0
  9
$ANGDIR
 70
     0
  9
$PDMODE
 70
     0
  9
$PDSIZE
 40
-1.0
  9
$PLINEWID
 40
0.0
  9
$SPLFRAME
 70
     0
  9
$SPLINETYPE
 70
     6
  9
$SPLINESEGS
 70
     8
  9
$HANDSEED
  5
145
  9
$SURFTAB1
 70
     6
  9
$SURFTAB2
 70
     6
  9
$SURFTYPE
 70
     6
  9
$SURFU
 70
     6
  9
$SURFV
 70
     6
  9
$UCSBASE
  2

  9
$UCSNAME
  2

  9
$UCSORG
 10
0.0
 20
0.0
 30
0.0
  9
$UCSXDIR
 10
1.0
 20
0.0
 30
0.0
  9
$UCSYDIR
 10
0.0
 20
1.0
 30
0.0
  9
$UCSORTHOREF
  2

  9
$UCSORTHOVIEW
 70
     0
  9
$UCSORGTOP
 10
0.0
 20
0.0
 30
0.0
  9
$UCSORGBOTTOM
 10
0.0
 20
0.0
 30
0.0
  9
$UCSORGLEFT
 10
0.0
 20
0.0
 30
0.0
  9
$UCSORGRIGHT
 10
0.0
 20
0.0
 30
0.0
  9
$UCSORGFRONT
 10
0.0
 20
0.0
 30
0.0
  9
$UCSORGBACK
 10
0.0
 20
0.0
 30
0.0
  9
$PUCSBASE
  2

  9
$PUCSNAME
  2

  9
$PUCSORG
 10
0.0
 20
0.0
 30
0.0
  9
$PUCSXDIR
 10
1.0
 20
0.0
 30
0.0
  9
$PUCSYDIR
 10
0.0
 20
1.0
 30
0.0
  9
$PUCSORTHOREF
  2

  9
$PUCSORTHOVIEW
 70
     0
  9
$PUCSORGTOP
 10
0.0
 20
0.0
 30
0.0
  9
$PUCSORGBOTTOM
 10
0.0
 20
0.0
 30
0.0
  9
$PUCSORGLEFT
 10
0.0
 20
0.0
 30
0.0
  9
$PUCSORGRIGHT
 10
0.0
 20
0.0
 30
0.0
  9
$PUCSORGFRONT
 10
0.0
 20
0.0
 30
0.0
  9
$PUCSORGBACK
 10
0.0
 20
0.0
 30
0.0
  9
$USERI1
 70
     0
  9
$USERI2
 70
     0
  9
$USERI3
 70
     0
  9
$USERI4
 70
     0
  9
$USERI5
 70
     0
  9
$USERR1
 40
0.0
  9
$USERR2
 40
0.0
  9
$USERR3
 40
0.0
  9
$USERR4
 40
0.0
  9
$USERR5
 40
0.0
  9
$WORLDVIEW
 70
     1
  9
$SHADEDGE
 70
     3
  9
$SHADEDIF
 70
    70
  9
$TILEMODE
 70
     1
  9
$MAXACTVP
 70
    64
  9
$PINSBASE
 10
0.0
 20
0.0
 30
0.0
  9
$PLIMCHECK
 70
     0
  9
$PEXTMIN
 10
1.000000000000000E+20
 20
1.000000000000000E+20
 30
1.000000000000000E+20
  9
$PEXTMAX
 10
-1.000000000000000E+20
 20
-1.000000000000000E+20
 30
-1.000000000000000E+20
  9
$PLIMMIN
 10
0.0
 20
0.0
  9
$PLIMMAX
 10
0.0
 20
0.0
  9
$UNITMODE
 70
     0
  9
$VISRETAIN
 70
     1
  9
$PLINEGEN
 70
     0
  9
$PSLTSCALE
 70
     1
  9
$TREEDEPTH
 70
  3020
  9
$CMLSTYLE
  2
Standard
  9
$CMLJUST
 70
     0
  9
$CMLSCALE
 40
20.0
  9
$PROXYGRAPHICS
 70
     1
  9
$MEASUREMENT
 70
     1
  9
$CELWEIGHT
370
    -1
  9
$ENDCAPS
280
     0
  9
$JOINSTYLE
280
     0
  9
$LWDISPLAY
290
     1
  9
$INSUNITS
 70
     4
  9
$HYPERLINKBASE
  1

  9
$STYLESHEET
  1

  9
$XEDIT
290
     1
  9
$CEPSNTYPE
380
     0
  9
$PSTYLEMODE
290
     1
  9
$FINGERPRINTGUID
  2
{D1724F85-F749-4D4E-8875-137F7BFD466B}
  9
$VERSIONGUID
  2
{FAEB1C32-E019-11D5-929B-00C0DF256EC4}
  9
$EXTNAMES
290
     1
  9
$PSVPSCALE
 40
0.0
  9
$OLESTARTUP
290
     0
  0
ENDSEC
  0
SECTION
  2
CLASSES
  0
CLASS
  1
ACDBDICTIONARYWDFLT
  2
AcDbDictionaryWithDefault
  3
ObjectDBX Classes
 90
        0
280
     0
281
     0
  0
CLASS
  1
VISUALSTYLE
  2
AcDbVisualStyle
  3
ObjectDBX Classes
 90
     4095
280
     0
281
     0
  0
CLASS
  1
MATERIAL
  2
AcDbMaterial
  3
ObjectDBX Classes
 90
     1153
280
     0
281
     0
  0
CLASS
  1
SCALE
  2
AcDbScale
  3
ObjectDBX Classes
 90
     1153
280
     0
281
     0
  0
CLASS
  1
TABLESTYLE
  2
AcDbTableStyle
  3
ObjectDBX Classes
 90
     4095
280
     0
281
     0
  0
CLASS
  1
MLEADERSTYLE
  2
AcDbMLeaderStyle
  3
ACDB_MLEADERSTYLE_CLASS
 90
     4095
280
     0
281
     0
  0
CLASS
  1
SUN
  2
AcDbSun
  3
SCENEOE
 90
     1153
280
     0
281
     0
  0
CLASS
  1
ACDBPLACEHOLDER
  2
AcDbPlaceHolder
  3
ObjectDBX Classes
 90
        0
280
     0
281
     0
  0
CLASS
  1
LAYOUT
  2
AcDbLayout
  3
ObjectDBX Classes
 90
        0
280
     0
281
     0
  0
CLASS
  1
RASTERVARIABLES
  2
AcDbRasterVariables
  3
ISM
 90
        0
280
     0
281
     0
  0
ENDSEC
  0
SECTION
  2
TABLES
  0
TABLE
  2
VPORT
  5
8
330
0
100
AcDbSymbolTable
 70
     1
  0
VPORT
  5
29
330
8
100
AcDbSymbolTableRecord
100
AcDbViewportTableRecord
  2
*Active
 70
     0
 10
0.0
 20
0.0
 11
1.0
 21
1.0
 12
25.85467140326514
 22
-7.853837393615052
 13
0.0
 23
0.0
 14
10.0
 24
10.0
 15
10.0
 25
10.0
 16
0.0
 26
0.0
 36
1.0
 17
0.0
 27
0.0
 37
0.0
 40
107.0434934659692
 41
1.739018087855297
 42
50.0
 43
0.0
 44
0.0
 50
0.0
 51
0.0
 71
    16
 72
  2000
 73
     1
 74
     3
 75
     0
 76
     0
 77
     0
 78
     0
281
     0
 65
     1
110
0.0
120
0.0
130
0.0
111
1.0
121
0.0
131
0.0
112
0.0
122
1.0
132
0.0
 79
     0
146
0.0
  0
ENDTAB
  0
TABLE
  2
LTYPE
  5
5
330
0
100
AcDbSymbolTable
 70
     6
  0
LTYPE
  5
14
330
5
100
AcDbSymbolTableRecord
100
AcDbLinetypeTableRecord
  2
ByBlock
 70
     0
  3

 72
    65
 73
     0
 40
0.0
  0
LTYPE
  5
15
330
5
100
AcDbSymbolTableRecord
100
AcDbLinetypeTableRecord
  2
ByLayer
 70
     0
  3

 72
    65
 73
     0
 40
0.0
  0
LTYPE
  5
16
330
5
100
AcDbSymbolTableRecord
100
AcDbLinetypeTableRecord
  2
Continuous
 70
     0
  3
Solid line
 72
    65
 73
     0
 40
0.0
  0
LTYPE
  5
6E
330
5
100
AcDbSymbolTableRecord
100
AcDbLinetypeTableRecord
  2
HIDDEN
 70
     0
  3
Hidden __ __ __ __ __ __ __ __ __ __ __ __ __ __
 72
    65
 73
     2
 40
1.905
 49
1.27
 74
     0
 49
-0.635
 74
     0
  0
LTYPE
  5
6F
330
5
100
AcDbSymbolTableRecord
100
AcDbLinetypeTableRecord
  2
PHANTOM
 70
     0
  3
Phantom ______  __  __  ______  __  __  ______
 72
    65
 73
     6
 40
12.7
 49
6.35
 74
     0
 49
-1.27
 74
     0
 49
1.27
 74
     0
 49
-1.27
 74
     0
 49
1.27
 74
     0
 49
-1.27
 74
     0
  0
LTYPE
  5
70
330
5
100
AcDbSymbolTableRecord
100
AcDbLinetypeTableRecord
  2
CENTER
 70
     0
  3
Center ____ _ ____ _ ____ _ ____ _ ____ _ ____
 72
    65
 73
     4
 40
10.16
 49
6.35
 74
     0
 49
-1.27
 74
     0
 49
1.27
 74
     0
 49
-1.27
 74
     0
  0
LTYPE
  5
71
330
5
100
AcDbSymbolTableRecord
100
AcDbLinetypeTableRecord
  2
CENTERX2
 70
     0
  3
Center (2x) ________  __  ________  __  _____
 72
    65
 73
     4
 40
20.32
 49
12.7
 74
     0
 49
-2.54
 74
     0
 49
2.54
 74
     0
 49
-2.54
 74
     0
  0
LTYPE
  5
72
330
5
100
AcDbSymbolTableRecord
100
AcDbLinetypeTableRecord
  2
DOT2
 70
     0
  3
Dot (.5x) ........................................
 72
    65
 73
     2
 40
0.635
 49
0.0
 74
     0
 49
-0.635
 74
     0
  0
ENDTAB
  0
TABLE
  2
LAYER
  5
2
330
0
100
AcDbSymbolTable
 70
    17
  0
LAYER
  5
10
330
2
100
AcDbSymbolTableRecord
100
AcDbLayerTableRecord
  2
0
 70
     0
 62
     7
  6
Continuous
370
    -3
390
F
  0
LAYER
  5
73
330
2
100
AcDbSymbolTableRecord
100
AcDbLayerTableRecord
  2
FORMAT
 70
     0
 62
     2
  6
Continuous
370
    -3
390
F
  0
LAYER
  5
74
330
2
100
AcDbSymbolTableRecord
100
AcDbLayerTableRecord
  2
외형선
 70
     0
 62
   100
  6
Continuous
370
    35
390
F
  0
LAYER
  5
75
330
2
100
AcDbSymbolTableRecord
100
AcDbLayerTableRecord
  2
숨은선
 70
     0
 62
     2
  6
HIDDEN
370
    25
390
F
  0
LAYER
  5
76
330
2
100
AcDbSymbolTableRecord
100
AcDbLayerTableRecord
  2
중심선
 70
     0
 62
     1
  6
CENTERX2
370
    -3
390
F
  0
LAYER
  5
77
330
2
100
AcDbSymbolTableRecord
100
AcDbLayerTableRecord
  2
파단선
 70
     0
 62
     4
  6
Continuous
370
    -3
390
F
  0
LAYER
  5
78
330
2
100
AcDbSymbolTableRecord
100
AcDbLayerTableRecord
  2
해칭선
 70
     0
 62
   100
  6
Continuous
370
    -3
390
F
  0
LAYER
  5
79
330
2
100
AcDbSymbolTableRecord
100
AcDbLayerTableRecord
  2
가는실선
 70
     0
 62
     4
  6
Continuous
370
    -3
390
F
  0
LAYER
  5
7A
330
2
100
AcDbSymbolTableRecord
100
AcDbLayerTableRecord
  2
치수_보조선
 70
     0
 62
     4
  6
Continuous
370
    -3
390
F
  0
LAYER
  5
7B
330
2
100
AcDbSymbolTableRecord
100
AcDbLayerTableRecord
  2
치수문자_일반주서
 70
     0
 62
     7
  6
Continuous
370
    25
390
F
  0
LAYER
  5
7C
330
2
100
AcDbSymbolTableRecord
100
AcDbLayerTableRecord
  2
개별주서
 70
     0
 62
   100
  6
Continuous
370
    35
390
F
  0
LAYER
  5
7D
330
2
100
AcDbSymbolTableRecord
100
AcDbLayerTableRecord
  2
중간선
 70
     0
 62
     2
  6
Continuous
370
    25
390
F
  0
LAYER
  5
7E
330
2
100
AcDbSymbolTableRecord
100
AcDbLayerTableRecord
  2
윤곽선
 70
     0
 62
     3
  6
Continuous
370
    50
390
F
  0
LAYER
  5
7F
330
2
100
AcDbSymbolTableRecord
100
AcDbLayerTableRecord
  2
중심마크
 70
     0
 62
   100
  6
Continuous
370
    35
390
F
  0
LAYER
  5
80
330
2
100
AcDbSymbolTableRecord
100
AcDbLayerTableRecord
  2
가상선
 70
     0
 62
     4
  6
PHANTOM
370
    -3
390
F
  0
LAYER
  5
81
330
2
100
AcDbSymbolTableRecord
100
AcDbLayerTableRecord
  2
특수지정선
 70
     0
 62
     5
  6
CENTERX2
370
    70
390
F
  0
LAYER
  5
132
330
2
100
AcDbSymbolTableRecord
100
AcDbLayerTableRecord
  2
Defpoints
 70
     0
 62
     7
  6
Continuous
290
     0
370
    -3
390
F
  0
ENDTAB
  0
TABLE
  2
STYLE
  5
3
330
0
100
AcDbSymbolTable
 70
     2
  0
STYLE
  5
11
330
3
100
AcDbSymbolTableRecord
100
AcDbTextStyleTableRecord
  2
Standard
 70
     0
 40
0.0
 41
1.0
 50
0.0
 71
     0
 42
3.5
  3
txt
  4

  0
STYLE
  5
97
330
3
100
AcDbSymbolTableRecord
100
AcDbTextStyleTableRecord
  2
SLDTEXTSTYLE0
 70
     0
 40
0.0
 41
0.75
 50
0.0
 71
     0
 42
3.5
  3
TXT
  4

  0
ENDTAB
  0
TABLE
  2
VIEW
  5
6
330
0
100
AcDbSymbolTable
 70
     0
  0
ENDTAB
  0
TABLE
  2
UCS
  5
7
330
0
100
AcDbSymbolTable
 70
     0
  0
ENDTAB
  0
TABLE
  2
APPID
  5
9
330
0
100
AcDbSymbolTable
 70
     1
  0
APPID
  5
12
330
9
100
AcDbSymbolTableRecord
100
AcDbRegAppTableRecord
  2
ACAD
 70
     0
  0
ENDTAB
  0
TABLE
  2
DIMSTYLE
  5
A
330
0
100
AcDbSymbolTable
 70
     4
100
AcDbDimStyleTable
  0
DIMSTYLE
105
27
330
A
100
AcDbSymbolTableRecord
100
AcDbDimStyleTableRecord
  2
ISO-25
 70
     0
 41
2.5
 42
0.625
 43
3.75
 44
1.25
 73
     0
 74
     0
 77
     1
 78
     8
140
2.5
141
2.5
143
0.03937007874016
147
0.625
171
     3
172
     1
178
     0
271
     2
272
     2
274
     3
278
    44
283
     0
284
     8
340
11
  0
DIMSTYLE
105
DB
102
{ACAD_REACTORS
330
DA
102
}
330
A
100
AcDbSymbolTableRecord
100
AcDbDimStyleTableRecord
  2
SLDDIMSTYLE0
 70
     0
 41
3.302
 44
0.0
 45
0.000000001
 73
     0
 74
     0
 77
     1
 78
    12
 79
     3
140
3.5
147
0.875
172
     1
173
     1
178
     0
271
     1
272
     1
276
     2
284
    12
289
     0
340
97
  0
DIMSTYLE
105
E7
102
{ACAD_REACTORS
330
E6
330
FD
102
}
330
A
100
AcDbSymbolTableRecord
100
AcDbDimStyleTableRecord
  2
SLDDIMSTYLE1
 70
     0
 41
3.302
 44
0.0
 45
0.000000001
 73
     0
 74
     0
 77
     1
 78
    12
 79
     3
140
3.5
147
0.875
173
     1
178
     0
271
     2
272
     2
276
     2
284
    12
340
97
  0
DIMSTYLE
105
F2
102
{ACAD_REACTORS
330
F1
102
}
330
A
100
AcDbSymbolTableRecord
100
AcDbDimStyleTableRecord
  2
SLDDIMSTYLE2
 70
     0
 41
3.302
 44
0.0
 45
0.000000001
 73
     0
 74
     0
 77
     1
 78
    12
 79
     3
140
3.5
147
0.875
172
     1
173
     1
178
     0
271
     2
272
     2
276
     2
284
    12
289
     0
340
97
  0
ENDTAB
  0
TABLE
  2
BLOCK_RECORD
  5
1
330
0
100
AcDbSymbolTable
 70
     7
  0
BLOCK_RECORD
  5
1F
330
1
100
AcDbSymbolTableRecord
100
AcDbBlockTableRecord
  2
*Model_Space
340
22
  0
BLOCK_RECORD
  5
1B
330
1
100
AcDbSymbolTableRecord
100
AcDbBlockTableRecord
  2
*Paper_Space
340
1E
  0
BLOCK_RECORD
  5
23
330
1
100
AcDbSymbolTableRecord
100
AcDbBlockTableRecord
  2
*Paper_Space0
340
26
  0
BLOCK_RECORD
  5
82
330
1
100
AcDbSymbolTableRecord
100
AcDbBlockTableRecord
  2
블럭10
340
0
102
{BLKREFS
331
D3
102
}
  0
BLOCK_RECORD
  5
DC
330
1
100
AcDbSymbolTableRecord
100
AcDbBlockTableRecord
  2
_D
340
0
  0
BLOCK_RECORD
  5
E8
330
1
100
AcDbSymbolTableRecord
100
AcDbBlockTableRecord
  2
_D_1
340
0
  0
BLOCK_RECORD
  5
F3
330
1
100
AcDbSymbolTableRecord
100
AcDbBlockTableRecord
  2
_D_2
340
0
  0
BLOCK_RECORD
  5
FE
330
1
100
AcDbSymbolTableRecord
100
AcDbBlockTableRecord
  2
_D_3
340
0
  0
BLOCK_RECORD
  5
107
330
1
100
AcDbSymbolTableRecord
100
AcDbBlockTableRecord
  2
SW_DOWELSYMBOL_0
340
0
102
{BLKREFS
331
10D
102
}
  0
ENDTAB
  0
ENDSEC
  0
SECTION
  2
BLOCKS
  0
BLOCK
  5
20
330
1F
100
AcDbEntity
  8
0
100
AcDbBlockBegin
  2
*Model_Space
 70
     0
 10
0.0
 20
0.0
 30
0.0
  3
*Model_Space
  1

  0
ENDBLK
  5
21
330
1F
100
AcDbEntity
  8
0
100
AcDbBlockEnd
  0
BLOCK
  5
1C
330
1B
100
AcDbEntity
 67
     1
  8
0
100
AcDbBlockBegin
  2
*Paper_Space
 70
     0
 10
0.0
 20
0.0
 30
0.0
  3
*Paper_Space
  1

  0
ENDBLK
  5
1D
330
1B
100
AcDbEntity
 67
     1
  8
0
100
AcDbBlockEnd
  0
BLOCK
  5
24
330
23
100
AcDbEntity
  8
0
100
AcDbBlockBegin
  2
*Paper_Space0
 70
     0
 10
0.0
 20
0.0
 30
0.0
  3
*Paper_Space0
  1

  0
ENDBLK
  5
25
330
23
100
AcDbEntity
  8
0
100
AcDbBlockEnd
  0
BLOCK
  5
83
330
82
100
AcDbEntity
  8
0
100
AcDbBlockBegin
  2
블럭10
 70
     2
 10
0.0
 20
0.0
 30
0.0
  3
블럭10
  1

  0
ELLIPSE
  5
85
330
82
100
AcDbEntity
  8
중심선
100
AcDbEllipse
 10
20.54032771741204
 20
12.0471743016438
 30
0.0
 11
6.600054785286829
 21
-1.261213355974178E-13
 31
0.0
210
0.0
220
0.0
230
1.0
 40
0.636358354079598
 41
0.9219305317359503
 42
6.513795318482858
  0
ELLIPSE
  5
86
330
82
100
AcDbEntity
  8
중심선
100
AcDbEllipse
 10
20.54032771746488
 20
12.04717430159265
 30
0.0
 11
3.960054785062283
 21
1.540847449632565E-10
 31
0.0
210
0.0
220
0.0
230
1.0
 40
0.3939339440162632
 41
1.131841032648279
 42
5.62031148352944
  0
LINE
  5
87
330
82
100
AcDbEntity
  8
중심선
100
AcDbLine
 10
2.268634060543552
 20
16.24717430164393
 30
0.0
 11
5.714909304380834
 21
16.24717430164393
 31
0.0
  0
LINE
  5
88
330
82
100
AcDbEntity
  8
중심선
100
AcDbLine
 10
5.245725140726316
 20
7.84717430164391
 30
0.0
 11
8.692000384563599
 21
7.84717430164391
 31
0.0
  0
LINE
  5
89
330
82
100
AcDbEntity
  8
중심선
100
AcDbLine
 10
15.74043728645272
 20
16.24717430164393
 30
0.0
 11
8.692000384563599
 21
7.84717430164391
 31
0.0
  0
LINE
  5
8A
330
82
100
AcDbEntity
  8
중심선
100
AcDbLine
 10
0.1404042013395286
 20
13.71084872107135
 30
0.0
 11
3.58671253028996
 21
13.71088815037384
 31
0.0
  0
LINE
  5
8B
330
82
100
AcDbEntity
  8
중심선
100
AcDbLine
 10
2.750260043222114
 20
10.84717430164391
 30
0.0
 11
6.196535287059397
 21
10.84717430164391
 31
0.0
  0
LINE
  5
8C
330
82
100
AcDbEntity
  8
중심선
100
AcDbLine
 10
12.29416204261559
 20
16.24717430164393
 30
0.0
 11
5.245725140726316
 21
7.84717430164391
 31
0.0
  0
LINE
  5
8D
330
82
100
AcDbEntity
  8
중심선
100
AcDbLine
 10
10.72767329541681
 20
16.24717430164393
 30
0.0
 11
6.196535287059397
 21
10.84717430164391
 31
0.0
  0
LINE
  5
8E
330
82
100
AcDbEntity
  8
중심선
100
AcDbLine
 10
7.28139805157953
 20
16.24717430164393
 30
0.0
 11
2.750260043222114
 21
10.84717430164391
 31
0.0
  0
LINE
  5
8F
330
82
100
AcDbEntity
  8
중심선
100
AcDbLine
 10
5.714909304380834
 20
16.24717430164393
 30
0.0
 11
3.58671253028996
 21
13.71088815037384
 31
0.0
  0
LINE
  5
90
330
82
100
AcDbEntity
  8
중심선
100
AcDbLine
 10
2.268634060543552
 20
16.24717430164393
 30
0.0
 11
0.1404042013395286
 21
13.71084872107135
 31
0.0
  0
LINE
  5
91
330
82
100
AcDbEntity
  8
중심선
100
AcDbLine
 10
7.28139805157953
 20
16.24717430164393
 30
0.0
 11
10.72767329541681
 21
16.24717430164393
 31
0.0
  0
LINE
  5
92
330
82
100
AcDbEntity
  8
중심선
100
AcDbLine
 10
12.29416204261559
 20
16.24717430164393
 30
0.0
 11
15.74043728645272
 21
16.24717430164393
 31
0.0
  0
LINE
  5
93
330
82
100
AcDbEntity
  8
중심선
100
AcDbLine
 10
19.22036997980202
 20
11.08717430171403
 30
0.0
 11
23.66174974927406
 21
11.08717430171406
 31
0.0
  0
LINE
  5
94
330
82
100
AcDbEntity
  8
중심선
100
AcDbLine
 10
19.22039502424796
 20
13.00717430171391
 30
0.0
 11
19.22036997980202
 21
11.08717430171403
 31
0.0
  0
LINE
  5
95
330
82
100
AcDbEntity
  8
중심선
100
AcDbLine
 10
19.22039502424796
 20
13.00717430171391
 30
0.0
 11
26.96566020931264
 21
13.00717430171391
 31
0.0
  0
LINE
  5
96
330
82
100
AcDbEntity
  8
중심선
100
AcDbLine
 10
22.22332737316547
 20
13.45928029700563
 30
0.0
 11
24.52862924686651
 21
15.39360700705356
 31
0.0
  0
ATTDEF
  5
98
330
82
100
AcDbEntity
  8
FORMAT
 62
     2
100
AcDbText
 10
-16.11926103943555
 20
2.075366912832191
 30
0.0
 40
4.233333333333333
  1
SEME7225090E [ 4 FLUTE ]
 41
0.75
  7
SLDTEXTSTYLE0
 11
-16.11926103943555
 21
-0.0412997538344756
 31
0.0
100
AcDbAttributeDefinition
  3

  2
AUTOATTR0
 70
     0
 74
     1
  0
ENDBLK
  5
84
330
82
100
AcDbEntity
  8
0
100
AcDbBlockEnd
  0
BLOCK
  5
DD
330
DC
100
AcDbEntity
  8
0
100
AcDbBlockBegin
  2
_D
 70
     0
 10
0.0
 20
0.0
 30
0.0
  3
_D
  1

  0
LINE
  5
DF
330
DC
100
AcDbEntity
  8
치수문자_일반주서
 62
     0
370
    -2
100
AcDbLine
 10
102.0625
 20
-12.50000000000001
 30
0.0
 11
116.5546181309812
 21
-12.49999999999995
 31
0.0
  0
LINE
  5
E0
330
DC
100
AcDbEntity
  8
치수문자_일반주서
 62
     0
370
    -2
100
AcDbLine
 10
102.0625
 20
12.5
 30
0.0
 11
116.5546181309811
 21
12.50000000000005
 31
0.0
  0
LINE
  5
E1
330
DC
100
AcDbEntity
  8
치수문자_일반주서
 62
     0
370
    -2
100
AcDbLine
 10
116.5546181309812
 20
-12.49999999999995
 30
0.0
 11
116.5546181309811
 21
27.85400000000005
 31
0.0
  0
LINE
  5
E2
330
DC
100
AcDbEntity
  8
치수문자_일반주서
 62
     0
370
    -2
100
AcDbLine
 10
116.5546181309812
 20
-12.49999999999995
 30
0.0
 11
116.5546181309811
 21
12.50000000000005
 31
0.0
  0
LINE
  5
E3
330
DC
100
AcDbEntity
  8
치수문자_일반주서
 62
     0
370
    -2
100
AcDbLine
 10
116.5546181309812
 20
-15.80199999999995
 30
0.0
 11
116.5546181309812
 21
-19.10399999999995
 31
0.0
  0
LINE
  5
E4
330
DC
100
AcDbEntity
  8
치수문자_일반주서
 62
     0
370
    -2
100
AcDbLine
 10
116.5546181309811
 20
15.80200000000005
 30
0.0
 11
116.5546181309811
 21
19.10400000000005
 31
0.0
  0
SOLID
  5
E5
330
DC
100
AcDbEntity
  8
치수문자_일반주서
 62
     0
100
AcDbTrace
 10
117.1049514643145
 20
-15.80199999999995
 30
0.0
 11
116.0042847976479
 21
-15.80199999999996
 31
0.0
 12
116.5546181309812
 22
-12.49999999999995
 32
0.0
 13
116.5546181309812
 23
-12.49999999999995
 33
0.0
  0
SOLID
  5
133
330
DC
100
AcDbEntity
  8
치수문자_일반주서
 62
     0
100
AcDbTrace
 10
116.0042847976478
 20
15.80200000000005
 30
0.0
 11
117.1049514643144
 21
15.80200000000005
 31
0.0
 12
116.5546181309811
 22
12.50000000000005
 32
0.0
 13
116.5546181309811
 23
12.50000000000005
 33
0.0
  0
MTEXT
  5
134
330
DC
100
AcDbEntity
  8
치수문자_일반주서
 62
     0
100
AcDbMText
 10
112.1796181309811
 20
23.47900000000003
 30
0.0
 40
3.5
 41
0.0
 71
     2
 72
     1
  1
\A1;%%c25
  7
SLDTEXTSTYLE0
 11
-3.410605131648480E-15
 21
1.0
 31
0.0
 73
     1
 44
1.0
  0
POINT
  5
140
330
DC
100
AcDbEntity
  8
Defpoints
 62
     0
100
AcDbPoint
 10
102.0
 20
-12.50000000000001
 30
0.0
  0
POINT
  5
141
330
DC
100
AcDbEntity
  8
Defpoints
 62
     0
100
AcDbPoint
 10
102.0
 20
12.5
 30
0.0
  0
POINT
  5
142
330
DC
100
AcDbEntity
  8
Defpoints
 62
     0
100
AcDbPoint
 10
116.5546181309811
 20
12.50000000000006
 30
0.0
  0
ENDBLK
  5
DE
330
DC
100
AcDbEntity
  8
0
100
AcDbBlockEnd
  0
BLOCK
  5
E9
330
E8
100
AcDbEntity
  8
0
100
AcDbBlockBegin
  2
_D_1
 70
     0
 10
0.0
 20
0.0
 30
0.0
  3
_D_1
  1

  0
LINE
  5
EB
330
E8
100
AcDbEntity
  8
치수문자_일반주서
 62
     0
370
    -2
100
AcDbLine
 10
-48.00000000000001
 20
12.06249999999999
 30
0.0
 11
-48.00000000000002
 21
29.88913260158164
 31
0.0
  0
LINE
  5
EC
330
E8
100
AcDbEntity
  8
치수문자_일반주서
 62
     0
370
    -2
100
AcDbLine
 10
102.0
 20
12.56250000000001
 30
0.0
 11
102.0
 21
29.88913260158164
 31
0.0
  0
LINE
  5
ED
330
E8
100
AcDbEntity
  8
치수문자_일반주서
 62
     0
370
    -2
100
AcDbLine
 10
-44.69800000000002
 20
29.88913260158164
 30
0.0
 11
98.69799999999998
 21
29.88913260158164
 31
0.0
  0
SOLID
  5
EE
330
E8
100
AcDbEntity
  8
치수문자_일반주서
 62
     0
100
AcDbTrace
 10
-44.69800000000002
 20
30.43946593491497
 30
0.0
 11
-44.69800000000002
 21
29.33879926824831
 31
0.0
 12
-48.00000000000002
 22
29.88913260158164
 32
0.0
 13
-48.00000000000002
 23
29.88913260158164
 33
0.0
  0
SOLID
  5
EF
330
E8
100
AcDbEntity
  8
치수문자_일반주서
 62
     0
100
AcDbTrace
 10
98.69799999999998
 20
29.33879926824831
 30
0.0
 11
98.69799999999998
 21
30.43946593491497
 31
0.0
 12
102.0
 22
29.88913260158164
 32
0.0
 13
102.0
 23
29.88913260158164
 33
0.0
  0
MTEXT
  5
F0
330
E8
100
AcDbEntity
  8
치수문자_일반주서
 62
     0
100
AcDbMText
 10
26.99999999999998
 20
34.26413260158164
 30
0.0
 40
3.5
 41
0.0
 71
     2
 72
     1
  1
\A1;150
  7
SLDTEXTSTYLE0
 73
     1
 44
1.0
  0
POINT
  5
135
330
E8
100
AcDbEntity
  8
Defpoints
 62
     0
100
AcDbPoint
 10
-48.00000000000001
 20
11.99999999999999
 30
0.0
  0
POINT
  5
136
330
E8
100
AcDbEntity
  8
Defpoints
 62
     0
100
AcDbPoint
 10
102.0
 20
12.50000000000001
 30
0.0
  0
POINT
  5
137
330
E8
100
AcDbEntity
  8
Defpoints
 62
     0
100
AcDbPoint
 10
102.0
 20
29.88913260158164
 30
0.0
  0
ENDBLK
  5
EA
330
E8
100
AcDbEntity
  8
0
100
AcDbBlockEnd
  0
BLOCK
  5
F4
330
F3
100
AcDbEntity
  8
0
100
AcDbBlockBegin
  2
_D_2
 70
     0
 10
0.0
 20
0.0
 30
0.0
  3
_D_2
  1

  0
LINE
  5
F6
330
F3
100
AcDbEntity
  8
치수문자_일반주서
 62
     0
370
    -2
100
AcDbLine
 10
-47.56250000000001
 20
12.49999999999998
 30
0.0
 11
-61.02060865778422
 21
12.49999999999993
 31
0.0
  0
LINE
  5
F7
330
F3
100
AcDbEntity
  8
치수문자_일반주서
 62
     0
370
    -2
100
AcDbLine
 10
-47.56250000000001
 20
-12.50000000000001
 30
0.0
 11
-61.02060865778413
 21
-12.50000000000006
 31
0.0
  0
LINE
  5
F8
330
F3
100
AcDbEntity
  8
치수문자_일반주서
 62
     0
370
    -2
100
AcDbLine
 10
-61.02060865778422
 20
12.49999999999993
 30
0.0
 11
-61.02060865778427
 21
28.62935091469709
 31
0.0
  0
LINE
  5
F9
330
F3
100
AcDbEntity
  8
치수문자_일반주서
 62
     0
370
    -2
100
AcDbLine
 10
-61.02060865778422
 20
12.49999999999993
 30
0.0
 11
-61.02060865778413
 21
-12.50000000000006
 31
0.0
  0
LINE
  5
FA
330
F3
100
AcDbEntity
  8
치수문자_일반주서
 62
     0
370
    -2
100
AcDbLine
 10
-61.02060865778423
 20
15.80199999999993
 30
0.0
 11
-61.02060865778424
 21
19.10399999999993
 31
0.0
  0
LINE
  5
FB
330
F3
100
AcDbEntity
  8
치수문자_일반주서
 62
     0
370
    -2
100
AcDbLine
 10
-61.02060865778412
 20
-15.80200000000006
 30
0.0
 11
-61.0206086577841
 21
-19.10400000000006
 31
0.0
  0
SOLID
  5
FC
330
F3
100
AcDbEntity
  8
치수문자_일반주서
 62
     0
100
AcDbTrace
 10
-61.57094199111756
 20
15.80199999999993
 30
0.0
 11
-60.4702753244509
 21
15.80199999999993
 31
0.0
 12
-61.02060865778422
 22
12.49999999999993
 32
0.0
 13
-61.02060865778422
 23
12.49999999999993
 33
0.0
  0
SOLID
  5
138
330
F3
100
AcDbEntity
  8
치수문자_일반주서
 62
     0
100
AcDbTrace
 10
-60.47027532445078
 20
-15.80200000000006
 30
0.0
 11
-61.57094199111745
 21
-15.80200000000007
 31
0.0
 12
-61.02060865778413
 22
-12.50000000000006
 32
0.0
 13
-61.02060865778413
 23
-12.50000000000006
 33
0.0
  0
MTEXT
  5
139
330
F3
100
AcDbEntity
  8
치수문자_일반주서
 62
     0
100
AcDbMText
 10
-65.39560865778427
 20
24.25435091469707
 30
0.0
 40
3.5
 41
0.0
 71
     2
 72
     1
  1
\A1;%%c25
  7
SLDTEXTSTYLE0
 11
-3.410605131648482E-15
 21
1.0
 31
0.0
 73
     1
 44
1.0
  0
POINT
  5
13D
330
F3
100
AcDbEntity
  8
Defpoints
 62
     0
100
AcDbPoint
 10
-47.50000000000001
 20
12.49999999999998
 30
0.0
  0
POINT
  5
13E
330
F3
100
AcDbEntity
  8
Defpoints
 62
     0
100
AcDbPoint
 10
-47.50000000000001
 20
-12.50000000000001
 30
0.0
  0
POINT
  5
13F
330
F3
100
AcDbEntity
  8
Defpoints
 62
     0
100
AcDbPoint
 10
-61.02060865778413
 20
-12.50000000000006
 30
0.0
  0
ENDBLK
  5
F5
330
F3
100
AcDbEntity
  8
0
100
AcDbBlockEnd
  0
BLOCK
  5
FF
330
FE
100
AcDbEntity
  8
0
100
AcDbBlockBegin
  2
_D_3
 70
     0
 10
0.0
 20
0.0
 30
0.0
  3
_D_3
  1

  0
LINE
  5
101
330
FE
100
AcDbEntity
  8
치수문자_일반주서
 62
     0
370
    -2
100
AcDbLine
 10
11.99999999999999
 20
11.87947295898471
 30
0.0
 11
12.0
 21
22.66289126157236
 31
0.0
  0
LINE
  5
102
330
FE
100
AcDbEntity
  8
치수문자_일반주서
 62
     0
370
    -2
100
AcDbLine
 10
102.0
 20
12.56250000000001
 30
0.0
 11
102.0
 21
22.66289126157236
 31
0.0
  0
LINE
  5
103
330
FE
100
AcDbEntity
  8
치수문자_일반주서
 62
     0
370
    -2
100
AcDbLine
 10
15.302
 20
22.66289126157236
 30
0.0
 11
98.69800000000001
 21
22.66289126157236
 31
0.0
  0
SOLID
  5
104
330
FE
100
AcDbEntity
  8
치수문자_일반주서
 62
     0
100
AcDbTrace
 10
15.302
 20
23.21322459490569
 30
0.0
 11
15.302
 21
22.11255792823902
 31
0.0
 12
12.0
 22
22.66289126157236
 32
0.0
 13
12.0
 23
22.66289126157236
 33
0.0
  0
SOLID
  5
105
330
FE
100
AcDbEntity
  8
치수문자_일반주서
 62
     0
100
AcDbTrace
 10
98.69800000000001
 20
22.11255792823902
 30
0.0
 11
98.69800000000001
 21
23.21322459490569
 31
0.0
 12
102.0
 22
22.66289126157236
 32
0.0
 13
102.0
 23
22.66289126157236
 33
0.0
  0
MTEXT
  5
106
330
FE
100
AcDbEntity
  8
치수문자_일반주서
 62
     0
100
AcDbMText
 10
56.99999999999999
 20
27.03789126157236
 30
0.0
 40
3.5
 41
0.0
 71
     2
 72
     1
  1
\A1;90
  7
SLDTEXTSTYLE0
 73
     1
 44
1.0
  0
POINT
  5
13A
330
FE
100
AcDbEntity
  8
Defpoints
 62
     0
100
AcDbPoint
 10
11.99999999999999
 20
11.81697295898471
 30
0.0
  0
POINT
  5
13B
330
FE
100
AcDbEntity
  8
Defpoints
 62
     0
100
AcDbPoint
 10
102.0
 20
12.50000000000001
 30
0.0
  0
POINT
  5
13C
330
FE
100
AcDbEntity
  8
Defpoints
 62
     0
100
AcDbPoint
 10
102.0
 20
22.66289126157236
 30
0.0
  0
ENDBLK
  5
100
330
FE
100
AcDbEntity
  8
0
100
AcDbBlockEnd
  0
BLOCK
  5
108
330
107
100
AcDbEntity
  8
0
100
AcDbBlockBegin
  2
SW_DOWELSYMBOL_0
 70
     0
 10
0.0
 20
0.0
 30
0.0
  3
SW_DOWELSYMBOL_0
  1

  0
CIRCLE
  5
10A
330
107
100
AcDbEntity
  8
해칭선
 62
     0
100
AcDbCircle
 10
0.0
 20
0.0
 30
0.0
 40
3.000000000000003
  0
HATCH
  5
10B
330
107
100
AcDbEntity
  8
0
  6
Continuous
 62
     0
370
    18
100
AcDbHatch
 10
0.0
 20
0.0
 30
0.0
210
0.0
220
0.0
230
1.0
  2
SOLID
 70
     1
 71
     0
 91
        1
 92
        0
 93
        3
 72
     2
 10
0.0
 20
0.0
 40
3.000000000000003
 50
0.0
 51
90.0
 73
     1
 72
     1
 10
0.0
 20
3.000000000000003
 11
0.0
 21
0.0
 72
     1
 10
0.0
 20
0.0
 11
3.000000000000003
 21
0.0
 97
        0
 75
     0
 76
     1
 98
        1
 10
0.0
 20
0.0
  0
HATCH
  5
10C
330
107
100
AcDbEntity
  8
0
  6
Continuous
 62
     0
370
    18
100
AcDbHatch
 10
0.0
 20
0.0
 30
0.0
210
0.0
220
0.0
230
1.0
  2
SOLID
 70
     1
 71
     0
 91
        1
 92
        0
 93
        3
 72
     2
 10
0.0
 20
0.0
 40
3.000000000000003
 50
180.0
 51
270.0000000000008
 73
     1
 72
     1
 10
0.0
 20
-3.000000000000003
 11
0.0
 21
0.0
 72
     1
 10
0.0
 20
0.0
 11
-3.000000000000003
 21
0.0
 97
        0
 75
     0
 76
     1
 98
        1
 10
0.0
 20
0.0
  0
ENDBLK
  5
109
330
107
100
AcDbEntity
  8
0
100
AcDbBlockEnd
  0
ENDSEC
  0
SECTION
  2
ENTITIES
  0
LINE
  5
99
330
1F
100
AcDbEntity
  8
0
  6
Continuous
 62
     4
370
    25
100
AcDbLine
 10
10.49994507901016
 20
12.5
 30
0.0
 11
-47.50000000000001
 21
12.49999999999999
 31
0.0
  0
LINE
  5
9A
330
1F
100
AcDbEntity
  8
0
  6
Continuous
 62
     4
370
    25
100
AcDbLine
 10
-47.50000000000001
 20
-12.50000000000001
 30
0.0
 11
10.49994507901016
 21
-12.5
 31
0.0
  0
LINE
  5
9B
330
1F
100
AcDbEntity
  8
0
  6
Continuous
 62
     4
370
    25
100
AcDbLine
 10
-47.50000000000001
 20
12.49999999999999
 30
0.0
 11
-48.00000000000001
 21
11.99999999999999
 31
0.0
  0
LINE
  5
9C
330
1F
100
AcDbEntity
  8
0
  6
Continuous
 62
     4
370
    25
100
AcDbLine
 10
-48.00000000000001
 20
-12.0
 30
0.0
 11
-47.50000000000001
 21
-12.5
 31
0.0
  0
LINE
  5
9D
330
1F
100
AcDbEntity
  8
0
  6
Continuous
 62
     1
370
    25
100
AcDbLine
 10
63.15659613632465
 20
-12.50000000000001
 30
0.0
 11
72.8266863010719
 21
-12.50000000000001
 31
0.0
  0
LINE
  5
9E
330
1F
100
AcDbEntity
  8
0
  6
Continuous
 62
     1
370
    25
100
AcDbLine
 10
72.82668630107196
 20
12.50000000000001
 30
0.0
 11
63.15659613632481
 21
12.50000000000001
 31
0.0
  0
LINE
  5
9F
330
1F
100
AcDbEntity
  8
0
  6
Continuous
 62
     1
370
    25
100
AcDbLine
 10
97.16442995656226
 20
-12.50000000000001
 30
0.0
 11
102.0
 21
-12.50000000000001
 31
0.0
  0
LINE
  5
A0
330
1F
100
AcDbEntity
  8
0
  6
Continuous
 62
     1
370
    25
100
AcDbLine
 10
38.8186860682541
 20
12.50000000000001
 30
0.0
 11
29.14825149374309
 21
12.50000000000001
 31
0.0
  0
LINE
  5
A1
330
1F
100
AcDbEntity
  8
0
  6
Continuous
 62
     1
370
    25
100
AcDbLine
 10
29.14825149374305
 20
-12.50000000000001
 30
0.0
 11
38.81868606825395
 21
-12.50000000000001
 31
0.0
  0
LINE
  5
A2
330
1F
100
AcDbEntity
  8
0
  6
Continuous
 62
     1
370
    25
100
AcDbLine
 10
102.0
 20
12.50000000000001
 30
0.0
 11
97.16442995656217
 21
12.50000000000001
 31
0.0
  0
SPLINE
  5
A3
330
1F
100
AcDbEntity
  8
0
  6
Continuous
 62
     4
370
    25
100
AcDbSpline
210
0.0
220
0.0
230
1.0
 70
    24
 71
     3
 72
    27
 73
    23
 74
     0
 42
0.000000001
 43
0.00000001
 40
0.0
 40
0.0
 40
0.0
 40
0.0
 40
0.1250000000000001
 40
0.1250000000000001
 40
0.1875000000000002
 40
0.1875000000000002
 40
0.2500000000000003
 40
0.2500000000000003
 40
0.3750000000000003
 40
0.3750000000000003
 40
0.5000000000000002
 40
0.5000000000000002
 40
0.6250000000000001
 40
0.6250000000000001
 40
0.6875000000000002
 40
0.6875000000000002
 40
0.7500000000000002
 40
0.8125000000000001
 40
0.8125000000000001
 40
0.8750000000000001
 40
0.8750000000000001
 40
1.0
 40
1.0
 40
1.0
 40
1.0
 10
11.99999999999998
 20
8.036187082863824
 30
0.0
 10
11.99999999999998
 20
7.657845087700305
 30
0.0
 10
11.99999999999998
 20
7.253677557420298
 30
0.0
 10
11.99999999999998
 20
6.608615062580343
 30
0.0
 10
11.99999999999998
 20
6.387084067803067
 30
0.0
 10
11.99999999999998
 20
5.93043853125581
 30
0.0
 10
11.99999999999998
 20
5.695283164241531
 30
0.0
 10
11.99999999999998
 20
4.984199404338168
 30
0.0
 10
11.99999999999998
 20
4.49783464484652
 30
0.0
 10
11.99999999999998
 20
3.499653383995741
 30
0.0
 10
11.99999999999998
 20
2.982795345952889
 30
0.0
 10
11.99999999999998
 20
1.970036645375022
 30
0.0
 10
11.99999999999998
 20
1.469331029778535
 30
0.0
 10
11.99999999999998
 20
0.7270138442932561
 30
0.0
 10
11.99999999999998
 20
0.4805696936607218
 30
0.0
 10
11.99999999999998
 20
0.0023846926033646
 30
0.0
 10
11.99999999999998
 20
-0.4641043247667997
 30
0.0
 10
11.99999999999998
 20
-0.9078950732851099
 30
0.0
 10
11.99999999999998
 20
-1.340381360582449
 30
0.0
 10
11.99999999999998
 20
-1.55188426323763
 30
0.0
 10
11.99999999999998
 20
-2.159714104864316
 30
0.0
 10
11.99999999999998
 20
-2.531100244496584
 30
0.0
 10
11.99999999999998
 20
-2.869765870276553
 30
0.0
  0
SPLINE
  5
A4
330
1F
100
AcDbEntity
  8
0
  6
Continuous
 62
     4
370
    25
100
AcDbSpline
210
0.0
220
0.0
230
1.0
 70
     8
 71
     3
 72
    14
 73
    10
 74
     0
 42
0.000000001
 43
0.00000001
 40
0.0
 40
0.0
 40
0.0
 40
0.0
 40
0.25
 40
0.25
 40
0.5
 40
0.5
 40
0.75
 40
0.75
 40
1.0
 40
1.0
 40
1.0
 40
1.0
 10
11.75957270997311
 20
-3.943916476894584
 30
0.0
 10
11.56234066104989
 20
-3.83585805834319
 30
0.0
 10
11.38511664021603
 20
-3.704451051716593
 30
0.0
 10
11.06950891325552
 20
-3.394900258160678
 30
0.0
 10
10.93355585892994
 20
-3.217665842228654
 30
0.0
 10
10.71684607573387
 20
-2.835607946350902
 30
0.0
 10
10.63391673156755
 20
-2.626257215374384
 30
0.0
 10
10.5263105046243
 20
-2.197959463237873
 30
0.0
 10
10.49994507901017
 20
-1.974947315156461
 30
0.0
 10
10.49994507901017
 20
-1.749683743182851
 30
0.0
  0
SPLINE
  5
A5
330
1F
100
AcDbEntity
  8
0
  6
Continuous
 62
     4
370
    25
100
AcDbSpline
210
0.0
220
0.0
230
1.0
 70
     8
 71
     3
 72
    16
 73
    12
 74
     0
 42
0.000000001
 43
0.00000001
 40
0.0
 40
0.0
 40
0.0
 40
0.0
 40
0.2499999999999993
 40
0.2499999999999993
 40
0.3749999999999994
 40
0.3749999999999994
 40
0.4999999999999996
 40
0.4999999999999996
 40
0.7499999999999998
 40
0.7499999999999998
 40
1.0
 40
1.0
 40
1.0
 40
1.0
 10
10.49994507901016
 20
6.07991065547757
 30
0.0
 10
10.49994507901016
 20
6.298502307486769
 30
0.0
 10
10.53111540070959
 20
6.508861306573535
 30
0.0
 10
10.62908662308445
 20
6.812157716882272
 30
0.0
 10
10.6706821239193
 20
6.911464896781155
 30
0.0
 10
10.76917094923553
 20
7.099526922538469
 30
0.0
 10
10.82626063489857
 20
7.189135039781879
 30
0.0
 10
11.02143661576155
 20
7.445106835559505
 30
0.0
 10
11.18543954163922
 20
7.599128984945465
 30
0.0
 10
11.55775372364851
 20
7.854065023292121
 30
0.0
 10
11.7706859175225
 20
7.958865333998611
 30
0.0
 10
11.99999999999998
 20
8.036187082863824
 30
0.0
  0
SPLINE
  5
A6
330
1F
100
AcDbEntity
  8
0
  6
Continuous
 62
     4
370
    25
100
AcDbSpline
210
0.0
220
0.0
230
1.0
 70
     8
 71
     3
 72
     8
 73
     4
 74
     0
 42
0.000000001
 43
0.00000001
 40
0.0
 40
0.0
 40
0.0
 40
0.0
 40
1.0
 40
1.0
 40
1.0
 40
1.0
 10
11.99999999999998
 20
-4.075432503014292
 30
0.0
 10
11.91989477525438
 20
-4.031683510381664
 30
0.0
 10
11.83974988190869
 20
-3.987843508280109
 30
0.0
 10
11.75957270997311
 20
-3.943916476894583
 30
0.0
  0
LINE
  5
A7
330
1F
100
AcDbEntity
  8
0
  6
Continuous
 62
     4
370
    25
100
AcDbLine
 10
11.99999999999998
 20
-4.075432503014291
 30
0.0
 11
11.99999999999998
 21
-9.574429339089148
 31
0.0
  0
SPLINE
  5
A8
330
1F
100
AcDbEntity
  8
0
  6
Continuous
 62
     4
370
    25
100
AcDbSpline
210
0.0
220
0.0
230
1.0
 70
     8
 71
     3
 72
    16
 73
    12
 74
     0
 42
0.000000001
 43
0.00000001
 40
0.0
 40
0.0
 40
0.0
 40
0.0
 40
0.2500000000000004
 40
0.2500000000000004
 40
0.3749999999999997
 40
0.3749999999999997
 40
0.4999999999999991
 40
0.4999999999999991
 40
0.7499999999999992
 40
0.7499999999999992
 40
1.0
 40
1.0
 40
1.0
 40
1.0
 10
10.49994507901016
 20
-10.92175290058372
 30
0.0
 10
10.49994507901016
 20
-10.80006751488174
 30
0.0
 10
10.53111540070958
 20
-10.67436955711586
 30
0.0
 10
10.62908662308445
 20
-10.48135809319781
 30
0.0
 10
10.6706821239193
 20
-10.41607141335698
 30
0.0
 10
10.76917094923553
 20
-10.28880985263806
 30
0.0
 10
10.82626063489857
 20
-10.22630655819573
 30
0.0
 10
11.02143661576155
 20
-10.04312789805925
 30
0.0
 10
11.18543954163922
 20
-9.926204389060379
 30
0.0
 10
11.55775372364851
 20
-9.725736862219701
 30
0.0
 10
11.7706859175225
 20
-9.639328459177507
 30
0.0
 10
11.99999999999998
 20
-9.574429339089148
 30
0.0
  0
LINE
  5
A9
330
1F
100
AcDbEntity
  8
0
  6
Continuous
 62
     4
370
    25
100
AcDbLine
 10
10.49994507901016
 20
-10.92175290058372
 30
0.0
 11
10.49994507901016
 21
-12.5
 31
0.0
  0
SPLINE
  5
AA
330
1F
100
AcDbEntity
  8
0
  6
Continuous
 62
     4
370
    25
100
AcDbSpline
210
0.0
220
0.0
230
1.0
 70
     8
 71
     3
 72
    14
 73
    10
 74
     0
 42
0.000000001
 43
0.00000001
 40
0.0
 40
0.0
 40
0.0
 40
0.0
 40
0.25
 40
0.25
 40
0.5
 40
0.5
 40
0.75
 40
0.75
 40
1.0
 40
1.0
 40
1.0
 40
1.0
 10
11.75957270997311
 20
-11.8615143562397
 30
0.0
 10
11.56234066104989
 20
-11.89744344291386
 30
0.0
 10
11.38511664021603
 20
-11.93956025452038
 30
0.0
 10
11.06950891325552
 20
-12.03123887648431
 30
0.0
 10
10.93355585892994
 20
-12.08037214916039
 30
0.0
 10
10.71684607573387
 20
-12.17571732215587
 30
0.0
 10
10.63391673156755
 20
-12.22294590115902
 30
0.0
 10
10.5263105046243
 20
-12.3071770793277
 30
0.0
 10
10.49994507901017
 20
-12.34509379732414
 30
0.0
 10
10.49994507901017
 20
-12.37693850670844
 30
0.0
  0
SPLINE
  5
AB
330
1F
100
AcDbEntity
  8
0
  6
Continuous
 62
     4
370
    25
100
AcDbSpline
210
0.0
220
0.0
230
1.0
 70
     8
 71
     3
 72
     8
 73
     4
 74
     0
 42
0.000000001
 43
0.00000001
 40
0.0
 40
0.0
 40
0.0
 40
0.0
 40
1.0
 40
1.0
 40
1.0
 40
1.0
 10
11.99999999999998
 20
-11.81697295898471
 30
0.0
 10
11.91989477525438
 20
-11.83206109256748
 30
0.0
 10
11.83974988190869
 20
-11.84690875549942
 30
0.0
 10
11.75957270997311
 20
-11.8615143562397
 30
0.0
  0
LINE
  5
AC
330
1F
100
AcDbEntity
  8
0
  6
Continuous
 62
     4
370
    25
100
AcDbLine
 10
10.49994507901016
 20
12.5
 30
0.0
 11
10.49994507901016
 21
12.37693850670844
 31
0.0
  0
SPLINE
  5
AD
330
1F
100
AcDbEntity
  8
0
  6
Continuous
 62
     4
370
    25
100
AcDbSpline
210
0.0
220
0.0
230
1.0
 70
     8
 71
     3
 72
    14
 73
    10
 74
     0
 42
0.000000001
 43
0.00000001
 40
0.0
 40
0.0
 40
0.0
 40
0.0
 40
0.25
 40
0.25
 40
0.5
 40
0.5
 40
0.75
 40
0.75
 40
1.0
 40
1.0
 40
1.0
 40
1.0
 10
11.75957270997311
 20
11.8615143562397
 30
0.0
 10
11.56234066104989
 20
11.89744344291385
 30
0.0
 10
11.38511664021603
 20
11.93956025452038
 30
0.0
 10
11.06950891325552
 20
12.0312388764843
 30
0.0
 10
10.93355585892994
 20
12.08037214916038
 30
0.0
 10
10.71684607573387
 20
12.17571732215586
 30
0.0
 10
10.63391673156755
 20
12.22294590115901
 30
0.0
 10
10.5263105046243
 20
12.30717707932769
 30
0.0
 10
10.49994507901017
 20
12.34509379732414
 30
0.0
 10
10.49994507901017
 20
12.37693850670844
 30
0.0
  0
SPLINE
  5
AE
330
1F
100
AcDbEntity
  8
0
  6
Continuous
 62
     4
370
    25
100
AcDbSpline
210
0.0
220
0.0
230
1.0
 70
     8
 71
     3
 72
     8
 73
     4
 74
     0
 42
0.000000001
 43
0.00000001
 40
0.0
 40
0.0
 40
0.0
 40
0.0
 40
1.0
 40
1.0
 40
1.0
 40
1.0
 10
11.99999999999998
 20
11.81697295898471
 30
0.0
 10
11.91989477525438
 20
11.83206109256747
 30
0.0
 10
11.83974988190869
 20
11.84690875549941
 30
0.0
 10
11.75957270997311
 20
11.8615143562397
 30
0.0
  0
LINE
  5
AF
330
1F
100
AcDbEntity
  8
0
  6
Continuous
 62
     4
370
    25
100
AcDbLine
 10
11.99999999999998
 20
11.81697295898471
 30
0.0
 11
11.99999999999998
 21
8.036187082863824
 31
0.0
  0
LINE
  5
B0
330
1F
100
AcDbEntity
  8
0
  6
Continuous
 62
     4
370
    25
100
AcDbLine
 10
-47.50000000000001
 20
12.49999999999999
 30
0.0
 11
-47.50000000000001
 21
-12.49999999999999
 31
0.0
  0
LINE
  5
B1
330
1F
100
AcDbEntity
  8
0
  6
Continuous
 62
     4
370
    25
100
AcDbLine
 10
10.49994507901016
 20
6.07991065547757
 30
0.0
 11
10.49994507901016
 21
-1.749683743182852
 31
0.0
  0
LINE
  5
B2
330
1F
100
AcDbEntity
  8
0
  6
Continuous
 62
     4
370
    25
100
AcDbLine
 10
-48.00000000000001
 20
11.99999999999999
 30
0.0
 11
-48.00000000000001
 21
-12.0
 31
0.0
  0
SPLINE
  5
B3
330
1F
100
AcDbEntity
  8
0
  6
Continuous
 62
     4
370
    25
100
AcDbSpline
210
0.0
220
0.0
230
1.0
 70
    24
 71
     3
 72
    10
 73
     6
 74
     0
 42
0.000000001
 43
0.00000001
 40
0.0
 40
0.0
 40
0.0
 40
0.0
 40
0.5
 40
0.5
 40
1.0
 40
1.0
 40
1.0
 40
1.0
 10
11.99999999999998
 20
-2.869765870276563
 30
0.0
 10
11.99999999999998
 20
-3.104667374420397
 30
0.0
 10
11.99999999999998
 20
-3.3243857236782
 30
0.0
 10
11.99999999999998
 20
-3.727884662841625
 30
0.0
 10
11.99999999999998
 20
-3.911652469070696
 30
0.0
 10
11.99999999999998
 20
-4.075432503014287
 30
0.0
  0
LINE
  5
B4
330
1F
100
AcDbEntity
  8
0
  6
Continuous
 62
     4
370
    25
100
AcDbLine
 10
11.99999999999998
 20
-9.679814796284436
 30
0.0
 11
11.99999999999998
 21
-10.04750316322193
 31
0.0
  0
SPLINE
  5
B5
330
1F
100
AcDbEntity
  8
0
  6
Continuous
 62
     4
370
    25
100
AcDbSpline
210
0.0
220
0.0
230
1.0
 70
    24
 71
     3
 72
    10
 73
     6
 74
     0
 42
0.000000001
 43
0.00000001
 40
0.0
 40
0.0
 40
0.0
 40
0.0
 40
0.5
 40
0.5
 40
1.0
 40
1.0
 40
1.0
 40
1.0
 10
11.99999999999998
 20
-10.04750316322193
 30
0.0
 10
11.99999999999998
 20
-10.31491095892233
 30
0.0
 10
11.99999999999998
 20
-10.59806512181552
 30
0.0
 10
11.99999999999998
 20
-11.19004656298789
 30
0.0
 10
11.99999999999998
 20
-11.49885814981247
 30
0.0
 10
11.99999999999998
 20
-11.81697295898471
 30
0.0
  0
SPLINE
  5
B6
330
1F
100
AcDbEntity
  8
0
  6
Continuous
 62
     1
370
    25
100
AcDbSpline
210
0.0
220
0.0
230
1.0
 70
     8
 71
     3
 72
    22
 73
    18
 74
     0
 42
0.000000001
 43
0.00000001
 40
0.0
 40
0.0
 40
0.0
 40
0.0
 40
0.0675966536989123
 40
0.135192404692125
 40
0.2027873472273626
 40
0.2703815756749843
 40
0.33797518451372
 40
0.4055682683163709
 40
0.4731609217354776
 40
0.5407532394889648
 40
0.6115665714314963
 40
0.6823798697783205
 40
0.7531931304624847
 40
0.8240063494177398
 40
0.8948195225786186
 40
0.9656326458805101
 40
0.9999999999999999
 40
0.9999999999999999
 40
0.9999999999999999
 40
0.9999999999999999
 10
11.99999999999999
 20
8.89729001339231
 30
0.0
 10
13.15266387454173
 20
8.407974671213756
 30
0.0
 10
15.45797623061102
 20
7.429350521318407
 30
0.0
 10
18.91591130006895
 20
5.711613830170118
 30
0.0
 10
22.37379755999067
 20
3.864761065392178
 30
0.0
 10
25.83163948275458
 20
1.915185052148003
 30
0.0
 10
29.28944457883525
 20
-0.0819645117381374
 30
0.0
 10
32.74721312506547
 20
-2.077337025099744
 30
0.0
 10
36.2049713307137
 20
-4.019734866928436
 30
0.0
 10
39.71757656504705
 20
-5.889104449179976
 30
0.0
 10
43.28533291893189
 20
-7.62999052811863
 30
0.0
 10
46.9079496325773
 20
-9.184935290580794
 30
0.0
 10
50.53058150237821
 20
-10.48198857669323
 30
0.0
 10
54.15320613718912
 20
-11.49129774745153
 30
0.0
 10
57.7758291860974
 20
-12.16089011602549
 30
0.0
 10
60.77695882034213
 20
-12.4922064162263
 30
0.0
 10
62.57054734279417
 20
-12.46515762540636
 30
0.0
 10
63.15659613632467
 20
-12.45631952735429
 30
0.0
  0
LINE
  5
B7
330
1F
100
AcDbEntity
  8
0
  6
Continuous
 62
     4
370
    25
100
AcDbLine
 10
11.99999999999999
 20
8.897290013392393
 30
0.0
 11
11.99999999999999
 21
11.81697295898471
 31
0.0
  0
SPLINE
  5
B8
330
1F
100
AcDbEntity
  8
0
  6
Continuous
 62
     1
370
    25
100
AcDbSpline
210
0.0
220
0.0
230
1.0
 70
     8
 71
     3
 72
    28
 73
    24
 74
     0
 42
0.000000001
 43
0.00000001
 40
0.0
 40
0.0
 40
0.0
 40
0.0
 40
0.0089801148289234
 40
0.0573013333281262
 40
0.1056224068749706
 40
0.153943340512862
 40
0.2045609206282695
 40
0.2551777662366595
 40
0.305793820613621
 40
0.3564091908120503
 40
0.4070251319824809
 40
0.4576418721743558
 40
0.5082593546778251
 40
0.5588775226804692
 40
0.6094963192750824
 40
0.6601156874674908
 40
0.7107355701843924
 40
0.7613559102812213
 40
0.8090840676028324
 40
0.8568125239684623
 40
0.9045413106606747
 40
0.9522704589315862
 40
1.0
 40
1.0
 40
1.0
 40
1.0
 10
85.01476643600085
 20
-10.55013792718629
 30
0.0
 10
84.79620728617994
 20
-10.62398215869337
 30
0.0
 10
83.40160032019071
 20
-11.09517579090816
 30
0.0
 10
80.8309525308366
 20
-11.69165692873649
 30
0.0
 10
77.30281840495799
 20
-12.29206963573139
 30
0.0
 10
73.71882381685921
 20
-12.54628512174258
 30
0.0
 10
70.07885471449535
 20
-12.46020531509979
 30
0.0
 10
66.38306704053261
 20
-12.00866819017326
 30
0.0
 10
62.68733562597018
 20
-11.2085454075186
 30
0.0
 10
58.99164411424468
 20
-10.08243882528825
 30
0.0
 10
55.29592175368369
 20
-8.663272978561544
 30
0.0
 10
51.60013675190575
 20
-6.992243274831695
 30
0.0
 10
47.90428669937995
 20
-5.117934308208737
 30
0.0
 10
44.20837626112544
 20
-3.094828166347315
 30
0.0
 10
40.51241211131244
 20
-0.9817426274911693
 30
0.0
 10
36.8163927924063
 20
1.159903082807142
 30
0.0
 10
33.12034741246458
 20
3.267801927736615
 30
0.0
 10
29.49459380387984
 20
5.242491578776394
 30
0.0
 10
25.93945690099763
 20
7.034933156061393
 30
0.0
 10
22.45462587836974
 20
8.611612382259139
 30
0.0
 10
18.96978260543213
 20
9.959791808015702
 30
0.0
 10
15.48490361758635
 20
11.07243170861306
 30
0.0
 10
13.1616377258201
 20
11.56879186137949
 30
0.0
 10
11.99999999999999
 20
11.81697295898471
 30
0.0
  0
SPLINE
  5
B9
330
1F
100
AcDbEntity
  8
0
  6
Continuous
 62
     1
370
    25
100
AcDbSpline
210
0.0
220
0.0
230
1.0
 70
     8
 71
     3
 72
    21
 73
    17
 74
     0
 42
0.000000001
 43
0.00000001
 40
0.0
 40
0.0
 40
0.0
 40
0.0
 40
0.064488010317427
 40
0.1380686808934009
 40
0.2116492996618149
 40
0.2852298624001747
 40
0.358810364887035
 40
0.432390802902077
 40
0.5059711722261875
 40
0.5795514686415377
 40
0.6531316879316619
 40
0.7225067972719247
 40
0.7918809425378438
 40
0.8612543642474557
 40
0.9306273031180684
 40
1.0
 40
1.0
 40
1.0
 40
1.0
 10
50.97824588470554
 20
10.55768611463065
 30
0.0
 10
52.03656629813892
 20
10.86826607228295
 30
0.0
 10
54.30242785482301
 20
11.53321704307439
 30
0.0
 10
57.77582913696047
 20
12.16784262109754
 30
0.0
 10
61.39844891177805
 20
12.51835220572041
 30
0.0
 10
65.02106527078624
 20
12.51158481273301
 30
0.0
 10
68.64367842590717
 20
12.15740442562075
 30
0.0
 10
72.26628645531402
 20
11.4631123519132
 30
0.0
 10
75.88889533851152
 20
10.44879261853228
 30
0.0
 10
79.51148158391143
 20
9.14260135862022
 30
0.0
 10
83.06512152562385
 20
7.610776902915604
 30
0.0
 10
86.54949357454515
 20
5.910965077241173
 30
0.0
 10
89.9648795095632
 20
4.097789918845407
 30
0.0
 10
93.38020721209604
 20
2.183691805246785
 30
0.0
 10
96.79551052221662
 20
0.2122418028903229
 30
0.0
 10
99.07237051048146
 20
-1.0977950702102
 30
0.0
 10
100.2107985190583
 20
-1.752812364331392
 30
0.0
  0
SPLINE
  5
BA
330
1F
100
AcDbEntity
  8
0
  6
Continuous
 62
     1
370
    25
100
AcDbSpline
210
0.0
220
0.0
230
1.0
 70
     8
 71
     3
 72
    16
 73
    12
 74
     0
 42
0.000000001
 43
0.00000001
 40
0.0
 40
0.0
 40
0.0
 40
0.0
 40
0.1209394472100818
 40
0.2418784686792692
 40
0.3628170769770082
 40
0.4837552846840494
 40
0.6046931043921031
 40
0.725630548703494
 40
0.846567630230826
 40
0.9675043615966403
 40
1.0
 40
1.0
 40
1.0
 40
1.0
 10
102.0
 20
2.768456834120852
 30
0.0
 10
100.8239294515652
 20
3.423483077316507
 30
0.0
 10
98.47179249479505
 20
4.733533257831077
 30
0.0
 10
94.94359632583233
 20
6.553571565174833
 30
0.0
 10
91.4154143815596
 20
8.205091999927268
 30
0.0
 10
87.88724670670399
 20
9.638322579837492
 30
0.0
 10
84.35909185521002
 20
10.81460283096258
 30
0.0
 10
80.83095292324106
 20
11.71153012390294
 30
0.0
 10
77.30281632661189
 20
12.2709778856647
 30
0.0
 10
74.63475762505959
 20
12.52494844517379
 30
0.0
 10
73.1426926549789
 20
12.4757253758588
 30
0.0
 10
72.82668630107194
 20
12.46530035886942
 30
0.0
  0
SPLINE
  5
BB
330
1F
100
AcDbEntity
  8
0
  6
Continuous
 62
     1
370
    25
100
AcDbSpline
210
0.0
220
0.0
230
1.0
 70
     8
 71
     3
 72
     9
 73
     5
 74
     0
 42
0.000000001
 43
0.00000001
 40
0.0
 40
0.0
 40
0.0
 40
0.0
 40
0.3000624856644045
 40
1.0
 40
1.0
 40
1.0
 40
1.0
 10
16.97888788783783
 20
-10.54355788276461
 30
0.0
 10
16.48089609228771
 20
-10.70550108171062
 30
0.0
 10
14.82126911676809
 20
-11.24519933351786
 30
0.0
 10
13.16163804622797
 20
-11.58154912322782
 30
0.0
 10
11.99999999999999
 20
-11.81697295898471
 30
0.0
  0
LINE
  5
BC
330
1F
100
AcDbEntity
  8
0
  6
Continuous
 62
     1
370
    25
100
AcDbLine
 10
102.0
 20
-0.5000000000000414
 30
0.0
 11
102.0
 21
2.768456834120852
 31
0.0
  0
LINE
  5
BD
330
1F
100
AcDbEntity
  8
0
  6
Continuous
 62
     1
370
    25
100
AcDbLine
 10
102.0
 20
-0.5000000000000459
 30
0.0
 11
100.2107985190583
 21
-1.752812364331409
 31
0.0
  0
SPLINE
  5
BE
330
1F
100
AcDbEntity
  8
0
  6
Continuous
 62
     1
370
    25
100
AcDbSpline
210
0.0
220
0.0
230
1.0
 70
     8
 71
     3
 72
    18
 73
    14
 74
     0
 42
0.000000001
 43
0.00000001
 40
0.0
 40
0.0
 40
0.0
 40
0.0
 40
0.0788624740969257
 40
0.1736813475889744
 40
0.2685013985709393
 40
0.3633225202802966
 40
0.4581446058062982
 40
0.5529675481047036
 40
0.6423728009943389
 40
0.7317786140586728
 40
0.8211850458967721
 40
0.9105921550506715
 40
1.0
 40
1.0
 40
1.0
 40
1.0
 10
50.97824588470537
 20
-10.55768611463065
 30
0.0
 10
49.95359836947986
 20
-10.86108859420957
 30
0.0
 10
47.69698439323895
 20
-11.52928157342473
 30
0.0
 10
44.20837607262455
 20
-12.16816365762688
 30
0.0
 10
40.51241216182248
 20
-12.52390118632524
 30
0.0
 10
36.81639277887007
 20
-12.50680210426427
 30
0.0
 10
33.12034741609877
 20
-12.12843973787778
 30
0.0
 10
29.49459380296781
 20
-11.41080241432052
 30
0.0
 10
25.9394569012359
 20
-10.39756641414556
 30
0.0
 10
22.45462587830592
 20
-9.13610635367031
 30
0.0
 10
18.96978260544915
 20
-7.636443023987971
 30
0.0
 10
15.48490361758211
 20
-5.946920851505858
 30
0.0
 10
13.16163772581869
 20
-4.69926366381589
 30
0.0
 10
11.99999999999999
 20
-4.0754325030143
 30
0.0
  0
SPLINE
  5
BF
330
1F
100
AcDbEntity
  8
0
  6
Continuous
 62
     4
370
    25
100
AcDbSpline
210
0.0
220
0.0
230
1.0
 70
    24
 71
     3
 72
    17
 73
    13
 74
     0
 42
0.000000001
 43
0.00000001
 40
0.0
 40
0.0
 40
0.0
 40
0.0
 40
0.086267654989952
 40
0.1916500450035373
 40
0.2970324350171223
 40
0.4024148250307074
 40
0.5077972150442928
 40
0.6131796050578782
 40
0.7185619950714635
 40
0.8239443850850485
 40
0.9119721925425243
 40
1.0
 40
1.0
 40
1.0
 40
1.0
 10
12.0
 20
7.930791625668533
 30
0.0
 10
12.0
 20
7.573790801993652
 30
0.0
 10
12.0
 20
6.780686782514273
 30
0.0
 10
12.0
 20
5.435491397523004
 30
0.0
 10
12.0
 20
3.966373256277256
 30
0.0
 10
12.0
 20
2.486549126814242
 30
0.0
 10
12.0
 20
1.042842347685898
 30
0.0
 10
12.0
 20
-0.3268396344158999
 30
0.0
 10
12.0
 20
-1.580730754285006
 30
0.0
 10
12.0
 20
-2.623214128409128
 30
0.0
 10
11.99999999999999
 20
-3.465990039897927
 30
0.0
 10
11.99999999999999
 20
-3.872285015308842
 30
0.0
 10
11.99999999999999
 20
-4.075432503014299
 30
0.0
  0
SPLINE
  5
C0
330
1F
100
AcDbEntity
  8
0
  6
Continuous
 62
     1
370
    25
100
AcDbSpline
210
0.0
220
0.0
230
1.0
 70
     8
 71
     3
 72
    25
 73
    21
 74
     0
 42
0.000000001
 43
0.00000001
 40
0.0
 40
0.0
 40
0.0
 40
0.0
 40
0.0558428503605436
 40
0.1116855041385362
 40
0.1675279671378218
 40
0.2233702451674642
 40
0.2792123440415879
 40
0.3350542695792184
 40
0.3908960276041276
 40
0.4467376239446759
 40
0.5052333164683704
 40
0.563728160166488
 40
0.6222220894860389
 40
0.6807152281416156
 40
0.7392090266351885
 40
0.7977037485097805
 40
0.85619932822923
 40
0.9146957001388404
 40
0.9731927984743778
 40
1.0
 40
1.0
 40
1.0
 40
1.0
 10
102.0
 20
-12.18957122944076
 30
0.0
 10
100.8239294518086
 20
-12.00797717941948
 30
0.0
 10
98.47179249552534
 20
-11.6447897186391
 30
0.0
 10
94.94359632291126
 20
-10.70492923177724
 30
0.0
 10
91.41541439251354
 20
-9.504622847237163
 30
0.0
 10
87.88724666580956
 20
-8.046273364000745
 30
0.0
 10
84.35909200783313
 20
-6.37639837595129
 30
0.0
 10
80.83095235364533
 20
-4.537136991149451
 30
0.0
 10
77.30281845236287
 20
-2.57776890444168
 30
0.0
 10
73.71882380348211
 20
-0.5180009506423449
 30
0.0
 10
70.07885471815452
 20
1.589484431773674
 30
0.0
 10
66.3830670395345
 20
3.683063205145344
 30
0.0
 10
62.68733562630358
 20
5.669603149597188
 30
0.0
 10
58.99164411390915
 20
7.491227099054718
 30
0.0
 10
55.29592175469233
 20
9.095458927201758
 30
0.0
 10
51.60013674820678
 20
10.43381854651042
 30
0.0
 10
47.90428671316741
 20
11.47434265638986
 30
0.0
 10
44.20837620967373
 20
12.16084832849601
 30
0.0
 10
41.17983686231777
 20
12.49622797470084
 30
0.0
 10
39.38326547702037
 20
12.46471336044142
 30
0.0
 10
38.81868606825411
 20
12.45480977273448
 30
0.0
  0
SPLINE
  5
C1
330
1F
100
AcDbEntity
  8
0
  6
Continuous
 62
     1
370
    25
100
AcDbSpline
210
0.0
220
0.0
230
1.0
 70
     8
 71
     3
 72
     8
 73
     4
 74
     0
 42
0.000000001
 43
0.00000001
 40
0.0
 40
0.0
 40
0.0
 40
0.0
 40
1.0
 40
1.0
 40
1.0
 40
1.0
 10
102.0
 20
-9.013109139888321
 30
0.0
 10
99.8809094456327
 20
-7.822876471091066
 30
0.0
 10
97.87915893297202
 20
-6.364811010664949
 30
0.0
 10
95.95303167161264
 20
-4.734132806852228
 30
0.0
  0
LINE
  5
C2
330
1F
100
AcDbEntity
  8
0
  6
Continuous
 62
     1
370
    25
100
AcDbLine
 10
102.0
 20
-12.18957122944078
 30
0.0
 11
102.0
 21
-9.013109139888318
 31
0.0
  0
SPLINE
  5
C3
330
1F
100
AcDbEntity
  8
0
  6
Continuous
 62
     1
370
    25
100
AcDbSpline
210
0.0
220
0.0
230
1.0
 70
    24
 71
     3
 72
    22
 73
    18
 74
     0
 42
0.000000001
 43
0.00000001
 40
0.0
 40
0.0
 40
0.0
 40
0.0
 40
0.2499999999999992
 40
0.2499999999999992
 40
0.374999999999999
 40
0.374999999999999
 40
0.4999999999999989
 40
0.4999999999999989
 40
0.562499999999999
 40
0.562499999999999
 40
0.6249999999999991
 40
0.6249999999999991
 40
0.7499999999999993
 40
0.7499999999999993
 40
0.8749999999999997
 40
0.8749999999999997
 40
1.0
 40
1.0
 40
1.0
 40
1.0
 10
100.2107985190583
 20
-1.752812364331387
 30
0.0
 10
100.2092165692547
 20
-1.753920057508966
 30
0.0
 10
100.13233571152
 20
-1.807752613638805
 30
0.0
 10
99.86933820360706
 20
-1.991905451209793
 30
0.0
 10
99.75489464909072
 20
-2.072039690781629
 30
0.0
 10
99.47631557445365
 20
-2.267102858829993
 30
0.0
 10
99.31221568980936
 20
-2.382006835077317
 30
0.0
 10
99.02545424528188
 20
-2.582799360203358
 30
0.0
 10
98.92250131722264
 20
-2.654887776511285
 30
0.0
 10
98.70720104436182
 20
-2.805642650547015
 30
0.0
 10
98.5944892099088
 20
-2.884564326676401
 30
0.0
 10
98.2415250594222
 20
-3.131712485564879
 30
0.0
 10
97.98576325405071
 20
-3.310798829672141
 30
0.0
 10
97.43767166269983
 20
-3.694576693565355
 30
0.0
 10
97.15305606672318
 20
-3.89386667936031
 30
0.0
 10
96.56503748084664
 20
-4.305601725798474
 30
0.0
 10
96.25915137699738
 20
-4.519785481547269
 30
0.0
 10
95.9530316716125
 20
-4.734132806852317
 30
0.0
  0
SPLINE
  5
C4
330
1F
100
AcDbEntity
  8
0
  6
Continuous
 62
     1
370
    25
100
AcDbSpline
210
0.0
220
0.0
230
1.0
 70
     8
 71
     3
 72
    31
 73
    27
 74
     0
 42
0.000000001
 43
0.00000001
 40
0.0
 40
0.0
 40
0.0
 40
0.0
 40
0.0241571546155345
 40
0.0672812134145524
 40
0.1104048166416713
 40
0.1535280245722039
 40
0.1966508975414784
 40
0.239773495935695
 40
0.2828958801827672
 40
0.3280731993121113
 40
0.3732504970081469
 40
0.4184277706762493
 40
0.4636050177222427
 40
0.50878223555245
 40
0.5539594215737407
 40
0.5991365731935784
 40
0.6443136878200713
 40
0.689490762862019
 40
0.7346677957289615
 40
0.7798447838312269
 40
0.8250217245799807
 40
0.8676168029086483
 40
0.9102112893128839
 40
0.9528053314664675
 40
0.9953990771655271
 40
1.0
 40
1.0
 40
1.0
 40
1.0
 10
16.97888788783782
 20
10.5435578827646
 30
0.0
 10
17.62456678299598
 20
10.74704397824624
 30
0.0
 10
19.4228770655519
 20
11.31378255465911
 30
0.0
 10
22.37379726973988
 20
11.93580971635898
 30
0.0
 10
25.83163956052579
 20
12.4084007423544
 30
0.0
 10
29.28944455799725
 20
12.55241559931322
 30
0.0
 10
32.74721313064714
 20
12.38033598675558
 30
0.0
 10
36.20497132922485
 20
11.89221828989579
 30
0.0
 10
39.71757656545041
 20
11.08909110051433
 30
0.0
 10
43.28533291888812
 20
9.974829895301099
 30
0.0
 10
46.90794963234207
 20
8.564815631225544
 30
0.0
 10
50.53058150336291
 20
6.915578007026288
 30
0.0
 10
54.15320613348553
 20
5.073183811272974
 30
0.0
 10
57.77582919992703
 20
3.08909219689961
 30
0.0
 10
61.39844889490723
 20
1.018720310017256
 30
0.0
 10
65.021065275303
 20
-1.080103628237862
 30
0.0
 10
68.64367842471093
 20
-3.148762228840302
 30
0.0
 10
72.26628645558212
 20
-5.129460284686108
 30
0.0
 10
75.88889533863534
 20
-6.966935882816927
 30
0.0
 10
79.5114815831479
 20
-8.609642423401617
 30
0.0
 10
83.06512152848373
 20
-9.985812813502758
 30
0.0
 10
86.54949356452977
 20
-11.07163059778708
 30
0.0
 10
89.964879547019
 20
-11.86948159698573
 30
0.0
 10
93.38020707228993
 20
-12.34081449515088
 30
0.0
 10
95.78005381274272
 20
-12.53987353776236
 30
0.0
 10
97.041457949807
 20
-12.48990686901031
 30
0.0
 10
97.16442995656223
 20
-12.48503570889059
 30
0.0
  0
LINE
  5
C5
330
1F
100
AcDbEntity
  8
0
  6
Continuous
 62
     1
370
    25
100
AcDbLine
 10
102.0
 20
-12.50000000000002
 30
0.0
 11
102.0
 21
-12.18957122944078
 31
0.0
  0
SPLINE
  5
C6
330
1F
100
AcDbEntity
  8
0
  6
Continuous
 62
     4
370
    25
100
AcDbSpline
210
0.0
220
0.0
230
1.0
 70
    24
 71
     3
 72
    10
 73
     6
 74
     0
 42
0.000000001
 43
0.00000001
 40
0.0
 40
0.0
 40
0.0
 40
0.0
 40
0.0747425613496294
 40
0.5327673597309206
 40
0.9999999999999999
 40
0.9999999999999999
 40
0.9999999999999999
 40
0.9999999999999999
 10
12.0
 20
-9.679824796284434
 30
0.0
 10
12.0
 20
-9.723500594925865
 30
0.0
 10
12.0
 20
-10.03482307981486
 30
0.0
 10
12.0
 20
-10.74916175526327
 30
0.0
 10
11.99999999999999
 20
-11.45868225689883
 30
0.0
 10
11.99999999999999
 20
-11.81697295898471
 30
0.0
  0
SPLINE
  5
C7
330
1F
100
AcDbEntity
  8
0
  6
Continuous
 62
     1
370
    25
100
AcDbSpline
210
0.0
220
0.0
230
1.0
 70
     8
 71
     3
 72
    12
 73
     8
 74
     0
 42
0.000000001
 43
0.00000001
 40
0.0
 40
0.0
 40
0.0
 40
0.0
 40
0.2016516502327039
 40
0.4033006075496494
 40
0.6049471531069006
 40
0.8065915684263625
 40
1.0
 40
1.0
 40
1.0
 40
1.0
 10
11.99999999999999
 20
-8.779990342681877
 30
0.0
 10
13.15266387179353
 20
-9.231974092340264
 30
0.0
 10
15.45797622236647
 20
-10.13593555573241
 30
0.0
 10
18.91591133304649
 20
-11.17567728335413
 30
0.0
 10
22.37379743632703
 20
-11.94025701896027
 30
0.0
 10
25.7845730487528
 20
-12.41529723163196
 30
0.0
 10
28.04271779735662
 20
-12.46797674687404
 30
0.0
 10
29.14825149374305
 20
-12.49376737842919
 30
0.0
  0
SPLINE
  5
C8
330
1F
100
AcDbEntity
  8
0
  6
Continuous
 62
     1
370
    25
100
AcDbSpline
210
0.0
220
0.0
230
1.0
 70
     8
 71
     3
 72
    12
 73
     8
 74
     0
 42
0.000000001
 43
0.00000001
 40
0.0
 40
0.0
 40
0.0
 40
0.0
 40
0.1009963530121944
 40
0.325750000984751
 40
0.5505013048286858
 40
0.7752510444035958
 40
1.0
 40
1.0
 40
1.0
 40
1.0
 10
85.01476643600085
 20
10.5501379271863
 30
0.0
 10
85.52635030927465
 20
10.71457961506425
 30
0.0
 10
87.17639451634214
 20
11.24496391499742
 30
0.0
 10
89.9648765495195
 20
11.85582662691651
 30
0.0
 10
93.38020800143155
 20
12.35943193455783
 30
0.0
 10
96.7955103248841
 20
12.56328780210119
 30
0.0
 10
99.07237044470406
 20
12.43875974252448
 30
0.0
 10
100.2107985190583
 20
12.37649582133191
 30
0.0
  0
SPLINE
  5
C9
330
1F
100
AcDbEntity
  8
0
  6
Continuous
 62
     1
370
    25
100
AcDbSpline
210
0.0
220
0.0
230
1.0
 70
     8
 71
     3
 72
    22
 73
    18
 74
     0
 42
0.000000001
 43
0.00000001
 40
0.0
 40
0.0
 40
0.0
 40
0.0
 40
0.249999999999999
 40
0.249999999999999
 40
0.3749999999999991
 40
0.3749999999999991
 40
0.4999999999999991
 40
0.4999999999999991
 40
0.562499999999998
 40
0.562499999999998
 40
0.6249999999999971
 40
0.6249999999999971
 40
0.7499999999999981
 40
0.7499999999999981
 40
0.8749999999999991
 40
0.8749999999999991
 40
1.0
 40
1.0
 40
1.0
 40
1.0
 10
100.2107985190583
 20
12.37649582133193
 30
0.0
 10
100.2092165692547
 20
11.62031253877692
 30
0.0
 10
100.13233571152
 20
10.88111228586893
 30
0.0
 10
99.86933820360709
 20
9.805619024944646
 30
0.0
 10
99.75489464909077
 20
9.4493083383144
 30
0.0
 10
99.47631557445371
 20
8.778411384045295
 30
0.0
 10
99.31221568980936
 20
8.461502291434469
 30
0.0
 10
99.0254542452819
 20
8.016485442275206
 30
0.0
 10
98.92250131722264
 20
7.872630482369129
 30
0.0
 10
98.70720104436185
 20
7.601781109816848
 30
0.0
 10
98.59448920990886
 20
7.474071880025352
 30
0.0
 10
98.24152505942234
 20
7.113547234357669
 30
0.0
 10
97.9857632540508
 20
6.902808056756859
 30
0.0
 10
97.43767166269997
 20
6.54353802503702
 30
0.0
 10
97.15305606672321
 20
6.399716342460281
 30
0.0
 10
96.56503748084673
 20
6.175729733433785
 30
0.0
 10
96.25915137699752
 20
6.095495646314988
 30
0.0
 10
95.95303167161264
 20
6.046968328387347
 30
0.0
  0
SPLINE
  5
CA
330
1F
100
AcDbEntity
  8
0
  6
Continuous
 62
     1
370
    25
100
AcDbSpline
210
0.0
220
0.0
230
1.0
 70
     8
 71
     3
 72
     8
 73
     4
 74
     0
 42
0.000000001
 43
0.00000001
 40
0.0
 40
0.0
 40
0.0
 40
0.0
 40
1.0
 40
1.0
 40
1.0
 40
1.0
 10
102.0
 20
3.09851832797886
 30
0.0
 10
99.8809094456327
 20
4.244339427907829
 30
0.0
 10
97.87915893297199
 20
5.205241983545476
 30
0.0
 10
95.9530316716126
 20
6.046968328387346
 30
0.0
  0
LINE
  5
CB
330
1F
100
AcDbEntity
  8
0
  6
Continuous
 62
     1
370
    25
100
AcDbLine
 10
102.0
 20
2.778180948443771
 30
0.0
 11
102.0
 21
3.098518327978862
 31
0.0
  0
LINE
  5
CC
330
1F
100
AcDbEntity
  8
0
  6
Continuous
 62
     4
370
    25
100
AcDbLine
 10
11.99999999999999
 20
-8.77999034268194
 30
0.0
 11
11.99999999999999
 21
-4.075432503014299
 31
0.0
  0
ELLIPSE
  5
CD
330
1F
100
AcDbEntity
  8
0
  6
Continuous
 62
     1
370
    25
100
AcDbEllipse
 10
102.7140740033711
 20
-0.0000000000000034
 30
0.0
 11
17.85185008427639
 21
-5.350968460038310E-17
 31
0.0
210
0.0
220
0.0
230
1.0
 40
0.7002075382097119
 41
1.610807001148886
 42
1.71148497214774
  0
LINE
  5
CE
330
1F
100
AcDbEntity
  8
0
  6
Continuous
 62
     1
370
    25
100
AcDbLine
 10
102.0
 20
12.48999599679681
 30
0.0
 11
102.0
 21
12.50000000000001
 31
0.0
  0
LINE
  5
CF
330
1F
100
AcDbEntity
  8
0
  6
Continuous
 62
     1
370
    25
100
AcDbLine
 10
102.0
 20
-0.4999999999999978
 30
0.0
 11
102.0
 21
-9.013109139888318
 31
0.0
  0
LINE
  5
D0
330
1F
100
AcDbEntity
  8
0
  6
Continuous
 62
     1
370
    25
100
AcDbLine
 10
102.0
 20
3.098518327978862
 30
0.0
 11
102.0
 21
12.48999599679681
 31
0.0
  0
LINE
  5
D1
330
1F
100
AcDbEntity
  8
중심선
100
AcDbLine
 10
-51.00000000000001
 20
-0.0000000000000077
 30
0.0
 11
105.0
 21
0.0000000000000114
 31
0.0
  0
CIRCLE
  5
D2
330
1F
100
AcDbEntity
  8
해칭선
100
AcDbCircle
 10
0.0001187621936054
 20
-0.0000000000000035
 30
0.0
 40
3.000000000000003
  0
INSERT
  5
D3
330
1F
100
AcDbEntity
  8
0
  6
Continuous
 62
     7
100
AcDbBlockReference
 66
     1
  2
블럭10
 10
12.55990075105822
 20
-52.04717430164393
 30
0.0
  0
ATTRIB
  5
D4
330
D3
100
AcDbEntity
  8
FORMAT
 62
     2
100
AcDbText
 10
-3.559360288377337
 20
-49.97180738881174
 30
0.0
 40
4.233333333333333
  1
SEME7225090E [ 4 FLUTE ]
 41
0.75
  7
SLDTEXTSTYLE0
 11
-3.559360288377337
 21
-52.08847405547841
 31
0.0
100
AcDbAttribute
  2
AUTOATTR0
 70
     0
 74
     1
  0
SEQEND
  5
D5
330
D3
100
AcDbEntity
  8
0
  6
Continuous
 62
     7
  0
HATCH
  5
D6
330
1F
100
AcDbEntity
  8
중심선
100
AcDbHatch
 10
0.0
 20
0.0
 30
0.0
210
0.0
220
0.0
230
1.0
  2
SOLID
 70
     1
 71
     0
 91
        1
 92
        0
 93
        4
 72
     1
 10
18.27481005543907
 20
-35.8
 11
14.82853481160179
 21
-35.8
 72
     1
 10
14.82853481160179
 20
-35.8
 11
12.70030495239777
 21
-38.33632558057259
 72
     1
 10
12.70030495239777
 20
-38.33632558057259
 11
16.14661328134823
 21
-38.3362861512701
 72
     1
 10
16.14661328134823
 20
-38.3362861512701
 11
18.27481005543907
 21
-35.8
 97
        0
 75
     0
 76
     1
 98
        1
 10
0.0
 20
0.0
  0
HATCH
  5
D7
330
1F
100
AcDbEntity
  8
중심선
100
AcDbHatch
 10
0.0
 20
0.0
 30
0.0
210
0.0
220
0.0
230
1.0
  2
SOLID
 70
     1
 71
     0
 91
        1
 92
        0
 93
        4
 72
     1
 10
23.28757404647505
 20
-35.79999999999997
 11
19.84129880263777
 21
-35.8
 72
     1
 10
19.84129880263777
 20
-35.8
 11
15.31016079428035
 21
-41.20000000000002
 72
     1
 10
15.31016079428035
 20
-41.20000000000002
 11
18.75643603811763
 21
-41.20000000000002
 72
     1
 10
18.75643603811763
 20
-41.20000000000002
 11
23.28757404647505
 21
-35.79999999999997
 97
        0
 75
     0
 76
     1
 98
        1
 10
0.0
 20
0.0
  0
HATCH
  5
D8
330
1F
100
AcDbEntity
  8
중심선
100
AcDbHatch
 10
0.0
 20
0.0
 30
0.0
210
0.0
220
0.0
230
1.0
  2
SOLID
 70
     1
 71
     0
 91
        1
 92
        0
 93
        4
 72
     1
 10
28.30033803751095
 20
-35.79999999999997
 11
24.85406279367378
 21
-35.80000000000003
 72
     1
 10
24.85406279367378
 20
-35.80000000000003
 11
17.80562589178455
 21
-44.20000000000002
 72
     1
 10
17.80562589178455
 20
-44.20000000000002
 11
21.25190113562184
 21
-44.20000000000002
 72
     1
 10
21.25190113562184
 20
-44.20000000000002
 11
28.30033803751095
 21
-35.79999999999997
 97
        0
 75
     0
 76
     1
 98
        1
 10
0.0
 20
0.0
  0
HATCH
  5
D9
330
1F
100
AcDbEntity
  8
중심선
100
AcDbHatch
 10
0.0
 20
0.0
 30
0.0
210
0.0
220
0.0
230
1.0
  2
SOLID
 70
     1
 71
     0
 91
        1
 92
        0
 93
        6
 72
     3
 10
33.10022846852309
 20
-40.00000000005127
 11
3.960054785062284
 21
1.540850780301639E-10
 40
0.3939339440162633
 50
17.0953918060842
 51
320.0019657685079
 73
     0
 72
     1
 10
34.78322812422371
 20
-38.58789400463827
 11
37.08852999792475
 21
-36.65356729459035
 72
     3
 10
33.10022846847024
 20
-40.00000000000015
 11
6.600054785286829
 21
-1.249000902703301E-13
 40
0.6363583540795982
 50
39.99873849337411
 51
368.4976242363725
 73
     1
 72
     1
 10
39.52556096037088
 20
-39.03999999993002
 11
31.78029577530619
 21
-39.03999999993002
 72
     1
 10
31.78029577530619
 20
-39.03999999993002
 11
31.78027073086023
 21
-40.95999999992991
 72
     1
 10
31.78027073086023
 20
-40.95999999992991
 11
36.2216505003323
 21
-40.95999999992988
 97
        0
 75
     0
 76
     1
 98
        1
 10
0.0
 20
0.0
  0
DIMENSION
  5
DA
330
1F
100
AcDbEntity
  8
치수문자_일반주서
100
AcDbDimension
  2
_D
 10
116.5546181309811
 20
12.50000000000005
 30
0.0
 11
116.5546181309811
 21
23.47900000000005
 31
0.0
 70
   160
  1
%%c<>
 71
     2
 42
25.00000000000001
 52
-270.0
  3
SLDDIMSTYLE0
100
AcDbAlignedDimension
 13
102.0
 23
-12.50000000000001
 33
0.0
 14
102.0
 24
12.5
 34
0.0
 50
90.0000000000002
100
AcDbRotatedDimension
  0
DIMENSION
  5
E6
330
1F
100
AcDbEntity
  8
치수문자_일반주서
100
AcDbDimension
  2
_D_1
 10
102.0
 20
29.88913260158164
 30
0.0
 11
26.99999999999998
 21
29.88913260158164
 31
0.0
 70
   160
  1
<>
 71
     2
 42
150.0
  3
SLDDIMSTYLE1
100
AcDbAlignedDimension
 13
-48.00000000000001
 23
11.99999999999999
 33
0.0
 14
102.0
 24
12.50000000000001
 34
0.0
 50
-0.0000000000000027
100
AcDbRotatedDimension
  0
DIMENSION
  5
F1
330
1F
100
AcDbEntity
  8
치수문자_일반주서
100
AcDbDimension
  2
_D_2
 10
-61.02060865778413
 20
-12.50000000000006
 30
0.0
 11
-61.02060865778426
 21
24.25435091469708
 31
0.0
 70
   160
  1
%%c<>
 71
     2
 42
24.99999999999999
 52
-270.0
  3
SLDDIMSTYLE2
100
AcDbAlignedDimension
 13
-47.50000000000001
 23
12.49999999999998
 33
0.0
 14
-47.50000000000001
 24
-12.50000000000001
 34
0.0
 50
90.0000000000002
100
AcDbRotatedDimension
  0
DIMENSION
  5
FD
330
1F
100
AcDbEntity
  8
치수문자_일반주서
100
AcDbDimension
  2
_D_3
 10
102.0
 20
22.66289126157236
 30
0.0
 11
56.99999999999999
 21
22.66289126157236
 31
0.0
 70
   160
  1
<>
 71
     2
 42
89.99999999999999
  3
SLDDIMSTYLE1
100
AcDbAlignedDimension
 13
11.99999999999999
 23
11.81697295898471
 33
0.0
 14
102.0
 24
12.50000000000001
 34
0.0
 50
-0.0000000000000045
100
AcDbRotatedDimension
  0
INSERT
  5
10D
330
1F
100
AcDbEntity
  8
해칭선
100
AcDbBlockReference
  2
SW_DOWELSYMBOL_0
 10
0.0001187621936054
 20
-0.0000000000000035
 30
0.0
  0
ENDSEC
  0
SECTION
  2
OBJECTS
  0
DICTIONARY
  5
C
330
0
100
AcDbDictionary
281
     1
  3
ACAD_GROUP
350
D
  3
ACAD_IMAGE_VARS
350
131
  3
ACAD_LAYOUT
350
1A
  3
ACAD_MLINESTYLE
350
17
  3
ACAD_PLOTSETTINGS
350
19
  3
ACAD_PLOTSTYLENAME
350
E
  3
ACAD_SCALELIST
350
47
  3
APPDATA
350
12F
  3
DWGPROPS
350
144
  0
DICTIONARY
  5
D
102
{ACAD_REACTORS
330
C
102
}
330
C
100
AcDbDictionary
281
     1
  0
RASTERVARIABLES
  5
131
102
{ACAD_REACTORS
330
C
102
}
330
C
100
AcDbRasterVariables
 90
        0
 70
     1
 71
     1
 72
     1
  0
DICTIONARY
  5
1A
102
{ACAD_REACTORS
330
C
102
}
330
C
100
AcDbDictionary
281
     1
  3
Layout1
350
1E
  3
Layout2
350
26
  3
Model
350
22
  0
DICTIONARY
  5
17
102
{ACAD_REACTORS
330
C
102
}
330
C
100
AcDbDictionary
281
     1
  3
Standard
350
18
  0
DICTIONARY
  5
19
102
{ACAD_REACTORS
330
C
102
}
330
C
100
AcDbDictionary
281
     1
  0
ACDBDICTIONARYWDFLT
  5
E
102
{ACAD_REACTORS
330
C
102
}
330
C
100
AcDbDictionary
281
     1
  3
Normal
350
F
100
AcDbDictionaryWithDefault
340
F
  0
DICTIONARY
  5
47
102
{ACAD_REACTORS
330
C
102
}
330
C
100
AcDbDictionary
281
     1
  3
A0
350
48
  3
A1
350
49
  3
A2
350
4A
  3
A3
350
4B
  3
A4
350
4C
  3
A5
350
4D
  3
A6
350
4E
  3
A7
350
4F
  3
A8
350
50
  3
A9
350
51
  3
B0
350
52
  3
B1
350
53
  3
B2
350
54
  3
B3
350
55
  3
B4
350
56
  3
B5
350
57
  3
B6
350
58
  3
B7
350
59
  3
B8
350
5A
  3
B9
350
5B
  3
C0
350
5C
  3
C1
350
5D
  3
C2
350
5E
  3
C3
350
5F
  3
C4
350
60
  3
C5
350
61
  3
C6
350
62
  3
C7
350
63
  3
C8
350
64
  3
C9
350
65
  3
D0
350
66
  3
D1
350
67
  3
D2
350
68
  0
DICTIONARY
  5
12F
102
{ACAD_REACTORS
330
C
102
}
330
C
100
AcDbDictionary
281
     1
  0
XRECORD
  5
144
102
{ACAD_REACTORS
330
C
102
}
330
C
100
AcDbXrecord
280
     1
  1
DWGPROPS COOKIE
  2

  3

  4

  6

  7

  8
12014102
  9

300
=
301
=
302
=
303
=
304
=
305
=
306
=
307
=
308
=
309
=
 40
0.0
 41
2458260.212610764
 42
2458268.229484734
  1

 90
        0
  0
LAYOUT
  5
1E
102
{ACAD_REACTORS
330
1A
102
}
330
1A
100
AcDbPlotSettings
  1

  2
none_device
  4

  6

 40
0.0
 41
0.0
 42
0.0
 43
0.0
 44
0.0
 45
0.0
 46
0.0
 47
0.0
 48
0.0
 49
0.0
140
0.0
141
0.0
142
1.0
143
1.0
 70
   688
 72
     1
 73
     0
 74
     5
  7

 75
    16
147
1.0
148
0.0
149
0.0
100
AcDbLayout
  1
Layout1
 70
     1
 71
     1
 10
0.0
 20
0.0
 11
420.0
 21
297.0
 12
0.0
 22
0.0
 32
0.0
 14
1.000000000000000E+20
 24
1.000000000000000E+20
 34
1.000000000000000E+20
 15
-1.000000000000000E+20
 25
-1.000000000000000E+20
 35
-1.000000000000000E+20
146
0.0
 13
0.0
 23
0.0
 33
0.0
 16
1.0
 26
0.0
 36
0.0
 17
0.0
 27
1.0
 37
0.0
 76
     0
330
1B
  0
LAYOUT
  5
26
102
{ACAD_REACTORS
330
1A
102
}
330
1A
100
AcDbPlotSettings
  1

  2
none_device
  4

  6

 40
0.0
 41
0.0
 42
0.0
 43
0.0
 44
0.0
 45
0.0
 46
0.0
 47
0.0
 48
0.0
 49
0.0
140
0.0
141
0.0
142
1.0
143
1.0
 70
   688
 72
     1
 73
     0
 74
     5
  7

 75
    16
147
1.0
148
0.0
149
0.0
100
AcDbLayout
  1
Layout2
 70
     1
 71
     2
 10
0.0
 20
0.0
 11
0.0
 21
0.0
 12
0.0
 22
0.0
 32
0.0
 14
0.0
 24
0.0
 34
0.0
 15
0.0
 25
0.0
 35
0.0
146
0.0
 13
0.0
 23
0.0
 33
0.0
 16
1.0
 26
0.0
 36
0.0
 17
0.0
 27
1.0
 37
0.0
 76
     0
330
23
  0
LAYOUT
  5
22
102
{ACAD_REACTORS
330
1A
102
}
330
1A
100
AcDbPlotSettings
  1

  2
none_device
  4
ANSI_A_(11.00_x_8.50_Inches)
  6

 40
6.35
 41
19.05
 42
6.35000508
 43
19.05000254
 44
279.4
 45
215.9
 46
94.6357803524391
 47
101.1058141378934
 48
0.0
 49
0.0
140
0.0
141
0.0
142
0.0589085814011888
143
1.0
 70
  1696
 72
     0
 73
     0
 74
     0
  7

 75
     0
147
0.0235690232323232
148
0.0
149
0.0
100
AcDbLayout
  1
Model
 70
     1
 71
     0
 10
0.0
 20
0.0
 11
420.0
 21
297.0
 12
0.0
 22
0.0
 32
0.0
 14
-65.39560865778428
 24
-49.97180738881174
 34
0.0
 15
117.1049514643145
 25
34.26413260158164
 35
0.0
146
0.0
 13
0.0
 23
0.0
 33
0.0
 16
1.0
 26
0.0
 36
0.0
 17
0.0
 27
1.0
 37
0.0
 76
     0
330
1F
331
29
  0
MLINESTYLE
  5
18
102
{ACAD_REACTORS
330
17
102
}
330
17
100
AcDbMlineStyle
  2
Standard
 70
     0
  3

 62
   256
 51
90.0
 52
90.0
 71
     2
 49
0.5
 62
   256
  6
BYLAYER
 49
-0.5
 62
   256
  6
BYLAYER
  0
ACDBPLACEHOLDER
  5
F
102
{ACAD_REACTORS
330
E
102
}
330
E
  0
SCALE
  5
48
102
{ACAD_REACTORS
330
47
102
}
330
47
100
AcDbScale
 70
     0
300
1:1
140
1.0
141
1.0
290
     1
  0
SCALE
  5
49
102
{ACAD_REACTORS
330
47
102
}
330
47
100
AcDbScale
 70
     0
300
1:2
140
1.0
141
2.0
290
     0
  0
SCALE
  5
4A
102
{ACAD_REACTORS
330
47
102
}
330
47
100
AcDbScale
 70
     0
300
1:4
140
1.0
141
4.0
290
     0
  0
SCALE
  5
4B
102
{ACAD_REACTORS
330
47
102
}
330
47
100
AcDbScale
 70
     0
300
1:5
140
1.0
141
5.0
290
     0
  0
SCALE
  5
4C
102
{ACAD_REACTORS
330
47
102
}
330
47
100
AcDbScale
 70
     0
300
1:8
140
1.0
141
8.0
290
     0
  0
SCALE
  5
4D
102
{ACAD_REACTORS
330
47
102
}
330
47
100
AcDbScale
 70
     0
300
1:10
140
1.0
141
10.0
290
     0
  0
SCALE
  5
4E
102
{ACAD_REACTORS
330
47
102
}
330
47
100
AcDbScale
 70
     0
300
1:16
140
1.0
141
16.0
290
     0
  0
SCALE
  5
4F
102
{ACAD_REACTORS
330
47
102
}
330
47
100
AcDbScale
 70
     0
300
1:20
140
1.0
141
20.0
290
     0
  0
SCALE
  5
50
102
{ACAD_REACTORS
330
47
102
}
330
47
100
AcDbScale
 70
     0
300
1:30
140
1.0
141
30.0
290
     0
  0
SCALE
  5
51
102
{ACAD_REACTORS
330
47
102
}
330
47
100
AcDbScale
 70
     0
300
1:40
140
1.0
141
40.0
290
     0
  0
SCALE
  5
52
102
{ACAD_REACTORS
330
47
102
}
330
47
100
AcDbScale
 70
     0
300
1:50
140
1.0
141
50.0
290
     0
  0
SCALE
  5
53
102
{ACAD_REACTORS
330
47
102
}
330
47
100
AcDbScale
 70
     0
300
1:100
140
1.0
141
100.0
290
     0
  0
SCALE
  5
54
102
{ACAD_REACTORS
330
47
102
}
330
47
100
AcDbScale
 70
     0
300
2:1
140
2.0
141
1.0
290
     0
  0
SCALE
  5
55
102
{ACAD_REACTORS
330
47
102
}
330
47
100
AcDbScale
 70
     0
300
4:1
140
4.0
141
1.0
290
     0
  0
SCALE
  5
56
102
{ACAD_REACTORS
330
47
102
}
330
47
100
AcDbScale
 70
     0
300
8:1
140
8.0
141
1.0
290
     0
  0
SCALE
  5
57
102
{ACAD_REACTORS
330
47
102
}
330
47
100
AcDbScale
 70
     0
300
10:1
140
10.0
141
1.0
290
     0
  0
SCALE
  5
58
102
{ACAD_REACTORS
330
47
102
}
330
47
100
AcDbScale
 70
     0
300
100:1
140
100.0
141
1.0
290
     0
  0
SCALE
  5
59
102
{ACAD_REACTORS
330
47
102
}
330
47
100
AcDbScale
 70
     0
300
1/128" = 1'-0"
140
0.0078125
141
12.0
290
     0
  0
SCALE
  5
5A
102
{ACAD_REACTORS
330
47
102
}
330
47
100
AcDbScale
 70
     0
300
1/64" = 1'-0"
140
0.015625
141
12.0
290
     0
  0
SCALE
  5
5B
102
{ACAD_REACTORS
330
47
102
}
330
47
100
AcDbScale
 70
     0
300
1/32" = 1'-0"
140
0.03125
141
12.0
290
     0
  0
SCALE
  5
5C
102
{ACAD_REACTORS
330
47
102
}
330
47
100
AcDbScale
 70
     0
300
1/16" = 1'-0"
140
0.0625
141
12.0
290
     0
  0
SCALE
  5
5D
102
{ACAD_REACTORS
330
47
102
}
330
47
100
AcDbScale
 70
     0
300
3/32" = 1'-0"
140
0.09375
141
12.0
290
     0
  0
SCALE
  5
5E
102
{ACAD_REACTORS
330
47
102
}
330
47
100
AcDbScale
 70
     0
300
1/8" = 1'-0"
140
0.125
141
12.0
290
     0
  0
SCALE
  5
5F
102
{ACAD_REACTORS
330
47
102
}
330
47
100
AcDbScale
 70
     0
300
3/16" = 1'-0"
140
0.1875
141
12.0
290
     0
  0
SCALE
  5
60
102
{ACAD_REACTORS
330
47
102
}
330
47
100
AcDbScale
 70
     0
300
1/4" = 1'-0"
140
0.25
141
12.0
290
     0
  0
SCALE
  5
61
102
{ACAD_REACTORS
330
47
102
}
330
47
100
AcDbScale
 70
     0
300
3/8" = 1'-0"
140
0.375
141
12.0
290
     0
  0
SCALE
  5
62
102
{ACAD_REACTORS
330
47
102
}
330
47
100
AcDbScale
 70
     0
300
1/2" = 1'-0"
140
0.5
141
12.0
290
     0
  0
SCALE
  5
63
102
{ACAD_REACTORS
330
47
102
}
330
47
100
AcDbScale
 70
     0
300
3/4" = 1'-0"
140
0.75
141
12.0
290
     0
  0
SCALE
  5
64
102
{ACAD_REACTORS
330
47
102
}
330
47
100
AcDbScale
 70
     0
300
1" = 1'-0"
140
1.0
141
12.0
290
     0
  0
SCALE
  5
65
102
{ACAD_REACTORS
330
47
102
}
330
47
100
AcDbScale
 70
     0
300
1-1/2" = 1'-0"
140
1.5
141
12.0
290
     0
  0
SCALE
  5
66
102
{ACAD_REACTORS
330
47
102
}
330
47
100
AcDbScale
 70
     0
300
3" = 1'-0"
140
3.0
141
12.0
290
     0
  0
SCALE
  5
67
102
{ACAD_REACTORS
330
47
102
}
330
47
100
AcDbScale
 70
     0
300
6" = 1'-0"
140
6.0
141
12.0
290
     0
  0
SCALE
  5
68
102
{ACAD_REACTORS
330
47
102
}
330
47
100
AcDbScale
 70
     0
300
1'-0" = 1'-0"
140
12.0
141
12.0
290
     0
  0
ENDSEC
  0
EOF
