  0
SECTION
  2
HEADER
  9
$ACADVER
  1
AC1015
  9
$ACADMAINTVER
 70
     6
  9
$DWGCODEPAGE
  3
ANSI_949
  9
$INSBASE
 10
0.0
 20
0.0
 30
0.0
  9
$EXTMIN
 10
-86.6480851559569
 20
-49.97180738881174
 30
0.0
  9
$EXTMAX
 10
95.28227125119876
 20
34.26413260158164
 30
0.0
  9
$LIMMIN
 10
0.0
 20
0.0
  9
$LIMMAX
 10
420.0
 20
297.0
  9
$ORTHOMODE
 70
     0
  9
$REGENMODE
 70
     1
  9
$FILLMODE
 70
     1
  9
$QTEXTMODE
 70
     0
  9
$MIRRTEXT
 70
     1
  9
$LTSCALE
 40
1.0
  9
$ATTMODE
 70
     1
  9
$TEXTSIZE
 40
3.5
  9
$TRACEWID
 40
1.0
  9
$TEXTSTYLE
  7
Standard
  9
$CLAYER
  8
0
  9
$CELTYPE
  6
ByLayer
  9
$CECOLOR
 62
   256
  9
$CELTSCALE
 40
1.0
  9
$DISPSILH
 70
     0
  9
$DIMSCALE
 40
1.0
  9
$DIMASZ
 40
3.302
  9
$DIMEXO
 40
1.0
  9
$DIMDLI
 40
3.75
  9
$DIMRND
 40
0.0
  9
$DIMDLE
 40
0.0
  9
$DIMEXE
 40
1.0
  9
$DIMTP
 40
0.0
  9
$DIMTM
 40
0.0
  9
$DIMTXT
 40
3.5
  9
$DIMCEN
 40
2.5
  9
$DIMTSZ
 40
0.0
  9
$DIMTOL
 70
     0
  9
$DIMLIM
 70
     0
  9
$DIMTIH
 70
     1
  9
$DIMTOH
 70
     1
  9
$DIMSE1
 70
     0
  9
$DIMSE2
 70
     0
  9
$DIMTAD
 70
     1
  9
$DIMZIN
 70
     0
  9
$DIMBLK
  1

  9
$DIMASO
 70
     1
  9
$DIMSHO
 70
     1
  9
$DIMPOST
  1

  9
$DIMAPOST
  1

  9
$DIMALT
 70
     0
  9
$DIMALTD
 70
     3
  9
$DIMALTF
 40
0.0393700787401575
  9
$DIMLFAC
 40
1.0
  9
$DIMTOFL
 70
     1
  9
$DIMTVP
 40
0.0
  9
$DIMTIX
 70
     0
  9
$DIMSOXD
 70
     0
  9
$DIMSAH
 70
     0
  9
$DIMBLK1
  1

  9
$DIMBLK2
  1

  9
$DIMSTYLE
  2
ISO-25
  9
$DIMCLRD
 70
     0
  9
$DIMCLRE
 70
     0
  9
$DIMCLRT
 70
     0
  9
$DIMTFAC
 40
1.0
  9
$DIMGAP
 40
1.524
  9
$DIMJUST
 70
     0
  9
$DIMSD1
 70
     0
  9
$DIMSD2
 70
     0
  9
$DIMTOLJ
 70
     0
  9
$DIMTZIN
 70
     0
  9
$DIMALTZ
 70
     0
  9
$DIMALTTZ
 70
     0
  9
$DIMUPT
 70
     0
  9
$DIMDEC
 70
     2
  9
$DIMTDEC
 70
     2
  9
$DIMALTU
 70
     2
  9
$DIMALTTD
 70
     3
  9
$DIMTXSTY
  7
Standard
  9
$DIMAUNIT
 70
     0
  9
$DIMADEC
 70
     2
  9
$DIMALTRND
 40
0.0
  9
$DIMAZIN
 70
     0
  9
$DIMDSEP
 70
    44
  9
$DIMATFIT
 70
     3
  9
$DIMFRAC
 70
     0
  9
$DIMLDRBLK
  1

  9
$DIMLUNIT
 70
     2
  9
$DIMLWD
 70
    -2
  9
$DIMLWE
 70
    -2
  9
$DIMTMOVE
 70
     0
  9
$LUNITS
 70
     2
  9
$LUPREC
 70
     2
  9
$SKETCHINC
 40
1.0
  9
$FILLETRAD
 40
10.0
  9
$AUNITS
 70
     0
  9
$AUPREC
 70
     2
  9
$MENU
  1
.
  9
$ELEVATION
 40
0.0
  9
$PELEVATION
 40
0.0
  9
$THICKNESS
 40
0.0
  9
$LIMCHECK
 70
     0
  9
$CHAMFERA
 40
0.0
  9
$CHAMFERB
 40
0.0
  9
$CHAMFERC
 40
0.0
  9
$CHAMFERD
 40
0.0
  9
$SKPOLY
 70
     0
  9
$TDCREATE
 40
2458260.587422083
  9
$TDUCREATE
 40
2458260.212422083
  9
$TDUPDATE
 40
2458268.603483924
  9
$TDUUPDATE
 40
2458268.228483924
  9
$TDINDWG
 40
0.0012610417
  9
$TDUSRTIMER
 40
2458268.22722294
  9
$USRTIMER
 70
     1
  9
$ANGBASE
 50
0.0
  9
$ANGDIR
 70
     0
  9
$PDMODE
 70
     0
  9
$PDSIZE
 40
-1.0
  9
$PLINEWID
 40
0.0
  9
$SPLFRAME
 70
     0
  9
$SPLINETYPE
 70
     6
  9
$SPLINESEGS
 70
     8
  9
$HANDSEED
  5
141
  9
$SURFTAB1
 70
     6
  9
$SURFTAB2
 70
     6
  9
$SURFTYPE
 70
     6
  9
$SURFU
 70
     6
  9
$SURFV
 70
     6
  9
$UCSBASE
  2

  9
$UCSNAME
  2

  9
$UCSORG
 10
0.0
 20
0.0
 30
0.0
  9
$UCSXDIR
 10
1.0
 20
0.0
 30
0.0
  9
$UCSYDIR
 10
0.0
 20
1.0
 30
0.0
  9
$UCSORTHOREF
  2

  9
$UCSORTHOVIEW
 70
     0
  9
$UCSORGTOP
 10
0.0
 20
0.0
 30
0.0
  9
$UCSORGBOTTOM
 10
0.0
 20
0.0
 30
0.0
  9
$UCSORGLEFT
 10
0.0
 20
0.0
 30
0.0
  9
$UCSORGRIGHT
 10
0.0
 20
0.0
 30
0.0
  9
$UCSORGFRONT
 10
0.0
 20
0.0
 30
0.0
  9
$UCSORGBACK
 10
0.0
 20
0.0
 30
0.0
  9
$PUCSBASE
  2

  9
$PUCSNAME
  2

  9
$PUCSORG
 10
0.0
 20
0.0
 30
0.0
  9
$PUCSXDIR
 10
1.0
 20
0.0
 30
0.0
  9
$PUCSYDIR
 10
0.0
 20
1.0
 30
0.0
  9
$PUCSORTHOREF
  2

  9
$PUCSORTHOVIEW
 70
     0
  9
$PUCSORGTOP
 10
0.0
 20
0.0
 30
0.0
  9
$PUCSORGBOTTOM
 10
0.0
 20
0.0
 30
0.0
  9
$PUCSORGLEFT
 10
0.0
 20
0.0
 30
0.0
  9
$PUCSORGRIGHT
 10
0.0
 20
0.0
 30
0.0
  9
$PUCSORGFRONT
 10
0.0
 20
0.0
 30
0.0
  9
$PUCSORGBACK
 10
0.0
 20
0.0
 30
0.0
  9
$USERI1
 70
     0
  9
$USERI2
 70
     0
  9
$USERI3
 70
     0
  9
$USERI4
 70
     0
  9
$USERI5
 70
     0
  9
$USERR1
 40
0.0
  9
$USERR2
 40
0.0
  9
$USERR3
 40
0.0
  9
$USERR4
 40
0.0
  9
$USERR5
 40
0.0
  9
$WORLDVIEW
 70
     1
  9
$SHADEDGE
 70
     3
  9
$SHADEDIF
 70
    70
  9
$TILEMODE
 70
     1
  9
$MAXACTVP
 70
    64
  9
$PINSBASE
 10
0.0
 20
0.0
 30
0.0
  9
$PLIMCHECK
 70
     0
  9
$PEXTMIN
 10
1.000000000000000E+20
 20
1.000000000000000E+20
 30
1.000000000000000E+20
  9
$PEXTMAX
 10
-1.000000000000000E+20
 20
-1.000000000000000E+20
 30
-1.000000000000000E+20
  9
$PLIMMIN
 10
0.0
 20
0.0
  9
$PLIMMAX
 10
0.0
 20
0.0
  9
$UNITMODE
 70
     0
  9
$VISRETAIN
 70
     1
  9
$PLINEGEN
 70
     0
  9
$PSLTSCALE
 70
     1
  9
$TREEDEPTH
 70
  3020
  9
$CMLSTYLE
  2
Standard
  9
$CMLJUST
 70
     0
  9
$CMLSCALE
 40
20.0
  9
$PROXYGRAPHICS
 70
     1
  9
$MEASUREMENT
 70
     1
  9
$CELWEIGHT
370
    -1
  9
$ENDCAPS
280
     0
  9
$JOINSTYLE
280
     0
  9
$LWDISPLAY
290
     1
  9
$INSUNITS
 70
     4
  9
$HYPERLINKBASE
  1

  9
$STYLESHEET
  1

  9
$XEDIT
290
     1
  9
$CEPSNTYPE
380
     0
  9
$PSTYLEMODE
290
     1
  9
$FINGERPRINTGUID
  2
{B7175D23-FC04-46D9-BC41-A0D347ECA1B9}
  9
$VERSIONGUID
  2
{FAEB1C32-E019-11D5-929B-00C0DF256EC4}
  9
$EXTNAMES
290
     1
  9
$PSVPSCALE
 40
0.0
  9
$OLESTARTUP
290
     0
  0
ENDSEC
  0
SECTION
  2
CLASSES
  0
CLASS
  1
ACDBDICTIONARYWDFLT
  2
AcDbDictionaryWithDefault
  3
ObjectDBX Classes
 90
        0
280
     0
281
     0
  0
CLASS
  1
VISUALSTYLE
  2
AcDbVisualStyle
  3
ObjectDBX Classes
 90
     4095
280
     0
281
     0
  0
CLASS
  1
MATERIAL
  2
AcDbMaterial
  3
ObjectDBX Classes
 90
     1153
280
     0
281
     0
  0
CLASS
  1
SCALE
  2
AcDbScale
  3
ObjectDBX Classes
 90
     1153
280
     0
281
     0
  0
CLASS
  1
TABLESTYLE
  2
AcDbTableStyle
  3
ObjectDBX Classes
 90
     4095
280
     0
281
     0
  0
CLASS
  1
MLEADERSTYLE
  2
AcDbMLeaderStyle
  3
ACDB_MLEADERSTYLE_CLASS
 90
     4095
280
     0
281
     0
  0
CLASS
  1
SUN
  2
AcDbSun
  3
SCENEOE
 90
     1153
280
     0
281
     0
  0
CLASS
  1
ACDBPLACEHOLDER
  2
AcDbPlaceHolder
  3
ObjectDBX Classes
 90
        0
280
     0
281
     0
  0
CLASS
  1
LAYOUT
  2
AcDbLayout
  3
ObjectDBX Classes
 90
        0
280
     0
281
     0
  0
CLASS
  1
RASTERVARIABLES
  2
AcDbRasterVariables
  3
ISM
 90
        0
280
     0
281
     0
  0
ENDSEC
  0
SECTION
  2
TABLES
  0
TABLE
  2
VPORT
  5
8
330
0
100
AcDbSymbolTable
 70
     1
  0
VPORT
  5
29
330
8
100
AcDbSymbolTableRecord
100
AcDbViewportTableRecord
  2
*Active
 70
     0
 10
0.0
 20
0.0
 11
1.0
 21
1.0
 12
4.317093047620929
 22
-7.853837393615052
 13
0.0
 23
0.0
 14
10.0
 24
10.0
 15
10.0
 25
10.0
 16
0.0
 26
0.0
 36
1.0
 17
0.0
 27
0.0
 37
0.0
 40
106.7090473821109
 41
1.739018087855297
 42
50.0
 43
0.0
 44
0.0
 50
0.0
 51
0.0
 71
    16
 72
  2000
 73
     1
 74
     3
 75
     0
 76
     0
 77
     0
 78
     0
281
     0
 65
     1
110
0.0
120
0.0
130
0.0
111
1.0
121
0.0
131
0.0
112
0.0
122
1.0
132
0.0
 79
     0
146
0.0
  0
ENDTAB
  0
TABLE
  2
LTYPE
  5
5
330
0
100
AcDbSymbolTable
 70
     6
  0
LTYPE
  5
14
330
5
100
AcDbSymbolTableRecord
100
AcDbLinetypeTableRecord
  2
ByBlock
 70
     0
  3

 72
    65
 73
     0
 40
0.0
  0
LTYPE
  5
15
330
5
100
AcDbSymbolTableRecord
100
AcDbLinetypeTableRecord
  2
ByLayer
 70
     0
  3

 72
    65
 73
     0
 40
0.0
  0
LTYPE
  5
16
330
5
100
AcDbSymbolTableRecord
100
AcDbLinetypeTableRecord
  2
Continuous
 70
     0
  3
Solid line
 72
    65
 73
     0
 40
0.0
  0
LTYPE
  5
6E
330
5
100
AcDbSymbolTableRecord
100
AcDbLinetypeTableRecord
  2
HIDDEN
 70
     0
  3
Hidden __ __ __ __ __ __ __ __ __ __ __ __ __ __
 72
    65
 73
     2
 40
1.905
 49
1.27
 74
     0
 49
-0.635
 74
     0
  0
LTYPE
  5
6F
330
5
100
AcDbSymbolTableRecord
100
AcDbLinetypeTableRecord
  2
PHANTOM
 70
     0
  3
Phantom ______  __  __  ______  __  __  ______
 72
    65
 73
     6
 40
12.7
 49
6.35
 74
     0
 49
-1.27
 74
     0
 49
1.27
 74
     0
 49
-1.27
 74
     0
 49
1.27
 74
     0
 49
-1.27
 74
     0
  0
LTYPE
  5
70
330
5
100
AcDbSymbolTableRecord
100
AcDbLinetypeTableRecord
  2
CENTER
 70
     0
  3
Center ____ _ ____ _ ____ _ ____ _ ____ _ ____
 72
    65
 73
     4
 40
10.16
 49
6.35
 74
     0
 49
-1.27
 74
     0
 49
1.27
 74
     0
 49
-1.27
 74
     0
  0
LTYPE
  5
71
330
5
100
AcDbSymbolTableRecord
100
AcDbLinetypeTableRecord
  2
CENTERX2
 70
     0
  3
Center (2x) ________  __  ________  __  _____
 72
    65
 73
     4
 40
20.32
 49
12.7
 74
     0
 49
-2.54
 74
     0
 49
2.54
 74
     0
 49
-2.54
 74
     0
  0
LTYPE
  5
72
330
5
100
AcDbSymbolTableRecord
100
AcDbLinetypeTableRecord
  2
DOT2
 70
     0
  3
Dot (.5x) ........................................
 72
    65
 73
     2
 40
0.635
 49
0.0
 74
     0
 49
-0.635
 74
     0
  0
ENDTAB
  0
TABLE
  2
LAYER
  5
2
330
0
100
AcDbSymbolTable
 70
    17
  0
LAYER
  5
10
330
2
100
AcDbSymbolTableRecord
100
AcDbLayerTableRecord
  2
0
 70
     0
 62
     7
  6
Continuous
370
    -3
390
F
  0
LAYER
  5
73
330
2
100
AcDbSymbolTableRecord
100
AcDbLayerTableRecord
  2
FORMAT
 70
     0
 62
     2
  6
Continuous
370
    -3
390
F
  0
LAYER
  5
74
330
2
100
AcDbSymbolTableRecord
100
AcDbLayerTableRecord
  2
외형선
 70
     0
 62
   100
  6
Continuous
370
    35
390
F
  0
LAYER
  5
75
330
2
100
AcDbSymbolTableRecord
100
AcDbLayerTableRecord
  2
숨은선
 70
     0
 62
     2
  6
HIDDEN
370
    25
390
F
  0
LAYER
  5
76
330
2
100
AcDbSymbolTableRecord
100
AcDbLayerTableRecord
  2
중심선
 70
     0
 62
     1
  6
CENTERX2
370
    -3
390
F
  0
LAYER
  5
77
330
2
100
AcDbSymbolTableRecord
100
AcDbLayerTableRecord
  2
파단선
 70
     0
 62
     4
  6
Continuous
370
    -3
390
F
  0
LAYER
  5
78
330
2
100
AcDbSymbolTableRecord
100
AcDbLayerTableRecord
  2
해칭선
 70
     0
 62
   100
  6
Continuous
370
    -3
390
F
  0
LAYER
  5
79
330
2
100
AcDbSymbolTableRecord
100
AcDbLayerTableRecord
  2
가는실선
 70
     0
 62
     4
  6
Continuous
370
    -3
390
F
  0
LAYER
  5
7A
330
2
100
AcDbSymbolTableRecord
100
AcDbLayerTableRecord
  2
치수_보조선
 70
     0
 62
     4
  6
Continuous
370
    -3
390
F
  0
LAYER
  5
7B
330
2
100
AcDbSymbolTableRecord
100
AcDbLayerTableRecord
  2
치수문자_일반주서
 70
     0
 62
     7
  6
Continuous
370
    25
390
F
  0
LAYER
  5
7C
330
2
100
AcDbSymbolTableRecord
100
AcDbLayerTableRecord
  2
개별주서
 70
     0
 62
   100
  6
Continuous
370
    35
390
F
  0
LAYER
  5
7D
330
2
100
AcDbSymbolTableRecord
100
AcDbLayerTableRecord
  2
중간선
 70
     0
 62
     2
  6
Continuous
370
    25
390
F
  0
LAYER
  5
7E
330
2
100
AcDbSymbolTableRecord
100
AcDbLayerTableRecord
  2
윤곽선
 70
     0
 62
     3
  6
Continuous
370
    50
390
F
  0
LAYER
  5
7F
330
2
100
AcDbSymbolTableRecord
100
AcDbLayerTableRecord
  2
중심마크
 70
     0
 62
   100
  6
Continuous
370
    35
390
F
  0
LAYER
  5
80
330
2
100
AcDbSymbolTableRecord
100
AcDbLayerTableRecord
  2
가상선
 70
     0
 62
     4
  6
PHANTOM
370
    -3
390
F
  0
LAYER
  5
81
330
2
100
AcDbSymbolTableRecord
100
AcDbLayerTableRecord
  2
특수지정선
 70
     0
 62
     5
  6
CENTERX2
370
    70
390
F
  0
LAYER
  5
12E
330
2
100
AcDbSymbolTableRecord
100
AcDbLayerTableRecord
  2
Defpoints
 70
     0
 62
     7
  6
Continuous
290
     0
370
    -3
390
F
  0
ENDTAB
  0
TABLE
  2
STYLE
  5
3
330
0
100
AcDbSymbolTable
 70
     2
  0
STYLE
  5
11
330
3
100
AcDbSymbolTableRecord
100
AcDbTextStyleTableRecord
  2
Standard
 70
     0
 40
0.0
 41
1.0
 50
0.0
 71
     0
 42
3.5
  3
txt
  4

  0
STYLE
  5
97
330
3
100
AcDbSymbolTableRecord
100
AcDbTextStyleTableRecord
  2
SLDTEXTSTYLE0
 70
     0
 40
0.0
 41
0.75
 50
0.0
 71
     0
 42
3.5
  3
TXT
  4

  0
ENDTAB
  0
TABLE
  2
VIEW
  5
6
330
0
100
AcDbSymbolTable
 70
     0
  0
ENDTAB
  0
TABLE
  2
UCS
  5
7
330
0
100
AcDbSymbolTable
 70
     0
  0
ENDTAB
  0
TABLE
  2
APPID
  5
9
330
0
100
AcDbSymbolTable
 70
     1
  0
APPID
  5
12
330
9
100
AcDbSymbolTableRecord
100
AcDbRegAppTableRecord
  2
ACAD
 70
     0
  0
ENDTAB
  0
TABLE
  2
DIMSTYLE
  5
A
330
0
100
AcDbSymbolTable
 70
     4
100
AcDbDimStyleTable
  0
DIMSTYLE
105
27
330
A
100
AcDbSymbolTableRecord
100
AcDbDimStyleTableRecord
  2
ISO-25
 70
     0
 41
2.5
 42
0.625
 43
3.75
 44
1.25
 73
     0
 74
     0
 77
     1
 78
     8
140
2.5
141
2.5
143
0.03937007874016
147
0.625
171
     3
172
     1
178
     0
271
     2
272
     2
274
     3
278
    44
283
     0
284
     8
340
11
  0
DIMSTYLE
105
D7
102
{ACAD_REACTORS
330
D6
102
}
330
A
100
AcDbSymbolTableRecord
100
AcDbDimStyleTableRecord
  2
SLDDIMSTYLE0
 70
     0
 41
3.302
 44
0.0
 45
0.000000001
 73
     0
 74
     0
 77
     1
 78
    12
 79
     3
140
3.5
147
0.875
172
     1
173
     1
178
     0
271
     1
272
     1
276
     2
284
    12
289
     0
340
97
  0
DIMSTYLE
105
E3
102
{ACAD_REACTORS
330
E2
330
F9
102
}
330
A
100
AcDbSymbolTableRecord
100
AcDbDimStyleTableRecord
  2
SLDDIMSTYLE1
 70
     0
 41
3.302
 44
0.0
 45
0.000000001
 73
     0
 74
     0
 77
     1
 78
    12
 79
     3
140
3.5
147
0.875
173
     1
178
     0
271
     2
272
     2
276
     2
284
    12
340
97
  0
DIMSTYLE
105
EE
102
{ACAD_REACTORS
330
ED
102
}
330
A
100
AcDbSymbolTableRecord
100
AcDbDimStyleTableRecord
  2
SLDDIMSTYLE2
 70
     0
 41
3.302
 44
0.0
 45
0.000000001
 73
     0
 74
     0
 77
     1
 78
    12
 79
     3
140
3.5
147
0.875
172
     1
173
     1
178
     0
271
     2
272
     2
276
     2
284
    12
289
     0
340
97
  0
ENDTAB
  0
TABLE
  2
BLOCK_RECORD
  5
1
330
0
100
AcDbSymbolTable
 70
     7
  0
BLOCK_RECORD
  5
1F
330
1
100
AcDbSymbolTableRecord
100
AcDbBlockTableRecord
  2
*Model_Space
340
22
  0
BLOCK_RECORD
  5
1B
330
1
100
AcDbSymbolTableRecord
100
AcDbBlockTableRecord
  2
*Paper_Space
340
1E
  0
BLOCK_RECORD
  5
23
330
1
100
AcDbSymbolTableRecord
100
AcDbBlockTableRecord
  2
*Paper_Space0
340
26
  0
BLOCK_RECORD
  5
82
330
1
100
AcDbSymbolTableRecord
100
AcDbBlockTableRecord
  2
블럭10
340
0
102
{BLKREFS
331
CF
102
}
  0
BLOCK_RECORD
  5
D8
330
1
100
AcDbSymbolTableRecord
100
AcDbBlockTableRecord
  2
_D
340
0
  0
BLOCK_RECORD
  5
E4
330
1
100
AcDbSymbolTableRecord
100
AcDbBlockTableRecord
  2
_D_1
340
0
  0
BLOCK_RECORD
  5
EF
330
1
100
AcDbSymbolTableRecord
100
AcDbBlockTableRecord
  2
_D_2
340
0
  0
BLOCK_RECORD
  5
FA
330
1
100
AcDbSymbolTableRecord
100
AcDbBlockTableRecord
  2
_D_3
340
0
  0
BLOCK_RECORD
  5
103
330
1
100
AcDbSymbolTableRecord
100
AcDbBlockTableRecord
  2
SW_DOWELSYMBOL_0
340
0
102
{BLKREFS
331
109
102
}
  0
ENDTAB
  0
ENDSEC
  0
SECTION
  2
BLOCKS
  0
BLOCK
  5
20
330
1F
100
AcDbEntity
  8
0
100
AcDbBlockBegin
  2
*Model_Space
 70
     0
 10
0.0
 20
0.0
 30
0.0
  3
*Model_Space
  1

  0
ENDBLK
  5
21
330
1F
100
AcDbEntity
  8
0
100
AcDbBlockEnd
  0
BLOCK
  5
1C
330
1B
100
AcDbEntity
 67
     1
  8
0
100
AcDbBlockBegin
  2
*Paper_Space
 70
     0
 10
0.0
 20
0.0
 30
0.0
  3
*Paper_Space
  1

  0
ENDBLK
  5
1D
330
1B
100
AcDbEntity
 67
     1
  8
0
100
AcDbBlockEnd
  0
BLOCK
  5
24
330
23
100
AcDbEntity
  8
0
100
AcDbBlockBegin
  2
*Paper_Space0
 70
     0
 10
0.0
 20
0.0
 30
0.0
  3
*Paper_Space0
  1

  0
ENDBLK
  5
25
330
23
100
AcDbEntity
  8
0
100
AcDbBlockEnd
  0
BLOCK
  5
83
330
82
100
AcDbEntity
  8
0
100
AcDbBlockBegin
  2
블럭10
 70
     2
 10
0.0
 20
0.0
 30
0.0
  3
블럭10
  1

  0
ELLIPSE
  5
85
330
82
100
AcDbEntity
  8
중심선
100
AcDbEllipse
 10
20.54032771741204
 20
12.0471743016438
 30
0.0
 11
6.600054785286829
 21
-1.261213355974178E-13
 31
0.0
210
0.0
220
0.0
230
1.0
 40
0.636358354079598
 41
0.9219305317359503
 42
6.513795318482858
  0
ELLIPSE
  5
86
330
82
100
AcDbEntity
  8
중심선
100
AcDbEllipse
 10
20.54032771746488
 20
12.04717430159265
 30
0.0
 11
3.960054785062283
 21
1.540847449632565E-10
 31
0.0
210
0.0
220
0.0
230
1.0
 40
0.3939339440162632
 41
1.131841032648279
 42
5.62031148352944
  0
LINE
  5
87
330
82
100
AcDbEntity
  8
중심선
100
AcDbLine
 10
2.268634060543552
 20
16.24717430164393
 30
0.0
 11
5.714909304380834
 21
16.24717430164393
 31
0.0
  0
LINE
  5
88
330
82
100
AcDbEntity
  8
중심선
100
AcDbLine
 10
5.245725140726316
 20
7.84717430164391
 30
0.0
 11
8.692000384563599
 21
7.84717430164391
 31
0.0
  0
LINE
  5
89
330
82
100
AcDbEntity
  8
중심선
100
AcDbLine
 10
15.74043728645272
 20
16.24717430164393
 30
0.0
 11
8.692000384563599
 21
7.84717430164391
 31
0.0
  0
LINE
  5
8A
330
82
100
AcDbEntity
  8
중심선
100
AcDbLine
 10
0.1404042013395286
 20
13.71084872107135
 30
0.0
 11
3.58671253028996
 21
13.71088815037384
 31
0.0
  0
LINE
  5
8B
330
82
100
AcDbEntity
  8
중심선
100
AcDbLine
 10
2.750260043222114
 20
10.84717430164391
 30
0.0
 11
6.196535287059397
 21
10.84717430164391
 31
0.0
  0
LINE
  5
8C
330
82
100
AcDbEntity
  8
중심선
100
AcDbLine
 10
12.29416204261559
 20
16.24717430164393
 30
0.0
 11
5.245725140726316
 21
7.84717430164391
 31
0.0
  0
LINE
  5
8D
330
82
100
AcDbEntity
  8
중심선
100
AcDbLine
 10
10.72767329541681
 20
16.24717430164393
 30
0.0
 11
6.196535287059397
 21
10.84717430164391
 31
0.0
  0
LINE
  5
8E
330
82
100
AcDbEntity
  8
중심선
100
AcDbLine
 10
7.28139805157953
 20
16.24717430164393
 30
0.0
 11
2.750260043222114
 21
10.84717430164391
 31
0.0
  0
LINE
  5
8F
330
82
100
AcDbEntity
  8
중심선
100
AcDbLine
 10
5.714909304380834
 20
16.24717430164393
 30
0.0
 11
3.58671253028996
 21
13.71088815037384
 31
0.0
  0
LINE
  5
90
330
82
100
AcDbEntity
  8
중심선
100
AcDbLine
 10
2.268634060543552
 20
16.24717430164393
 30
0.0
 11
0.1404042013395286
 21
13.71084872107135
 31
0.0
  0
LINE
  5
91
330
82
100
AcDbEntity
  8
중심선
100
AcDbLine
 10
7.28139805157953
 20
16.24717430164393
 30
0.0
 11
10.72767329541681
 21
16.24717430164393
 31
0.0
  0
LINE
  5
92
330
82
100
AcDbEntity
  8
중심선
100
AcDbLine
 10
12.29416204261559
 20
16.24717430164393
 30
0.0
 11
15.74043728645272
 21
16.24717430164393
 31
0.0
  0
LINE
  5
93
330
82
100
AcDbEntity
  8
중심선
100
AcDbLine
 10
19.22036997980202
 20
11.08717430171403
 30
0.0
 11
23.66174974927406
 21
11.08717430171406
 31
0.0
  0
LINE
  5
94
330
82
100
AcDbEntity
  8
중심선
100
AcDbLine
 10
19.22039502424796
 20
13.00717430171391
 30
0.0
 11
19.22036997980202
 21
11.08717430171403
 31
0.0
  0
LINE
  5
95
330
82
100
AcDbEntity
  8
중심선
100
AcDbLine
 10
19.22039502424796
 20
13.00717430171391
 30
0.0
 11
26.96566020931264
 21
13.00717430171391
 31
0.0
  0
LINE
  5
96
330
82
100
AcDbEntity
  8
중심선
100
AcDbLine
 10
22.22332737316547
 20
13.45928029700563
 30
0.0
 11
24.52862924686651
 21
15.39360700705356
 31
0.0
  0
ATTDEF
  5
98
330
82
100
AcDbEntity
  8
FORMAT
 62
     2
100
AcDbText
 10
-16.11926103943555
 20
2.075366912832191
 30
0.0
 40
4.233333333333333
  1
SEME7225070E [ 4 FLUTE ]
 41
0.75
  7
SLDTEXTSTYLE0
 11
-16.11926103943555
 21
-0.0412997538344756
 31
0.0
100
AcDbAttributeDefinition
  3

  2
AUTOATTR0
 70
     0
 74
     1
  0
ENDBLK
  5
84
330
82
100
AcDbEntity
  8
0
100
AcDbBlockEnd
  0
BLOCK
  5
D9
330
D8
100
AcDbEntity
  8
0
100
AcDbBlockBegin
  2
_D
 70
     0
 10
0.0
 20
0.0
 30
0.0
  3
_D
  1

  0
LINE
  5
DB
330
D8
100
AcDbEntity
  8
치수문자_일반주서
 62
     0
370
    -2
100
AcDbLine
 10
82.06250000000001
 20
-12.50000000000001
 30
0.0
 11
94.73193791786541
 21
-12.49999999999997
 31
0.0
  0
LINE
  5
DC
330
D8
100
AcDbEntity
  8
치수문자_일반주서
 62
     0
370
    -2
100
AcDbLine
 10
82.06250000000001
 20
12.5
 30
0.0
 11
94.73193791786532
 21
12.50000000000004
 31
0.0
  0
LINE
  5
DD
330
D8
100
AcDbEntity
  8
치수문자_일반주서
 62
     0
370
    -2
100
AcDbLine
 10
94.73193791786541
 20
-12.49999999999997
 30
0.0
 11
94.73193791786527
 21
27.85400000000004
 31
0.0
  0
LINE
  5
DE
330
D8
100
AcDbEntity
  8
치수문자_일반주서
 62
     0
370
    -2
100
AcDbLine
 10
94.73193791786541
 20
-12.49999999999997
 30
0.0
 11
94.73193791786532
 21
12.50000000000004
 31
0.0
  0
LINE
  5
DF
330
D8
100
AcDbEntity
  8
치수문자_일반주서
 62
     0
370
    -2
100
AcDbLine
 10
94.73193791786542
 20
-15.80199999999997
 30
0.0
 11
94.73193791786544
 21
-19.10399999999997
 31
0.0
  0
LINE
  5
E0
330
D8
100
AcDbEntity
  8
치수문자_일반주서
 62
     0
370
    -2
100
AcDbLine
 10
94.73193791786531
 20
15.80200000000004
 30
0.0
 11
94.7319379178653
 21
19.10400000000004
 31
0.0
  0
SOLID
  5
E1
330
D8
100
AcDbEntity
  8
치수문자_일반주서
 62
     0
100
AcDbTrace
 10
95.28227125119875
 20
-15.80199999999997
 30
0.0
 11
94.1816045845321
 21
-15.80199999999997
 31
0.0
 12
94.73193791786541
 22
-12.49999999999997
 32
0.0
 13
94.73193791786541
 23
-12.49999999999997
 33
0.0
  0
SOLID
  5
12F
330
D8
100
AcDbEntity
  8
치수문자_일반주서
 62
     0
100
AcDbTrace
 10
94.18160458453198
 20
15.80200000000004
 30
0.0
 11
95.28227125119864
 21
15.80200000000004
 31
0.0
 12
94.73193791786532
 22
12.50000000000004
 32
0.0
 13
94.73193791786532
 23
12.50000000000004
 33
0.0
  0
MTEXT
  5
130
330
D8
100
AcDbEntity
  8
치수문자_일반주서
 62
     0
100
AcDbMText
 10
90.35693791786528
 20
23.47900000000002
 30
0.0
 40
3.5
 41
0.0
 71
     2
 72
     1
  1
\A1;%%c25
  7
SLDTEXTSTYLE0
 11
-3.410605131648480E-15
 21
1.0
 31
0.0
 73
     1
 44
1.0
  0
POINT
  5
13C
330
D8
100
AcDbEntity
  8
Defpoints
 62
     0
100
AcDbPoint
 10
82.00000000000001
 20
-12.50000000000001
 30
0.0
  0
POINT
  5
13D
330
D8
100
AcDbEntity
  8
Defpoints
 62
     0
100
AcDbPoint
 10
82.00000000000001
 20
12.5
 30
0.0
  0
POINT
  5
13E
330
D8
100
AcDbEntity
  8
Defpoints
 62
     0
100
AcDbPoint
 10
94.73193791786532
 20
12.50000000000004
 30
0.0
  0
ENDBLK
  5
DA
330
D8
100
AcDbEntity
  8
0
100
AcDbBlockEnd
  0
BLOCK
  5
E5
330
E4
100
AcDbEntity
  8
0
100
AcDbBlockBegin
  2
_D_1
 70
     0
 10
0.0
 20
0.0
 30
0.0
  3
_D_1
  1

  0
LINE
  5
E7
330
E4
100
AcDbEntity
  8
치수문자_일반주서
 62
     0
370
    -2
100
AcDbLine
 10
-67.99999999999997
 20
12.06249999999998
 30
0.0
 11
-67.99999999999999
 21
29.88913260158163
 31
0.0
  0
LINE
  5
E8
330
E4
100
AcDbEntity
  8
치수문자_일반주서
 62
     0
370
    -2
100
AcDbLine
 10
82.00000000000001
 20
12.5625
 30
0.0
 11
82.0
 21
29.88913260158163
 31
0.0
  0
LINE
  5
E9
330
E4
100
AcDbEntity
  8
치수문자_일반주서
 62
     0
370
    -2
100
AcDbLine
 10
-64.69799999999998
 20
29.88913260158163
 30
0.0
 11
78.69800000000001
 21
29.88913260158163
 31
0.0
  0
SOLID
  5
EA
330
E4
100
AcDbEntity
  8
치수문자_일반주서
 62
     0
100
AcDbTrace
 10
-64.69799999999998
 20
30.43946593491497
 30
0.0
 11
-64.69799999999998
 21
29.3387992682483
 31
0.0
 12
-67.99999999999999
 22
29.88913260158163
 32
0.0
 13
-67.99999999999999
 23
29.88913260158163
 33
0.0
  0
SOLID
  5
EB
330
E4
100
AcDbEntity
  8
치수문자_일반주서
 62
     0
100
AcDbTrace
 10
78.69800000000001
 20
29.3387992682483
 30
0.0
 11
78.69800000000001
 21
30.43946593491497
 31
0.0
 12
82.0
 22
29.88913260158163
 32
0.0
 13
82.0
 23
29.88913260158163
 33
0.0
  0
MTEXT
  5
EC
330
E4
100
AcDbEntity
  8
치수문자_일반주서
 62
     0
100
AcDbMText
 10
7.000000000000015
 20
34.26413260158164
 30
0.0
 40
3.5
 41
0.0
 71
     2
 72
     1
  1
\A1;150
  7
SLDTEXTSTYLE0
 73
     1
 44
1.0
  0
POINT
  5
131
330
E4
100
AcDbEntity
  8
Defpoints
 62
     0
100
AcDbPoint
 10
-67.99999999999997
 20
11.99999999999998
 30
0.0
  0
POINT
  5
132
330
E4
100
AcDbEntity
  8
Defpoints
 62
     0
100
AcDbPoint
 10
82.00000000000001
 20
12.5
 30
0.0
  0
POINT
  5
133
330
E4
100
AcDbEntity
  8
Defpoints
 62
     0
100
AcDbPoint
 10
82.00000000000001
 20
29.88913260158163
 30
0.0
  0
ENDBLK
  5
E6
330
E4
100
AcDbEntity
  8
0
100
AcDbBlockEnd
  0
BLOCK
  5
F0
330
EF
100
AcDbEntity
  8
0
100
AcDbBlockBegin
  2
_D_2
 70
     0
 10
0.0
 20
0.0
 30
0.0
  3
_D_2
  1

  0
LINE
  5
F2
330
EF
100
AcDbEntity
  8
치수문자_일반주서
 62
     0
370
    -2
100
AcDbLine
 10
-67.56249999999997
 20
12.49999999999998
 30
0.0
 11
-82.27308515595685
 21
12.49999999999992
 31
0.0
  0
LINE
  5
F3
330
EF
100
AcDbEntity
  8
치수문자_일반주서
 62
     0
370
    -2
100
AcDbLine
 10
-67.56249999999997
 20
-12.50000000000002
 30
0.0
 11
-82.27308515595676
 21
-12.50000000000008
 31
0.0
  0
LINE
  5
F4
330
EF
100
AcDbEntity
  8
치수문자_일반주서
 62
     0
370
    -2
100
AcDbLine
 10
-82.27308515595685
 20
12.49999999999992
 30
0.0
 11
-82.2730851559569
 21
27.85399999999992
 31
0.0
  0
LINE
  5
F5
330
EF
100
AcDbEntity
  8
치수문자_일반주서
 62
     0
370
    -2
100
AcDbLine
 10
-82.27308515595685
 20
12.49999999999992
 30
0.0
 11
-82.27308515595676
 21
-12.50000000000008
 31
0.0
  0
LINE
  5
F6
330
EF
100
AcDbEntity
  8
치수문자_일반주서
 62
     0
370
    -2
100
AcDbLine
 10
-82.27308515595686
 20
15.80199999999992
 30
0.0
 11
-82.27308515595688
 21
19.10399999999992
 31
0.0
  0
LINE
  5
F7
330
EF
100
AcDbEntity
  8
치수문자_일반주서
 62
     0
370
    -2
100
AcDbLine
 10
-82.27308515595675
 20
-15.80200000000008
 30
0.0
 11
-82.27308515595674
 21
-19.10400000000008
 31
0.0
  0
SOLID
  5
F8
330
EF
100
AcDbEntity
  8
치수문자_일반주서
 62
     0
100
AcDbTrace
 10
-82.82341848929019
 20
15.80199999999992
 30
0.0
 11
-81.72275182262354
 21
15.80199999999992
 31
0.0
 12
-82.27308515595685
 22
12.49999999999992
 32
0.0
 13
-82.27308515595685
 23
12.49999999999992
 33
0.0
  0
SOLID
  5
134
330
EF
100
AcDbEntity
  8
치수문자_일반주서
 62
     0
100
AcDbTrace
 10
-81.72275182262342
 20
-15.80200000000008
 30
0.0
 11
-82.82341848929008
 21
-15.80200000000008
 31
0.0
 12
-82.27308515595676
 22
-12.50000000000008
 32
0.0
 13
-82.27308515595676
 23
-12.50000000000008
 33
0.0
  0
MTEXT
  5
135
330
EF
100
AcDbEntity
  8
치수문자_일반주서
 62
     0
100
AcDbMText
 10
-86.64808515595689
 20
23.4789999999999
 30
0.0
 40
3.5
 41
0.0
 71
     2
 72
     1
  1
\A1;%%c25
  7
SLDTEXTSTYLE0
 11
-3.410605131648482E-15
 21
1.0
 31
0.0
 73
     1
 44
1.0
  0
POINT
  5
139
330
EF
100
AcDbEntity
  8
Defpoints
 62
     0
100
AcDbPoint
 10
-67.49999999999997
 20
12.49999999999998
 30
0.0
  0
POINT
  5
13A
330
EF
100
AcDbEntity
  8
Defpoints
 62
     0
100
AcDbPoint
 10
-67.49999999999997
 20
-12.50000000000002
 30
0.0
  0
POINT
  5
13B
330
EF
100
AcDbEntity
  8
Defpoints
 62
     0
100
AcDbPoint
 10
-82.2730851559568
 20
-12.50000000000007
 30
0.0
  0
ENDBLK
  5
F1
330
EF
100
AcDbEntity
  8
0
100
AcDbBlockEnd
  0
BLOCK
  5
FB
330
FA
100
AcDbEntity
  8
0
100
AcDbBlockBegin
  2
_D_3
 70
     0
 10
0.0
 20
0.0
 30
0.0
  3
_D_3
  1

  0
LINE
  5
FD
330
FA
100
AcDbEntity
  8
치수문자_일반주서
 62
     0
370
    -2
100
AcDbLine
 10
11.99999999999999
 20
12.5625
 30
0.0
 11
11.99999999999999
 21
23.23755519419383
 31
0.0
  0
LINE
  5
FE
330
FA
100
AcDbEntity
  8
치수문자_일반주서
 62
     0
370
    -2
100
AcDbLine
 10
82.00000000000001
 20
12.5625
 30
0.0
 11
82.0
 21
23.23755519419383
 31
0.0
  0
LINE
  5
FF
330
FA
100
AcDbEntity
  8
치수문자_일반주서
 62
     0
370
    -2
100
AcDbLine
 10
15.30199999999999
 20
23.23755519419383
 30
0.0
 11
78.69800000000001
 21
23.23755519419383
 31
0.0
  0
SOLID
  5
100
330
FA
100
AcDbEntity
  8
치수문자_일반주서
 62
     0
100
AcDbTrace
 10
15.30199999999999
 20
23.78788852752717
 30
0.0
 11
15.30199999999999
 21
22.6872218608605
 31
0.0
 12
11.99999999999999
 22
23.23755519419383
 32
0.0
 13
11.99999999999999
 23
23.23755519419383
 33
0.0
  0
SOLID
  5
101
330
FA
100
AcDbEntity
  8
치수문자_일반주서
 62
     0
100
AcDbTrace
 10
78.69800000000001
 20
22.6872218608605
 30
0.0
 11
78.69800000000001
 21
23.78788852752717
 31
0.0
 12
82.0
 22
23.23755519419383
 32
0.0
 13
82.0
 23
23.23755519419383
 33
0.0
  0
MTEXT
  5
102
330
FA
100
AcDbEntity
  8
치수문자_일반주서
 62
     0
100
AcDbMText
 10
47.0
 20
27.61255519419383
 30
0.0
 40
3.5
 41
0.0
 71
     2
 72
     1
  1
\A1;70
  7
SLDTEXTSTYLE0
 73
     1
 44
1.0
  0
POINT
  5
136
330
FA
100
AcDbEntity
  8
Defpoints
 62
     0
100
AcDbPoint
 10
11.99999999999999
 20
12.5
 30
0.0
  0
POINT
  5
137
330
FA
100
AcDbEntity
  8
Defpoints
 62
     0
100
AcDbPoint
 10
82.00000000000001
 20
12.5
 30
0.0
  0
POINT
  5
138
330
FA
100
AcDbEntity
  8
Defpoints
 62
     0
100
AcDbPoint
 10
82.00000000000001
 20
23.23755519419383
 30
0.0
  0
ENDBLK
  5
FC
330
FA
100
AcDbEntity
  8
0
100
AcDbBlockEnd
  0
BLOCK
  5
104
330
103
100
AcDbEntity
  8
0
100
AcDbBlockBegin
  2
SW_DOWELSYMBOL_0
 70
     0
 10
0.0
 20
0.0
 30
0.0
  3
SW_DOWELSYMBOL_0
  1

  0
CIRCLE
  5
106
330
103
100
AcDbEntity
  8
해칭선
 62
     0
100
AcDbCircle
 10
0.0
 20
0.0
 30
0.0
 40
3.0
  0
HATCH
  5
107
330
103
100
AcDbEntity
  8
0
  6
Continuous
 62
     0
370
    18
100
AcDbHatch
 10
0.0
 20
0.0
 30
0.0
210
0.0
220
0.0
230
1.0
  2
SOLID
 70
     1
 71
     0
 91
        1
 92
        0
 93
        3
 72
     2
 10
0.0
 20
0.0
 40
3.0
 50
0.0
 51
90.0
 73
     1
 72
     1
 10
0.0
 20
3.0
 11
0.0
 21
0.0
 72
     1
 10
0.0
 20
0.0
 11
3.0
 21
0.0
 97
        0
 75
     0
 76
     1
 98
        1
 10
0.0
 20
0.0
  0
HATCH
  5
108
330
103
100
AcDbEntity
  8
0
  6
Continuous
 62
     0
370
    18
100
AcDbHatch
 10
0.0
 20
0.0
 30
0.0
210
0.0
220
0.0
230
1.0
  2
SOLID
 70
     1
 71
     0
 91
        1
 92
        0
 93
        3
 72
     2
 10
0.0
 20
0.0
 40
3.0
 50
180.0
 51
270.0000000000008
 73
     1
 72
     1
 10
0.0
 20
-3.0
 11
0.0
 21
0.0
 72
     1
 10
0.0
 20
0.0
 11
-3.0
 21
0.0
 97
        0
 75
     0
 76
     1
 98
        1
 10
0.0
 20
0.0
  0
ENDBLK
  5
105
330
103
100
AcDbEntity
  8
0
100
AcDbBlockEnd
  0
ENDSEC
  0
SECTION
  2
ENTITIES
  0
LINE
  5
99
330
1F
100
AcDbEntity
  8
0
  6
Continuous
 62
     4
370
    25
100
AcDbLine
 10
10.49995308423087
 20
-5.049529744670148
 30
0.0
 11
10.4999530375005
 21
-5.049050611642653
 31
0.0
  0
LINE
  5
9A
330
1F
100
AcDbEntity
  8
0
  6
Continuous
 62
     4
370
    25
100
AcDbLine
 10
12.0
 20
12.49999999999999
 30
0.0
 11
-67.49999999999997
 21
12.49999999999999
 31
0.0
  0
LINE
  5
9B
330
1F
100
AcDbEntity
  8
0
  6
Continuous
 62
     4
370
    25
100
AcDbLine
 10
-67.49999999999997
 20
-12.50000000000001
 30
0.0
 11
12.0
 21
-12.50000000000001
 31
0.0
  0
LINE
  5
9C
330
1F
100
AcDbEntity
  8
0
  6
Continuous
 62
     4
370
    25
100
AcDbLine
 10
-67.49999999999997
 20
12.49999999999999
 30
0.0
 11
-67.99999999999997
 21
11.99999999999998
 31
0.0
  0
LINE
  5
9D
330
1F
100
AcDbEntity
  8
0
  6
Continuous
 62
     4
370
    25
100
AcDbLine
 10
-67.99999999999997
 20
-12.00000000000001
 30
0.0
 11
-67.49999999999997
 21
-12.50000000000001
 31
0.0
  0
LINE
  5
9E
330
1F
100
AcDbEntity
  8
0
  6
Continuous
 62
     1
370
    25
100
AcDbLine
 10
52.82734555740306
 20
12.5
 30
0.0
 11
43.15576419639159
 21
12.5
 31
0.0
  0
LINE
  5
9F
330
1F
100
AcDbEntity
  8
0
  6
Continuous
 62
     1
370
    25
100
AcDbLine
 10
43.1557641963914
 20
-12.50000000000001
 30
0.0
 11
52.82734555740312
 21
-12.50000000000001
 31
0.0
  0
LINE
  5
A0
330
1F
100
AcDbEntity
  8
0
  6
Continuous
 62
     1
370
    25
100
AcDbLine
 10
77.16470007483301
 20
-12.50000000000001
 30
0.0
 11
82.00000000000001
 21
-12.50000000000001
 31
0.0
  0
LINE
  5
A1
330
1F
100
AcDbEntity
  8
0
  6
Continuous
 62
     1
370
    25
100
AcDbLine
 10
18.81705217090606
 20
12.5
 30
0.0
 11
11.99999999999999
 21
12.5
 31
0.0
  0
LINE
  5
A2
330
1F
100
AcDbEntity
  8
0
  6
Continuous
 62
     1
370
    25
100
AcDbLine
 10
12.0
 20
-12.50000000000001
 30
0.0
 11
18.81705217090583
 21
-12.50000000000001
 31
0.0
  0
LINE
  5
A3
330
1F
100
AcDbEntity
  8
0
  6
Continuous
 62
     1
370
    25
100
AcDbLine
 10
82.00000000000001
 20
12.5
 30
0.0
 11
77.16470007483304
 21
12.5
 31
0.0
  0
SPLINE
  5
A4
330
1F
100
AcDbEntity
  8
0
  6
Continuous
 62
     4
370
    25
100
AcDbSpline
210
0.0
220
0.0
230
1.0
 70
    24
 71
     3
 72
    17
 73
    13
 74
     0
 42
0.000000001
 43
0.00000001
 40
0.0
 40
0.0
 40
0.0
 40
0.0
 40
0.0399363186921682
 40
0.152435236849587
 40
0.2725998299319176
 40
0.3967829597207113
 40
0.5084635602010221
 40
0.6237511062153416
 40
0.7298150188953858
 40
0.838856893660462
 40
0.9188711488153557
 40
1.0
 40
1.0
 40
1.0
 40
1.0
 10
12.0
 20
-2.779471010456578
 30
0.0
 10
12.0
 20
-2.773863981704528
 30
0.0
 10
12.0
 20
-2.752462190457083
 30
0.0
 10
12.0
 20
-2.92112521581269
 30
0.0
 10
12.0
 20
-3.312924253664675
 30
0.0
 10
12.0
 20
-3.947376739438542
 30
0.0
 10
12.0
 20
-4.773941247114664
 30
0.0
 10
12.0
 20
-5.725203680644638
 30
0.0
 10
12.0
 20
-6.798538831287543
 30
0.0
 10
12.0
 20
-7.842565627958649
 30
0.0
 10
12.0
 20
-8.840451296451494
 30
0.0
 10
12.0
 20
-9.450471561742706
 30
0.0
 10
12.0
 20
-9.757591391108221
 30
0.0
  0
SPLINE
  5
A5
330
1F
100
AcDbEntity
  8
0
  6
Continuous
 62
     4
370
    25
100
AcDbSpline
210
0.0
220
0.0
230
1.0
 70
     8
 71
     3
 72
    14
 73
    10
 74
     0
 42
0.000000001
 43
0.00000001
 40
0.0
 40
0.0
 40
0.0
 40
0.0
 40
0.25
 40
0.25
 40
0.5
 40
0.5
 40
0.75
 40
0.75
 40
1.0
 40
1.0
 40
1.0
 40
1.0
 10
11.76048513148625
 20
-11.84188287136222
 30
0.0
 10
11.56312698286025
 20
-11.80543227995705
 30
0.0
 10
11.38578235336916
 20
-11.75983824155637
 30
0.0
 10
11.06994583966413
 20
-11.64640023768531
 30
0.0
 10
10.93389556561127
 20
-11.57876611380483
 30
0.0
 10
10.71701995620872
 20
-11.42451382323769
 30
0.0
 10
10.63402770928629
 20
-11.33598132899902
 30
0.0
 10
10.52633961961586
 20
-11.14495877152096
 30
0.0
 10
10.49995303749687
 20
-11.04074088687505
 30
0.0
 10
10.49995303749687
 20
-10.93032155201593
 30
0.0
  0
SPLINE
  5
A6
330
1F
100
AcDbEntity
  8
0
  6
Continuous
 62
     4
370
    25
100
AcDbSpline
210
0.0
220
0.0
230
1.0
 70
     8
 71
     3
 72
    16
 73
    12
 74
     0
 42
0.000000001
 43
0.00000001
 40
0.0
 40
0.0
 40
0.0
 40
0.0
 40
0.2499999999999999
 40
0.2499999999999999
 40
0.3749999999999998
 40
0.3749999999999998
 40
0.4999999999999998
 40
0.4999999999999998
 40
0.7499999999999999
 40
0.7499999999999999
 40
1.0
 40
1.0
 40
1.0
 40
1.0
 10
10.49995303749687
 20
-5.049190472663651
 30
0.0
 10
10.49995303749687
 20
-4.820337659261657
 30
0.0
 10
10.53112661298651
 20
-4.593246907680228
 30
0.0
 10
10.62910302514676
 20
-4.25642899115985
 30
0.0
 10
10.6707001473784
 20
-4.144479509303114
 30
0.0
 10
10.76919150792158
 20
-3.929584023044886
 30
0.0
 10
10.82628221887476
 20
-3.825701936804805
 30
0.0
 10
11.02146026585297
 20
-3.525258630724956
 30
0.0
 10
11.18546125331649
 20
-3.339132365431929
 30
0.0
 10
11.55776770447833
 20
-3.025521678318927
 30
0.0
 10
11.77069409969124
 20
-2.893409811611954
 30
0.0
 10
12.0
 20
-2.795021761621447
 30
0.0
  0
SPLINE
  5
A7
330
1F
100
AcDbEntity
  8
0
  6
Continuous
 62
     4
370
    25
100
AcDbSpline
210
0.0
220
0.0
230
1.0
 70
     8
 71
     3
 72
     8
 73
     4
 74
     0
 42
0.000000001
 43
0.00000001
 40
0.0
 40
0.0
 40
0.0
 40
0.0
 40
1.0
 40
1.0
 40
1.0
 40
1.0
 10
12.0
 20
-11.88539149630975
 30
0.0
 10
11.92015339227222
 20
-11.87112976394325
 30
0.0
 10
11.84031266570901
 20
-11.8566264269392
 30
0.0
 10
11.76048513148625
 20
-11.84188287136222
 30
0.0
  0
SPLINE
  5
A8
330
1F
100
AcDbEntity
  8
0
  6
Continuous
 62
     4
370
    25
100
AcDbSpline
210
0.0
220
0.0
230
1.0
 70
     8
 71
     3
 72
    16
 73
    12
 74
     0
 42
0.000000001
 43
0.00000001
 40
0.0
 40
0.0
 40
0.0
 40
0.0
 40
0.2500000000000005
 40
0.2500000000000005
 40
0.3750000000000006
 40
0.3750000000000006
 40
0.5000000000000008
 40
0.5000000000000008
 40
0.7500000000000003
 40
0.7500000000000003
 40
1.0
 40
1.0
 40
1.0
 40
1.0
 10
10.49995303749687
 20
11.43484479871782
 30
0.0
 10
10.49995303749687
 20
11.53589745534864
 30
0.0
 10
10.53112661298651
 20
11.62796281073111
 30
0.0
 10
10.62910302514676
 20
11.75360248238299
 30
0.0
 10
10.67070014737839
 20
11.79348036187385
 30
0.0
 10
10.76919150792158
 20
11.86681334035249
 30
0.0
 10
10.82628221887475
 20
11.90063074190441
 30
0.0
 10
11.02146026585297
 20
11.99443958858546
 30
0.0
 10
11.18546125331649
 20
12.04684552300551
 30
0.0
 10
11.55776770447833
 20
12.12940685207051
 30
0.0
 10
11.77069409969124
 20
12.16093620289345
 30
0.0
 10
12.0
 20
12.18350743226527
 30
0.0
  0
LINE
  5
A9
330
1F
100
AcDbEntity
  8
0
  6
Continuous
 62
     4
370
    25
100
AcDbLine
 10
10.49995303749687
 20
11.43484479871781
 30
0.0
 11
10.49995303749687
 21
6.064492622597339
 31
0.0
  0
SPLINE
  5
AA
330
1F
100
AcDbEntity
  8
0
  6
Continuous
 62
     4
370
    25
100
AcDbSpline
210
0.0
220
0.0
230
1.0
 70
     8
 71
     3
 72
    14
 73
    10
 74
     0
 42
0.000000001
 43
0.00000001
 40
0.0
 40
0.0
 40
0.0
 40
0.0
 40
0.25
 40
0.25
 40
0.5
 40
0.5
 40
0.75
 40
0.75
 40
1.0
 40
1.0
 40
1.0
 40
1.0
 10
11.76048513148625
 20
4.002475491610062
 30
0.0
 10
11.56312698286025
 20
4.110319658280628
 30
0.0
 10
11.38578235336916
 20
4.24055029663826
 30
0.0
 10
11.06994583966413
 20
4.542843139437461
 30
0.0
 10
10.93389556561127
 20
4.713911654271906
 30
0.0
 10
10.71701995620873
 20
5.076344324917937
 30
0.0
 10
10.63402770928629
 20
5.271925247357148
 30
0.0
 10
10.52633961961586
 20
5.664588465743492
 30
0.0
 10
10.49995303749687
 20
5.865478638958754
 30
0.0
 10
10.49995303749687
 20
6.064492622597338
 30
0.0
  0
SPLINE
  5
AB
330
1F
100
AcDbEntity
  8
0
  6
Continuous
 62
     4
370
    25
100
AcDbSpline
210
0.0
220
0.0
230
1.0
 70
     8
 71
     3
 72
     8
 73
     4
 74
     0
 42
0.000000001
 43
0.00000001
 40
0.0
 40
0.0
 40
0.0
 40
0.0
 40
1.0
 40
1.0
 40
1.0
 40
1.0
 10
12.0
 20
3.871365260402193
 30
0.0
 10
11.92015339227221
 20
3.91514988447921
 30
0.0
 10
11.84031266570901
 20
3.958854622821243
 30
0.0
 10
11.76048513148625
 20
4.002475491610062
 30
0.0
  0
LINE
  5
AC
330
1F
100
AcDbEntity
  8
0
  6
Continuous
 62
     4
370
    25
100
AcDbLine
 10
10.49995303749687
 20
-5.04919047266365
 30
0.0
 11
10.49995303749687
 21
-10.93032155201593
 31
0.0
  0
LINE
  5
AD
330
1F
100
AcDbEntity
  8
0
  6
Continuous
 62
     4
370
    25
100
AcDbLine
 10
-67.49999999999997
 20
12.49999999999999
 30
0.0
 11
-67.49999999999997
 21
-12.49999999999999
 31
0.0
  0
LINE
  5
AE
330
1F
100
AcDbEntity
  8
0
  6
Continuous
 62
     4
370
    25
100
AcDbLine
 10
12.0
 20
12.49999999999999
 30
0.0
 11
12.0
 21
12.18350743226527
 31
0.0
  0
LINE
  5
AF
330
1F
100
AcDbEntity
  8
0
  6
Continuous
 62
     4
370
    25
100
AcDbLine
 10
12.0
 20
-11.88539149630975
 30
0.0
 11
12.0
 21
-12.50000000000001
 31
0.0
  0
LINE
  5
B0
330
1F
100
AcDbEntity
  8
0
  6
Continuous
 62
     4
370
    25
100
AcDbLine
 10
12.0
 20
3.871365260402193
 30
0.0
 11
12.0
 21
-2.795021761621448
 31
0.0
  0
LINE
  5
B1
330
1F
100
AcDbEntity
  8
0
  6
Continuous
 62
     4
370
    25
100
AcDbLine
 10
-67.99999999999997
 20
11.99999999999998
 30
0.0
 11
-67.99999999999997
 21
-12.00000000000001
 31
0.0
  0
SPLINE
  5
B2
330
1F
100
AcDbEntity
  8
0
  6
Continuous
 62
     4
370
    25
100
AcDbSpline
210
0.0
220
0.0
230
1.0
 70
    24
 71
     3
 72
    17
 73
    13
 74
     0
 42
0.000000001
 43
0.00000001
 40
0.0
 40
0.0
 40
0.0
 40
0.0
 40
0.1113449261055803
 40
0.2226620177958038
 40
0.3450098068629608
 40
0.4673063286135013
 40
0.5809324443459157
 40
0.6945484366959448
 40
0.8022207569314606
 40
0.9099185629935885
 40
0.9905876092628662
 40
1.0
 40
1.0
 40
1.0
 40
1.0
 10
12.0
 20
12.18350743226527
 30
0.0
 10
12.0
 20
11.76041893475357
 30
0.0
 10
12.0
 20
10.91434770495344
 30
0.0
 10
12.0
 20
9.609400117405698
 30
0.0
 10
12.0
 20
8.312812226725072
 30
0.0
 10
12.0
 20
7.099748711825082
 30
0.0
 10
12.0
 20
6.052125616864704
 30
0.0
 10
12.0
 20
5.201767654647613
 30
0.0
 10
12.0
 20
4.541831090771904
 30
0.0
 10
12.0
 20
4.125786023281973
 30
0.0
 10
12.0
 20
3.918425188929324
 30
0.0
 10
12.0
 20
3.875817259539807
 30
0.0
 10
12.0
 20
3.871365260401674
 30
0.0
  0
SPLINE
  5
B3
330
1F
100
AcDbEntity
  8
0
  6
Continuous
 62
     4
370
    25
100
AcDbSpline
210
0.0
220
0.0
230
1.0
 70
    24
 71
     3
 72
    10
 73
     6
 74
     0
 42
0.000000001
 43
0.00000001
 40
0.0
 40
0.0
 40
0.0
 40
0.0
 40
0.5
 40
0.5
 40
1.0
 40
1.0
 40
1.0
 40
1.0
 10
12.0
 20
-9.757591391108221
 30
0.0
 10
12.0
 20
-10.11081685135794
 30
0.0
 10
12.0
 20
-10.46738000418916
 30
0.0
 10
12.0
 20
-11.17929855415031
 30
0.0
 10
12.0
 20
-11.53463423030097
 30
0.0
 10
12.0
 20
-11.88539149630975
 30
0.0
  0
SPLINE
  5
B4
330
1F
100
AcDbEntity
  8
0
  6
Continuous
 62
     1
370
    25
100
AcDbSpline
210
0.0
220
0.0
230
1.0
 70
     8
 71
     3
 72
    22
 73
    18
 74
     0
 42
0.000000001
 43
0.00000001
 40
0.0
 40
0.0
 40
0.0
 40
0.0
 40
0.0488779027617949
 40
0.117157448912314
 40
0.1854382884423934
 40
0.2537209866009162
 40
0.3220061077338511
 40
0.3902942150109147
 40
0.4585858701534514
 40
0.5268815948032569
 40
0.5951765671396415
 40
0.6634675335768392
 40
0.7317550544507319
 40
0.7988203977031061
 40
0.8658822225911206
 40
0.9329416993335345
 40
1.0
 40
1.0
 40
1.0
 40
1.0
 10
30.9845121564704
 20
10.54446746352084
 30
0.0
 10
31.78657021536902
 20
10.79141350248688
 30
0.0
 10
33.7090560576538
 20
11.38332858700387
 30
0.0
 10
36.75175937626346
 20
11.99899572036581
 30
0.0
 10
40.11295443013874
 20
12.428305304368
 30
0.0
 10
43.47423741911954
 20
12.54850180918219
 30
0.0
 10
46.83566910053853
 20
12.36954702205457
 30
0.0
 10
50.1972766364083
 20
11.89228534115734
 30
0.0
 10
53.5590895052396
 20
11.12909879670832
 30
0.0
 10
56.92107018329706
 20
10.09812652691023
 30
0.0
 10
60.28302767554608
 20
8.82422270787832
 30
0.0
 10
63.64479855251052
 20
7.338001358258321
 30
0.0
 10
66.98637605087107
 20
5.685226783323091
 30
0.0
 10
70.30770097050606
 20
3.90850125833768
 30
0.0
 10
73.60885059183389
 20
2.052570755335426
 30
0.0
 10
76.90985894034685
 20
0.146118990585967
 30
0.0
 10
79.11049175858867
 20
-1.119838946411718
 30
0.0
 10
80.21079851905833
 20
-1.752812364331396
 30
0.0
  0
SPLINE
  5
B5
330
1F
100
AcDbEntity
  8
0
  6
Continuous
 62
     1
370
    25
100
AcDbSpline
210
0.0
220
0.0
230
1.0
 70
     8
 71
     3
 72
    16
 73
    12
 74
     0
 42
0.000000001
 43
0.00000001
 40
0.0
 40
0.0
 40
0.0
 40
0.0
 40
0.1254050505890655
 40
0.2508110698993566
 40
0.3762180137466773
 40
0.5016258378881836
 40
0.6270344980251621
 40
0.752443949805815
 40
0.8706987097869738
 40
0.9889557140637355
 40
1.0
 40
1.0
 40
1.0
 40
1.0
 10
81.99999999999999
 20
2.768456834120609
 30
0.0
 10
80.78053439151964
 20
3.447432448682532
 30
0.0
 10
78.34159375450596
 20
4.805388922715467
 30
0.0
 10
74.68316169116731
 20
6.684341908468722
 30
0.0
 10
71.02469841427903
 20
8.378358887533519
 30
0.0
 10
67.36620150558309
 20
9.832882013701472
 30
0.0
 10
63.7076854726828
 20
11.00509834927161
 30
0.0
 10
60.11868610501036
 20
11.85689482025585
 30
0.0
 10
56.59935953581746
 20
12.34223979093823
 30
0.0
 10
54.19208966085523
 20
12.5423406647387
 30
0.0
 10
52.93474206053419
 20
12.49097410927
 30
0.0
 10
52.82734555740306
 20
12.48658662848599
 30
0.0
  0
LINE
  5
B6
330
1F
100
AcDbEntity
  8
0
  6
Continuous
 62
     1
370
    25
100
AcDbLine
 10
82.00000000000001
 20
-0.5000000000000446
 30
0.0
 11
82.00000000000001
 21
2.768456834120846
 31
0.0
  0
LINE
  5
B7
330
1F
100
AcDbEntity
  8
0
  6
Continuous
 62
     1
370
    25
100
AcDbLine
 10
82.00000000000001
 20
-0.500000000000049
 30
0.0
 11
80.21079851905833
 21
-1.752812364331403
 31
0.0
  0
SPLINE
  5
B8
330
1F
100
AcDbEntity
  8
0
  6
Continuous
 62
     1
370
    25
100
AcDbSpline
210
0.0
220
0.0
230
1.0
 70
     8
 71
     3
 72
    25
 73
    21
 74
     0
 42
0.000000001
 43
0.00000001
 40
0.0
 40
0.0
 40
0.0
 40
0.0
 40
0.0579011623538028
 40
0.1158027719789451
 40
0.1737048084750022
 40
0.2316072514144706
 40
0.2895100803440512
 40
0.3474132747859354
 40
0.4020130538587576
 40
0.4566138691523975
 40
0.5112158131741946
 40
0.5658188014535804
 40
0.6204210497874986
 40
0.6750221457028689
 40
0.7296221816585858
 40
0.7842212502965784
 40
0.8388194444259327
 40
0.8934168570069523
 40
0.9470385695716074
 40
1.0
 40
1.0
 40
1.0
 40
1.0
 10
81.99999999999999
 20
-12.18957122943777
 30
0.0
 10
80.78053439160377
 20
-12.00005891220257
 30
0.0
 10
78.34159375475838
 20
-11.62103281379909
 30
0.0
 10
74.68316169015762
 20
-10.62839992428966
 30
0.0
 10
71.02469841806544
 20
-9.357922361811212
 30
0.0
 10
67.36620149144701
 20
-7.814172369339934
 30
0.0
 10
63.70768552544111
 20
-6.049619704153955
 30
0.0
 10
60.11868591285971
 20
-4.14902149547342
 30
0.0
 10
56.59936020754986
 20
-2.176143461129632
 30
0.0
 10
53.14951181372557
 20
-0.1870566085051023
 30
0.0
 10
49.69959255605794
 20
1.806765414072049
 30
0.0
 10
46.24962012634897
 20
3.754801267889662
 30
0.0
 10
42.79968172802229
 20
5.607736796048411
 30
0.0
 10
39.34981984685168
 20
7.318565820627828
 30
0.0
 10
35.90003868130432
 20
8.844097693253023
 30
0.0
 10
32.45032958426545
 20
10.14512464728271
 30
0.0
 10
29.00069145397269
 20
11.19080928336298
 30
0.0
 10
25.57162966007059
 20
11.94227199930846
 30
0.0
 10
22.17711132250848
 20
12.41369505309671
 30
0.0
 10
19.93243663793401
 20
12.47011195195972
 30
0.0
 10
18.81705217090605
 20
12.49814565016201
 30
0.0
  0
SPLINE
  5
B9
330
1F
100
AcDbEntity
  8
0
  6
Continuous
 62
     1
370
    25
100
AcDbSpline
210
0.0
220
0.0
230
1.0
 70
     8
 71
     3
 72
     8
 73
     4
 74
     0
 42
0.000000001
 43
0.00000001
 40
0.0
 40
0.0
 40
0.0
 40
0.0
 40
1.0
 40
1.0
 40
1.0
 40
1.0
 10
82.00000000000001
 20
-9.013109139888329
 30
0.0
 10
79.88090944563272
 20
-7.822876471091089
 30
0.0
 10
77.87915893297206
 20
-6.364811010664953
 30
0.0
 10
75.95303167161269
 20
-4.734132806852234
 30
0.0
  0
LINE
  5
BA
330
1F
100
AcDbEntity
  8
0
  6
Continuous
 62
     1
370
    25
100
AcDbLine
 10
82.00000000000001
 20
-12.18957122944077
 30
0.0
 11
82.00000000000001
 21
-9.013109139888325
 31
0.0
  0
SPLINE
  5
BB
330
1F
100
AcDbEntity
  8
0
  6
Continuous
 62
     1
370
    25
100
AcDbSpline
210
0.0
220
0.0
230
1.0
 70
    24
 71
     3
 72
    22
 73
    18
 74
     0
 42
0.000000001
 43
0.00000001
 40
0.0
 40
0.0
 40
0.0
 40
0.0
 40
0.2499999999999987
 40
0.2499999999999987
 40
0.3749999999999978
 40
0.3749999999999978
 40
0.4999999999999969
 40
0.4999999999999969
 40
0.5624999999999973
 40
0.5624999999999973
 40
0.6249999999999978
 40
0.6249999999999978
 40
0.7499999999999986
 40
0.7499999999999986
 40
0.8749999999999993
 40
0.8749999999999993
 40
1.0
 40
1.0
 40
1.0
 40
1.0
 10
80.21079851905833
 20
-1.752812364331392
 30
0.0
 10
80.20921656925472
 20
-1.753920057508971
 30
0.0
 10
80.13233571152001
 20
-1.807752613638815
 30
0.0
 10
79.86933820360706
 20
-1.9919054512098
 30
0.0
 10
79.75489464909077
 20
-2.072039690781638
 30
0.0
 10
79.4763155744537
 20
-2.267102858830001
 30
0.0
 10
79.31221568980936
 20
-2.382006835077314
 30
0.0
 10
79.0254542452819
 20
-2.582799360203354
 30
0.0
 10
78.92250131722267
 20
-2.654887776511285
 30
0.0
 10
78.70720104436188
 20
-2.805642650547014
 30
0.0
 10
78.5944892099088
 20
-2.884564326676399
 30
0.0
 10
78.24152505942224
 20
-3.131712485564876
 30
0.0
 10
77.98576325405071
 20
-3.310798829672126
 30
0.0
 10
77.43767166269986
 20
-3.694576693565338
 30
0.0
 10
77.15305606672321
 20
-3.8938666793603
 30
0.0
 10
76.56503748084664
 20
-4.305601725798462
 30
0.0
 10
76.25915137699748
 20
-4.519785481547271
 30
0.0
 10
75.95303167161258
 20
-4.734132806852316
 30
0.0
  0
SPLINE
  5
BC
330
1F
100
AcDbEntity
  8
0
  6
Continuous
 62
     1
370
    25
100
AcDbSpline
210
0.0
220
0.0
230
1.0
 70
     8
 71
     3
 72
    23
 73
    19
 74
     0
 42
0.000000001
 43
0.00000001
 40
0.0
 40
0.0
 40
0.0
 40
0.0
 40
0.0242179291023079
 40
0.0932572152449462
 40
0.1583577646544745
 40
0.2234595495734808
 40
0.2885626803005547
 40
0.3536670561195301
 40
0.4187705496848173
 40
0.483872669195449
 40
0.5489735248922528
 40
0.6140732272342926
 40
0.6791718868799373
 40
0.7442696146678558
 40
0.8082039932957071
 40
0.8721369465242843
 40
0.9360688300573345
 40
1.0
 40
1.0
 40
1.0
 40
1.0
 10
64.99104880120338
 20
-10.54450833432762
 30
0.0
 10
64.56326167133795
 20
-10.68523341631767
 30
0.0
 10
62.91595994374818
 20
-11.2271306696323
 30
0.0
 10
60.11868505012752
 20
-11.83913085110403
 30
0.0
 10
56.59936043296018
 20
-12.36603053872725
 30
0.0
 10
53.14951175332067
 20
-12.55078068982883
 30
0.0
 10
49.69959257226083
 20
-12.4225192127369
 30
0.0
 10
46.24962012194407
 20
-11.97822647745628
 30
0.0
 10
42.79968172943897
 20
-11.23083157411778
 30
0.0
 10
39.34981984558978
 20
-10.19882704273356
 30
0.0
 10
35.90003868493518
 20
-8.908483800088884
 30
0.0
 10
32.45032957100423
 20
-7.39247414084257
 30
0.0
 10
29.00069150338565
 20
-5.689170829600973
 30
0.0
 10
25.57162947707527
 20
-3.852882809864742
 30
0.0
 10
22.1632313985927
 20
-1.931829779137624
 30
0.0
 10
18.77542685596107
 20
0.023038176025608
 30
0.0
 10
15.38769386555909
 20
1.984119503873556
 30
0.0
 10
13.12922708709676
 20
3.242285682123946
 30
0.0
 10
11.99999999999953
 20
3.871365260401938
 30
0.0
  0
LINE
  5
BD
330
1F
100
AcDbEntity
  8
0
  6
Continuous
 62
     4
370
    25
100
AcDbLine
 10
11.99999999999999
 20
12.39163689160617
 30
0.0
 11
11.99999999999999
 21
12.28889288946056
 31
0.0
  0
SPLINE
  5
BE
330
1F
100
AcDbEntity
  8
0
  6
Continuous
 62
     4
370
    25
100
AcDbSpline
210
0.0
220
0.0
230
1.0
 70
    24
 71
     3
 72
     9
 73
     5
 74
     0
 42
0.000000001
 43
0.00000001
 40
0.0
 40
0.0
 40
0.0
 40
0.0
 40
0.2736156472728048
 40
1.0
 40
1.0
 40
1.0
 40
1.0
 10
11.99999999999999
 20
4.122324935536429
 30
0.0
 10
11.99999999999999
 20
4.084139257247092
 30
0.0
 10
11.99999999999999
 20
3.944579701096179
 30
0.0
 10
11.99999999999999
 20
3.902170581378241
 30
0.0
 10
11.99999999999999
 20
3.871365260402196
 30
0.0
  0
SPLINE
  5
BF
330
1F
100
AcDbEntity
  8
0
  6
Continuous
 62
     1
370
    25
100
AcDbSpline
210
0.0
220
0.0
230
1.0
 70
     8
 71
     3
 72
    27
 73
    23
 74
     0
 42
0.000000001
 43
0.00000001
 40
0.0
 40
0.0
 40
0.0
 40
0.0
 40
0.0547081584079956
 40
0.1094163186597776
 40
0.1641244808865568
 40
0.2188326452195394
 40
0.273540811789927
 40
0.3282489807289161
 40
0.3798287866717528
 40
0.4314095696607254
 40
0.4829917566967346
 40
0.5345757740986005
 40
0.5861620472965774
 40
0.6377510006267889
 40
0.6893430281484245
 40
0.7409344873566714
 40
0.792522920424378
 40
0.8441087506410602
 40
0.8947713221646245
 40
0.945431235841716
 40
0.9960893756802097
 40
1.0
 40
1.0
 40
1.0
 40
1.0
 10
12.0
 20
12.39163689160613
 30
0.0
 10
13.18836989409401
 20
12.26908585473938
 30
0.0
 10
15.56510972233275
 20
12.02398377687563
 30
0.0
 10
19.1302199388026
 20
11.24121001333682
 30
0.0
 10
22.69532878341447
 20
10.17838868896802
 30
0.0
 10
26.26044351077749
 20
8.83375542262647
 30
0.0
 10
29.82553706720988
 20
7.251861898654591
 30
0.0
 10
33.32275495890467
 20
5.50722494769053
 30
0.0
 10
36.75176088797169
 20
3.658205305354317
 30
0.0
 10
40.11295402506187
 20
1.757808790391628
 30
0.0
 10
43.47423752766819
 20
-0.1848910804118307
 30
0.0
 10
46.83566907143909
 20
-2.123171248707678
 30
0.0
 10
50.19727664425128
 20
-4.010409547785292
 30
0.0
 10
53.55908950296912
 20
-5.801197818720654
 30
0.0
 10
56.92107018453543
 20
-7.452436697089594
 30
0.0
 10
60.28302767286321
 20
-8.924232306465449
 30
0.0
 10
63.64479856200293
 20
-10.18194787456817
 30
0.0
 10
66.98637601585312
 20
-11.18635942313329
 30
0.0
 10
70.30770109855533
 20
-11.92950667195395
 30
0.0
 10
73.60885011370446
 20
-12.36005857992641
 30
0.0
 10
75.89449107556753
 20
-12.54046339139763
 30
0.0
 10
77.07975886164631
 20
-12.49306126610045
 30
0.0
 10
77.16470007483301
 20
-12.48966423289187
 30
0.0
  0
SPLINE
  5
C0
330
1F
100
AcDbEntity
  8
0
  6
Continuous
 62
     1
370
    25
100
AcDbSpline
210
0.0
220
0.0
230
1.0
 70
     8
 71
     3
 72
    16
 73
    12
 74
     0
 42
0.000000001
 43
0.00000001
 40
0.0
 40
0.0
 40
0.0
 40
0.0
 40
0.1144270781502054
 40
0.2288541601568576
 40
0.3432812462943955
 40
0.4577083368372491
 40
0.5721354320598382
 40
0.6865625322365723
 40
0.7944463773036512
 40
0.9023322659513917
 40
1.0
 40
1.0
 40
1.0
 40
1.0
 10
12.0
 20
-1.642356583262389
 30
0.0
 10
13.18836989413905
 20
-2.318219310386879
 30
0.0
 10
15.56510972246785
 20
-3.669944787413933
 30
0.0
 10
19.13021993826218
 20
-5.586351914019189
 30
0.0
 10
22.69532878544103
 20
-7.3547773473202
 30
0.0
 10
26.26044350321165
 20
-8.923524718171663
 30
0.0
 10
29.82553709544668
 20
-10.25052378941983
 30
0.0
 10
33.32275485607012
 20
-11.28220045892223
 30
0.0
 10
36.75176124741134
 20
-12.00082277282063
 30
0.0
 10
40.00680673321481
 20
-12.429492309382
 30
0.0
 10
42.1414835950992
 20
-12.46854395189062
 30
0.0
 10
43.15576419639141
 20
-12.48709913658969
 30
0.0
  0
LINE
  5
C1
330
1F
100
AcDbEntity
  8
0
  6
Continuous
 62
     4
370
    25
100
AcDbLine
 10
11.99999999999999
 20
-1.642356583262389
 30
0.0
 11
12.0
 21
3.871365260400394
 31
0.0
  0
LINE
  5
C2
330
1F
100
AcDbEntity
  8
0
  6
Continuous
 62
     1
370
    25
100
AcDbLine
 10
82.00000000000001
 20
-12.50000000000002
 30
0.0
 11
82.00000000000001
 21
-12.18957122944077
 31
0.0
  0
SPLINE
  5
C3
330
1F
100
AcDbEntity
  8
0
  6
Continuous
 62
     1
370
    25
100
AcDbSpline
210
0.0
220
0.0
230
1.0
 70
     8
 71
     3
 72
    13
 73
     9
 74
     0
 42
0.000000001
 43
0.00000001
 40
0.0
 40
0.0
 40
0.0
 40
0.0
 40
0.104496001942146
 40
0.2861985183819915
 40
0.4646538635753837
 40
0.6431052301562522
 40
0.8215536109743963
 40
1.0
 40
1.0
 40
1.0
 40
1.0
 10
30.98451215647023
 20
-10.54446746352085
 30
0.0
 10
30.32323276856933
 20
-10.75221498925785
 30
0.0
 10
28.51208997328256
 20
-11.32120359129424
 30
0.0
 10
25.57162961569787
 20
-11.93830492458127
 30
0.0
 10
22.16323136174589
 20
-12.40445484069036
 30
0.0
 10
18.77542686578661
 20
-12.54706819824396
 30
0.0
 10
15.38769386310275
 20
-12.40713249468078
 30
0.0
 10
13.12922708627798
 20
-12.05930451536749
 30
0.0
 10
11.99999999999953
 20
-11.88539149630672
 30
0.0
  0
SPLINE
  5
C4
330
1F
100
AcDbEntity
  8
0
  6
Continuous
 62
     4
370
    25
100
AcDbSpline
210
0.0
220
0.0
230
1.0
 70
    24
 71
     3
 72
    15
 73
    11
 74
     0
 42
0.000000001
 43
0.00000001
 40
0.0
 40
0.0
 40
0.0
 40
0.0
 40
0.0900590135731586
 40
0.2300568848557917
 40
0.3700547561384249
 40
0.5100526274210587
 40
0.6500504987036924
 40
0.7900483699863252
 40
0.9300462412689581
 40
1.0
 40
1.0
 40
1.0
 40
1.0
 10
11.99999999999999
 20
-2.900417218816737
 30
0.0
 10
11.99999999999999
 20
-3.061183037106258
 30
0.0
 10
11.99999999999999
 20
-3.471861345468303
 30
0.0
 10
11.99999999999999
 20
-4.36655858932521
 30
0.0
 10
11.99999999999999
 20
-5.517524203770939
 30
0.0
 10
11.99999999999999
 20
-6.818226371758891
 30
0.0
 10
11.99999999999999
 20
-8.216174077680847
 30
0.0
 10
11.99999999999999
 20
-9.677057681321262
 30
0.0
 10
11.99999999999999
 20
-10.91293185259952
 30
0.0
 10
11.99999999999999
 20
-11.64235506318126
 30
0.0
 10
12.0
 20
-11.88539149629937
 30
0.0
  0
SPLINE
  5
C5
330
1F
100
AcDbEntity
  8
0
  6
Continuous
 62
     1
370
    25
100
AcDbSpline
210
0.0
220
0.0
230
1.0
 70
     8
 71
     3
 72
    12
 73
     8
 74
     0
 42
0.000000001
 43
0.00000001
 40
0.0
 40
0.0
 40
0.0
 40
0.0
 40
0.1324143473055334
 40
0.3493240433285023
 40
0.5662223598921742
 40
0.7831130818395544
 40
0.9999999999999999
 40
0.9999999999999999
 40
0.9999999999999999
 40
0.9999999999999999
 10
64.99104880120338
 20
10.54450833432762
 30
0.0
 10
65.66284030398297
 20
10.7545012832365
 30
0.0
 10
67.43510236470378
 20
11.30848646290942
 30
0.0
 10
70.30769970970964
 20
11.91837034396607
 30
0.0
 10
73.60885092802589
 20
12.37797496316009
 30
0.0
 10
76.90985885630181
 20
12.56007891256887
 30
0.0
 10
79.11049173057386
 20
12.43768982733513
 30
0.0
 10
80.21079851905833
 20
12.3764958213319
 30
0.0
  0
SPLINE
  5
C6
330
1F
100
AcDbEntity
  8
0
  6
Continuous
 62
     1
370
    25
100
AcDbSpline
210
0.0
220
0.0
230
1.0
 70
     8
 71
     3
 72
    22
 73
    18
 74
     0
 42
0.000000001
 43
0.00000001
 40
0.0
 40
0.0
 40
0.0
 40
0.0
 40
0.2499999999999993
 40
0.2499999999999993
 40
0.3749999999999996
 40
0.3749999999999996
 40
0.4999999999999998
 40
0.4999999999999998
 40
0.5624999999999987
 40
0.5624999999999987
 40
0.6249999999999977
 40
0.6249999999999977
 40
0.7499999999999984
 40
0.7499999999999984
 40
0.8749999999999992
 40
0.8749999999999992
 40
1.0
 40
1.0
 40
1.0
 40
1.0
 10
80.21079851905833
 20
12.37649582133193
 30
0.0
 10
80.20921656925469
 20
11.62031253877692
 30
0.0
 10
80.13233571152001
 20
10.88111228586893
 30
0.0
 10
79.86933820360709
 20
9.805619024944644
 30
0.0
 10
79.75489464909083
 20
9.449308338314413
 30
0.0
 10
79.47631557445375
 20
8.778411384045302
 30
0.0
 10
79.31221568980936
 20
8.46150229143447
 30
0.0
 10
79.0254542452819
 20
8.016485442275208
 30
0.0
 10
78.9225013172227
 20
7.87263048236913
 30
0.0
 10
78.70720104436188
 20
7.601781109816847
 30
0.0
 10
78.59448920990883
 20
7.474071880025351
 30
0.0
 10
78.24152505942233
 20
7.11354723435767
 30
0.0
 10
77.9857632540508
 20
6.902808056756855
 30
0.0
 10
77.43767166269994
 20
6.543538025037019
 30
0.0
 10
77.15305606672324
 20
6.399716342460288
 30
0.0
 10
76.56503748084673
 20
6.175729733433787
 30
0.0
 10
76.25915137699754
 20
6.095495646314984
 30
0.0
 10
75.95303167161266
 20
6.046968328387347
 30
0.0
  0
SPLINE
  5
C7
330
1F
100
AcDbEntity
  8
0
  6
Continuous
 62
     1
370
    25
100
AcDbSpline
210
0.0
220
0.0
230
1.0
 70
     8
 71
     3
 72
     8
 73
     4
 74
     0
 42
0.000000001
 43
0.00000001
 40
0.0
 40
0.0
 40
0.0
 40
0.0
 40
1.0
 40
1.0
 40
1.0
 40
1.0
 10
82.00000000000001
 20
3.098518327978859
 30
0.0
 10
79.88090944563272
 20
4.244339427907837
 30
0.0
 10
77.87915893297206
 20
5.205241983545475
 30
0.0
 10
75.95303167161269
 20
6.046968328387346
 30
0.0
  0
LINE
  5
C8
330
1F
100
AcDbEntity
  8
0
  6
Continuous
 62
     1
370
    25
100
AcDbLine
 10
82.00000000000001
 20
2.778240271541353
 30
0.0
 11
82.00000000000001
 21
3.09851832797886
 31
0.0
  0
LINE
  5
C9
330
1F
100
AcDbEntity
  8
0
  6
Continuous
 62
     1
370
    25
100
AcDbLine
 10
82.00000000000001
 20
-0.500000000000001
 30
0.0
 11
82.00000000000001
 21
-9.013109139888325
 31
0.0
  0
ELLIPSE
  5
CA
330
1F
100
AcDbEntity
  8
0
  6
Continuous
 62
     1
370
    25
100
AcDbEllipse
 10
82.71407400337108
 20
-0.0000000000000053
 30
0.0
 11
17.85185008427638
 21
-5.350968460038300E-17
 31
0.0
210
0.0
220
0.0
230
1.0
 40
0.7002075382097123
 41
1.610807001148886
 42
1.71148497214774
  0
LINE
  5
CB
330
1F
100
AcDbEntity
  8
0
  6
Continuous
 62
     1
370
    25
100
AcDbLine
 10
82.00000000000001
 20
3.09851832797886
 30
0.0
 11
82.00000000000001
 21
12.4899959967968
 31
0.0
  0
LINE
  5
CC
330
1F
100
AcDbEntity
  8
0
  6
Continuous
 62
     1
370
    25
100
AcDbLine
 10
82.00000000000001
 20
12.4899959967968
 30
0.0
 11
82.00000000000001
 21
12.5
 31
0.0
  0
LINE
  5
CD
330
1F
100
AcDbEntity
  8
중심선
100
AcDbLine
 10
-70.99999999999999
 20
-0.0000000000000097
 30
0.0
 11
85.00000000000001
 21
0.0000000000000094
 31
0.0
  0
CIRCLE
  5
CE
330
1F
100
AcDbEntity
  8
해칭선
100
AcDbCircle
 10
0.000126720680298
 20
-0.0000000000000035
 30
0.0
 40
3.0
  0
INSERT
  5
CF
330
1F
100
AcDbEntity
  8
0
  6
Continuous
 62
     7
100
AcDbBlockReference
 66
     1
  2
블럭10
 10
-7.440099248941779
 20
-52.04717430164393
 30
0.0
  0
ATTRIB
  5
D0
330
CF
100
AcDbEntity
  8
FORMAT
 62
     2
100
AcDbText
 10
-23.55936028837733
 20
-49.97180738881174
 30
0.0
 40
4.233333333333333
  1
SEME7225070E [ 4 FLUTE ]
 41
0.75
  7
SLDTEXTSTYLE0
 11
-23.55936028837733
 21
-52.08847405547841
 31
0.0
100
AcDbAttribute
  2
AUTOATTR0
 70
     0
 74
     1
  0
SEQEND
  5
D1
330
CF
100
AcDbEntity
  8
0
  6
Continuous
 62
     7
  0
HATCH
  5
D2
330
1F
100
AcDbEntity
  8
중심선
100
AcDbHatch
 10
0.0
 20
0.0
 30
0.0
210
0.0
220
0.0
230
1.0
  2
SOLID
 70
     1
 71
     0
 91
        1
 92
        0
 93
        4
 72
     1
 10
-1.725189944560945
 20
-35.8
 11
-5.171465188398228
 21
-35.8
 72
     1
 10
-5.171465188398228
 20
-35.8
 11
-7.299695047602251
 21
-38.33632558057259
 72
     1
 10
-7.299695047602251
 20
-38.33632558057259
 11
-3.853386718651819
 21
-38.3362861512701
 72
     1
 10
-3.853386718651819
 20
-38.3362861512701
 11
-1.725189944560945
 21
-35.8
 97
        0
 75
     0
 76
     1
 98
        1
 10
0.0
 20
0.0
  0
HATCH
  5
D3
330
1F
100
AcDbEntity
  8
중심선
100
AcDbHatch
 10
0.0
 20
0.0
 30
0.0
210
0.0
220
0.0
230
1.0
  2
SOLID
 70
     1
 71
     0
 91
        1
 92
        0
 93
        4
 72
     1
 10
3.287574046475034
 20
-35.8
 11
-0.158701197362249
 21
-35.79999999999997
 72
     1
 10
-0.1587011973622487
 20
-35.79999999999997
 11
-4.689839205719665
 21
-41.20000000000002
 72
     1
 10
-4.689839205719665
 20
-41.20000000000002
 11
-1.243563961882383
 21
-41.20000000000002
 72
     1
 10
-1.243563961882382
 20
-41.20000000000002
 11
3.287574046475034
 21
-35.8
 97
        0
 75
     0
 76
     1
 98
        1
 10
0.0
 20
0.0
  0
HATCH
  5
D4
330
1F
100
AcDbEntity
  8
중심선
100
AcDbHatch
 10
0.0
 20
0.0
 30
0.0
210
0.0
220
0.0
230
1.0
  2
SOLID
 70
     1
 71
     0
 91
        1
 92
        0
 93
        4
 72
     1
 10
8.30033803751093
 20
-35.79999999999997
 11
4.854062793673814
 21
-35.79999999999997
 72
     1
 10
4.854062793673814
 20
-35.79999999999997
 11
-2.194374108215463
 21
-44.20000000000002
 72
     1
 10
-2.194374108215463
 20
-44.20000000000002
 11
1.251901135621819
 21
-44.20000000000002
 72
     1
 10
1.251901135621819
 20
-44.20000000000002
 11
8.30033803751093
 21
-35.79999999999997
 97
        0
 75
     0
 76
     1
 98
        1
 10
0.0
 20
0.0
  0
HATCH
  5
D5
330
1F
100
AcDbEntity
  8
중심선
100
AcDbHatch
 10
0.0
 20
0.0
 30
0.0
210
0.0
220
0.0
230
1.0
  2
SOLID
 70
     1
 71
     0
 91
        1
 92
        0
 93
        6
 72
     3
 10
13.1002284685231
 20
-40.00000000005127
 11
3.960054785062284
 21
1.540850780301639E-10
 40
0.3939339440162633
 50
17.09539180608433
 51
320.0019657685081
 73
     0
 72
     1
 10
14.78322812422367
 20
-38.58789400463833
 11
17.08852999792473
 21
-36.65356729459038
 72
     3
 10
13.10022846847025
 20
-40.00000000000015
 11
6.600054785286829
 21
-1.249000902703301E-13
 40
0.6363583540795982
 50
39.99873849337408
 51
368.4976242363725
 73
     1
 72
     1
 10
19.52556096037086
 20
-39.03999999993002
 11
11.78029577530618
 21
-39.03999999993002
 72
     1
 10
11.78029577530618
 20
-39.03999999993002
 11
11.78027073086024
 21
-40.95999999992991
 72
     1
 10
11.78027073086024
 20
-40.95999999992991
 11
16.22165050033228
 21
-40.95999999992988
 97
        0
 75
     0
 76
     1
 98
        1
 10
0.0
 20
0.0
  0
DIMENSION
  5
D6
330
1F
100
AcDbEntity
  8
치수문자_일반주서
100
AcDbDimension
  2
_D
 10
94.73193791786532
 20
12.50000000000004
 30
0.0
 11
94.73193791786528
 21
23.47900000000004
 31
0.0
 70
   160
  1
%%c<>
 71
     2
 42
25.00000000000001
 52
-270.0
  3
SLDDIMSTYLE0
100
AcDbAlignedDimension
 13
82.00000000000001
 23
-12.50000000000001
 33
0.0
 14
82.00000000000001
 24
12.5
 34
0.0
 50
90.0000000000002
100
AcDbRotatedDimension
  0
DIMENSION
  5
E2
330
1F
100
AcDbEntity
  8
치수문자_일반주서
100
AcDbDimension
  2
_D_1
 10
82.0
 20
29.88913260158163
 30
0.0
 11
7.000000000000015
 21
29.88913260158163
 31
0.0
 70
   160
  1
<>
 71
     2
 42
150.0
  3
SLDDIMSTYLE1
100
AcDbAlignedDimension
 13
-67.99999999999997
 23
11.99999999999998
 33
0.0
 14
82.00000000000001
 24
12.5
 34
0.0
 50
-0.0000000000000027
100
AcDbRotatedDimension
  0
DIMENSION
  5
ED
330
1F
100
AcDbEntity
  8
치수문자_일반주서
100
AcDbDimension
  2
_D_2
 10
-82.27308515595676
 20
-12.50000000000008
 30
0.0
 11
-82.27308515595689
 21
23.47899999999992
 31
0.0
 70
   160
  1
%%c<>
 71
     2
 42
25.0
 52
-270.0
  3
SLDDIMSTYLE2
100
AcDbAlignedDimension
 13
-67.49999999999997
 23
12.49999999999998
 33
0.0
 14
-67.49999999999997
 24
-12.50000000000002
 34
0.0
 50
90.0000000000002
100
AcDbRotatedDimension
  0
DIMENSION
  5
F9
330
1F
100
AcDbEntity
  8
치수문자_일반주서
100
AcDbDimension
  2
_D_3
 10
82.0
 20
23.23755519419383
 30
0.0
 11
47.0
 21
23.23755519419383
 31
0.0
 70
   160
  1
<>
 71
     2
 42
70.00000000000003
  3
SLDDIMSTYLE1
100
AcDbAlignedDimension
 13
11.99999999999999
 23
12.5
 33
0.0
 14
82.00000000000001
 24
12.5
 34
0.0
 50
0.0000000000000204
100
AcDbRotatedDimension
  0
INSERT
  5
109
330
1F
100
AcDbEntity
  8
해칭선
100
AcDbBlockReference
  2
SW_DOWELSYMBOL_0
 10
0.000126720680298
 20
-0.0000000000000035
 30
0.0
  0
ENDSEC
  0
SECTION
  2
OBJECTS
  0
DICTIONARY
  5
C
330
0
100
AcDbDictionary
281
     1
  3
ACAD_GROUP
350
D
  3
ACAD_IMAGE_VARS
350
12D
  3
ACAD_LAYOUT
350
1A
  3
ACAD_MLINESTYLE
350
17
  3
ACAD_PLOTSETTINGS
350
19
  3
ACAD_PLOTSTYLENAME
350
E
  3
ACAD_SCALELIST
350
47
  3
APPDATA
350
12B
  3
DWGPROPS
350
140
  0
DICTIONARY
  5
D
102
{ACAD_REACTORS
330
C
102
}
330
C
100
AcDbDictionary
281
     1
  0
RASTERVARIABLES
  5
12D
102
{ACAD_REACTORS
330
C
102
}
330
C
100
AcDbRasterVariables
 90
        0
 70
     1
 71
     1
 72
     1
  0
DICTIONARY
  5
1A
102
{ACAD_REACTORS
330
C
102
}
330
C
100
AcDbDictionary
281
     1
  3
Layout1
350
1E
  3
Layout2
350
26
  3
Model
350
22
  0
DICTIONARY
  5
17
102
{ACAD_REACTORS
330
C
102
}
330
C
100
AcDbDictionary
281
     1
  3
Standard
350
18
  0
DICTIONARY
  5
19
102
{ACAD_REACTORS
330
C
102
}
330
C
100
AcDbDictionary
281
     1
  0
ACDBDICTIONARYWDFLT
  5
E
102
{ACAD_REACTORS
330
C
102
}
330
C
100
AcDbDictionary
281
     1
  3
Normal
350
F
100
AcDbDictionaryWithDefault
340
F
  0
DICTIONARY
  5
47
102
{ACAD_REACTORS
330
C
102
}
330
C
100
AcDbDictionary
281
     1
  3
A0
350
48
  3
A1
350
49
  3
A2
350
4A
  3
A3
350
4B
  3
A4
350
4C
  3
A5
350
4D
  3
A6
350
4E
  3
A7
350
4F
  3
A8
350
50
  3
A9
350
51
  3
B0
350
52
  3
B1
350
53
  3
B2
350
54
  3
B3
350
55
  3
B4
350
56
  3
B5
350
57
  3
B6
350
58
  3
B7
350
59
  3
B8
350
5A
  3
B9
350
5B
  3
C0
350
5C
  3
C1
350
5D
  3
C2
350
5E
  3
C3
350
5F
  3
C4
350
60
  3
C5
350
61
  3
C6
350
62
  3
C7
350
63
  3
C8
350
64
  3
C9
350
65
  3
D0
350
66
  3
D1
350
67
  3
D2
350
68
  0
DICTIONARY
  5
12B
102
{ACAD_REACTORS
330
C
102
}
330
C
100
AcDbDictionary
281
     1
  0
XRECORD
  5
140
102
{ACAD_REACTORS
330
C
102
}
330
C
100
AcDbXrecord
280
     1
  1
DWGPROPS COOKIE
  2

  3

  4

  6

  7

  8
12014102
  9

300
=
301
=
302
=
303
=
304
=
305
=
306
=
307
=
308
=
309
=
 40
0.0
 41
2458260.212422083
 42
2458268.228483924
  1

 90
        0
  0
LAYOUT
  5
1E
102
{ACAD_REACTORS
330
1A
102
}
330
1A
100
AcDbPlotSettings
  1

  2
none_device
  4

  6

 40
0.0
 41
0.0
 42
0.0
 43
0.0
 44
0.0
 45
0.0
 46
0.0
 47
0.0
 48
0.0
 49
0.0
140
0.0
141
0.0
142
1.0
143
1.0
 70
   688
 72
     1
 73
     0
 74
     5
  7

 75
    16
147
1.0
148
0.0
149
0.0
100
AcDbLayout
  1
Layout1
 70
     1
 71
     1
 10
0.0
 20
0.0
 11
420.0
 21
297.0
 12
0.0
 22
0.0
 32
0.0
 14
1.000000000000000E+20
 24
1.000000000000000E+20
 34
1.000000000000000E+20
 15
-1.000000000000000E+20
 25
-1.000000000000000E+20
 35
-1.000000000000000E+20
146
0.0
 13
0.0
 23
0.0
 33
0.0
 16
1.0
 26
0.0
 36
0.0
 17
0.0
 27
1.0
 37
0.0
 76
     0
330
1B
  0
LAYOUT
  5
26
102
{ACAD_REACTORS
330
1A
102
}
330
1A
100
AcDbPlotSettings
  1

  2
none_device
  4

  6

 40
0.0
 41
0.0
 42
0.0
 43
0.0
 44
0.0
 45
0.0
 46
0.0
 47
0.0
 48
0.0
 49
0.0
140
0.0
141
0.0
142
1.0
143
1.0
 70
   688
 72
     1
 73
     0
 74
     5
  7

 75
    16
147
1.0
148
0.0
149
0.0
100
AcDbLayout
  1
Layout2
 70
     1
 71
     2
 10
0.0
 20
0.0
 11
0.0
 21
0.0
 12
0.0
 22
0.0
 32
0.0
 14
0.0
 24
0.0
 34
0.0
 15
0.0
 25
0.0
 35
0.0
146
0.0
 13
0.0
 23
0.0
 33
0.0
 16
1.0
 26
0.0
 36
0.0
 17
0.0
 27
1.0
 37
0.0
 76
     0
330
23
  0
LAYOUT
  5
22
102
{ACAD_REACTORS
330
1A
102
}
330
1A
100
AcDbPlotSettings
  1

  2
none_device
  4
ANSI_A_(11.00_x_8.50_Inches)
  6

 40
6.35
 41
19.05
 42
6.35000508
 43
19.05000254
 44
279.4
 45
215.9
 46
124.561339704243
 47
101.1058141378934
 48
0.0
 49
0.0
140
0.0
141
0.0
142
0.0589085814011888
143
1.0
 70
  1696
 72
     0
 73
     0
 74
     0
  7

 75
     0
147
0.0235690232323232
148
0.0
149
0.0
100
AcDbLayout
  1
Model
 70
     1
 71
     0
 10
0.0
 20
0.0
 11
420.0
 21
297.0
 12
0.0
 22
0.0
 32
0.0
 14
-86.6480851559569
 24
-49.97180738881174
 34
0.0
 15
95.28227125119876
 25
34.26413260158164
 35
0.0
146
0.0
 13
0.0
 23
0.0
 33
0.0
 16
1.0
 26
0.0
 36
0.0
 17
0.0
 27
1.0
 37
0.0
 76
     0
330
1F
331
29
  0
MLINESTYLE
  5
18
102
{ACAD_REACTORS
330
17
102
}
330
17
100
AcDbMlineStyle
  2
Standard
 70
     0
  3

 62
   256
 51
90.0
 52
90.0
 71
     2
 49
0.5
 62
   256
  6
BYLAYER
 49
-0.5
 62
   256
  6
BYLAYER
  0
ACDBPLACEHOLDER
  5
F
102
{ACAD_REACTORS
330
E
102
}
330
E
  0
SCALE
  5
48
102
{ACAD_REACTORS
330
47
102
}
330
47
100
AcDbScale
 70
     0
300
1:1
140
1.0
141
1.0
290
     1
  0
SCALE
  5
49
102
{ACAD_REACTORS
330
47
102
}
330
47
100
AcDbScale
 70
     0
300
1:2
140
1.0
141
2.0
290
     0
  0
SCALE
  5
4A
102
{ACAD_REACTORS
330
47
102
}
330
47
100
AcDbScale
 70
     0
300
1:4
140
1.0
141
4.0
290
     0
  0
SCALE
  5
4B
102
{ACAD_REACTORS
330
47
102
}
330
47
100
AcDbScale
 70
     0
300
1:5
140
1.0
141
5.0
290
     0
  0
SCALE
  5
4C
102
{ACAD_REACTORS
330
47
102
}
330
47
100
AcDbScale
 70
     0
300
1:8
140
1.0
141
8.0
290
     0
  0
SCALE
  5
4D
102
{ACAD_REACTORS
330
47
102
}
330
47
100
AcDbScale
 70
     0
300
1:10
140
1.0
141
10.0
290
     0
  0
SCALE
  5
4E
102
{ACAD_REACTORS
330
47
102
}
330
47
100
AcDbScale
 70
     0
300
1:16
140
1.0
141
16.0
290
     0
  0
SCALE
  5
4F
102
{ACAD_REACTORS
330
47
102
}
330
47
100
AcDbScale
 70
     0
300
1:20
140
1.0
141
20.0
290
     0
  0
SCALE
  5
50
102
{ACAD_REACTORS
330
47
102
}
330
47
100
AcDbScale
 70
     0
300
1:30
140
1.0
141
30.0
290
     0
  0
SCALE
  5
51
102
{ACAD_REACTORS
330
47
102
}
330
47
100
AcDbScale
 70
     0
300
1:40
140
1.0
141
40.0
290
     0
  0
SCALE
  5
52
102
{ACAD_REACTORS
330
47
102
}
330
47
100
AcDbScale
 70
     0
300
1:50
140
1.0
141
50.0
290
     0
  0
SCALE
  5
53
102
{ACAD_REACTORS
330
47
102
}
330
47
100
AcDbScale
 70
     0
300
1:100
140
1.0
141
100.0
290
     0
  0
SCALE
  5
54
102
{ACAD_REACTORS
330
47
102
}
330
47
100
AcDbScale
 70
     0
300
2:1
140
2.0
141
1.0
290
     0
  0
SCALE
  5
55
102
{ACAD_REACTORS
330
47
102
}
330
47
100
AcDbScale
 70
     0
300
4:1
140
4.0
141
1.0
290
     0
  0
SCALE
  5
56
102
{ACAD_REACTORS
330
47
102
}
330
47
100
AcDbScale
 70
     0
300
8:1
140
8.0
141
1.0
290
     0
  0
SCALE
  5
57
102
{ACAD_REACTORS
330
47
102
}
330
47
100
AcDbScale
 70
     0
300
10:1
140
10.0
141
1.0
290
     0
  0
SCALE
  5
58
102
{ACAD_REACTORS
330
47
102
}
330
47
100
AcDbScale
 70
     0
300
100:1
140
100.0
141
1.0
290
     0
  0
SCALE
  5
59
102
{ACAD_REACTORS
330
47
102
}
330
47
100
AcDbScale
 70
     0
300
1/128" = 1'-0"
140
0.0078125
141
12.0
290
     0
  0
SCALE
  5
5A
102
{ACAD_REACTORS
330
47
102
}
330
47
100
AcDbScale
 70
     0
300
1/64" = 1'-0"
140
0.015625
141
12.0
290
     0
  0
SCALE
  5
5B
102
{ACAD_REACTORS
330
47
102
}
330
47
100
AcDbScale
 70
     0
300
1/32" = 1'-0"
140
0.03125
141
12.0
290
     0
  0
SCALE
  5
5C
102
{ACAD_REACTORS
330
47
102
}
330
47
100
AcDbScale
 70
     0
300
1/16" = 1'-0"
140
0.0625
141
12.0
290
     0
  0
SCALE
  5
5D
102
{ACAD_REACTORS
330
47
102
}
330
47
100
AcDbScale
 70
     0
300
3/32" = 1'-0"
140
0.09375
141
12.0
290
     0
  0
SCALE
  5
5E
102
{ACAD_REACTORS
330
47
102
}
330
47
100
AcDbScale
 70
     0
300
1/8" = 1'-0"
140
0.125
141
12.0
290
     0
  0
SCALE
  5
5F
102
{ACAD_REACTORS
330
47
102
}
330
47
100
AcDbScale
 70
     0
300
3/16" = 1'-0"
140
0.1875
141
12.0
290
     0
  0
SCALE
  5
60
102
{ACAD_REACTORS
330
47
102
}
330
47
100
AcDbScale
 70
     0
300
1/4" = 1'-0"
140
0.25
141
12.0
290
     0
  0
SCALE
  5
61
102
{ACAD_REACTORS
330
47
102
}
330
47
100
AcDbScale
 70
     0
300
3/8" = 1'-0"
140
0.375
141
12.0
290
     0
  0
SCALE
  5
62
102
{ACAD_REACTORS
330
47
102
}
330
47
100
AcDbScale
 70
     0
300
1/2" = 1'-0"
140
0.5
141
12.0
290
     0
  0
SCALE
  5
63
102
{ACAD_REACTORS
330
47
102
}
330
47
100
AcDbScale
 70
     0
300
3/4" = 1'-0"
140
0.75
141
12.0
290
     0
  0
SCALE
  5
64
102
{ACAD_REACTORS
330
47
102
}
330
47
100
AcDbScale
 70
     0
300
1" = 1'-0"
140
1.0
141
12.0
290
     0
  0
SCALE
  5
65
102
{ACAD_REACTORS
330
47
102
}
330
47
100
AcDbScale
 70
     0
300
1-1/2" = 1'-0"
140
1.5
141
12.0
290
     0
  0
SCALE
  5
66
102
{ACAD_REACTORS
330
47
102
}
330
47
100
AcDbScale
 70
     0
300
3" = 1'-0"
140
3.0
141
12.0
290
     0
  0
SCALE
  5
67
102
{ACAD_REACTORS
330
47
102
}
330
47
100
AcDbScale
 70
     0
300
6" = 1'-0"
140
6.0
141
12.0
290
     0
  0
SCALE
  5
68
102
{ACAD_REACTORS
330
47
102
}
330
47
100
AcDbScale
 70
     0
300
1'-0" = 1'-0"
140
12.0
141
12.0
290
     0
  0
ENDSEC
  0
EOF
