  0
SECTION
  2
HEADER
  9
$ACADVER
  1
AC1015
  9
$ACADMAINTVER
 70
     6
  9
$DWGCODEPAGE
  3
ANSI_949
  9
$INSBASE
 10
0.0
 20
0.0
 30
0.0
  9
$EXTMIN
 10
-116.0899364001482
 20
-49.97180738881174
 30
0.0
  9
$EXTMAX
 10
118.8370811715339
 20
31.76413260158164
 30
0.0
  9
$LIMMIN
 10
0.0
 20
0.0
  9
$LIMMAX
 10
420.0
 20
297.0
  9
$ORTHOMODE
 70
     0
  9
$REGENMODE
 70
     1
  9
$FILLMODE
 70
     1
  9
$QTEXTMODE
 70
     0
  9
$MIRRTEXT
 70
     1
  9
$LTSCALE
 40
1.0
  9
$ATTMODE
 70
     1
  9
$TEXTSIZE
 40
3.5
  9
$TRACEWID
 40
1.0
  9
$TEXTSTYLE
  7
Standard
  9
$CLAYER
  8
0
  9
$CELTYPE
  6
ByLayer
  9
$CECOLOR
 62
   256
  9
$CELTSCALE
 40
1.0
  9
$DISPSILH
 70
     0
  9
$DIMSCALE
 40
1.0
  9
$DIMASZ
 40
3.302
  9
$DIMEXO
 40
1.0
  9
$DIMDLI
 40
3.75
  9
$DIMRND
 40
0.0
  9
$DIMDLE
 40
0.0
  9
$DIMEXE
 40
1.0
  9
$DIMTP
 40
0.0
  9
$DIMTM
 40
0.0
  9
$DIMTXT
 40
3.5
  9
$DIMCEN
 40
2.5
  9
$DIMTSZ
 40
0.0
  9
$DIMTOL
 70
     0
  9
$DIMLIM
 70
     0
  9
$DIMTIH
 70
     1
  9
$DIMTOH
 70
     1
  9
$DIMSE1
 70
     0
  9
$DIMSE2
 70
     0
  9
$DIMTAD
 70
     1
  9
$DIMZIN
 70
     0
  9
$DIMBLK
  1

  9
$DIMASO
 70
     1
  9
$DIMSHO
 70
     1
  9
$DIMPOST
  1

  9
$DIMAPOST
  1

  9
$DIMALT
 70
     0
  9
$DIMALTD
 70
     3
  9
$DIMALTF
 40
0.0393700787401575
  9
$DIMLFAC
 40
1.0
  9
$DIMTOFL
 70
     1
  9
$DIMTVP
 40
0.0
  9
$DIMTIX
 70
     0
  9
$DIMSOXD
 70
     0
  9
$DIMSAH
 70
     0
  9
$DIMBLK1
  1

  9
$DIMBLK2
  1

  9
$DIMSTYLE
  2
ISO-25
  9
$DIMCLRD
 70
     0
  9
$DIMCLRE
 70
     0
  9
$DIMCLRT
 70
     0
  9
$DIMTFAC
 40
1.0
  9
$DIMGAP
 40
1.524
  9
$DIMJUST
 70
     0
  9
$DIMSD1
 70
     0
  9
$DIMSD2
 70
     0
  9
$DIMTOLJ
 70
     0
  9
$DIMTZIN
 70
     0
  9
$DIMALTZ
 70
     0
  9
$DIMALTTZ
 70
     0
  9
$DIMUPT
 70
     0
  9
$DIMDEC
 70
     2
  9
$DIMTDEC
 70
     2
  9
$DIMALTU
 70
     2
  9
$DIMALTTD
 70
     3
  9
$DIMTXSTY
  7
Standard
  9
$DIMAUNIT
 70
     0
  9
$DIMADEC
 70
     2
  9
$DIMALTRND
 40
0.0
  9
$DIMAZIN
 70
     0
  9
$DIMDSEP
 70
    44
  9
$DIMATFIT
 70
     3
  9
$DIMFRAC
 70
     0
  9
$DIMLDRBLK
  1

  9
$DIMLUNIT
 70
     2
  9
$DIMLWD
 70
    -2
  9
$DIMLWE
 70
    -2
  9
$DIMTMOVE
 70
     0
  9
$LUNITS
 70
     2
  9
$LUPREC
 70
     2
  9
$SKETCHINC
 40
1.0
  9
$FILLETRAD
 40
10.0
  9
$AUNITS
 70
     0
  9
$AUPREC
 70
     2
  9
$MENU
  1
.
  9
$ELEVATION
 40
0.0
  9
$PELEVATION
 40
0.0
  9
$THICKNESS
 40
0.0
  9
$LIMCHECK
 70
     0
  9
$CHAMFERA
 40
0.0
  9
$CHAMFERB
 40
0.0
  9
$CHAMFERC
 40
0.0
  9
$CHAMFERD
 40
0.0
  9
$SKPOLY
 70
     0
  9
$TDCREATE
 40
2458260.586665729
  9
$TDUCREATE
 40
2458260.211665729
  9
$TDUPDATE
 40
2458268.66388559
  9
$TDUUPDATE
 40
2458268.28888559
  9
$TDINDWG
 40
0.0007475347
  9
$TDUSRTIMER
 40
2458268.288138102
  9
$USRTIMER
 70
     1
  9
$ANGBASE
 50
0.0
  9
$ANGDIR
 70
     0
  9
$PDMODE
 70
     0
  9
$PDSIZE
 40
-1.0
  9
$PLINEWID
 40
0.0
  9
$SPLFRAME
 70
     0
  9
$SPLINETYPE
 70
     6
  9
$SPLINESEGS
 70
     8
  9
$HANDSEED
  5
149
  9
$SURFTAB1
 70
     6
  9
$SURFTAB2
 70
     6
  9
$SURFTYPE
 70
     6
  9
$SURFU
 70
     6
  9
$SURFV
 70
     6
  9
$UCSBASE
  2

  9
$UCSNAME
  2

  9
$UCSORG
 10
0.0
 20
0.0
 30
0.0
  9
$UCSXDIR
 10
1.0
 20
0.0
 30
0.0
  9
$UCSYDIR
 10
0.0
 20
1.0
 30
0.0
  9
$UCSORTHOREF
  2

  9
$UCSORTHOVIEW
 70
     0
  9
$UCSORGTOP
 10
0.0
 20
0.0
 30
0.0
  9
$UCSORGBOTTOM
 10
0.0
 20
0.0
 30
0.0
  9
$UCSORGLEFT
 10
0.0
 20
0.0
 30
0.0
  9
$UCSORGRIGHT
 10
0.0
 20
0.0
 30
0.0
  9
$UCSORGFRONT
 10
0.0
 20
0.0
 30
0.0
  9
$UCSORGBACK
 10
0.0
 20
0.0
 30
0.0
  9
$PUCSBASE
  2

  9
$PUCSNAME
  2

  9
$PUCSORG
 10
0.0
 20
0.0
 30
0.0
  9
$PUCSXDIR
 10
1.0
 20
0.0
 30
0.0
  9
$PUCSYDIR
 10
0.0
 20
1.0
 30
0.0
  9
$PUCSORTHOREF
  2

  9
$PUCSORTHOVIEW
 70
     0
  9
$PUCSORGTOP
 10
0.0
 20
0.0
 30
0.0
  9
$PUCSORGBOTTOM
 10
0.0
 20
0.0
 30
0.0
  9
$PUCSORGLEFT
 10
0.0
 20
0.0
 30
0.0
  9
$PUCSORGRIGHT
 10
0.0
 20
0.0
 30
0.0
  9
$PUCSORGFRONT
 10
0.0
 20
0.0
 30
0.0
  9
$PUCSORGBACK
 10
0.0
 20
0.0
 30
0.0
  9
$USERI1
 70
     0
  9
$USERI2
 70
     0
  9
$USERI3
 70
     0
  9
$USERI4
 70
     0
  9
$USERI5
 70
     0
  9
$USERR1
 40
0.0
  9
$USERR2
 40
0.0
  9
$USERR3
 40
0.0
  9
$USERR4
 40
0.0
  9
$USERR5
 40
0.0
  9
$WORLDVIEW
 70
     1
  9
$SHADEDGE
 70
     3
  9
$SHADEDIF
 70
    70
  9
$TILEMODE
 70
     1
  9
$MAXACTVP
 70
    64
  9
$PINSBASE
 10
0.0
 20
0.0
 30
0.0
  9
$PLIMCHECK
 70
     0
  9
$PEXTMIN
 10
1.000000000000000E+20
 20
1.000000000000000E+20
 30
1.000000000000000E+20
  9
$PEXTMAX
 10
-1.000000000000000E+20
 20
-1.000000000000000E+20
 30
-1.000000000000000E+20
  9
$PLIMMIN
 10
0.0
 20
0.0
  9
$PLIMMAX
 10
0.0
 20
0.0
  9
$UNITMODE
 70
     0
  9
$VISRETAIN
 70
     1
  9
$PLINEGEN
 70
     0
  9
$PSLTSCALE
 70
     1
  9
$TREEDEPTH
 70
  3020
  9
$CMLSTYLE
  2
Standard
  9
$CMLJUST
 70
     0
  9
$CMLSCALE
 40
20.0
  9
$PROXYGRAPHICS
 70
     1
  9
$MEASUREMENT
 70
     1
  9
$CELWEIGHT
370
    -1
  9
$ENDCAPS
280
     0
  9
$JOINSTYLE
280
     0
  9
$LWDISPLAY
290
     1
  9
$INSUNITS
 70
     4
  9
$HYPERLINKBASE
  1

  9
$STYLESHEET
  1

  9
$XEDIT
290
     1
  9
$CEPSNTYPE
380
     0
  9
$PSTYLEMODE
290
     1
  9
$FINGERPRINTGUID
  2
{3B0D0748-669D-49BF-BAA5-798987884A0D}
  9
$VERSIONGUID
  2
{FAEB1C32-E019-11D5-929B-00C0DF256EC4}
  9
$EXTNAMES
290
     1
  9
$PSVPSCALE
 40
0.0
  9
$OLESTARTUP
290
     0
  0
ENDSEC
  0
SECTION
  2
CLASSES
  0
CLASS
  1
ACDBDICTIONARYWDFLT
  2
AcDbDictionaryWithDefault
  3
ObjectDBX Classes
 90
        0
280
     0
281
     0
  0
CLASS
  1
VISUALSTYLE
  2
AcDbVisualStyle
  3
ObjectDBX Classes
 90
     4095
280
     0
281
     0
  0
CLASS
  1
MATERIAL
  2
AcDbMaterial
  3
ObjectDBX Classes
 90
     1153
280
     0
281
     0
  0
CLASS
  1
SCALE
  2
AcDbScale
  3
ObjectDBX Classes
 90
     1153
280
     0
281
     0
  0
CLASS
  1
TABLESTYLE
  2
AcDbTableStyle
  3
ObjectDBX Classes
 90
     4095
280
     0
281
     0
  0
CLASS
  1
MLEADERSTYLE
  2
AcDbMLeaderStyle
  3
ACDB_MLEADERSTYLE_CLASS
 90
     4095
280
     0
281
     0
  0
CLASS
  1
SUN
  2
AcDbSun
  3
SCENEOE
 90
     1153
280
     0
281
     0
  0
CLASS
  1
ACDBPLACEHOLDER
  2
AcDbPlaceHolder
  3
ObjectDBX Classes
 90
        0
280
     0
281
     0
  0
CLASS
  1
LAYOUT
  2
AcDbLayout
  3
ObjectDBX Classes
 90
        0
280
     0
281
     0
  0
CLASS
  1
RASTERVARIABLES
  2
AcDbRasterVariables
  3
ISM
 90
        0
280
     0
281
     0
  0
ENDSEC
  0
SECTION
  2
TABLES
  0
TABLE
  2
VPORT
  5
8
330
0
100
AcDbSymbolTable
 70
     1
  0
VPORT
  5
29
330
8
100
AcDbSymbolTableRecord
100
AcDbViewportTableRecord
  2
*Active
 70
     0
 10
0.0
 20
0.0
 11
1.0
 21
1.0
 12
1.373572385692867
 22
-9.103837393615052
 13
0.0
 23
0.0
 14
10.0
 24
10.0
 15
10.0
 25
10.0
 16
0.0
 26
0.0
 36
1.0
 17
0.0
 27
0.0
 37
0.0
 40
138.3073690026037
 41
1.732558139534884
 42
50.0
 43
0.0
 44
0.0
 50
0.0
 51
0.0
 71
    16
 72
  2000
 73
     1
 74
     3
 75
     0
 76
     0
 77
     0
 78
     0
281
     0
 65
     1
110
0.0
120
0.0
130
0.0
111
1.0
121
0.0
131
0.0
112
0.0
122
1.0
132
0.0
 79
     0
146
0.0
  0
ENDTAB
  0
TABLE
  2
LTYPE
  5
5
330
0
100
AcDbSymbolTable
 70
     6
  0
LTYPE
  5
14
330
5
100
AcDbSymbolTableRecord
100
AcDbLinetypeTableRecord
  2
ByBlock
 70
     0
  3

 72
    65
 73
     0
 40
0.0
  0
LTYPE
  5
15
330
5
100
AcDbSymbolTableRecord
100
AcDbLinetypeTableRecord
  2
ByLayer
 70
     0
  3

 72
    65
 73
     0
 40
0.0
  0
LTYPE
  5
16
330
5
100
AcDbSymbolTableRecord
100
AcDbLinetypeTableRecord
  2
Continuous
 70
     0
  3
Solid line
 72
    65
 73
     0
 40
0.0
  0
LTYPE
  5
6E
330
5
100
AcDbSymbolTableRecord
100
AcDbLinetypeTableRecord
  2
HIDDEN
 70
     0
  3
Hidden __ __ __ __ __ __ __ __ __ __ __ __ __ __
 72
    65
 73
     2
 40
1.905
 49
1.27
 74
     0
 49
-0.635
 74
     0
  0
LTYPE
  5
6F
330
5
100
AcDbSymbolTableRecord
100
AcDbLinetypeTableRecord
  2
PHANTOM
 70
     0
  3
Phantom ______  __  __  ______  __  __  ______
 72
    65
 73
     6
 40
12.7
 49
6.35
 74
     0
 49
-1.27
 74
     0
 49
1.27
 74
     0
 49
-1.27
 74
     0
 49
1.27
 74
     0
 49
-1.27
 74
     0
  0
LTYPE
  5
70
330
5
100
AcDbSymbolTableRecord
100
AcDbLinetypeTableRecord
  2
CENTER
 70
     0
  3
Center ____ _ ____ _ ____ _ ____ _ ____ _ ____
 72
    65
 73
     4
 40
10.16
 49
6.35
 74
     0
 49
-1.27
 74
     0
 49
1.27
 74
     0
 49
-1.27
 74
     0
  0
LTYPE
  5
71
330
5
100
AcDbSymbolTableRecord
100
AcDbLinetypeTableRecord
  2
CENTERX2
 70
     0
  3
Center (2x) ________  __  ________  __  _____
 72
    65
 73
     4
 40
20.32
 49
12.7
 74
     0
 49
-2.54
 74
     0
 49
2.54
 74
     0
 49
-2.54
 74
     0
  0
LTYPE
  5
72
330
5
100
AcDbSymbolTableRecord
100
AcDbLinetypeTableRecord
  2
DOT2
 70
     0
  3
Dot (.5x) ........................................
 72
    65
 73
     2
 40
0.635
 49
0.0
 74
     0
 49
-0.635
 74
     0
  0
ENDTAB
  0
TABLE
  2
LAYER
  5
2
330
0
100
AcDbSymbolTable
 70
    17
  0
LAYER
  5
10
330
2
100
AcDbSymbolTableRecord
100
AcDbLayerTableRecord
  2
0
 70
     0
 62
     7
  6
Continuous
370
    -3
390
F
  0
LAYER
  5
73
330
2
100
AcDbSymbolTableRecord
100
AcDbLayerTableRecord
  2
FORMAT
 70
     0
 62
     2
  6
Continuous
370
    -3
390
F
  0
LAYER
  5
74
330
2
100
AcDbSymbolTableRecord
100
AcDbLayerTableRecord
  2
외형선
 70
     0
 62
   100
  6
Continuous
370
    35
390
F
  0
LAYER
  5
75
330
2
100
AcDbSymbolTableRecord
100
AcDbLayerTableRecord
  2
숨은선
 70
     0
 62
     2
  6
HIDDEN
370
    25
390
F
  0
LAYER
  5
76
330
2
100
AcDbSymbolTableRecord
100
AcDbLayerTableRecord
  2
중심선
 70
     0
 62
     1
  6
CENTERX2
370
    -3
390
F
  0
LAYER
  5
77
330
2
100
AcDbSymbolTableRecord
100
AcDbLayerTableRecord
  2
파단선
 70
     0
 62
     4
  6
Continuous
370
    -3
390
F
  0
LAYER
  5
78
330
2
100
AcDbSymbolTableRecord
100
AcDbLayerTableRecord
  2
해칭선
 70
     0
 62
   100
  6
Continuous
370
    -3
390
F
  0
LAYER
  5
79
330
2
100
AcDbSymbolTableRecord
100
AcDbLayerTableRecord
  2
가는실선
 70
     0
 62
     4
  6
Continuous
370
    -3
390
F
  0
LAYER
  5
7A
330
2
100
AcDbSymbolTableRecord
100
AcDbLayerTableRecord
  2
치수_보조선
 70
     0
 62
     4
  6
Continuous
370
    -3
390
F
  0
LAYER
  5
7B
330
2
100
AcDbSymbolTableRecord
100
AcDbLayerTableRecord
  2
치수문자_일반주서
 70
     0
 62
     7
  6
Continuous
370
    25
390
F
  0
LAYER
  5
7C
330
2
100
AcDbSymbolTableRecord
100
AcDbLayerTableRecord
  2
개별주서
 70
     0
 62
   100
  6
Continuous
370
    35
390
F
  0
LAYER
  5
7D
330
2
100
AcDbSymbolTableRecord
100
AcDbLayerTableRecord
  2
중간선
 70
     0
 62
     2
  6
Continuous
370
    25
390
F
  0
LAYER
  5
7E
330
2
100
AcDbSymbolTableRecord
100
AcDbLayerTableRecord
  2
윤곽선
 70
     0
 62
     3
  6
Continuous
370
    50
390
F
  0
LAYER
  5
7F
330
2
100
AcDbSymbolTableRecord
100
AcDbLayerTableRecord
  2
중심마크
 70
     0
 62
   100
  6
Continuous
370
    35
390
F
  0
LAYER
  5
80
330
2
100
AcDbSymbolTableRecord
100
AcDbLayerTableRecord
  2
가상선
 70
     0
 62
     4
  6
PHANTOM
370
    -3
390
F
  0
LAYER
  5
81
330
2
100
AcDbSymbolTableRecord
100
AcDbLayerTableRecord
  2
특수지정선
 70
     0
 62
     5
  6
CENTERX2
370
    70
390
F
  0
LAYER
  5
139
330
2
100
AcDbSymbolTableRecord
100
AcDbLayerTableRecord
  2
Defpoints
 70
     0
 62
     7
  6
Continuous
290
     0
370
    -3
390
F
  0
ENDTAB
  0
TABLE
  2
STYLE
  5
3
330
0
100
AcDbSymbolTable
 70
     2
  0
STYLE
  5
11
330
3
100
AcDbSymbolTableRecord
100
AcDbTextStyleTableRecord
  2
Standard
 70
     0
 40
0.0
 41
1.0
 50
0.0
 71
     0
 42
3.5
  3
txt
  4

  0
STYLE
  5
97
330
3
100
AcDbSymbolTableRecord
100
AcDbTextStyleTableRecord
  2
SLDTEXTSTYLE0
 70
     0
 40
0.0
 41
0.75
 50
0.0
 71
     0
 42
3.5
  3
TXT
  4

  0
ENDTAB
  0
TABLE
  2
VIEW
  5
6
330
0
100
AcDbSymbolTable
 70
     0
  0
ENDTAB
  0
TABLE
  2
UCS
  5
7
330
0
100
AcDbSymbolTable
 70
     0
  0
ENDTAB
  0
TABLE
  2
APPID
  5
9
330
0
100
AcDbSymbolTable
 70
     1
  0
APPID
  5
12
330
9
100
AcDbSymbolTableRecord
100
AcDbRegAppTableRecord
  2
ACAD
 70
     0
  0
ENDTAB
  0
TABLE
  2
DIMSTYLE
  5
A
330
0
100
AcDbSymbolTable
 70
     4
100
AcDbDimStyleTable
  0
DIMSTYLE
105
27
330
A
100
AcDbSymbolTableRecord
100
AcDbDimStyleTableRecord
  2
ISO-25
 70
     0
 41
2.5
 42
0.625
 43
3.75
 44
1.25
 73
     0
 74
     0
 77
     1
 78
     8
140
2.5
141
2.5
143
0.03937007874016
147
0.625
171
     3
172
     1
178
     0
271
     2
272
     2
274
     3
278
    44
283
     0
284
     8
340
11
  0
DIMSTYLE
105
DE
102
{ACAD_REACTORS
330
DD
102
}
330
A
100
AcDbSymbolTableRecord
100
AcDbDimStyleTableRecord
  2
SLDDIMSTYLE0
 70
     0
 41
3.302
 44
0.0
 45
0.000000001
 73
     0
 74
     0
 77
     1
 78
    12
 79
     3
140
3.5
147
0.875
172
     1
173
     1
178
     0
271
     1
272
     1
276
     2
284
    12
289
     0
340
97
  0
DIMSTYLE
105
EC
102
{ACAD_REACTORS
330
EB
330
104
102
}
330
A
100
AcDbSymbolTableRecord
100
AcDbDimStyleTableRecord
  2
SLDDIMSTYLE1
 70
     0
 41
3.302
 44
0.0
 45
0.000000001
 73
     0
 74
     0
 77
     1
 78
    12
 79
     3
140
3.5
147
0.875
173
     1
178
     0
271
     2
272
     2
276
     2
284
    12
340
97
  0
DIMSTYLE
105
F7
102
{ACAD_REACTORS
330
F6
102
}
330
A
100
AcDbSymbolTableRecord
100
AcDbDimStyleTableRecord
  2
SLDDIMSTYLE2
 70
     0
 41
3.302
 44
0.0
 45
0.000000001
 73
     0
 74
     0
 77
     1
 78
    12
 79
     3
140
3.5
147
0.875
172
     1
173
     1
178
     0
271
     2
272
     2
276
     2
284
    12
289
     0
340
97
  0
ENDTAB
  0
TABLE
  2
BLOCK_RECORD
  5
1
330
0
100
AcDbSymbolTable
 70
     7
  0
BLOCK_RECORD
  5
1F
330
1
100
AcDbSymbolTableRecord
100
AcDbBlockTableRecord
  2
*Model_Space
340
22
  0
BLOCK_RECORD
  5
1B
330
1
100
AcDbSymbolTableRecord
100
AcDbBlockTableRecord
  2
*Paper_Space
340
1E
  0
BLOCK_RECORD
  5
23
330
1
100
AcDbSymbolTableRecord
100
AcDbBlockTableRecord
  2
*Paper_Space0
340
26
  0
BLOCK_RECORD
  5
82
330
1
100
AcDbSymbolTableRecord
100
AcDbBlockTableRecord
  2
블럭10
340
0
102
{BLKREFS
331
D6
102
}
  0
BLOCK_RECORD
  5
DF
330
1
100
AcDbSymbolTableRecord
100
AcDbBlockTableRecord
  2
_D
340
0
  0
BLOCK_RECORD
  5
ED
330
1
100
AcDbSymbolTableRecord
100
AcDbBlockTableRecord
  2
_D_1
340
0
  0
BLOCK_RECORD
  5
F8
330
1
100
AcDbSymbolTableRecord
100
AcDbBlockTableRecord
  2
_D_2
340
0
  0
BLOCK_RECORD
  5
105
330
1
100
AcDbSymbolTableRecord
100
AcDbBlockTableRecord
  2
_D_3
340
0
  0
BLOCK_RECORD
  5
10E
330
1
100
AcDbSymbolTableRecord
100
AcDbBlockTableRecord
  2
SW_DOWELSYMBOL_0
340
0
102
{BLKREFS
331
114
102
}
  0
ENDTAB
  0
ENDSEC
  0
SECTION
  2
BLOCKS
  0
BLOCK
  5
20
330
1F
100
AcDbEntity
  8
0
100
AcDbBlockBegin
  2
*Model_Space
 70
     0
 10
0.0
 20
0.0
 30
0.0
  3
*Model_Space
  1

  0
ENDBLK
  5
21
330
1F
100
AcDbEntity
  8
0
100
AcDbBlockEnd
  0
BLOCK
  5
1C
330
1B
100
AcDbEntity
 67
     1
  8
0
100
AcDbBlockBegin
  2
*Paper_Space
 70
     0
 10
0.0
 20
0.0
 30
0.0
  3
*Paper_Space
  1

  0
ENDBLK
  5
1D
330
1B
100
AcDbEntity
 67
     1
  8
0
100
AcDbBlockEnd
  0
BLOCK
  5
24
330
23
100
AcDbEntity
  8
0
100
AcDbBlockBegin
  2
*Paper_Space0
 70
     0
 10
0.0
 20
0.0
 30
0.0
  3
*Paper_Space0
  1

  0
ENDBLK
  5
25
330
23
100
AcDbEntity
  8
0
100
AcDbBlockEnd
  0
BLOCK
  5
83
330
82
100
AcDbEntity
  8
0
100
AcDbBlockBegin
  2
블럭10
 70
     2
 10
0.0
 20
0.0
 30
0.0
  3
블럭10
  1

  0
ELLIPSE
  5
85
330
82
100
AcDbEntity
  8
중심선
100
AcDbEllipse
 10
20.54032771741204
 20
12.0471743016438
 30
0.0
 11
6.600054785286829
 21
-1.261213355974178E-13
 31
0.0
210
0.0
220
0.0
230
1.0
 40
0.636358354079598
 41
0.9219305317359503
 42
6.513795318482858
  0
ELLIPSE
  5
86
330
82
100
AcDbEntity
  8
중심선
100
AcDbEllipse
 10
20.54032771746488
 20
12.04717430159265
 30
0.0
 11
3.960054785062283
 21
1.540847449632565E-10
 31
0.0
210
0.0
220
0.0
230
1.0
 40
0.3939339440162632
 41
1.131841032648279
 42
5.62031148352944
  0
LINE
  5
87
330
82
100
AcDbEntity
  8
중심선
100
AcDbLine
 10
2.268634060543552
 20
16.24717430164393
 30
0.0
 11
5.714909304380834
 21
16.24717430164393
 31
0.0
  0
LINE
  5
88
330
82
100
AcDbEntity
  8
중심선
100
AcDbLine
 10
5.245725140726316
 20
7.84717430164391
 30
0.0
 11
8.692000384563599
 21
7.84717430164391
 31
0.0
  0
LINE
  5
89
330
82
100
AcDbEntity
  8
중심선
100
AcDbLine
 10
15.74043728645272
 20
16.24717430164393
 30
0.0
 11
8.692000384563599
 21
7.84717430164391
 31
0.0
  0
LINE
  5
8A
330
82
100
AcDbEntity
  8
중심선
100
AcDbLine
 10
0.1404042013395286
 20
13.71084872107135
 30
0.0
 11
3.58671253028996
 21
13.71088815037384
 31
0.0
  0
LINE
  5
8B
330
82
100
AcDbEntity
  8
중심선
100
AcDbLine
 10
2.750260043222114
 20
10.84717430164391
 30
0.0
 11
6.196535287059397
 21
10.84717430164391
 31
0.0
  0
LINE
  5
8C
330
82
100
AcDbEntity
  8
중심선
100
AcDbLine
 10
12.29416204261559
 20
16.24717430164393
 30
0.0
 11
5.245725140726316
 21
7.84717430164391
 31
0.0
  0
LINE
  5
8D
330
82
100
AcDbEntity
  8
중심선
100
AcDbLine
 10
10.72767329541681
 20
16.24717430164393
 30
0.0
 11
6.196535287059397
 21
10.84717430164391
 31
0.0
  0
LINE
  5
8E
330
82
100
AcDbEntity
  8
중심선
100
AcDbLine
 10
7.28139805157953
 20
16.24717430164393
 30
0.0
 11
2.750260043222114
 21
10.84717430164391
 31
0.0
  0
LINE
  5
8F
330
82
100
AcDbEntity
  8
중심선
100
AcDbLine
 10
5.714909304380834
 20
16.24717430164393
 30
0.0
 11
3.58671253028996
 21
13.71088815037384
 31
0.0
  0
LINE
  5
90
330
82
100
AcDbEntity
  8
중심선
100
AcDbLine
 10
2.268634060543552
 20
16.24717430164393
 30
0.0
 11
0.1404042013395286
 21
13.71084872107135
 31
0.0
  0
LINE
  5
91
330
82
100
AcDbEntity
  8
중심선
100
AcDbLine
 10
7.28139805157953
 20
16.24717430164393
 30
0.0
 11
10.72767329541681
 21
16.24717430164393
 31
0.0
  0
LINE
  5
92
330
82
100
AcDbEntity
  8
중심선
100
AcDbLine
 10
12.29416204261559
 20
16.24717430164393
 30
0.0
 11
15.74043728645272
 21
16.24717430164393
 31
0.0
  0
LINE
  5
93
330
82
100
AcDbEntity
  8
중심선
100
AcDbLine
 10
19.22036997980202
 20
11.08717430171403
 30
0.0
 11
23.66174974927406
 21
11.08717430171406
 31
0.0
  0
LINE
  5
94
330
82
100
AcDbEntity
  8
중심선
100
AcDbLine
 10
19.22039502424796
 20
13.00717430171391
 30
0.0
 11
19.22036997980202
 21
11.08717430171403
 31
0.0
  0
LINE
  5
95
330
82
100
AcDbEntity
  8
중심선
100
AcDbLine
 10
19.22039502424796
 20
13.00717430171391
 30
0.0
 11
26.96566020931264
 21
13.00717430171391
 31
0.0
  0
LINE
  5
96
330
82
100
AcDbEntity
  8
중심선
100
AcDbLine
 10
22.22332737316547
 20
13.45928029700563
 30
0.0
 11
24.52862924686651
 21
15.39360700705356
 31
0.0
  0
ATTDEF
  5
98
330
82
100
AcDbEntity
  8
FORMAT
 62
     2
100
AcDbText
 10
-20.85824753159254
 20
2.075366912832191
 30
0.0
 40
4.233333333333333
  1
SEME7220090200E [ 4 FLUTE ]
 41
0.75
  7
SLDTEXTSTYLE0
 11
-20.85824753159254
 21
-0.0412997538344756
 31
0.0
100
AcDbAttributeDefinition
  3

  2
AUTOATTR0
 70
     0
 74
     1
  0
ENDBLK
  5
84
330
82
100
AcDbEntity
  8
0
100
AcDbBlockEnd
  0
BLOCK
  5
E0
330
DF
100
AcDbEntity
  8
0
100
AcDbBlockBegin
  2
_D
 70
     0
 10
0.0
 20
0.0
 30
0.0
  3
_D
  1

  0
LINE
  5
E2
330
DF
100
AcDbEntity
  8
치수문자_일반주서
 62
     0
370
    -2
100
AcDbLine
 10
102.0625
 20
-10.00000000000002
 30
0.0
 11
118.2867478382006
 21
-9.999999999999961
 31
0.0
  0
LINE
  5
E3
330
DF
100
AcDbEntity
  8
치수문자_일반주서
 62
     0
370
    -2
100
AcDbLine
 10
102.0625
 20
9.999999999999998
 30
0.0
 11
118.2867478382005
 21
10.00000000000006
 31
0.0
  0
LINE
  5
E4
330
DF
100
AcDbEntity
  8
치수문자_일반주서
 62
     0
370
    -2
100
AcDbLine
 10
118.2867478382006
 20
-9.999999999999961
 30
0.0
 11
118.2867478382004
 21
24.91650000000006
 31
0.0
  0
LINE
  5
E5
330
DF
100
AcDbEntity
  8
치수문자_일반주서
 62
     0
370
    -2
100
AcDbLine
 10
118.2867478382006
 20
-9.999999999999961
 30
0.0
 11
118.2867478382005
 21
10.00000000000006
 31
0.0
  0
LINE
  5
E6
330
DF
100
AcDbEntity
  8
치수문자_일반주서
 62
     0
370
    -2
100
AcDbLine
 10
118.2867478382006
 20
-13.30199999999996
 30
0.0
 11
118.2867478382006
 21
-16.60399999999996
 31
0.0
  0
LINE
  5
E7
330
DF
100
AcDbEntity
  8
치수문자_일반주서
 62
     0
370
    -2
100
AcDbLine
 10
118.2867478382005
 20
13.30200000000006
 30
0.0
 11
118.2867478382005
 21
16.60400000000006
 31
0.0
  0
SOLID
  5
E8
330
DF
100
AcDbEntity
  8
치수문자_일반주서
 62
     0
100
AcDbTrace
 10
118.8370811715339
 20
-13.30199999999996
 30
0.0
 11
117.7364145048672
 21
-13.30199999999996
 31
0.0
 12
118.2867478382006
 22
-9.999999999999961
 32
0.0
 13
118.2867478382006
 23
-9.999999999999961
 33
0.0
  0
SOLID
  5
E9
330
DF
100
AcDbEntity
  8
치수문자_일반주서
 62
     0
100
AcDbTrace
 10
117.7364145048671
 20
13.30200000000006
 30
0.0
 11
118.8370811715338
 21
13.30200000000006
 31
0.0
 12
118.2867478382005
 22
10.00000000000006
 32
0.0
 13
118.2867478382005
 23
10.00000000000006
 33
0.0
  0
MTEXT
  5
EA
330
DF
100
AcDbEntity
  8
치수문자_일반주서
 62
     0
100
AcDbMText
 10
113.9117478382004
 20
20.76025000000005
 30
0.0
 40
3.5
 41
0.0
 71
     2
 72
     1
  1
\A1;%%c20
  7
SLDTEXTSTYLE0
 11
-3.552713678800498E-15
 21
1.0
 31
0.0
 73
     1
 44
1.0
  0
POINT
  5
143
330
DF
100
AcDbEntity
  8
Defpoints
 62
     0
100
AcDbPoint
 10
102.0
 20
-10.00000000000002
 30
0.0
  0
POINT
  5
144
330
DF
100
AcDbEntity
  8
Defpoints
 62
     0
100
AcDbPoint
 10
102.0
 20
9.999999999999998
 30
0.0
  0
POINT
  5
145
330
DF
100
AcDbEntity
  8
Defpoints
 62
     0
100
AcDbPoint
 10
118.2867478382005
 20
10.00000000000006
 30
0.0
  0
ENDBLK
  5
E1
330
DF
100
AcDbEntity
  8
0
100
AcDbBlockEnd
  0
BLOCK
  5
EE
330
ED
100
AcDbEntity
  8
0
100
AcDbBlockBegin
  2
_D_1
 70
     0
 10
0.0
 20
0.0
 30
0.0
  3
_D_1
  1

  0
LINE
  5
F0
330
ED
100
AcDbEntity
  8
치수문자_일반주서
 62
     0
370
    -2
100
AcDbLine
 10
-98.0
 20
9.562499999999977
 30
0.0
 11
-98.0
 21
27.38913260158163
 31
0.0
  0
LINE
  5
F1
330
ED
100
AcDbEntity
  8
치수문자_일반주서
 62
     0
370
    -2
100
AcDbLine
 10
102.0
 20
10.0625
 30
0.0
 11
102.0
 21
27.38913260158163
 31
0.0
  0
LINE
  5
F2
330
ED
100
AcDbEntity
  8
치수문자_일반주서
 62
     0
370
    -2
100
AcDbLine
 10
-94.69800000000001
 20
27.38913260158163
 30
0.0
 11
98.69800000000001
 21
27.38913260158163
 31
0.0
  0
SOLID
  5
F3
330
ED
100
AcDbEntity
  8
치수문자_일반주서
 62
     0
100
AcDbTrace
 10
-94.69800000000001
 20
27.93946593491496
 30
0.0
 11
-94.69800000000001
 21
26.83879926824829
 31
0.0
 12
-98.0
 22
27.38913260158163
 32
0.0
 13
-98.0
 23
27.38913260158163
 33
0.0
  0
SOLID
  5
F4
330
ED
100
AcDbEntity
  8
치수문자_일반주서
 62
     0
100
AcDbTrace
 10
98.69800000000001
 20
26.83879926824829
 30
0.0
 11
98.69800000000001
 21
27.93946593491496
 31
0.0
 12
102.0
 22
27.38913260158163
 32
0.0
 13
102.0
 23
27.38913260158163
 33
0.0
  0
MTEXT
  5
F5
330
ED
100
AcDbEntity
  8
치수문자_일반주서
 62
     0
100
AcDbMText
 10
1.999999999999996
 20
31.76413260158163
 30
0.0
 40
3.5
 41
0.0
 71
     2
 72
     1
  1
\A1;200
  7
SLDTEXTSTYLE0
 73
     1
 44
1.0
  0
POINT
  5
13A
330
ED
100
AcDbEntity
  8
Defpoints
 62
     0
100
AcDbPoint
 10
-98.0
 20
9.499999999999977
 30
0.0
  0
POINT
  5
13B
330
ED
100
AcDbEntity
  8
Defpoints
 62
     0
100
AcDbPoint
 10
102.0
 20
9.999999999999998
 30
0.0
  0
POINT
  5
13C
330
ED
100
AcDbEntity
  8
Defpoints
 62
     0
100
AcDbPoint
 10
102.0
 20
27.38913260158163
 30
0.0
  0
ENDBLK
  5
EF
330
ED
100
AcDbEntity
  8
0
100
AcDbBlockEnd
  0
BLOCK
  5
F9
330
F8
100
AcDbEntity
  8
0
100
AcDbBlockBegin
  2
_D_2
 70
     0
 10
0.0
 20
0.0
 30
0.0
  3
_D_2
  1

  0
LINE
  5
FB
330
F8
100
AcDbEntity
  8
치수문자_일반주서
 62
     0
370
    -2
100
AcDbLine
 10
-97.5625
 20
9.99999999999997
 30
0.0
 11
-111.7149364001481
 21
9.999999999999917
 31
0.0
  0
LINE
  5
FC
330
F8
100
AcDbEntity
  8
치수문자_일반주서
 62
     0
370
    -2
100
AcDbLine
 10
-97.5625
 20
-10.00000000000002
 30
0.0
 11
-111.714936400148
 21
-10.00000000000007
 31
0.0
  0
LINE
  5
FD
330
F8
100
AcDbEntity
  8
치수문자_일반주서
 62
     0
370
    -2
100
AcDbLine
 10
-111.7149364001481
 20
9.999999999999917
 30
0.0
 11
-111.7149364001482
 21
24.91649999999992
 31
0.0
  0
LINE
  5
FE
330
F8
100
AcDbEntity
  8
치수문자_일반주서
 62
     0
370
    -2
100
AcDbLine
 10
-111.7149364001481
 20
9.999999999999917
 30
0.0
 11
-111.714936400148
 21
-10.00000000000007
 31
0.0
  0
LINE
  5
FF
330
F8
100
AcDbEntity
  8
치수문자_일반주서
 62
     0
370
    -2
100
AcDbLine
 10
-111.7149364001481
 20
13.30199999999992
 30
0.0
 11
-111.7149364001481
 21
16.60399999999991
 31
0.0
  0
LINE
  5
100
330
F8
100
AcDbEntity
  8
치수문자_일반주서
 62
     0
370
    -2
100
AcDbLine
 10
-111.714936400148
 20
-13.30200000000007
 30
0.0
 11
-111.714936400148
 21
-16.60400000000007
 31
0.0
  0
SOLID
  5
101
330
F8
100
AcDbEntity
  8
치수문자_일반주서
 62
     0
100
AcDbTrace
 10
-112.2652697334814
 20
13.30199999999991
 30
0.0
 11
-111.1646030668148
 21
13.30199999999992
 31
0.0
 12
-111.7149364001481
 22
9.999999999999917
 32
0.0
 13
-111.7149364001481
 23
9.999999999999917
 33
0.0
  0
SOLID
  5
102
330
F8
100
AcDbEntity
  8
치수문자_일반주서
 62
     0
100
AcDbTrace
 10
-111.1646030668147
 20
-13.30200000000007
 30
0.0
 11
-112.2652697334813
 21
-13.30200000000007
 31
0.0
 12
-111.714936400148
 22
-10.00000000000007
 32
0.0
 13
-111.714936400148
 23
-10.00000000000007
 33
0.0
  0
MTEXT
  5
103
330
F8
100
AcDbEntity
  8
치수문자_일반주서
 62
     0
100
AcDbMText
 10
-116.0899364001481
 20
20.7602499999999
 30
0.0
 40
3.5
 41
0.0
 71
     2
 72
     1
  1
\A1;%%c20
  7
SLDTEXTSTYLE0
 11
-3.552713678800503E-15
 21
1.0
 31
0.0
 73
     1
 44
1.0
  0
POINT
  5
140
330
F8
100
AcDbEntity
  8
Defpoints
 62
     0
100
AcDbPoint
 10
-97.5
 20
9.99999999999997
 30
0.0
  0
POINT
  5
141
330
F8
100
AcDbEntity
  8
Defpoints
 62
     0
100
AcDbPoint
 10
-97.5
 20
-10.00000000000002
 30
0.0
  0
POINT
  5
142
330
F8
100
AcDbEntity
  8
Defpoints
 62
     0
100
AcDbPoint
 10
-111.714936400148
 20
-10.00000000000007
 30
0.0
  0
ENDBLK
  5
FA
330
F8
100
AcDbEntity
  8
0
100
AcDbBlockEnd
  0
BLOCK
  5
106
330
105
100
AcDbEntity
  8
0
100
AcDbBlockBegin
  2
_D_3
 70
     0
 10
0.0
 20
0.0
 30
0.0
  3
_D_3
  1

  0
LINE
  5
108
330
105
100
AcDbEntity
  8
치수문자_일반주서
 62
     0
370
    -2
100
AcDbLine
 10
12.0
 20
9.874090833943916
 30
0.0
 11
12.0
 21
20.65750913653157
 31
0.0
  0
LINE
  5
109
330
105
100
AcDbEntity
  8
치수문자_일반주서
 62
     0
370
    -2
100
AcDbLine
 10
102.0
 20
10.0625
 30
0.0
 11
102.0
 21
20.65750913653157
 31
0.0
  0
LINE
  5
10A
330
105
100
AcDbEntity
  8
치수문자_일반주서
 62
     0
370
    -2
100
AcDbLine
 10
15.302
 20
20.65750913653157
 30
0.0
 11
98.69800000000001
 21
20.65750913653157
 31
0.0
  0
SOLID
  5
10B
330
105
100
AcDbEntity
  8
치수문자_일반주서
 62
     0
100
AcDbTrace
 10
15.302
 20
21.2078424698649
 30
0.0
 11
15.302
 21
20.10717580319823
 31
0.0
 12
12.0
 22
20.65750913653157
 32
0.0
 13
12.0
 23
20.65750913653157
 33
0.0
  0
SOLID
  5
10C
330
105
100
AcDbEntity
  8
치수문자_일반주서
 62
     0
100
AcDbTrace
 10
98.69800000000001
 20
20.10717580319823
 30
0.0
 11
98.69800000000001
 21
21.2078424698649
 31
0.0
 12
102.0
 22
20.65750913653157
 32
0.0
 13
102.0
 23
20.65750913653157
 33
0.0
  0
MTEXT
  5
10D
330
105
100
AcDbEntity
  8
치수문자_일반주서
 62
     0
100
AcDbMText
 10
57.0
 20
25.03250913653157
 30
0.0
 40
3.5
 41
0.0
 71
     2
 72
     1
  1
\A1;90
  7
SLDTEXTSTYLE0
 73
     1
 44
1.0
  0
POINT
  5
13D
330
105
100
AcDbEntity
  8
Defpoints
 62
     0
100
AcDbPoint
 10
12.0
 20
9.811590833943916
 30
0.0
  0
POINT
  5
13E
330
105
100
AcDbEntity
  8
Defpoints
 62
     0
100
AcDbPoint
 10
102.0
 20
9.999999999999998
 30
0.0
  0
POINT
  5
13F
330
105
100
AcDbEntity
  8
Defpoints
 62
     0
100
AcDbPoint
 10
102.0
 20
20.65750913653157
 30
0.0
  0
ENDBLK
  5
107
330
105
100
AcDbEntity
  8
0
100
AcDbBlockEnd
  0
BLOCK
  5
10F
330
10E
100
AcDbEntity
  8
0
100
AcDbBlockBegin
  2
SW_DOWELSYMBOL_0
 70
     0
 10
0.0
 20
0.0
 30
0.0
  3
SW_DOWELSYMBOL_0
  1

  0
CIRCLE
  5
111
330
10E
100
AcDbEntity
  8
해칭선
 62
     0
100
AcDbCircle
 10
0.0
 20
0.0
 30
0.0
 40
3.000000000000003
  0
HATCH
  5
112
330
10E
100
AcDbEntity
  8
0
  6
Continuous
 62
     0
370
    18
100
AcDbHatch
 10
0.0
 20
0.0
 30
0.0
210
0.0
220
0.0
230
1.0
  2
SOLID
 70
     1
 71
     0
 91
        1
 92
        0
 93
        3
 72
     2
 10
0.0
 20
0.0
 40
3.000000000000003
 50
0.0
 51
90.0
 73
     1
 72
     1
 10
0.0
 20
3.000000000000003
 11
0.0
 21
0.0
 72
     1
 10
0.0
 20
0.0
 11
3.000000000000003
 21
0.0
 97
        0
 75
     0
 76
     1
 98
        1
 10
0.0
 20
0.0
  0
HATCH
  5
113
330
10E
100
AcDbEntity
  8
0
  6
Continuous
 62
     0
370
    18
100
AcDbHatch
 10
0.0
 20
0.0
 30
0.0
210
0.0
220
0.0
230
1.0
  2
SOLID
 70
     1
 71
     0
 91
        1
 92
        0
 93
        3
 72
     2
 10
0.0
 20
0.0
 40
3.000000000000003
 50
180.0
 51
270.0000000000008
 73
     1
 72
     1
 10
0.0
 20
-3.000000000000003
 11
0.0
 21
0.0
 72
     1
 10
0.0
 20
0.0
 11
-3.000000000000003
 21
0.0
 97
        0
 75
     0
 76
     1
 98
        1
 10
0.0
 20
0.0
  0
ENDBLK
  5
110
330
10E
100
AcDbEntity
  8
0
100
AcDbBlockEnd
  0
ENDSEC
  0
SECTION
  2
ENTITIES
  0
LINE
  5
99
330
1F
100
AcDbEntity
  8
0
  6
Continuous
 62
     4
370
    25
100
AcDbLine
 10
10.5099916708767
 20
9.999999999999991
 30
0.0
 11
-97.5
 21
9.999999999999984
 31
0.0
  0
LINE
  5
9A
330
1F
100
AcDbEntity
  8
0
  6
Continuous
 62
     4
370
    25
100
AcDbLine
 10
-97.5
 20
-10.00000000000002
 30
0.0
 11
10.50999167087666
 21
-10.00000000000001
 31
0.0
  0
LINE
  5
9B
330
1F
100
AcDbEntity
  8
0
  6
Continuous
 62
     4
370
    25
100
AcDbLine
 10
-97.5
 20
9.999999999999977
 30
0.0
 11
-98.0
 21
9.499999999999977
 31
0.0
  0
LINE
  5
9C
330
1F
100
AcDbEntity
  8
0
  6
Continuous
 62
     4
370
    25
100
AcDbLine
 10
-98.0
 20
-9.500000000000012
 30
0.0
 11
-97.5
 21
-10.00000000000001
 31
0.0
  0
LINE
  5
9D
330
1F
100
AcDbEntity
  8
0
  6
Continuous
 62
     1
370
    25
100
AcDbLine
 10
98.13072207525836
 20
-10.00000000000002
 30
0.0
 11
102.0
 21
-10.00000000000002
 31
0.0
  0
LINE
  5
9E
330
1F
100
AcDbEntity
  8
0
  6
Continuous
 62
     1
370
    25
100
AcDbLine
 10
51.45548102473363
 20
9.999999999999998
 30
0.0
 11
43.71877487006531
 21
9.999999999999998
 31
0.0
  0
LINE
  5
9F
330
1F
100
AcDbEntity
  8
0
  6
Continuous
 62
     1
370
    25
100
AcDbLine
 10
21.13781995882316
 20
1.775388312663397
 30
0.0
 11
21.76489055765591
 21
1.428537429534439
 31
0.0
  0
LINE
  5
A0
330
1F
100
AcDbEntity
  8
0
  6
Continuous
 62
     1
370
    25
100
AcDbLine
 10
46.31092854533956
 20
-1.488363714012644
 30
0.0
 11
46.20093781978439
 21
-1.428529109403421
 31
0.0
  0
LINE
  5
A1
330
1F
100
AcDbEntity
  8
0
  6
Continuous
 62
     1
370
    25
100
AcDbLine
 10
46.562427402438
 20
-1.625178291770907
 30
0.0
 11
46.43211404764347
 21
-1.554288241540991
 31
0.0
  0
LINE
  5
A2
330
1F
100
AcDbEntity
  8
0
  6
Continuous
 62
     1
370
    25
100
AcDbLine
 10
75.97233405463699
 20
1.542861849317287
 30
0.0
 11
76.17888743407059
 21
1.428528299366691
 31
0.0
  0
LINE
  5
A3
330
1F
100
AcDbEntity
  8
0
  6
Continuous
 62
     1
370
    25
100
AcDbLine
 10
70.9259949419365
 20
-10.00000000000002
 30
0.0
 11
78.66320534283739
 21
-10.00000000000002
 31
0.0
  0
LINE
  5
A4
330
1F
100
AcDbEntity
  8
0
  6
Continuous
 62
     1
370
    25
100
AcDbLine
 10
24.24601818951664
 20
9.999999999999998
 30
0.0
 11
16.50957018689091
 21
9.999999999999998
 31
0.0
  0
LINE
  5
A5
330
1F
100
AcDbEntity
  8
0
  6
Continuous
 62
     1
370
    25
100
AcDbLine
 10
16.509570186891
 20
-10.00000000000002
 30
0.0
 11
24.24601818951671
 21
-10.00000000000002
 31
0.0
  0
LINE
  5
A6
330
1F
100
AcDbEntity
  8
0
  6
Continuous
 62
     1
370
    25
100
AcDbLine
 10
78.66320534283747
 20
9.999999999999998
 30
0.0
 11
70.92599494193664
 21
9.999999999999998
 31
0.0
  0
LINE
  5
A7
330
1F
100
AcDbEntity
  8
0
  6
Continuous
 62
     1
370
    25
100
AcDbLine
 10
43.71877487006535
 20
-10.00000000000002
 30
0.0
 11
51.45548102473354
 21
-10.00000000000002
 31
0.0
  0
LINE
  5
A8
330
1F
100
AcDbEntity
  8
0
  6
Continuous
 62
     1
370
    25
100
AcDbLine
 10
102.0
 20
9.999999999999998
 30
0.0
 11
98.1307220752583
 21
9.999999999999998
 31
0.0
  0
SPLINE
  5
A9
330
1F
100
AcDbEntity
  8
0
  6
Continuous
 62
     4
370
    25
100
AcDbSpline
210
0.0
220
0.0
230
1.0
 70
    24
 71
     3
 72
    18
 73
    14
 74
     0
 42
0.000000001
 43
0.00000001
 40
0.0
 40
0.0
 40
0.0
 40
0.0
 40
0.2500000000000001
 40
0.2500000000000001
 40
0.4999999999999999
 40
0.4999999999999999
 40
0.6249999999999999
 40
0.6249999999999999
 40
0.7499999999999999
 40
0.7499999999999999
 40
0.875
 40
0.875
 40
1.0
 40
1.0
 40
1.0
 40
1.0
 10
12.0
 20
1.932015866205014
 30
0.0
 10
12.0
 20
1.72139093475895
 30
0.0
 10
12.0
 20
1.421479282418467
 30
0.0
 10
12.0
 20
0.6318202840283437
 30
0.0
 10
12.0
 20
0.1624074651063413
 30
0.0
 10
12.0
 20
-0.6594681417736838
 30
0.0
 10
12.0
 20
-0.9520017372359525
 30
0.0
 10
12.0
 20
-1.554866942457198
 30
0.0
 10
12.0
 20
-1.867765260856229
 30
0.0
 10
12.0
 20
-2.517075738186515
 30
0.0
 10
12.0
 20
-2.853489742731002
 30
0.0
 10
12.0
 20
-3.5254812000973
 30
0.0
 10
12.0
 20
-3.864093895570303
 30
0.0
 10
12.0
 20
-4.205323203626038
 30
0.0
  0
SPLINE
  5
AA
330
1F
100
AcDbEntity
  8
0
  6
Continuous
 62
     4
370
    25
100
AcDbSpline
210
0.0
220
0.0
230
1.0
 70
     8
 71
     3
 72
    14
 73
    10
 74
     0
 42
0.000000001
 43
0.00000001
 40
0.0
 40
0.0
 40
0.0
 40
0.0
 40
0.25
 40
0.25
 40
0.5
 40
0.5
 40
0.75
 40
0.75
 40
1.0
 40
1.0
 40
1.0
 40
1.0
 10
11.50803356216464
 20
-7.414664774863045
 30
0.0
 10
11.35018963214749
 20
-7.353549239752481
 30
0.0
 10
11.20835464452437
 20
-7.278597657203824
 30
0.0
 10
10.95576262461935
 20
-7.09905274409582
 30
0.0
 10
10.84695516648868
 20
-6.994927526622889
 30
0.0
 10
10.67351049842615
 20
-6.766293106396593
 30
0.0
 10
10.60713781628519
 20
-6.639033530441242
 30
0.0
 10
10.52101475206207
 20
-6.373798979830737
 30
0.0
 10
10.49991250821521
 20
-6.23334684785613
 30
0.0
 10
10.49991250821521
 20
-6.088939758703691
 30
0.0
  0
SPLINE
  5
AB
330
1F
100
AcDbEntity
  8
0
  6
Continuous
 62
     4
370
    25
100
AcDbSpline
210
0.0
220
0.0
230
1.0
 70
     8
 71
     3
 72
    16
 73
    12
 74
     0
 42
0.000000001
 43
0.00000001
 40
0.0
 40
0.0
 40
0.0
 40
0.0
 40
0.25
 40
0.25
 40
0.5
 40
0.5
 40
0.625
 40
0.625
 40
0.75
 40
0.75
 40
1.0
 40
1.0
 40
1.0
 40
1.0
 10
10.49991250821521
 20
-0.0631912082820265
 30
0.0
 10
10.49991250821521
 20
0.1637388787919022
 30
0.0
 10
10.53181940138808
 20
0.3853511582187057
 30
0.0
 10
10.66735353451237
 20
0.8167411676414423
 30
0.0
 10
10.7683722641363
 20
1.017015590878118
 30
0.0
 10
10.96907874863515
 20
1.287750341047386
 30
0.0
 10
11.0442038761655
 20
1.372657400577486
 30
0.0
 10
11.20572948543139
 20
1.526415170237595
 30
0.0
 10
11.29274502405641
 20
1.59615340653342
 30
0.0
 10
11.57300915869362
 20
1.783634902681128
 30
0.0
 10
11.78004801646435
 20
1.875905823886938
 30
0.0
 10
12.0
 20
1.932015866205018
 30
0.0
  0
SPLINE
  5
AC
330
1F
100
AcDbEntity
  8
0
  6
Continuous
 62
     4
370
    25
100
AcDbSpline
210
0.0
220
0.0
230
1.0
 70
     8
 71
     3
 72
    14
 73
    10
 74
     0
 42
0.000000001
 43
0.00000001
 40
0.0
 40
0.0
 40
0.0
 40
0.0
 40
0.2500000000000001
 40
0.2500000000000001
 40
0.5
 40
0.5
 40
0.75
 40
0.75
 40
1.0
 40
1.0
 40
1.0
 40
1.0
 10
11.50803356216464
 20
6.709899125646771
 30
0.0
 10
11.35018963214749
 20
6.777433852606999
 30
0.0
 10
11.20835464452437
 20
6.858476103303424
 30
0.0
 10
10.95576262461935
 20
7.044155623748152
 30
0.0
 10
10.84695516648868
 20
7.148133100449474
 30
0.0
 10
10.67351049842615
 20
7.364923320902803
 30
0.0
 10
10.60713781628519
 20
7.480222732319733
 30
0.0
 10
10.52101475206207
 20
7.707475910318803
 30
0.0
 10
10.49991250821521
 20
7.821670363302925
 30
0.0
 10
10.49991250821521
 20
7.932516159131125
 30
0.0
  0
SPLINE
  5
AD
330
1F
100
AcDbEntity
  8
0
  6
Continuous
 62
     4
370
    25
100
AcDbSpline
210
0.0
220
0.0
230
1.0
 70
     8
 71
     3
 72
     8
 73
     4
 74
     0
 42
0.000000001
 43
0.00000001
 40
0.0
 40
0.0
 40
0.0
 40
0.0
 40
1.0
 40
1.0
 40
1.0
 40
1.0
 10
12.0
 20
6.496573674033748
 30
0.0
 10
11.83622484127876
 20
6.568534419369485
 30
0.0
 10
11.67220307228115
 20
6.639657951090939
 30
0.0
 10
11.50803356216464
 20
6.709899125646771
 30
0.0
  0
SPLINE
  5
AE
330
1F
100
AcDbEntity
  8
0
  6
Continuous
 62
     4
370
    25
100
AcDbSpline
210
0.0
220
0.0
230
1.0
 70
     8
 71
     3
 72
     8
 73
     4
 74
     0
 42
0.000000001
 43
0.00000001
 40
0.0
 40
0.0
 40
0.0
 40
0.0
 40
1.0
 40
1.0
 40
1.0
 40
1.0
 10
12.0
 20
-7.602271403850503
 30
0.0
 10
11.83622484127876
 20
-7.540776850594325
 30
0.0
 10
11.67220307228114
 20
-7.478229509082053
 30
0.0
 10
11.50803356216463
 20
-7.414664774863129
 30
0.0
  0
SPLINE
  5
AF
330
1F
100
AcDbEntity
  8
0
  6
Continuous
 62
     4
370
    25
100
AcDbSpline
210
0.0
220
0.0
230
1.0
 70
     8
 71
     3
 72
    16
 73
    12
 74
     0
 42
0.000000001
 43
0.00000001
 40
0.0
 40
0.0
 40
0.0
 40
0.0
 40
0.2499999999999999
 40
0.2499999999999999
 40
0.4999999999999998
 40
0.4999999999999998
 40
0.6249999999999998
 40
0.6249999999999998
 40
0.7499999999999999
 40
0.7499999999999999
 40
1.0
 40
1.0
 40
1.0
 40
1.0
 10
10.49991250821521
 20
-9.999800341566626
 30
0.0
 10
10.49991250821521
 20
-10.00123436883796
 30
0.0
 10
10.53181940138808
 20
-9.994908578945083
 30
0.0
 10
10.66735353451237
 20
-9.968933086428569
 30
0.0
 10
10.7683722641363
 20
-9.949810541857676
 30
0.0
 10
10.96907874863515
 20
-9.91715491922309
 30
0.0
 10
11.0442038761655
 20
-9.905647322352406
 30
0.0
 10
11.20572948543139
 20
-9.883121669910574
 30
0.0
 10
11.29274502405641
 20
-9.87199626546896
 30
0.0
 10
11.57300915869362
 20
-9.840462915148816
 30
0.0
 10
11.78004801646435
 20
-9.822639551103727
 30
0.0
 10
12.0
 20
-9.811590833943919
 30
0.0
  0
SPLINE
  5
B0
330
1F
100
AcDbEntity
  8
0
  6
Continuous
 62
     4
370
    25
100
AcDbSpline
210
0.0
220
0.0
230
1.0
 70
     8
 71
     3
 72
    16
 73
    12
 74
     0
 42
0.000000001
 43
0.00000001
 40
0.0
 40
0.0
 40
0.0
 40
0.0
 40
0.2500000000000002
 40
0.2500000000000002
 40
0.5000000000000004
 40
0.5000000000000004
 40
0.6250000000000004
 40
0.6250000000000004
 40
0.7500000000000004
 40
0.7500000000000004
 40
1.0
 40
1.0
 40
1.0
 40
1.0
 10
10.49991250821521
 20
9.999800341566612
 30
0.0
 10
10.49991250821521
 20
10.00123436883795
 30
0.0
 10
10.53181940138807
 20
9.994908578945065
 30
0.0
 10
10.66735353451237
 20
9.968933086428555
 30
0.0
 10
10.7683722641363
 20
9.949810541857666
 30
0.0
 10
10.96907874863515
 20
9.91715491922308
 30
0.0
 10
11.0442038761655
 20
9.905647322352392
 30
0.0
 10
11.20572948543139
 20
9.883121669910565
 30
0.0
 10
11.29274502405641
 20
9.87199626546895
 30
0.0
 10
11.57300915869362
 20
9.840462915148805
 30
0.0
 10
11.78004801646435
 20
9.82263955110372
 30
0.0
 10
12.0
 20
9.811590833943916
 30
0.0
  0
LINE
  5
B1
330
1F
100
AcDbEntity
  8
0
  6
Continuous
 62
     4
370
    25
100
AcDbLine
 10
10.49991250821521
 20
9.999800341566608
 30
0.0
 11
10.49991250821521
 21
7.932516159131122
 31
0.0
  0
LINE
  5
B2
330
1F
100
AcDbEntity
  8
0
  6
Continuous
 62
     4
370
    25
100
AcDbLine
 10
-97.5
 20
9.999999999999977
 30
0.0
 11
-97.5
 21
-10.00000000000001
 31
0.0
  0
LINE
  5
B3
330
1F
100
AcDbEntity
  8
0
  6
Continuous
 62
     4
370
    25
100
AcDbLine
 10
10.49991250821521
 20
-0.0631912082820265
 30
0.0
 11
10.49991250821521
 21
-6.088939758703691
 31
0.0
  0
LINE
  5
B4
330
1F
100
AcDbEntity
  8
0
  6
Continuous
 62
     4
370
    25
100
AcDbLine
 10
12.0
 20
-7.602271403850503
 30
0.0
 11
12.0
 21
-9.811590833943919
 31
0.0
  0
LINE
  5
B5
330
1F
100
AcDbEntity
  8
0
  6
Continuous
 62
     4
370
    25
100
AcDbLine
 10
12.0
 20
6.496573674033748
 30
0.0
 11
12.0
 21
1.932015866205014
 31
0.0
  0
LINE
  5
B6
330
1F
100
AcDbEntity
  8
0
  6
Continuous
 62
     4
370
    25
100
AcDbLine
 10
-98.0
 20
9.499999999999977
 30
0.0
 11
-98.0
 21
-9.500000000000016
 31
0.0
  0
SPLINE
  5
B7
330
1F
100
AcDbEntity
  8
0
  6
Continuous
 62
     4
370
    25
100
AcDbSpline
210
0.0
220
0.0
230
1.0
 70
    24
 71
     3
 72
    11
 73
     7
 74
     0
 42
0.000000001
 43
0.00000001
 40
0.0
 40
0.0
 40
0.0
 40
0.0
 40
0.2531608486481881
 40
0.512142647849902
 40
0.7936133459602814
 40
1.0
 40
1.0
 40
1.0
 40
1.0
 10
12.0
 20
9.811590833943916
 30
0.0
 10
12.0
 20
9.497467478688352
 30
0.0
 10
12.0
 20
8.86199810113208
 30
0.0
 10
12.0
 20
7.965151117488519
 30
0.0
 10
12.0
 20
7.192301428511705
 30
0.0
 10
12.0
 20
6.800345787684786
 30
0.0
 10
12.0
 20
6.634530077650405
 30
0.0
  0
SPLINE
  5
B8
330
1F
100
AcDbEntity
  8
0
  6
Continuous
 62
     4
370
    25
100
AcDbSpline
210
0.0
220
0.0
230
1.0
 70
    24
 71
     3
 72
    10
 73
     6
 74
     0
 42
0.000000001
 43
0.00000001
 40
0.0
 40
0.0
 40
0.0
 40
0.0
 40
0.5
 40
0.5
 40
1.0
 40
1.0
 40
1.0
 40
1.0
 10
12.0
 20
-4.205323203626689
 30
0.0
 10
12.0
 20
-4.784942889163172
 30
0.0
 10
12.0
 20
-5.377360864491251
 30
0.0
 10
12.0
 20
-6.529554639253894
 30
0.0
 10
12.0
 20
-7.088666265784398
 30
0.0
 10
12.0
 20
-7.602271403850503
 30
0.0
  0
SPLINE
  5
B9
330
1F
100
AcDbEntity
  8
0
  6
Continuous
 62
     1
370
    25
100
AcDbSpline
210
0.0
220
0.0
230
1.0
 70
     8
 71
     3
 72
    25
 73
    21
 74
     0
 42
0.000000001
 43
0.00000001
 40
0.0
 40
0.0
 40
0.0
 40
0.0
 40
0.0499374528244678
 40
0.1093634900690653
 40
0.168774127209576
 40
0.2282097390889594
 40
0.2876590190759866
 40
0.3471070677267017
 40
0.4065389930795413
 40
0.4659484205214629
 40
0.5253787137600963
 40
0.5848261385353415
 40
0.6442758066761484
 40
0.7037128163795852
 40
0.7596231786436402
 40
0.8155284066363628
 40
0.8714454720968005
 40
0.9273713728285474
 40
0.983302371894533
 40
1.0
 40
1.0
 40
1.0
 40
1.0
 10
33.98570669034987
 20
8.434058593056802
 30
0.0
 10
35.05352610722301
 20
8.745981185134744
 30
0.0
 10
37.39206064568354
 20
9.429094587433045
 30
0.0
 10
41.00070783515363
 20
9.950075266567785
 30
0.0
 10
44.81208865736383
 20
10.06284177339186
 30
0.0
 10
48.62450151715428
 20
9.67861945699366
 30
0.0
 10
52.43784616359909
 20
8.830427160438092
 30
0.0
 10
56.2511004605668
 20
7.55528918412491
 30
0.0
 10
60.06332219094921
 20
5.915969680610344
 30
0.0
 10
63.87465778762133
 20
3.990560850994251
 30
0.0
 10
67.68680097144417
 20
1.873143169674062
 30
0.0
 10
71.50001104968321
 20
-0.3347838167655669
 30
0.0
 10
75.31338000503828
 20
-2.526607602416904
 30
0.0
 10
79.05102182048923
 20
-4.5556318408364
 30
0.0
 10
82.71230653730797
 20
-6.33757855595273
 30
0.0
 10
86.29832121282016
 20
-7.810016384761069
 30
0.0
 10
89.88487433391748
 20
-8.956999198615506
 30
0.0
 10
93.47207939304417
 20
-9.689836997877473
 30
0.0
 10
96.22077992377385
 20
-10.02406629003519
 30
0.0
 10
97.77369934269691
 20
-9.968029977264436
 30
0.0
 10
98.13072207525833
 20
-9.955146992310874
 30
0.0
  0
SPLINE
  5
BA
330
1F
100
AcDbEntity
  8
0
  6
Continuous
 62
     1
370
    25
100
AcDbSpline
210
0.0
220
0.0
230
1.0
 70
     8
 71
     3
 72
    21
 73
    17
 74
     0
 42
0.000000001
 43
0.00000001
 40
0.0
 40
0.0
 40
0.0
 40
0.0
 40
0.0754066712740619
 40
0.1508438522010035
 40
0.2262926954315215
 40
0.3017342827798676
 40
0.3771497401444106
 40
0.4525492829577604
 40
0.5279810334934503
 40
0.6034288489034437
 40
0.6788738172490872
 40
0.7542970438920027
 40
0.8296937896675235
 40
0.9051190876332104
 40
0.9805648477417472
 40
1.0
 40
1.0
 40
1.0
 40
1.0
 10
102.0
 20
-9.751656983550228
 30
0.0
 10
100.7296331986558
 20
-9.543517331355487
 30
0.0
 10
98.18838560364426
 20
-9.127153813348933
 30
0.0
 10
94.37561830892565
 20
-7.936270202041674
 30
0.0
 10
90.56218353847709
 20
-6.396137089200511
 30
0.0
 10
86.74916739642383
 20
-4.538390763417705
 30
0.0
 10
82.93729019000745
 20
-2.464046863158369
 30
0.0
 10
79.1258761028052
 20
-0.2697470790692192
 30
0.0
 10
75.31338334972088
 20
1.936853863444105
 30
0.0
 10
71.50001016433643
 20
4.050088970936765
 30
0.0
 10
67.68680116788316
 20
5.968553229101436
 30
0.0
 10
63.87465788687882
 20
7.596216005549787
 30
0.0
 10
60.06332159772579
 20
8.867870951332245
 30
0.0
 10
56.25110273550432
 20
9.673193168540783
 30
0.0
 10
53.38159331977411
 20
10.03495582513842
 30
0.0
 10
51.78294406191383
 20
9.967549211794648
 30
0.0
 10
51.45548102473363
 20
9.953741821447416
 30
0.0
  0
LINE
  5
BB
330
1F
100
AcDbEntity
  8
0
  6
Continuous
 62
     1
370
    25
100
AcDbLine
 10
102.0
 20
-10.00000000000003
 30
0.0
 11
102.0
 21
-9.75165698355263
 31
0.0
  0
SPLINE
  5
BC
330
1F
100
AcDbEntity
  8
0
  6
Continuous
 62
     1
370
    25
100
AcDbSpline
210
0.0
220
0.0
230
1.0
 70
     8
 71
     3
 72
    21
 73
    17
 74
     0
 42
0.000000001
 43
0.00000001
 40
0.0
 40
0.0
 40
0.0
 40
0.0
 40
0.0229459615031707
 40
0.1004420138039299
 40
0.1779590900228605
 40
0.255477771838492
 40
0.3329786311727126
 40
0.4104469247830668
 40
0.4879352993055682
 40
0.5654492088038333
 40
0.6378891995247211
 40
0.7103273102706607
 40
0.782759516035675
 40
0.8551818043107166
 40
0.9275902187418028
 40
0.9999999999999999
 40
0.9999999999999999
 40
0.9999999999999999
 40
0.9999999999999999
 10
61.19242604321642
 20
-8.418885565741947
 30
0.0
 10
60.81619326108793
 20
-8.54670856563682
 30
0.0
 10
59.16929873933
 20
-9.106231840271723
 30
0.0
 10
56.25109588299372
 20
-9.678443159050184
 30
0.0
 10
52.43784748336891
 20
-10.06982749600949
 30
0.0
 10
48.62450081642996
 20
-9.945573606090955
 30
0.0
 10
44.8120901401277
 20
-9.349468274270745
 30
0.0
 10
41.00070260629615
 20
-8.299803839877173
 30
0.0
 10
37.18878102952992
 20
-6.850409013098992
 30
0.0
 10
33.45888973731945
 20
-5.109241761134096
 30
0.0
 10
29.812314772137
 20
-3.180441351838879
 30
0.0
 10
26.2489510911495
 20
-1.161960602026257
 30
0.0
 10
22.68597554565746
 20
0.9068639073557083
 30
0.0
 10
19.1235575121762
 20
2.932046855998509
 30
0.0
 10
15.56171188370049
 20
4.853405572708088
 30
0.0
 10
13.18724476482073
 20
5.948847527248278
 30
0.0
 10
12.00000000000015
 20
6.496573674033691
 30
0.0
  0
SPLINE
  5
BD
330
1F
100
AcDbEntity
  8
0
  6
Continuous
 62
     1
370
    25
100
AcDbSpline
210
0.0
220
0.0
230
1.0
 70
     8
 71
     3
 72
    23
 73
    19
 74
     0
 42
0.000000001
 43
0.00000001
 40
0.0
 40
0.0
 40
0.0
 40
0.0
 40
0.0604490866698683
 40
0.120897032286013
 40
0.1813565600555787
 40
0.241824367137697
 40
0.3022971038121649
 40
0.3627714099261007
 40
0.4274815216259679
 40
0.4921703162339141
 40
0.5568423469077938
 40
0.6215415640781694
 40
0.686255659800928
 40
0.7509684151404894
 40
0.8156636193063056
 40
0.8803343331509434
 40
0.9450277606628624
 40
1.0
 40
1.0
 40
1.0
 40
1.0
 10
12.0
 20
9.662672584330235
 30
0.0
 10
13.18724476481994
 20
9.799767297196647
 30
0.0
 10
15.5617118836984
 20
10.07395413509166
 30
0.0
 10
19.12355751218406
 20
9.951422931237216
 30
0.0
 10
22.68597554562771
 20
9.438610566911
 30
0.0
 10
26.24895109126038
 20
8.519995867412124
 30
0.0
 10
29.81231477172304
 20
7.244205663404102
 30
0.0
 10
33.45888973891014
 20
5.625458067153361
 30
0.0
 10
37.18878102312949
 20
3.711350987987111
 30
0.0
 10
41.00070263011781
 20
1.57537523112885
 30
0.0
 10
44.81209005124735
 20
-0.6371175454219964
 30
0.0
 10
48.62450114832267
 20
-2.818173406584634
 30
0.0
 10
52.43784624443971
 20
-4.863730730183758
 30
0.0
 10
56.25110050606357
 20
-6.673612977679237
 30
0.0
 10
60.06332192826947
 20
-8.164890379951544
 30
0.0
 10
63.8746587925959
 20
-9.249426614213151
 30
0.0
 10
67.49548265121194
 20
-9.901656403439139
 30
0.0
 10
69.84614379843023
 20
-9.947868845688477
 30
0.0
 10
70.9259949419365
 20
-9.969098004415253
 30
0.0
  0
SPLINE
  5
BE
330
1F
100
AcDbEntity
  8
0
  6
Continuous
 62
     1
370
    25
100
AcDbSpline
210
0.0
220
0.0
230
1.0
 70
     8
 71
     3
 72
     9
 73
     5
 74
     0
 42
0.000000001
 43
0.00000001
 40
0.0
 40
0.0
 40
0.0
 40
0.0
 40
0.7898135381037655
 40
1.0
 40
1.0
 40
1.0
 40
1.0
 10
12.0
 20
-9.662672584330238
 30
0.0
 10
13.18724257073404
 20
-9.825516533418503
 30
0.0
 10
14.69043606319359
 20
-10.03169677879544
 30
0.0
 10
16.19362105242824
 20
-9.971420981609667
 30
0.0
 10
16.50957018689101
 20
-9.958751825061215
 30
0.0
  0
SPLINE
  5
BF
330
1F
100
AcDbEntity
  8
0
  6
Continuous
 62
     1
370
    25
100
AcDbSpline
210
0.0
220
0.0
230
1.0
 70
     8
 71
     3
 72
    18
 73
    14
 74
     0
 42
0.000000001
 43
0.00000001
 40
0.0
 40
0.0
 40
0.0
 40
0.0
 40
0.0679762927191563
 40
0.16459545538321
 40
0.2612424697476742
 40
0.357893131277419
 40
0.4545232132751996
 40
0.5454198266320599
 40
0.6363080929159051
 40
0.7272156040352757
 40
0.8181374791510084
 40
0.909067642914806
 40
1.0
 40
1.0
 40
1.0
 40
1.0
 10
61.19242604321654
 20
8.418885565741933
 30
0.0
 10
62.08636990275862
 20
8.69165765852103
 30
0.0
 10
64.25093479387823
 20
9.352138614908263
 30
0.0
 10
67.68679777851251
 20
9.89615084862843
 30
0.0
 10
71.50001190541474
 20
10.07803216982971
 30
0.0
 10
75.31337977564029
 20
9.758666635156944
 30
0.0
 10
79.05102187676951
 20
8.987838538604294
 30
0.0
 10
82.71230652655254
 20
7.828064505500897
 30
0.0
 10
86.29832120094916
 20
6.357840558322576
 30
0.0
 10
89.88487439217754
 20
4.615696636319815
 30
0.0
 10
93.4720791718327
 20
2.677391911384181
 30
0.0
 10
97.05968154712995
 20
0.6201543271853955
 30
0.0
 10
99.45150424337038
 20
-0.7579961504585147
 30
0.0
 10
100.647430014572
 20
-1.447079699752897
 30
0.0
  0
SPLINE
  5
C0
330
1F
100
AcDbEntity
  8
0
  6
Continuous
 62
     1
370
    25
100
AcDbSpline
210
0.0
220
0.0
230
1.0
 70
     8
 71
     3
 72
     8
 73
     4
 74
     0
 42
0.000000001
 43
0.00000001
 40
0.0
 40
0.0
 40
0.0
 40
0.0
 40
1.0
 40
1.0
 40
1.0
 40
1.0
 10
102.0
 20
-7.266081778456264
 30
0.0
 10
100.3158715379629
 20
-6.320024379565037
 30
0.0
 10
98.72553162703737
 20
-5.160603083795176
 30
0.0
 10
97.1953962218575
 20
-3.864219783566242
 30
0.0
  0
LINE
  5
C1
330
1F
100
AcDbEntity
  8
0
  6
Continuous
 62
     1
370
    25
100
AcDbLine
 10
102.0
 20
-9.75165698355263
 30
0.0
 11
102.0
 21
-7.266081778456257
 31
0.0
  0
SPLINE
  5
C2
330
1F
100
AcDbEntity
  8
0
  6
Continuous
 62
     1
370
    25
100
AcDbSpline
210
0.0
220
0.0
230
1.0
 70
    24
 71
     3
 72
    22
 73
    18
 74
     0
 42
0.000000001
 43
0.00000001
 40
0.0
 40
0.0
 40
0.0
 40
0.0
 40
0.2500000000000035
 40
0.2500000000000035
 40
0.3750000000000049
 40
0.3750000000000049
 40
0.5000000000000063
 40
0.5000000000000063
 40
0.5625000000000056
 40
0.5625000000000056
 40
0.6250000000000048
 40
0.6250000000000048
 40
0.7500000000000031
 40
0.7500000000000031
 40
0.8750000000000016
 40
0.8750000000000016
 40
1.0
 40
1.0
 40
1.0
 40
1.0
 10
100.647430014572
 20
-1.447079699752913
 30
0.0
 10
100.6483300744112
 20
-1.446449471068631
 30
0.0
 10
100.5878719214381
 20
-1.48878272552666
 30
0.0
 10
100.3760174207948
 20
-1.637124843880744
 30
0.0
 10
100.283455514206
 20
-1.701937388625338
 30
0.0
 10
100.0577113305652
 20
-1.860005167717572
 30
0.0
 10
99.92443790793986
 20
-1.953324222882907
 30
0.0
 10
99.69095893739477
 20
-2.116807958072026
 30
0.0
 10
99.60722578260925
 20
-2.17543854425096
 30
0.0
 10
99.43228580143276
 20
-2.297932837804999
 30
0.0
 10
99.3406527916886
 20
-2.362094961976603
 30
0.0
 10
99.05353353657311
 20
-2.563138028773607
 30
0.0
 10
98.84448072965397
 20
-2.709518380062348
 30
0.0
 10
98.39984449311734
 20
-3.020856024646467
 30
0.0
 10
98.16882063896729
 20
-3.182620668828634
 30
0.0
 10
97.69124356464539
 20
-3.517023736344956
 30
0.0
 10
97.44308936566176
 20
-3.69078317711165
 30
0.0
 10
97.19539622185752
 20
-3.864219783566264
 30
0.0
  0
SPLINE
  5
C3
330
1F
100
AcDbEntity
  8
0
  6
Continuous
 62
     1
370
    25
100
AcDbSpline
210
0.0
220
0.0
230
1.0
 70
     8
 71
     3
 72
    25
 73
    21
 74
     0
 42
0.000000001
 43
0.00000001
 40
0.0
 40
0.0
 40
0.0
 40
0.0
 40
0.0255228419064393
 40
0.0849523917300688
 40
0.144369400429556
 40
0.2038117897407429
 40
0.2632668386350071
 40
0.3227196439606644
 40
0.3821553161991445
 40
0.441570120752362
 40
0.5010074252527702
 40
0.5604608545103634
 40
0.6199155152157166
 40
0.679356506576334
 40
0.7387725209376298
 40
0.7982039367968666
 40
0.8576549372682846
 40
0.9132143839582157
 40
0.9687723887599458
 40
1.0
 40
1.0
 40
1.0
 40
1.0
 10
88.3858820804765
 20
-8.414744679301485
 30
0.0
 10
87.84017614166554
 20
-8.594149118500907
 30
0.0
 10
86.02380221068891
 20
-9.191294070181899
 30
0.0
 10
82.93729716035148
 20
-9.760321523552836
 30
0.0
 10
79.12587423360662
 20
-10.08149036063839
 30
0.0
 10
75.31338385373893
 20
-9.892185582716259
 30
0.0
 10
71.50001001823699
 20
-9.231981373752696
 30
0.0
 10
67.68680124821348
 20
-8.124561757544443
 30
0.0
 10
63.87465771169376
 20
-6.625701121662207
 30
0.0
 10
60.06332221803945
 20
-4.806483378768301
 30
0.0
 10
56.25110042813527
 20
-2.755894693911671
 30
0.0
 10
52.43784626625244
 20
-0.5721759833901643
 30
0.0
 10
48.62450113901319
 20
1.639208118331126
 30
0.0
 10
44.81209006667064
 20
3.771168511895003
 30
0.0
 10
41.00070257774755
 20
5.722138063635304
 30
0.0
 10
37.18878121727781
 20
7.394975207414491
 30
0.0
 10
33.45888903449581
 20
8.687973490182587
 30
0.0
 10
29.81231720967989
 20
9.542995421052694
 30
0.0
 10
26.76902177872657
 20
9.975803083752655
 30
0.0
 10
24.91363297351836
 20
9.955337372154695
 30
0.0
 10
24.24601818951665
 20
9.947973302915102
 30
0.0
  0
SPLINE
  5
C4
330
1F
100
AcDbEntity
  8
0
  6
Continuous
 62
     1
370
    25
100
AcDbSpline
210
0.0
220
0.0
230
1.0
 70
     8
 71
     3
 72
    14
 73
    10
 74
     0
 42
0.000000001
 43
0.00000001
 40
0.0
 40
0.0
 40
0.0
 40
0.0
 40
0.1633197459089735
 40
0.3267055712333605
 40
0.4901166553899522
 40
0.6535120243742304
 40
0.8168507996613832
 40
0.9801551063741614
 40
1.0
 40
1.0
 40
1.0
 40
1.0
 10
102.0
 20
2.214765467296481
 30
0.0
 10
100.7296331607005
 20
2.919788941798534
 30
0.0
 10
98.18838548976328
 20
4.330121144363308
 30
0.0
 10
94.37561876469388
 20
6.208434547218785
 30
0.0
 10
90.56218182914368
 20
7.791587742507985
 30
0.0
 10
86.74917377627881
 20
9.009492630081137
 30
0.0
 10
82.93726639071502
 20
9.745250190261231
 30
0.0
 10
80.24231960696446
 20
10.05960900866629
 30
0.0
 10
78.81758103910835
 20
9.982566108653991
 30
0.0
 10
78.66320534283747
 20
9.974218225329668
 30
0.0
  0
SPLINE
  5
C5
330
1F
100
AcDbEntity
  8
0
  6
Continuous
 62
     1
370
    25
100
AcDbSpline
210
0.0
220
0.0
230
1.0
 70
     8
 71
     3
 72
    14
 73
    10
 74
     0
 42
0.000000001
 43
0.00000001
 40
0.0
 40
0.0
 40
0.0
 40
0.0
 40
0.0277395037987682
 40
0.1898161649164073
 40
0.3518886197929966
 40
0.5139478629120636
 40
0.6759849167176666
 40
0.8379909292947607
 40
0.9999999999999999
 40
0.9999999999999999
 40
0.9999999999999999
 40
0.9999999999999999
 10
33.98570669034987
 20
-8.434058593056816
 30
0.0
 10
33.78239347968005
 20
-8.505109732172746
 30
0.0
 10
32.39115972848719
 20
-8.991299205415121
 30
0.0
 10
29.81232422033446
 20
-9.534032884053422
 30
0.0
 10
26.24894855981985
 20
-10.00899775931459
 30
0.0
 10
22.68597622356976
 20
-10.02942792327184
 30
0.0
 10
19.12355733144883
 20
-9.630028207448525
 30
0.0
 10
15.56171192887972
 20
-8.845163896144985
 30
0.0
 10
13.18724477988057
 20
-8.016571508096593
 30
0.0
 10
12.00000000000015
 20
-7.602271403850569
 30
0.0
  0
SPLINE
  5
C6
330
1F
100
AcDbEntity
  8
0
  6
Continuous
 62
     4
370
    25
100
AcDbSpline
210
0.0
220
0.0
230
1.0
 70
    24
 71
     3
 72
    17
 73
    13
 74
     0
 42
0.000000001
 43
0.00000001
 40
0.0
 40
0.0
 40
0.0
 40
0.0
 40
0.0236988835792184
 40
0.135399685158959
 40
0.2471004867386998
 40
0.3588012883184404
 40
0.470502089898181
 40
0.5822028914779217
 40
0.6939036930576623
 40
0.8056044946373986
 40
0.9173052962171347
 40
1.0
 40
1.0
 40
1.0
 40
1.0
 10
12.0
 20
1.794059462589641
 30
0.0
 10
12.0
 20
1.752946388905961
 30
0.0
 10
12.0
 20
1.518053584184612
 30
0.0
 10
12.0
 20
0.8751614161323896
 30
0.0
 10
12.0
 20
-0.0434694405437187
 30
0.0
 10
12.0
 20
-1.095455196816773
 30
0.0
 10
12.0
 20
-2.218281450293767
 30
0.0
 10
12.0
 20
-3.390223719867663
 30
0.0
 10
12.0
 20
-4.575299210359958
 30
0.0
 10
12.0
 20
-5.738069674561815
 30
0.0
 10
12.0
 20
-6.758452198278663
 30
0.0
 10
12.0
 20
-7.350442299293337
 30
0.0
 10
12.0
 20
-7.602271403852535
 30
0.0
  0
SPLINE
  5
C7
330
1F
100
AcDbEntity
  8
0
  6
Continuous
 62
     1
370
    25
100
AcDbSpline
210
0.0
220
0.0
230
1.0
 70
     8
 71
     3
 72
    16
 73
    12
 74
     0
 42
0.000000001
 43
0.00000001
 40
0.0
 40
0.0
 40
0.0
 40
0.0
 40
0.1122973392420072
 40
0.224592558728297
 40
0.3369092945861898
 40
0.4492414110696908
 40
0.5615826853442337
 40
0.6739268751942808
 40
0.794139996124202
 40
0.9143135159148014
 40
1.0
 40
1.0
 40
1.0
 40
1.0
 10
12.0
 20
2.575414243967857
 30
0.0
 10
13.1872447653213
 20
1.902450421326785
 30
0.0
 10
15.56171188520246
 20
0.5565354790963809
 30
0.0
 10
19.12355750616749
 20
-1.515150777779325
 30
0.0
 10
22.68597556819595
 20
-3.514953833480668
 30
0.0
 10
26.24895100699041
 20
-5.36909252964397
 30
0.0
 10
29.81231508626098
 20
-6.995221491313155
 30
0.0
 10
33.45888853025422
 20
-8.361935201314168
 30
0.0
 10
37.18878588634208
 20
-9.362251792963635
 30
0.0
 10
40.63637995107458
 20
-9.936686189688578
 30
0.0
 10
42.81284873451973
 20
-9.94646997808845
 30
0.0
 10
43.71877487006535
 20
-9.950542349667364
 30
0.0
  0
SPLINE
  5
C8
330
1F
100
AcDbEntity
  8
0
  6
Continuous
 62
     1
370
    25
100
AcDbSpline
210
0.0
220
0.0
230
1.0
 70
     8
 71
     3
 72
    11
 73
     7
 74
     0
 42
0.000000001
 43
0.00000001
 40
0.0
 40
0.0
 40
0.0
 40
0.0
 40
0.1222422985193874
 40
0.4148080658304075
 40
0.707400504112283
 40
1.0
 40
1.0
 40
1.0
 40
1.0
 10
88.3858820804765
 20
8.414744679301478
 30
0.0
 10
88.88548660674853
 20
8.579224944797899
 30
0.0
 10
90.58080802767343
 20
9.137360235317027
 30
0.0
 10
93.47208476854826
 20
9.690847163142047
 30
0.0
 10
97.0596801478586
 20
10.07488670738286
 30
0.0
 10
99.45150377694284
 20
9.954792103026467
 30
0.0
 10
100.647430014572
 20
9.89474407665819
 30
0.0
  0
SPLINE
  5
C9
330
1F
100
AcDbEntity
  8
0
  6
Continuous
 62
     1
370
    25
100
AcDbSpline
210
0.0
220
0.0
230
1.0
 70
     8
 71
     3
 72
    22
 73
    18
 74
     0
 42
0.000000001
 43
0.00000001
 40
0.0
 40
0.0
 40
0.0
 40
0.0
 40
0.2499999999999968
 40
0.2499999999999968
 40
0.3749999999999952
 40
0.3749999999999952
 40
0.4999999999999936
 40
0.4999999999999936
 40
0.5624999999999943
 40
0.5624999999999943
 40
0.624999999999995
 40
0.624999999999995
 40
0.7499999999999967
 40
0.7499999999999967
 40
0.8749999999999982
 40
0.8749999999999982
 40
1.0
 40
1.0
 40
1.0
 40
1.0
 10
100.647430014572
 20
9.894744076658208
 30
0.0
 10
100.6483300744112
 20
9.28313466563007
 30
0.0
 10
100.5878719214381
 20
8.684986715119678
 30
0.0
 10
100.3760174207948
 20
7.814347839321174
 30
0.0
 10
100.283455514206
 20
7.526023105511512
 30
0.0
 10
100.0577113305652
 20
6.983978845190974
 30
0.0
 10
99.92443790793989
 20
6.728016184879499
 30
0.0
 10
99.6909589373948
 20
6.368851405513232
 30
0.0
 10
99.60722578260925
 20
6.253066494950618
 30
0.0
 10
99.43228580143278
 20
6.035520208430539
 30
0.0
 10
99.3406527916886
 20
5.933023839203757
 30
0.0
 10
99.05353353657317
 20
5.643959723970068
 30
0.0
 10
98.84448072965394
 20
5.474803869360834
 30
0.0
 10
98.39984449311734
 20
5.189912301147323
 30
0.0
 10
98.1688206389672
 20
5.076535487151682
 30
0.0
 10
97.69124356464532
 20
4.90163533632265
 30
0.0
 10
97.44308936566179
 20
4.840255663647822
 30
0.0
 10
97.19539622185755
 20
4.80460377814247
 30
0.0
  0
SPLINE
  5
CA
330
1F
100
AcDbEntity
  8
0
  6
Continuous
 62
     1
370
    25
100
AcDbSpline
210
0.0
220
0.0
230
1.0
 70
     8
 71
     3
 72
     8
 73
     4
 74
     0
 42
0.000000001
 43
0.00000001
 40
0.0
 40
0.0
 40
0.0
 40
0.0
 40
1.0
 40
1.0
 40
1.0
 40
1.0
 10
102.0
 20
2.462652369968968
 30
0.0
 10
100.3158715379629
 20
3.373236042056503
 30
0.0
 10
98.7255316270374
 20
4.136275508719671
 30
0.0
 10
97.19539622185752
 20
4.80460377814248
 30
0.0
  0
LINE
  5
CB
330
1F
100
AcDbEntity
  8
0
  6
Continuous
 62
     1
370
    25
100
AcDbLine
 10
102.0
 20
2.223174709963408
 30
0.0
 11
102.0
 21
2.462652369968972
 31
0.0
  0
LINE
  5
CC
330
1F
100
AcDbEntity
  8
0
  6
Continuous
 62
     4
370
    25
100
AcDbLine
 10
12.0
 20
-9.662672584330263
 30
0.0
 11
12.0
 21
-7.602271403852535
 31
0.0
  0
LINE
  5
CD
330
1F
100
AcDbEntity
  8
0
  6
Continuous
 62
     1
370
    25
100
AcDbLine
 10
102.0
 20
-0.5000000000000387
 30
0.0
 11
102.0
 21
2.214765467296672
 31
0.0
  0
LINE
  5
CE
330
1F
100
AcDbEntity
  8
0
  6
Continuous
 62
     1
370
    25
100
AcDbLine
 10
102.0
 20
-0.5000000000000425
 30
0.0
 11
100.647430014572
 21
-1.447079699752926
 31
0.0
  0
LINE
  5
CF
330
1F
100
AcDbEntity
  8
0
  6
Continuous
 62
     4
370
    25
100
AcDbLine
 10
12.0
 20
2.575414243967865
 30
0.0
 11
12.0
 21
6.496573674035032
 31
0.0
  0
LINE
  5
D0
330
1F
100
AcDbEntity
  8
0
  6
Continuous
 62
     1
370
    25
100
AcDbLine
 10
102.0
 20
9.987492177719096
 30
0.0
 11
102.0
 21
10.00000000000001
 31
0.0
  0
ELLIPSE
  5
D1
330
1F
100
AcDbEntity
  8
0
  6
Continuous
 62
     1
370
    25
100
AcDbEllipse
 10
102.7140740033711
 20
-0.0000000000000095
 30
0.0
 11
14.28148006742111
 21
-5.350968460038310E-17
 31
0.0
210
0.0
220
0.0
230
1.0
 40
0.7002075382097119
 41
1.620817183600667
 42
1.716014156413953
  0
LINE
  5
D2
330
1F
100
AcDbEntity
  8
0
  6
Continuous
 62
     1
370
    25
100
AcDbLine
 10
102.0
 20
-0.500000000000004
 30
0.0
 11
102.0
 21
-7.266081778456258
 31
0.0
  0
LINE
  5
D3
330
1F
100
AcDbEntity
  8
0
  6
Continuous
 62
     1
370
    25
100
AcDbLine
 10
102.0
 20
2.462652369968972
 30
0.0
 11
102.0
 21
9.987492177719096
 31
0.0
  0
LINE
  5
D4
330
1F
100
AcDbEntity
  8
중심선
100
AcDbLine
 10
-101.0
 20
-0.0000000000000138
 30
0.0
 11
109.0
 21
0.0000000000000119
 31
0.0
  0
CIRCLE
  5
D5
330
1F
100
AcDbEntity
  8
해칭선
100
AcDbCircle
 10
0.0000861913986346
 20
-0.0000000000000035
 30
0.0
 40
3.000000000000003
  0
INSERT
  5
D6
330
1F
100
AcDbEntity
  8
0
  6
Continuous
 62
     7
100
AcDbBlockReference
 66
     1
  2
블럭10
 10
-12.44009924894178
 20
-52.04717430164393
 30
0.0
  0
ATTRIB
  5
D7
330
D6
100
AcDbEntity
  8
FORMAT
 62
     2
100
AcDbText
 10
-33.29834678053432
 20
-49.97180738881174
 30
0.0
 40
4.233333333333333
  1
SEME7220090200E [ 4 FLUTE ]
 41
0.75
  7
SLDTEXTSTYLE0
 11
-33.29834678053432
 21
-52.08847405547841
 31
0.0
100
AcDbAttribute
  2
AUTOATTR0
 70
     0
 74
     1
  0
SEQEND
  5
D8
330
D6
100
AcDbEntity
  8
0
  6
Continuous
 62
     7
  0
HATCH
  5
D9
330
1F
100
AcDbEntity
  8
중심선
100
AcDbHatch
 10
0.0
 20
0.0
 30
0.0
210
0.0
220
0.0
230
1.0
  2
SOLID
 70
     1
 71
     0
 91
        1
 92
        0
 93
        4
 72
     1
 10
-6.72518994456095
 20
-35.8
 11
-10.17146518839823
 21
-35.8
 72
     1
 10
-10.17146518839823
 20
-35.8
 11
-12.29969504760225
 21
-38.33632558057262
 72
     1
 10
-12.29969504760225
 20
-38.33632558057262
 11
-8.853386718651823
 21
-38.33628615127013
 72
     1
 10
-8.853386718651823
 20
-38.33628615127013
 11
-6.72518994456095
 21
-35.8
 97
        0
 75
     0
 76
     1
 98
        1
 10
0.0
 20
0.0
  0
HATCH
  5
DA
330
1F
100
AcDbEntity
  8
중심선
100
AcDbHatch
 10
0.0
 20
0.0
 30
0.0
210
0.0
220
0.0
230
1.0
  2
SOLID
 70
     1
 71
     0
 91
        1
 92
        0
 93
        4
 72
     1
 10
-1.712425953524915
 20
-35.79999999999997
 11
-5.158701197362253
 21
-35.8
 72
     1
 10
-5.158701197362253
 20
-35.8
 11
-9.68983920571967
 21
-41.20000000000002
 72
     1
 10
-9.68983920571967
 20
-41.20000000000002
 11
-6.243563961882387
 21
-41.20000000000002
 72
     1
 10
-6.243563961882387
 20
-41.20000000000002
 11
-1.712425953524916
 21
-35.79999999999997
 97
        0
 75
     0
 76
     1
 98
        1
 10
0.0
 20
0.0
  0
HATCH
  5
DB
330
1F
100
AcDbEntity
  8
중심선
100
AcDbHatch
 10
0.0
 20
0.0
 30
0.0
210
0.0
220
0.0
230
1.0
  2
SOLID
 70
     1
 71
     0
 91
        1
 92
        0
 93
        4
 72
     1
 10
3.300338037510925
 20
-35.79999999999997
 11
-0.1459372063261908
 21
-35.79999999999997
 72
     1
 10
-0.145937206326191
 20
-35.79999999999997
 11
-7.194374108215468
 21
-44.20000000000002
 72
     1
 10
-7.194374108215468
 20
-44.20000000000002
 11
-3.748098864378186
 21
-44.20000000000002
 72
     1
 10
-3.748098864378186
 20
-44.20000000000002
 11
3.300338037510925
 21
-35.79999999999997
 97
        0
 75
     0
 76
     1
 98
        1
 10
0.0
 20
0.0
  0
HATCH
  5
DC
330
1F
100
AcDbEntity
  8
중심선
100
AcDbHatch
 10
0.0
 20
0.0
 30
0.0
210
0.0
220
0.0
230
1.0
  2
SOLID
 70
     1
 71
     0
 91
        1
 92
        0
 93
        6
 72
     3
 10
8.100228468523095
 20
-40.00000000005127
 11
3.960054785062284
 21
1.540850780301639E-10
 40
0.3939339440162633
 50
17.09539180608433
 51
320.0019657685081
 73
     0
 72
     1
 10
9.783228124223664
 20
-38.58789400463833
 11
12.08852999792473
 21
-36.65356729459038
 72
     3
 10
8.100228468470249
 20
-40.00000000000015
 11
6.600054785286829
 21
-1.249000902703301E-13
 40
0.6363583540795982
 50
39.99873849337408
 51
368.4976242363725
 73
     1
 72
     1
 10
14.52556096037086
 20
-39.03999999993002
 11
6.780295775306172
 21
-39.03999999993002
 72
     1
 10
6.780295775306172
 20
-39.03999999993002
 11
6.780270730860238
 21
-40.95999999992991
 72
     1
 10
6.780270730860238
 20
-40.95999999992991
 11
11.22165050033228
 21
-40.95999999992988
 97
        0
 75
     0
 76
     1
 98
        1
 10
0.0
 20
0.0
  0
DIMENSION
  5
DD
330
1F
100
AcDbEntity
  8
치수문자_일반주서
100
AcDbDimension
  2
_D
 10
118.2867478382005
 20
10.00000000000006
 30
0.0
 11
118.2867478382004
 21
20.76025000000006
 31
0.0
 70
   160
  1
%%c<>
 71
     2
 42
20.00000000000002
 52
-270.0
  3
SLDDIMSTYLE0
100
AcDbAlignedDimension
 13
102.0
 23
-10.00000000000002
 33
0.0
 14
102.0
 24
9.999999999999998
 34
0.0
 50
90.0000000000002
100
AcDbRotatedDimension
  0
DIMENSION
  5
EB
330
1F
100
AcDbEntity
  8
치수문자_일반주서
100
AcDbDimension
  2
_D_1
 10
102.0
 20
27.38913260158163
 30
0.0
 11
1.999999999999996
 21
27.38913260158163
 31
0.0
 70
   160
  1
<>
 71
     2
 42
200.0
  3
SLDDIMSTYLE1
100
AcDbAlignedDimension
 13
-98.0
 23
9.499999999999977
 33
0.0
 14
102.0
 24
9.999999999999998
 34
0.0
 50
-0.0000000000000031
100
AcDbRotatedDimension
  0
DIMENSION
  5
F6
330
1F
100
AcDbEntity
  8
치수문자_일반주서
100
AcDbDimension
  2
_D_2
 10
-111.714936400148
 20
-10.00000000000007
 30
0.0
 11
-111.7149364001481
 21
20.76024999999992
 31
0.0
 70
   160
  1
%%c<>
 71
     2
 42
19.99999999999999
 52
-270.0
  3
SLDDIMSTYLE2
100
AcDbAlignedDimension
 13
-97.5
 23
9.99999999999997
 33
0.0
 14
-97.5
 24
-10.00000000000002
 34
0.0
 50
90.0000000000002
100
AcDbRotatedDimension
  0
DIMENSION
  5
104
330
1F
100
AcDbEntity
  8
치수문자_일반주서
100
AcDbDimension
  2
_D_3
 10
102.0
 20
20.65750913653157
 30
0.0
 11
57.0
 21
20.65750913653157
 31
0.0
 70
   160
  1
<>
 71
     2
 42
90.0
  3
SLDDIMSTYLE1
100
AcDbAlignedDimension
 13
12.0
 23
9.811590833943916
 33
0.0
 14
102.0
 24
9.999999999999998
 34
0.0
 50
-0.0000000000000045
100
AcDbRotatedDimension
  0
INSERT
  5
114
330
1F
100
AcDbEntity
  8
해칭선
100
AcDbBlockReference
  2
SW_DOWELSYMBOL_0
 10
0.0000861913986346
 20
-0.0000000000000035
 30
0.0
  0
ENDSEC
  0
SECTION
  2
OBJECTS
  0
DICTIONARY
  5
C
330
0
100
AcDbDictionary
281
     1
  3
ACAD_GROUP
350
D
  3
ACAD_IMAGE_VARS
350
138
  3
ACAD_LAYOUT
350
1A
  3
ACAD_MLINESTYLE
350
17
  3
ACAD_PLOTSETTINGS
350
19
  3
ACAD_PLOTSTYLENAME
350
E
  3
ACAD_SCALELIST
350
47
  3
APPDATA
350
136
  3
DWGPROPS
350
148
  0
DICTIONARY
  5
D
102
{ACAD_REACTORS
330
C
102
}
330
C
100
AcDbDictionary
281
     1
  0
RASTERVARIABLES
  5
138
102
{ACAD_REACTORS
330
C
102
}
330
C
100
AcDbRasterVariables
 90
        0
 70
     1
 71
     1
 72
     1
  0
DICTIONARY
  5
1A
102
{ACAD_REACTORS
330
C
102
}
330
C
100
AcDbDictionary
281
     1
  3
Layout1
350
1E
  3
Layout2
350
26
  3
Model
350
22
  0
DICTIONARY
  5
17
102
{ACAD_REACTORS
330
C
102
}
330
C
100
AcDbDictionary
281
     1
  3
Standard
350
18
  0
DICTIONARY
  5
19
102
{ACAD_REACTORS
330
C
102
}
330
C
100
AcDbDictionary
281
     1
  0
ACDBDICTIONARYWDFLT
  5
E
102
{ACAD_REACTORS
330
C
102
}
330
C
100
AcDbDictionary
281
     1
  3
Normal
350
F
100
AcDbDictionaryWithDefault
340
F
  0
DICTIONARY
  5
47
102
{ACAD_REACTORS
330
C
102
}
330
C
100
AcDbDictionary
281
     1
  3
A0
350
48
  3
A1
350
49
  3
A2
350
4A
  3
A3
350
4B
  3
A4
350
4C
  3
A5
350
4D
  3
A6
350
4E
  3
A7
350
4F
  3
A8
350
50
  3
A9
350
51
  3
B0
350
52
  3
B1
350
53
  3
B2
350
54
  3
B3
350
55
  3
B4
350
56
  3
B5
350
57
  3
B6
350
58
  3
B7
350
59
  3
B8
350
5A
  3
B9
350
5B
  3
C0
350
5C
  3
C1
350
5D
  3
C2
350
5E
  3
C3
350
5F
  3
C4
350
60
  3
C5
350
61
  3
C6
350
62
  3
C7
350
63
  3
C8
350
64
  3
C9
350
65
  3
D0
350
66
  3
D1
350
67
  3
D2
350
68
  0
DICTIONARY
  5
136
102
{ACAD_REACTORS
330
C
102
}
330
C
100
AcDbDictionary
281
     1
  0
XRECORD
  5
148
102
{ACAD_REACTORS
330
C
102
}
330
C
100
AcDbXrecord
280
     1
  1
DWGPROPS COOKIE
  2

  3

  4

  6

  7

  8
12014102
  9

300
=
301
=
302
=
303
=
304
=
305
=
306
=
307
=
308
=
309
=
 40
0.0
 41
2458260.211665729
 42
2458268.28888559
  1

 90
        0
  0
LAYOUT
  5
1E
102
{ACAD_REACTORS
330
1A
102
}
330
1A
100
AcDbPlotSettings
  1

  2
none_device
  4

  6

 40
0.0
 41
0.0
 42
0.0
 43
0.0
 44
0.0
 45
0.0
 46
0.0
 47
0.0
 48
0.0
 49
0.0
140
0.0
141
0.0
142
1.0
143
1.0
 70
   688
 72
     1
 73
     0
 74
     5
  7

 75
    16
147
1.0
148
0.0
149
0.0
100
AcDbLayout
  1
Layout1
 70
     1
 71
     1
 10
0.0
 20
0.0
 11
420.0
 21
297.0
 12
0.0
 22
0.0
 32
0.0
 14
1.000000000000000E+20
 24
1.000000000000000E+20
 34
1.000000000000000E+20
 15
-1.000000000000000E+20
 25
-1.000000000000000E+20
 35
-1.000000000000000E+20
146
0.0
 13
0.0
 23
0.0
 33
0.0
 16
1.0
 26
0.0
 36
0.0
 17
0.0
 27
1.0
 37
0.0
 76
     0
330
1B
  0
LAYOUT
  5
26
102
{ACAD_REACTORS
330
1A
102
}
330
1A
100
AcDbPlotSettings
  1

  2
none_device
  4

  6

 40
0.0
 41
0.0
 42
0.0
 43
0.0
 44
0.0
 45
0.0
 46
0.0
 47
0.0
 48
0.0
 49
0.0
140
0.0
141
0.0
142
1.0
143
1.0
 70
   688
 72
     1
 73
     0
 74
     5
  7

 75
    16
147
1.0
148
0.0
149
0.0
100
AcDbLayout
  1
Layout2
 70
     1
 71
     2
 10
0.0
 20
0.0
 11
0.0
 21
0.0
 12
0.0
 22
0.0
 32
0.0
 14
0.0
 24
0.0
 34
0.0
 15
0.0
 25
0.0
 35
0.0
146
0.0
 13
0.0
 23
0.0
 33
0.0
 16
1.0
 26
0.0
 36
0.0
 17
0.0
 27
1.0
 37
0.0
 76
     0
330
23
  0
LAYOUT
  5
22
102
{ACAD_REACTORS
330
1A
102
}
330
1A
100
AcDbPlotSettings
  1

  2
none_device
  4
ANSI_A_(11.00_x_8.50_Inches)
  6

 40
6.35
 41
19.05
 42
6.35000508
 43
19.05000254
 44
279.4
 45
215.9
 46
132.3210342415253
 47
99.97948262959993
 48
0.0
 49
0.0
140
0.0
141
0.0
142
0.0463675140258003
143
1.0
 70
  1696
 72
     0
 73
     0
 74
     0
  7

 75
     0
147
0.0235690232323232
148
0.0
149
0.0
100
AcDbLayout
  1
Model
 70
     1
 71
     0
 10
0.0
 20
0.0
 11
420.0
 21
297.0
 12
0.0
 22
0.0
 32
0.0
 14
-116.0899364001482
 24
-49.97180738881174
 34
0.0
 15
118.8370811715339
 25
31.76413260158164
 35
0.0
146
0.0
 13
0.0
 23
0.0
 33
0.0
 16
1.0
 26
0.0
 36
0.0
 17
0.0
 27
1.0
 37
0.0
 76
     0
330
1F
331
29
  0
MLINESTYLE
  5
18
102
{ACAD_REACTORS
330
17
102
}
330
17
100
AcDbMlineStyle
  2
Standard
 70
     0
  3

 62
   256
 51
90.0
 52
90.0
 71
     2
 49
0.5
 62
   256
  6
BYLAYER
 49
-0.5
 62
   256
  6
BYLAYER
  0
ACDBPLACEHOLDER
  5
F
102
{ACAD_REACTORS
330
E
102
}
330
E
  0
SCALE
  5
48
102
{ACAD_REACTORS
330
47
102
}
330
47
100
AcDbScale
 70
     0
300
1:1
140
1.0
141
1.0
290
     1
  0
SCALE
  5
49
102
{ACAD_REACTORS
330
47
102
}
330
47
100
AcDbScale
 70
     0
300
1:2
140
1.0
141
2.0
290
     0
  0
SCALE
  5
4A
102
{ACAD_REACTORS
330
47
102
}
330
47
100
AcDbScale
 70
     0
300
1:4
140
1.0
141
4.0
290
     0
  0
SCALE
  5
4B
102
{ACAD_REACTORS
330
47
102
}
330
47
100
AcDbScale
 70
     0
300
1:5
140
1.0
141
5.0
290
     0
  0
SCALE
  5
4C
102
{ACAD_REACTORS
330
47
102
}
330
47
100
AcDbScale
 70
     0
300
1:8
140
1.0
141
8.0
290
     0
  0
SCALE
  5
4D
102
{ACAD_REACTORS
330
47
102
}
330
47
100
AcDbScale
 70
     0
300
1:10
140
1.0
141
10.0
290
     0
  0
SCALE
  5
4E
102
{ACAD_REACTORS
330
47
102
}
330
47
100
AcDbScale
 70
     0
300
1:16
140
1.0
141
16.0
290
     0
  0
SCALE
  5
4F
102
{ACAD_REACTORS
330
47
102
}
330
47
100
AcDbScale
 70
     0
300
1:20
140
1.0
141
20.0
290
     0
  0
SCALE
  5
50
102
{ACAD_REACTORS
330
47
102
}
330
47
100
AcDbScale
 70
     0
300
1:30
140
1.0
141
30.0
290
     0
  0
SCALE
  5
51
102
{ACAD_REACTORS
330
47
102
}
330
47
100
AcDbScale
 70
     0
300
1:40
140
1.0
141
40.0
290
     0
  0
SCALE
  5
52
102
{ACAD_REACTORS
330
47
102
}
330
47
100
AcDbScale
 70
     0
300
1:50
140
1.0
141
50.0
290
     0
  0
SCALE
  5
53
102
{ACAD_REACTORS
330
47
102
}
330
47
100
AcDbScale
 70
     0
300
1:100
140
1.0
141
100.0
290
     0
  0
SCALE
  5
54
102
{ACAD_REACTORS
330
47
102
}
330
47
100
AcDbScale
 70
     0
300
2:1
140
2.0
141
1.0
290
     0
  0
SCALE
  5
55
102
{ACAD_REACTORS
330
47
102
}
330
47
100
AcDbScale
 70
     0
300
4:1
140
4.0
141
1.0
290
     0
  0
SCALE
  5
56
102
{ACAD_REACTORS
330
47
102
}
330
47
100
AcDbScale
 70
     0
300
8:1
140
8.0
141
1.0
290
     0
  0
SCALE
  5
57
102
{ACAD_REACTORS
330
47
102
}
330
47
100
AcDbScale
 70
     0
300
10:1
140
10.0
141
1.0
290
     0
  0
SCALE
  5
58
102
{ACAD_REACTORS
330
47
102
}
330
47
100
AcDbScale
 70
     0
300
100:1
140
100.0
141
1.0
290
     0
  0
SCALE
  5
59
102
{ACAD_REACTORS
330
47
102
}
330
47
100
AcDbScale
 70
     0
300
1/128" = 1'-0"
140
0.0078125
141
12.0
290
     0
  0
SCALE
  5
5A
102
{ACAD_REACTORS
330
47
102
}
330
47
100
AcDbScale
 70
     0
300
1/64" = 1'-0"
140
0.015625
141
12.0
290
     0
  0
SCALE
  5
5B
102
{ACAD_REACTORS
330
47
102
}
330
47
100
AcDbScale
 70
     0
300
1/32" = 1'-0"
140
0.03125
141
12.0
290
     0
  0
SCALE
  5
5C
102
{ACAD_REACTORS
330
47
102
}
330
47
100
AcDbScale
 70
     0
300
1/16" = 1'-0"
140
0.0625
141
12.0
290
     0
  0
SCALE
  5
5D
102
{ACAD_REACTORS
330
47
102
}
330
47
100
AcDbScale
 70
     0
300
3/32" = 1'-0"
140
0.09375
141
12.0
290
     0
  0
SCALE
  5
5E
102
{ACAD_REACTORS
330
47
102
}
330
47
100
AcDbScale
 70
     0
300
1/8" = 1'-0"
140
0.125
141
12.0
290
     0
  0
SCALE
  5
5F
102
{ACAD_REACTORS
330
47
102
}
330
47
100
AcDbScale
 70
     0
300
3/16" = 1'-0"
140
0.1875
141
12.0
290
     0
  0
SCALE
  5
60
102
{ACAD_REACTORS
330
47
102
}
330
47
100
AcDbScale
 70
     0
300
1/4" = 1'-0"
140
0.25
141
12.0
290
     0
  0
SCALE
  5
61
102
{ACAD_REACTORS
330
47
102
}
330
47
100
AcDbScale
 70
     0
300
3/8" = 1'-0"
140
0.375
141
12.0
290
     0
  0
SCALE
  5
62
102
{ACAD_REACTORS
330
47
102
}
330
47
100
AcDbScale
 70
     0
300
1/2" = 1'-0"
140
0.5
141
12.0
290
     0
  0
SCALE
  5
63
102
{ACAD_REACTORS
330
47
102
}
330
47
100
AcDbScale
 70
     0
300
3/4" = 1'-0"
140
0.75
141
12.0
290
     0
  0
SCALE
  5
64
102
{ACAD_REACTORS
330
47
102
}
330
47
100
AcDbScale
 70
     0
300
1" = 1'-0"
140
1.0
141
12.0
290
     0
  0
SCALE
  5
65
102
{ACAD_REACTORS
330
47
102
}
330
47
100
AcDbScale
 70
     0
300
1-1/2" = 1'-0"
140
1.5
141
12.0
290
     0
  0
SCALE
  5
66
102
{ACAD_REACTORS
330
47
102
}
330
47
100
AcDbScale
 70
     0
300
3" = 1'-0"
140
3.0
141
12.0
290
     0
  0
SCALE
  5
67
102
{ACAD_REACTORS
330
47
102
}
330
47
100
AcDbScale
 70
     0
300
6" = 1'-0"
140
6.0
141
12.0
290
     0
  0
SCALE
  5
68
102
{ACAD_REACTORS
330
47
102
}
330
47
100
AcDbScale
 70
     0
300
1'-0" = 1'-0"
140
12.0
141
12.0
290
     0
  0
ENDSEC
  0
EOF
