  0
SECTION
  2
HEADER
  9
$ACADVER
  1
AC1015
  9
$ACADMAINTVER
 70
     6
  9
$DWGCODEPAGE
  3
ANSI_949
  9
$INSBASE
 10
0.0
 20
0.0
 30
0.0
  9
$EXTMIN
 10
-77.09487756335066
 20
-49.97180738881174
 30
0.0
  9
$EXTMAX
 10
108.6320943661421
 20
31.76413260158164
 30
0.0
  9
$LIMMIN
 10
0.0
 20
0.0
  9
$LIMMAX
 10
420.0
 20
297.0
  9
$ORTHOMODE
 70
     0
  9
$REGENMODE
 70
     1
  9
$FILLMODE
 70
     1
  9
$QTEXTMODE
 70
     0
  9
$MIRRTEXT
 70
     1
  9
$LTSCALE
 40
1.0
  9
$ATTMODE
 70
     1
  9
$TEXTSIZE
 40
3.5
  9
$TRACEWID
 40
1.0
  9
$TEXTSTYLE
  7
Standard
  9
$CLAYER
  8
0
  9
$CELTYPE
  6
ByLayer
  9
$CECOLOR
 62
   256
  9
$CELTSCALE
 40
1.0
  9
$DISPSILH
 70
     0
  9
$DIMSCALE
 40
1.0
  9
$DIMASZ
 40
3.302
  9
$DIMEXO
 40
1.0
  9
$DIMDLI
 40
3.75
  9
$DIMRND
 40
0.0
  9
$DIMDLE
 40
0.0
  9
$DIMEXE
 40
1.0
  9
$DIMTP
 40
0.0
  9
$DIMTM
 40
0.0
  9
$DIMTXT
 40
3.5
  9
$DIMCEN
 40
2.5
  9
$DIMTSZ
 40
0.0
  9
$DIMTOL
 70
     0
  9
$DIMLIM
 70
     0
  9
$DIMTIH
 70
     1
  9
$DIMTOH
 70
     1
  9
$DIMSE1
 70
     0
  9
$DIMSE2
 70
     0
  9
$DIMTAD
 70
     1
  9
$DIMZIN
 70
     0
  9
$DIMBLK
  1

  9
$DIMASO
 70
     1
  9
$DIMSHO
 70
     1
  9
$DIMPOST
  1

  9
$DIMAPOST
  1

  9
$DIMALT
 70
     0
  9
$DIMALTD
 70
     3
  9
$DIMALTF
 40
0.0393700787401575
  9
$DIMLFAC
 40
1.0
  9
$DIMTOFL
 70
     1
  9
$DIMTVP
 40
0.0
  9
$DIMTIX
 70
     0
  9
$DIMSOXD
 70
     0
  9
$DIMSAH
 70
     0
  9
$DIMBLK1
  1

  9
$DIMBLK2
  1

  9
$DIMSTYLE
  2
ISO-25
  9
$DIMCLRD
 70
     0
  9
$DIMCLRE
 70
     0
  9
$DIMCLRT
 70
     0
  9
$DIMTFAC
 40
1.0
  9
$DIMGAP
 40
1.524
  9
$DIMJUST
 70
     0
  9
$DIMSD1
 70
     0
  9
$DIMSD2
 70
     0
  9
$DIMTOLJ
 70
     0
  9
$DIMTZIN
 70
     0
  9
$DIMALTZ
 70
     0
  9
$DIMALTTZ
 70
     0
  9
$DIMUPT
 70
     0
  9
$DIMDEC
 70
     2
  9
$DIMTDEC
 70
     2
  9
$DIMALTU
 70
     2
  9
$DIMALTTD
 70
     3
  9
$DIMTXSTY
  7
Standard
  9
$DIMAUNIT
 70
     0
  9
$DIMADEC
 70
     2
  9
$DIMALTRND
 40
0.0
  9
$DIMAZIN
 70
     0
  9
$DIMDSEP
 70
    44
  9
$DIMATFIT
 70
     3
  9
$DIMFRAC
 70
     0
  9
$DIMLDRBLK
  1

  9
$DIMLUNIT
 70
     2
  9
$DIMLWD
 70
    -2
  9
$DIMLWE
 70
    -2
  9
$DIMTMOVE
 70
     0
  9
$LUNITS
 70
     2
  9
$LUPREC
 70
     2
  9
$SKETCHINC
 40
1.0
  9
$FILLETRAD
 40
10.0
  9
$AUNITS
 70
     0
  9
$AUPREC
 70
     2
  9
$MENU
  1
.
  9
$ELEVATION
 40
0.0
  9
$PELEVATION
 40
0.0
  9
$THICKNESS
 40
0.0
  9
$LIMCHECK
 70
     0
  9
$CHAMFERA
 40
0.0
  9
$CHAMFERB
 40
0.0
  9
$CHAMFERC
 40
0.0
  9
$CHAMFERD
 40
0.0
  9
$SKPOLY
 70
     0
  9
$TDCREATE
 40
2458260.58647669
  9
$TDUCREATE
 40
2458260.21147669
  9
$TDUPDATE
 40
2458268.601452072
  9
$TDUUPDATE
 40
2458268.226452072
  9
$TDINDWG
 40
0.000526875
  9
$TDUSRTIMER
 40
2458268.225925231
  9
$USRTIMER
 70
     1
  9
$ANGBASE
 50
0.0
  9
$ANGDIR
 70
     0
  9
$PDMODE
 70
     0
  9
$PDSIZE
 40
-1.0
  9
$PLINEWID
 40
0.0
  9
$SPLFRAME
 70
     0
  9
$SPLINETYPE
 70
     6
  9
$SPLINESEGS
 70
     8
  9
$HANDSEED
  5
144
  9
$SURFTAB1
 70
     6
  9
$SURFTAB2
 70
     6
  9
$SURFTYPE
 70
     6
  9
$SURFU
 70
     6
  9
$SURFV
 70
     6
  9
$UCSBASE
  2

  9
$UCSNAME
  2

  9
$UCSORG
 10
0.0
 20
0.0
 30
0.0
  9
$UCSXDIR
 10
1.0
 20
0.0
 30
0.0
  9
$UCSYDIR
 10
0.0
 20
1.0
 30
0.0
  9
$UCSORTHOREF
  2

  9
$UCSORTHOVIEW
 70
     0
  9
$UCSORGTOP
 10
0.0
 20
0.0
 30
0.0
  9
$UCSORGBOTTOM
 10
0.0
 20
0.0
 30
0.0
  9
$UCSORGLEFT
 10
0.0
 20
0.0
 30
0.0
  9
$UCSORGRIGHT
 10
0.0
 20
0.0
 30
0.0
  9
$UCSORGFRONT
 10
0.0
 20
0.0
 30
0.0
  9
$UCSORGBACK
 10
0.0
 20
0.0
 30
0.0
  9
$PUCSBASE
  2

  9
$PUCSNAME
  2

  9
$PUCSORG
 10
0.0
 20
0.0
 30
0.0
  9
$PUCSXDIR
 10
1.0
 20
0.0
 30
0.0
  9
$PUCSYDIR
 10
0.0
 20
1.0
 30
0.0
  9
$PUCSORTHOREF
  2

  9
$PUCSORTHOVIEW
 70
     0
  9
$PUCSORGTOP
 10
0.0
 20
0.0
 30
0.0
  9
$PUCSORGBOTTOM
 10
0.0
 20
0.0
 30
0.0
  9
$PUCSORGLEFT
 10
0.0
 20
0.0
 30
0.0
  9
$PUCSORGRIGHT
 10
0.0
 20
0.0
 30
0.0
  9
$PUCSORGFRONT
 10
0.0
 20
0.0
 30
0.0
  9
$PUCSORGBACK
 10
0.0
 20
0.0
 30
0.0
  9
$USERI1
 70
     0
  9
$USERI2
 70
     0
  9
$USERI3
 70
     0
  9
$USERI4
 70
     0
  9
$USERI5
 70
     0
  9
$USERR1
 40
0.0
  9
$USERR2
 40
0.0
  9
$USERR3
 40
0.0
  9
$USERR4
 40
0.0
  9
$USERR5
 40
0.0
  9
$WORLDVIEW
 70
     1
  9
$SHADEDGE
 70
     3
  9
$SHADEDIF
 70
    70
  9
$TILEMODE
 70
     1
  9
$MAXACTVP
 70
    64
  9
$PINSBASE
 10
0.0
 20
0.0
 30
0.0
  9
$PLIMCHECK
 70
     0
  9
$PEXTMIN
 10
1.000000000000000E+20
 20
1.000000000000000E+20
 30
1.000000000000000E+20
  9
$PEXTMAX
 10
-1.000000000000000E+20
 20
-1.000000000000000E+20
 30
-1.000000000000000E+20
  9
$PLIMMIN
 10
0.0
 20
0.0
  9
$PLIMMAX
 10
0.0
 20
0.0
  9
$UNITMODE
 70
     0
  9
$VISRETAIN
 70
     1
  9
$PLINEGEN
 70
     0
  9
$PSLTSCALE
 70
     1
  9
$TREEDEPTH
 70
  3020
  9
$CMLSTYLE
  2
Standard
  9
$CMLJUST
 70
     0
  9
$CMLSCALE
 40
20.0
  9
$PROXYGRAPHICS
 70
     1
  9
$MEASUREMENT
 70
     1
  9
$CELWEIGHT
370
    -1
  9
$ENDCAPS
280
     0
  9
$JOINSTYLE
280
     0
  9
$LWDISPLAY
290
     1
  9
$INSUNITS
 70
     4
  9
$HYPERLINKBASE
  1

  9
$STYLESHEET
  1

  9
$XEDIT
290
     1
  9
$CEPSNTYPE
380
     0
  9
$PSTYLEMODE
290
     1
  9
$FINGERPRINTGUID
  2
{9EB62D03-75A7-430F-997C-31444A89675A}
  9
$VERSIONGUID
  2
{FAEB1C32-E019-11D5-929B-00C0DF256EC4}
  9
$EXTNAMES
290
     1
  9
$PSVPSCALE
 40
0.0
  9
$OLESTARTUP
290
     0
  0
ENDSEC
  0
SECTION
  2
CLASSES
  0
CLASS
  1
ACDBDICTIONARYWDFLT
  2
AcDbDictionaryWithDefault
  3
ObjectDBX Classes
 90
        0
280
     0
281
     0
  0
CLASS
  1
VISUALSTYLE
  2
AcDbVisualStyle
  3
ObjectDBX Classes
 90
     4095
280
     0
281
     0
  0
CLASS
  1
MATERIAL
  2
AcDbMaterial
  3
ObjectDBX Classes
 90
     1153
280
     0
281
     0
  0
CLASS
  1
SCALE
  2
AcDbScale
  3
ObjectDBX Classes
 90
     1153
280
     0
281
     0
  0
CLASS
  1
TABLESTYLE
  2
AcDbTableStyle
  3
ObjectDBX Classes
 90
     4095
280
     0
281
     0
  0
CLASS
  1
MLEADERSTYLE
  2
AcDbMLeaderStyle
  3
ACDB_MLEADERSTYLE_CLASS
 90
     4095
280
     0
281
     0
  0
CLASS
  1
SUN
  2
AcDbSun
  3
SCENEOE
 90
     1153
280
     0
281
     0
  0
CLASS
  1
ACDBPLACEHOLDER
  2
AcDbPlaceHolder
  3
ObjectDBX Classes
 90
        0
280
     0
281
     0
  0
CLASS
  1
LAYOUT
  2
AcDbLayout
  3
ObjectDBX Classes
 90
        0
280
     0
281
     0
  0
CLASS
  1
RASTERVARIABLES
  2
AcDbRasterVariables
  3
ISM
 90
        0
280
     0
281
     0
  0
ENDSEC
  0
SECTION
  2
TABLES
  0
TABLE
  2
VPORT
  5
8
330
0
100
AcDbSymbolTable
 70
     1
  0
VPORT
  5
29
330
8
100
AcDbSymbolTableRecord
100
AcDbViewportTableRecord
  2
*Active
 70
     0
 10
0.0
 20
0.0
 11
1.0
 21
1.0
 12
15.76860840139572
 22
-9.103837393615052
 13
0.0
 23
0.0
 14
10.0
 24
10.0
 15
10.0
 25
10.0
 16
0.0
 26
0.0
 36
1.0
 17
0.0
 27
0.0
 37
0.0
 40
108.935906239893
 41
1.739018087855297
 42
50.0
 43
0.0
 44
0.0
 50
0.0
 51
0.0
 71
    16
 72
  2000
 73
     1
 74
     3
 75
     0
 76
     0
 77
     0
 78
     0
281
     0
 65
     1
110
0.0
120
0.0
130
0.0
111
1.0
121
0.0
131
0.0
112
0.0
122
1.0
132
0.0
 79
     0
146
0.0
  0
ENDTAB
  0
TABLE
  2
LTYPE
  5
5
330
0
100
AcDbSymbolTable
 70
     6
  0
LTYPE
  5
14
330
5
100
AcDbSymbolTableRecord
100
AcDbLinetypeTableRecord
  2
ByBlock
 70
     0
  3

 72
    65
 73
     0
 40
0.0
  0
LTYPE
  5
15
330
5
100
AcDbSymbolTableRecord
100
AcDbLinetypeTableRecord
  2
ByLayer
 70
     0
  3

 72
    65
 73
     0
 40
0.0
  0
LTYPE
  5
16
330
5
100
AcDbSymbolTableRecord
100
AcDbLinetypeTableRecord
  2
Continuous
 70
     0
  3
Solid line
 72
    65
 73
     0
 40
0.0
  0
LTYPE
  5
6E
330
5
100
AcDbSymbolTableRecord
100
AcDbLinetypeTableRecord
  2
HIDDEN
 70
     0
  3
Hidden __ __ __ __ __ __ __ __ __ __ __ __ __ __
 72
    65
 73
     2
 40
1.905
 49
1.27
 74
     0
 49
-0.635
 74
     0
  0
LTYPE
  5
6F
330
5
100
AcDbSymbolTableRecord
100
AcDbLinetypeTableRecord
  2
PHANTOM
 70
     0
  3
Phantom ______  __  __  ______  __  __  ______
 72
    65
 73
     6
 40
12.7
 49
6.35
 74
     0
 49
-1.27
 74
     0
 49
1.27
 74
     0
 49
-1.27
 74
     0
 49
1.27
 74
     0
 49
-1.27
 74
     0
  0
LTYPE
  5
70
330
5
100
AcDbSymbolTableRecord
100
AcDbLinetypeTableRecord
  2
CENTER
 70
     0
  3
Center ____ _ ____ _ ____ _ ____ _ ____ _ ____
 72
    65
 73
     4
 40
10.16
 49
6.35
 74
     0
 49
-1.27
 74
     0
 49
1.27
 74
     0
 49
-1.27
 74
     0
  0
LTYPE
  5
71
330
5
100
AcDbSymbolTableRecord
100
AcDbLinetypeTableRecord
  2
CENTERX2
 70
     0
  3
Center (2x) ________  __  ________  __  _____
 72
    65
 73
     4
 40
20.32
 49
12.7
 74
     0
 49
-2.54
 74
     0
 49
2.54
 74
     0
 49
-2.54
 74
     0
  0
LTYPE
  5
72
330
5
100
AcDbSymbolTableRecord
100
AcDbLinetypeTableRecord
  2
DOT2
 70
     0
  3
Dot (.5x) ........................................
 72
    65
 73
     2
 40
0.635
 49
0.0
 74
     0
 49
-0.635
 74
     0
  0
ENDTAB
  0
TABLE
  2
LAYER
  5
2
330
0
100
AcDbSymbolTable
 70
    17
  0
LAYER
  5
10
330
2
100
AcDbSymbolTableRecord
100
AcDbLayerTableRecord
  2
0
 70
     0
 62
     7
  6
Continuous
370
    -3
390
F
  0
LAYER
  5
73
330
2
100
AcDbSymbolTableRecord
100
AcDbLayerTableRecord
  2
FORMAT
 70
     0
 62
     2
  6
Continuous
370
    -3
390
F
  0
LAYER
  5
74
330
2
100
AcDbSymbolTableRecord
100
AcDbLayerTableRecord
  2
외형선
 70
     0
 62
   100
  6
Continuous
370
    35
390
F
  0
LAYER
  5
75
330
2
100
AcDbSymbolTableRecord
100
AcDbLayerTableRecord
  2
숨은선
 70
     0
 62
     2
  6
HIDDEN
370
    25
390
F
  0
LAYER
  5
76
330
2
100
AcDbSymbolTableRecord
100
AcDbLayerTableRecord
  2
중심선
 70
     0
 62
     1
  6
CENTERX2
370
    -3
390
F
  0
LAYER
  5
77
330
2
100
AcDbSymbolTableRecord
100
AcDbLayerTableRecord
  2
파단선
 70
     0
 62
     4
  6
Continuous
370
    -3
390
F
  0
LAYER
  5
78
330
2
100
AcDbSymbolTableRecord
100
AcDbLayerTableRecord
  2
해칭선
 70
     0
 62
   100
  6
Continuous
370
    -3
390
F
  0
LAYER
  5
79
330
2
100
AcDbSymbolTableRecord
100
AcDbLayerTableRecord
  2
가는실선
 70
     0
 62
     4
  6
Continuous
370
    -3
390
F
  0
LAYER
  5
7A
330
2
100
AcDbSymbolTableRecord
100
AcDbLayerTableRecord
  2
치수_보조선
 70
     0
 62
     4
  6
Continuous
370
    -3
390
F
  0
LAYER
  5
7B
330
2
100
AcDbSymbolTableRecord
100
AcDbLayerTableRecord
  2
치수문자_일반주서
 70
     0
 62
     7
  6
Continuous
370
    25
390
F
  0
LAYER
  5
7C
330
2
100
AcDbSymbolTableRecord
100
AcDbLayerTableRecord
  2
개별주서
 70
     0
 62
   100
  6
Continuous
370
    35
390
F
  0
LAYER
  5
7D
330
2
100
AcDbSymbolTableRecord
100
AcDbLayerTableRecord
  2
중간선
 70
     0
 62
     2
  6
Continuous
370
    25
390
F
  0
LAYER
  5
7E
330
2
100
AcDbSymbolTableRecord
100
AcDbLayerTableRecord
  2
윤곽선
 70
     0
 62
     3
  6
Continuous
370
    50
390
F
  0
LAYER
  5
7F
330
2
100
AcDbSymbolTableRecord
100
AcDbLayerTableRecord
  2
중심마크
 70
     0
 62
   100
  6
Continuous
370
    35
390
F
  0
LAYER
  5
80
330
2
100
AcDbSymbolTableRecord
100
AcDbLayerTableRecord
  2
가상선
 70
     0
 62
     4
  6
PHANTOM
370
    -3
390
F
  0
LAYER
  5
81
330
2
100
AcDbSymbolTableRecord
100
AcDbLayerTableRecord
  2
특수지정선
 70
     0
 62
     5
  6
CENTERX2
370
    70
390
F
  0
LAYER
  5
135
330
2
100
AcDbSymbolTableRecord
100
AcDbLayerTableRecord
  2
Defpoints
 70
     0
 62
     7
  6
Continuous
290
     0
370
    -3
390
F
  0
ENDTAB
  0
TABLE
  2
STYLE
  5
3
330
0
100
AcDbSymbolTable
 70
     2
  0
STYLE
  5
11
330
3
100
AcDbSymbolTableRecord
100
AcDbTextStyleTableRecord
  2
Standard
 70
     0
 40
0.0
 41
1.0
 50
0.0
 71
     0
 42
3.5
  3
txt
  4

  0
STYLE
  5
97
330
3
100
AcDbSymbolTableRecord
100
AcDbTextStyleTableRecord
  2
SLDTEXTSTYLE0
 70
     0
 40
0.0
 41
0.75
 50
0.0
 71
     0
 42
3.5
  3
TXT
  4

  0
ENDTAB
  0
TABLE
  2
VIEW
  5
6
330
0
100
AcDbSymbolTable
 70
     0
  0
ENDTAB
  0
TABLE
  2
UCS
  5
7
330
0
100
AcDbSymbolTable
 70
     0
  0
ENDTAB
  0
TABLE
  2
APPID
  5
9
330
0
100
AcDbSymbolTable
 70
     1
  0
APPID
  5
12
330
9
100
AcDbSymbolTableRecord
100
AcDbRegAppTableRecord
  2
ACAD
 70
     0
  0
ENDTAB
  0
TABLE
  2
DIMSTYLE
  5
A
330
0
100
AcDbSymbolTable
 70
     4
100
AcDbDimStyleTable
  0
DIMSTYLE
105
27
330
A
100
AcDbSymbolTableRecord
100
AcDbDimStyleTableRecord
  2
ISO-25
 70
     0
 41
2.5
 42
0.625
 43
3.75
 44
1.25
 73
     0
 74
     0
 77
     1
 78
     8
140
2.5
141
2.5
143
0.03937007874016
147
0.625
171
     3
172
     1
178
     0
271
     2
272
     2
274
     3
278
    44
283
     0
284
     8
340
11
  0
DIMSTYLE
105
DA
102
{ACAD_REACTORS
330
D9
102
}
330
A
100
AcDbSymbolTableRecord
100
AcDbDimStyleTableRecord
  2
SLDDIMSTYLE0
 70
     0
 41
3.302
 44
0.0
 45
0.000000001
 73
     0
 74
     0
 77
     1
 78
    12
 79
     3
140
3.5
147
0.875
172
     1
173
     1
178
     0
271
     1
272
     1
276
     2
284
    12
289
     0
340
97
  0
DIMSTYLE
105
E8
102
{ACAD_REACTORS
330
E7
330
100
102
}
330
A
100
AcDbSymbolTableRecord
100
AcDbDimStyleTableRecord
  2
SLDDIMSTYLE1
 70
     0
 41
3.302
 44
0.0
 45
0.000000001
 73
     0
 74
     0
 77
     1
 78
    12
 79
     3
140
3.5
147
0.875
173
     1
178
     0
271
     2
272
     2
276
     2
284
    12
340
97
  0
DIMSTYLE
105
F3
102
{ACAD_REACTORS
330
F2
102
}
330
A
100
AcDbSymbolTableRecord
100
AcDbDimStyleTableRecord
  2
SLDDIMSTYLE2
 70
     0
 41
3.302
 44
0.0
 45
0.000000001
 73
     0
 74
     0
 77
     1
 78
    12
 79
     3
140
3.5
147
0.875
172
     1
173
     1
178
     0
271
     2
272
     2
276
     2
284
    12
289
     0
340
97
  0
ENDTAB
  0
TABLE
  2
BLOCK_RECORD
  5
1
330
0
100
AcDbSymbolTable
 70
     7
  0
BLOCK_RECORD
  5
1F
330
1
100
AcDbSymbolTableRecord
100
AcDbBlockTableRecord
  2
*Model_Space
340
22
  0
BLOCK_RECORD
  5
1B
330
1
100
AcDbSymbolTableRecord
100
AcDbBlockTableRecord
  2
*Paper_Space
340
1E
  0
BLOCK_RECORD
  5
23
330
1
100
AcDbSymbolTableRecord
100
AcDbBlockTableRecord
  2
*Paper_Space0
340
26
  0
BLOCK_RECORD
  5
82
330
1
100
AcDbSymbolTableRecord
100
AcDbBlockTableRecord
  2
블럭10
340
0
102
{BLKREFS
331
D2
102
}
  0
BLOCK_RECORD
  5
DB
330
1
100
AcDbSymbolTableRecord
100
AcDbBlockTableRecord
  2
_D
340
0
  0
BLOCK_RECORD
  5
E9
330
1
100
AcDbSymbolTableRecord
100
AcDbBlockTableRecord
  2
_D_1
340
0
  0
BLOCK_RECORD
  5
F4
330
1
100
AcDbSymbolTableRecord
100
AcDbBlockTableRecord
  2
_D_2
340
0
  0
BLOCK_RECORD
  5
101
330
1
100
AcDbSymbolTableRecord
100
AcDbBlockTableRecord
  2
_D_3
340
0
  0
BLOCK_RECORD
  5
10A
330
1
100
AcDbSymbolTableRecord
100
AcDbBlockTableRecord
  2
SW_DOWELSYMBOL_0
340
0
102
{BLKREFS
331
110
102
}
  0
ENDTAB
  0
ENDSEC
  0
SECTION
  2
BLOCKS
  0
BLOCK
  5
20
330
1F
100
AcDbEntity
  8
0
100
AcDbBlockBegin
  2
*Model_Space
 70
     0
 10
0.0
 20
0.0
 30
0.0
  3
*Model_Space
  1

  0
ENDBLK
  5
21
330
1F
100
AcDbEntity
  8
0
100
AcDbBlockEnd
  0
BLOCK
  5
1C
330
1B
100
AcDbEntity
 67
     1
  8
0
100
AcDbBlockBegin
  2
*Paper_Space
 70
     0
 10
0.0
 20
0.0
 30
0.0
  3
*Paper_Space
  1

  0
ENDBLK
  5
1D
330
1B
100
AcDbEntity
 67
     1
  8
0
100
AcDbBlockEnd
  0
BLOCK
  5
24
330
23
100
AcDbEntity
  8
0
100
AcDbBlockBegin
  2
*Paper_Space0
 70
     0
 10
0.0
 20
0.0
 30
0.0
  3
*Paper_Space0
  1

  0
ENDBLK
  5
25
330
23
100
AcDbEntity
  8
0
100
AcDbBlockEnd
  0
BLOCK
  5
83
330
82
100
AcDbEntity
  8
0
100
AcDbBlockBegin
  2
블럭10
 70
     2
 10
0.0
 20
0.0
 30
0.0
  3
블럭10
  1

  0
ELLIPSE
  5
85
330
82
100
AcDbEntity
  8
중심선
100
AcDbEllipse
 10
20.54032771741204
 20
12.0471743016438
 30
0.0
 11
6.600054785286829
 21
-1.261213355974178E-13
 31
0.0
210
0.0
220
0.0
230
1.0
 40
0.636358354079598
 41
0.9219305317359503
 42
6.513795318482858
  0
ELLIPSE
  5
86
330
82
100
AcDbEntity
  8
중심선
100
AcDbEllipse
 10
20.54032771746488
 20
12.04717430159265
 30
0.0
 11
3.960054785062283
 21
1.540847449632565E-10
 31
0.0
210
0.0
220
0.0
230
1.0
 40
0.3939339440162632
 41
1.131841032648279
 42
5.62031148352944
  0
LINE
  5
87
330
82
100
AcDbEntity
  8
중심선
100
AcDbLine
 10
2.268634060543552
 20
16.24717430164393
 30
0.0
 11
5.714909304380834
 21
16.24717430164393
 31
0.0
  0
LINE
  5
88
330
82
100
AcDbEntity
  8
중심선
100
AcDbLine
 10
5.245725140726316
 20
7.84717430164391
 30
0.0
 11
8.692000384563599
 21
7.84717430164391
 31
0.0
  0
LINE
  5
89
330
82
100
AcDbEntity
  8
중심선
100
AcDbLine
 10
15.74043728645272
 20
16.24717430164393
 30
0.0
 11
8.692000384563599
 21
7.84717430164391
 31
0.0
  0
LINE
  5
8A
330
82
100
AcDbEntity
  8
중심선
100
AcDbLine
 10
0.1404042013395286
 20
13.71084872107135
 30
0.0
 11
3.58671253028996
 21
13.71088815037384
 31
0.0
  0
LINE
  5
8B
330
82
100
AcDbEntity
  8
중심선
100
AcDbLine
 10
2.750260043222114
 20
10.84717430164391
 30
0.0
 11
6.196535287059397
 21
10.84717430164391
 31
0.0
  0
LINE
  5
8C
330
82
100
AcDbEntity
  8
중심선
100
AcDbLine
 10
12.29416204261559
 20
16.24717430164393
 30
0.0
 11
5.245725140726316
 21
7.84717430164391
 31
0.0
  0
LINE
  5
8D
330
82
100
AcDbEntity
  8
중심선
100
AcDbLine
 10
10.72767329541681
 20
16.24717430164393
 30
0.0
 11
6.196535287059397
 21
10.84717430164391
 31
0.0
  0
LINE
  5
8E
330
82
100
AcDbEntity
  8
중심선
100
AcDbLine
 10
7.28139805157953
 20
16.24717430164393
 30
0.0
 11
2.750260043222114
 21
10.84717430164391
 31
0.0
  0
LINE
  5
8F
330
82
100
AcDbEntity
  8
중심선
100
AcDbLine
 10
5.714909304380834
 20
16.24717430164393
 30
0.0
 11
3.58671253028996
 21
13.71088815037384
 31
0.0
  0
LINE
  5
90
330
82
100
AcDbEntity
  8
중심선
100
AcDbLine
 10
2.268634060543552
 20
16.24717430164393
 30
0.0
 11
0.1404042013395286
 21
13.71084872107135
 31
0.0
  0
LINE
  5
91
330
82
100
AcDbEntity
  8
중심선
100
AcDbLine
 10
7.28139805157953
 20
16.24717430164393
 30
0.0
 11
10.72767329541681
 21
16.24717430164393
 31
0.0
  0
LINE
  5
92
330
82
100
AcDbEntity
  8
중심선
100
AcDbLine
 10
12.29416204261559
 20
16.24717430164393
 30
0.0
 11
15.74043728645272
 21
16.24717430164393
 31
0.0
  0
LINE
  5
93
330
82
100
AcDbEntity
  8
중심선
100
AcDbLine
 10
19.22036997980202
 20
11.08717430171403
 30
0.0
 11
23.66174974927406
 21
11.08717430171406
 31
0.0
  0
LINE
  5
94
330
82
100
AcDbEntity
  8
중심선
100
AcDbLine
 10
19.22039502424796
 20
13.00717430171391
 30
0.0
 11
19.22036997980202
 21
11.08717430171403
 31
0.0
  0
LINE
  5
95
330
82
100
AcDbEntity
  8
중심선
100
AcDbLine
 10
19.22039502424796
 20
13.00717430171391
 30
0.0
 11
26.96566020931264
 21
13.00717430171391
 31
0.0
  0
LINE
  5
96
330
82
100
AcDbEntity
  8
중심선
100
AcDbLine
 10
22.22332737316547
 20
13.45928029700563
 30
0.0
 11
24.52862924686651
 21
15.39360700705356
 31
0.0
  0
ATTDEF
  5
98
330
82
100
AcDbEntity
  8
FORMAT
 62
     2
100
AcDbText
 10
-16.11926103943555
 20
2.075366912832191
 30
0.0
 40
4.233333333333333
  1
SEME7220080E [ 4 FLUTE ]
 41
0.75
  7
SLDTEXTSTYLE0
 11
-16.11926103943555
 21
-0.0412997538344756
 31
0.0
100
AcDbAttributeDefinition
  3

  2
AUTOATTR0
 70
     0
 74
     1
  0
ENDBLK
  5
84
330
82
100
AcDbEntity
  8
0
100
AcDbBlockEnd
  0
BLOCK
  5
DC
330
DB
100
AcDbEntity
  8
0
100
AcDbBlockBegin
  2
_D
 70
     0
 10
0.0
 20
0.0
 30
0.0
  3
_D
  1

  0
LINE
  5
DE
330
DB
100
AcDbEntity
  8
치수문자_일반주서
 62
     0
370
    -2
100
AcDbLine
 10
92.06250000000003
 20
-10.00000000000001
 30
0.0
 11
108.0817610328088
 21
-9.999999999999954
 31
0.0
  0
LINE
  5
DF
330
DB
100
AcDbEntity
  8
치수문자_일반주서
 62
     0
370
    -2
100
AcDbLine
 10
92.06250000000003
 20
10.0
 30
0.0
 11
108.0817610328087
 21
10.00000000000006
 31
0.0
  0
LINE
  5
E0
330
DB
100
AcDbEntity
  8
치수문자_일반주서
 62
     0
370
    -2
100
AcDbLine
 10
108.0817610328088
 20
-9.999999999999954
 30
0.0
 11
108.0817610328086
 21
24.91650000000007
 31
0.0
  0
LINE
  5
E1
330
DB
100
AcDbEntity
  8
치수문자_일반주서
 62
     0
370
    -2
100
AcDbLine
 10
108.0817610328088
 20
-9.999999999999954
 30
0.0
 11
108.0817610328087
 21
10.00000000000006
 31
0.0
  0
LINE
  5
E2
330
DB
100
AcDbEntity
  8
치수문자_일반주서
 62
     0
370
    -2
100
AcDbLine
 10
108.0817610328088
 20
-13.30199999999995
 30
0.0
 11
108.0817610328088
 21
-16.60399999999995
 31
0.0
  0
LINE
  5
E3
330
DB
100
AcDbEntity
  8
치수문자_일반주서
 62
     0
370
    -2
100
AcDbLine
 10
108.0817610328087
 20
13.30200000000006
 30
0.0
 11
108.0817610328087
 21
16.60400000000006
 31
0.0
  0
SOLID
  5
E4
330
DB
100
AcDbEntity
  8
치수문자_일반주서
 62
     0
100
AcDbTrace
 10
108.6320943661421
 20
-13.30199999999995
 30
0.0
 11
107.5314276994755
 21
-13.30199999999996
 31
0.0
 12
108.0817610328088
 22
-9.999999999999954
 32
0.0
 13
108.0817610328088
 23
-9.999999999999954
 33
0.0
  0
SOLID
  5
E5
330
DB
100
AcDbEntity
  8
치수문자_일반주서
 62
     0
100
AcDbTrace
 10
107.5314276994754
 20
13.30200000000006
 30
0.0
 11
108.632094366142
 21
13.30200000000007
 31
0.0
 12
108.0817610328087
 22
10.00000000000006
 32
0.0
 13
108.0817610328087
 23
10.00000000000006
 33
0.0
  0
MTEXT
  5
E6
330
DB
100
AcDbEntity
  8
치수문자_일반주서
 62
     0
100
AcDbMText
 10
103.7067610328087
 20
20.76025000000005
 30
0.0
 40
3.5
 41
0.0
 71
     2
 72
     1
  1
\A1;%%c20
  7
SLDTEXTSTYLE0
 11
-3.552713678800498E-15
 21
1.0
 31
0.0
 73
     1
 44
1.0
  0
POINT
  5
13F
330
DB
100
AcDbEntity
  8
Defpoints
 62
     0
100
AcDbPoint
 10
92.00000000000003
 20
-10.00000000000001
 30
0.0
  0
POINT
  5
140
330
DB
100
AcDbEntity
  8
Defpoints
 62
     0
100
AcDbPoint
 10
92.00000000000003
 20
10.0
 30
0.0
  0
POINT
  5
141
330
DB
100
AcDbEntity
  8
Defpoints
 62
     0
100
AcDbPoint
 10
108.0817610328087
 20
10.00000000000006
 30
0.0
  0
ENDBLK
  5
DD
330
DB
100
AcDbEntity
  8
0
100
AcDbBlockEnd
  0
BLOCK
  5
EA
330
E9
100
AcDbEntity
  8
0
100
AcDbBlockBegin
  2
_D_1
 70
     0
 10
0.0
 20
0.0
 30
0.0
  3
_D_1
  1

  0
LINE
  5
EC
330
E9
100
AcDbEntity
  8
치수문자_일반주서
 62
     0
370
    -2
100
AcDbLine
 10
-58.00000000000001
 20
9.562499999999986
 30
0.0
 11
-58.0
 21
27.38913260158164
 31
0.0
  0
LINE
  5
ED
330
E9
100
AcDbEntity
  8
치수문자_일반주서
 62
     0
370
    -2
100
AcDbLine
 10
92.0
 20
10.06250000000001
 30
0.0
 11
92.00000000000001
 21
27.38913260158164
 31
0.0
  0
LINE
  5
EE
330
E9
100
AcDbEntity
  8
치수문자_일반주서
 62
     0
370
    -2
100
AcDbLine
 10
-54.698
 20
27.38913260158164
 30
0.0
 11
88.69800000000001
 21
27.38913260158164
 31
0.0
  0
SOLID
  5
EF
330
E9
100
AcDbEntity
  8
치수문자_일반주서
 62
     0
100
AcDbTrace
 10
-54.698
 20
27.93946593491497
 30
0.0
 11
-54.698
 21
26.8387992682483
 31
0.0
 12
-58.0
 22
27.38913260158164
 32
0.0
 13
-58.0
 23
27.38913260158164
 33
0.0
  0
SOLID
  5
F0
330
E9
100
AcDbEntity
  8
치수문자_일반주서
 62
     0
100
AcDbTrace
 10
88.69800000000001
 20
26.8387992682483
 30
0.0
 11
88.69800000000001
 21
27.93946593491497
 31
0.0
 12
92.00000000000001
 22
27.38913260158164
 32
0.0
 13
92.00000000000001
 23
27.38913260158164
 33
0.0
  0
MTEXT
  5
F1
330
E9
100
AcDbEntity
  8
치수문자_일반주서
 62
     0
100
AcDbMText
 10
17.0
 20
31.76413260158164
 30
0.0
 40
3.5
 41
0.0
 71
     2
 72
     1
  1
\A1;150
  7
SLDTEXTSTYLE0
 73
     1
 44
1.0
  0
POINT
  5
136
330
E9
100
AcDbEntity
  8
Defpoints
 62
     0
100
AcDbPoint
 10
-58.00000000000001
 20
9.499999999999986
 30
0.0
  0
POINT
  5
137
330
E9
100
AcDbEntity
  8
Defpoints
 62
     0
100
AcDbPoint
 10
92.0
 20
10.00000000000001
 30
0.0
  0
POINT
  5
138
330
E9
100
AcDbEntity
  8
Defpoints
 62
     0
100
AcDbPoint
 10
92.0
 20
27.38913260158164
 30
0.0
  0
ENDBLK
  5
EB
330
E9
100
AcDbEntity
  8
0
100
AcDbBlockEnd
  0
BLOCK
  5
F5
330
F4
100
AcDbEntity
  8
0
100
AcDbBlockBegin
  2
_D_2
 70
     0
 10
0.0
 20
0.0
 30
0.0
  3
_D_2
  1

  0
LINE
  5
F7
330
F4
100
AcDbEntity
  8
치수문자_일반주서
 62
     0
370
    -2
100
AcDbLine
 10
-57.56250000000001
 20
10.0
 30
0.0
 11
-72.71987756335061
 21
9.999999999999947
 31
0.0
  0
LINE
  5
F8
330
F4
100
AcDbEntity
  8
치수문자_일반주서
 62
     0
370
    -2
100
AcDbLine
 10
-57.56250000000001
 20
-10.00000000000001
 30
0.0
 11
-72.71987756335054
 21
-10.00000000000007
 31
0.0
  0
LINE
  5
F9
330
F4
100
AcDbEntity
  8
치수문자_일반주서
 62
     0
370
    -2
100
AcDbLine
 10
-72.71987756335061
 20
9.999999999999947
 30
0.0
 11
-72.71987756335066
 21
24.91649999999995
 31
0.0
  0
LINE
  5
FA
330
F4
100
AcDbEntity
  8
치수문자_일반주서
 62
     0
370
    -2
100
AcDbLine
 10
-72.71987756335061
 20
9.999999999999947
 30
0.0
 11
-72.71987756335054
 21
-10.00000000000007
 31
0.0
  0
LINE
  5
FB
330
F4
100
AcDbEntity
  8
치수문자_일반주서
 62
     0
370
    -2
100
AcDbLine
 10
-72.71987756335062
 20
13.30199999999995
 30
0.0
 11
-72.71987756335064
 21
16.60399999999995
 31
0.0
  0
LINE
  5
FC
330
F4
100
AcDbEntity
  8
치수문자_일반주서
 62
     0
370
    -2
100
AcDbLine
 10
-72.71987756335052
 20
-13.30200000000007
 30
0.0
 11
-72.71987756335051
 21
-16.60400000000007
 31
0.0
  0
SOLID
  5
FD
330
F4
100
AcDbEntity
  8
치수문자_일반주서
 62
     0
100
AcDbTrace
 10
-73.27021089668395
 20
13.30199999999994
 30
0.0
 11
-72.1695442300173
 21
13.30199999999995
 31
0.0
 12
-72.71987756335061
 22
9.999999999999947
 32
0.0
 13
-72.71987756335061
 23
9.999999999999947
 33
0.0
  0
SOLID
  5
FE
330
F4
100
AcDbEntity
  8
치수문자_일반주서
 62
     0
100
AcDbTrace
 10
-72.1695442300172
 20
-13.30200000000007
 30
0.0
 11
-73.27021089668385
 21
-13.30200000000007
 31
0.0
 12
-72.71987756335054
 22
-10.00000000000007
 32
0.0
 13
-72.71987756335054
 23
-10.00000000000007
 33
0.0
  0
MTEXT
  5
FF
330
F4
100
AcDbEntity
  8
치수문자_일반주서
 62
     0
100
AcDbMText
 10
-77.09487756335065
 20
20.76024999999993
 30
0.0
 40
3.5
 41
0.0
 71
     2
 72
     1
  1
\A1;%%c20
  7
SLDTEXTSTYLE0
 11
-3.552713678800498E-15
 21
1.0
 31
0.0
 73
     1
 44
1.0
  0
POINT
  5
13C
330
F4
100
AcDbEntity
  8
Defpoints
 62
     0
100
AcDbPoint
 10
-57.50000000000001
 20
10.0
 30
0.0
  0
POINT
  5
13D
330
F4
100
AcDbEntity
  8
Defpoints
 62
     0
100
AcDbPoint
 10
-57.50000000000001
 20
-10.00000000000001
 30
0.0
  0
POINT
  5
13E
330
F4
100
AcDbEntity
  8
Defpoints
 62
     0
100
AcDbPoint
 10
-72.71987756335055
 20
-10.00000000000007
 30
0.0
  0
ENDBLK
  5
F6
330
F4
100
AcDbEntity
  8
0
100
AcDbBlockEnd
  0
BLOCK
  5
102
330
101
100
AcDbEntity
  8
0
100
AcDbBlockBegin
  2
_D_3
 70
     0
 10
0.0
 20
0.0
 30
0.0
  3
_D_3
  1

  0
LINE
  5
104
330
101
100
AcDbEntity
  8
치수문자_일반주서
 62
     0
370
    -2
100
AcDbLine
 10
12.0
 20
10.0625
 30
0.0
 11
12.0
 21
20.84591830258766
 31
0.0
  0
LINE
  5
105
330
101
100
AcDbEntity
  8
치수문자_일반주서
 62
     0
370
    -2
100
AcDbLine
 10
92.0
 20
10.06250000000001
 30
0.0
 11
92.0
 21
20.84591830258766
 31
0.0
  0
LINE
  5
106
330
101
100
AcDbEntity
  8
치수문자_일반주서
 62
     0
370
    -2
100
AcDbLine
 10
15.302
 20
20.84591830258766
 30
0.0
 11
88.69800000000001
 21
20.84591830258766
 31
0.0
  0
SOLID
  5
107
330
101
100
AcDbEntity
  8
치수문자_일반주서
 62
     0
100
AcDbTrace
 10
15.302
 20
21.39625163592099
 30
0.0
 11
15.302
 21
20.29558496925432
 31
0.0
 12
12.0
 22
20.84591830258766
 32
0.0
 13
12.0
 23
20.84591830258766
 33
0.0
  0
SOLID
  5
108
330
101
100
AcDbEntity
  8
치수문자_일반주서
 62
     0
100
AcDbTrace
 10
88.69800000000001
 20
20.29558496925432
 30
0.0
 11
88.69800000000001
 21
21.39625163592099
 31
0.0
 12
92.0
 22
20.84591830258766
 32
0.0
 13
92.0
 23
20.84591830258766
 33
0.0
  0
MTEXT
  5
109
330
101
100
AcDbEntity
  8
치수문자_일반주서
 62
     0
100
AcDbMText
 10
52.0
 20
25.22091830258766
 30
0.0
 40
3.5
 41
0.0
 71
     2
 72
     1
  1
\A1;80
  7
SLDTEXTSTYLE0
 73
     1
 44
1.0
  0
POINT
  5
139
330
101
100
AcDbEntity
  8
Defpoints
 62
     0
100
AcDbPoint
 10
12.0
 20
9.999999999999996
 30
0.0
  0
POINT
  5
13A
330
101
100
AcDbEntity
  8
Defpoints
 62
     0
100
AcDbPoint
 10
92.0
 20
10.00000000000001
 30
0.0
  0
POINT
  5
13B
330
101
100
AcDbEntity
  8
Defpoints
 62
     0
100
AcDbPoint
 10
92.0
 20
20.84591830258766
 30
0.0
  0
ENDBLK
  5
103
330
101
100
AcDbEntity
  8
0
100
AcDbBlockEnd
  0
BLOCK
  5
10B
330
10A
100
AcDbEntity
  8
0
100
AcDbBlockBegin
  2
SW_DOWELSYMBOL_0
 70
     0
 10
0.0
 20
0.0
 30
0.0
  3
SW_DOWELSYMBOL_0
  1

  0
CIRCLE
  5
10D
330
10A
100
AcDbEntity
  8
해칭선
 62
     0
100
AcDbCircle
 10
0.0
 20
0.0
 30
0.0
 40
3.0
  0
HATCH
  5
10E
330
10A
100
AcDbEntity
  8
0
  6
Continuous
 62
     0
370
    18
100
AcDbHatch
 10
0.0
 20
0.0
 30
0.0
210
0.0
220
0.0
230
1.0
  2
SOLID
 70
     1
 71
     0
 91
        1
 92
        0
 93
        3
 72
     2
 10
0.0
 20
0.0
 40
3.0
 50
0.0
 51
90.0
 73
     1
 72
     1
 10
0.0
 20
3.0
 11
0.0
 21
0.0
 72
     1
 10
0.0
 20
0.0
 11
3.0
 21
0.0
 97
        0
 75
     0
 76
     1
 98
        1
 10
0.0
 20
0.0
  0
HATCH
  5
10F
330
10A
100
AcDbEntity
  8
0
  6
Continuous
 62
     0
370
    18
100
AcDbHatch
 10
0.0
 20
0.0
 30
0.0
210
0.0
220
0.0
230
1.0
  2
SOLID
 70
     1
 71
     0
 91
        1
 92
        0
 93
        3
 72
     2
 10
0.0
 20
0.0
 40
3.0
 50
180.0
 51
270.0000000000008
 73
     1
 72
     1
 10
0.0
 20
-3.0
 11
0.0
 21
0.0
 72
     1
 10
0.0
 20
0.0
 11
-3.0
 21
0.0
 97
        0
 75
     0
 76
     1
 98
        1
 10
0.0
 20
0.0
  0
ENDBLK
  5
10C
330
10A
100
AcDbEntity
  8
0
100
AcDbBlockEnd
  0
ENDSEC
  0
SECTION
  2
ENTITIES
  0
LINE
  5
99
330
1F
100
AcDbEntity
  8
0
  6
Continuous
 62
     4
370
    25
100
AcDbLine
 10
12.0
 20
9.999999999999996
 30
0.0
 11
-57.50000000000001
 21
9.999999999999993
 31
0.0
  0
LINE
  5
9A
330
1F
100
AcDbEntity
  8
0
  6
Continuous
 62
     4
370
    25
100
AcDbLine
 10
-57.50000000000001
 20
-10.00000000000001
 30
0.0
 11
12.0
 21
-10.0
 31
0.0
  0
LINE
  5
9B
330
1F
100
AcDbEntity
  8
0
  6
Continuous
 62
     4
370
    25
100
AcDbLine
 10
-57.50000000000001
 20
9.99999999999999
 30
0.0
 11
-58.00000000000001
 21
9.499999999999986
 31
0.0
  0
LINE
  5
9C
330
1F
100
AcDbEntity
  8
0
  6
Continuous
 62
     4
370
    25
100
AcDbLine
 10
-58.00000000000001
 20
-9.500000000000004
 30
0.0
 11
-57.50000000000001
 21
-10.0
 31
0.0
  0
LINE
  5
9D
330
1F
100
AcDbEntity
  8
0
  6
Continuous
 62
     1
370
    25
100
AcDbLine
 10
88.1313630492162
 20
-10.00000000000001
 30
0.0
 11
92.0
 21
-10.00000000000001
 31
0.0
  0
LINE
  5
9E
330
1F
100
AcDbEntity
  8
0
  6
Continuous
 62
     1
370
    25
100
AcDbLine
 10
41.45270683600334
 20
10.0
 30
0.0
 11
33.71920764991145
 21
10.0
 31
0.0
  0
LINE
  5
9F
330
1F
100
AcDbEntity
  8
0
  6
Continuous
 62
     1
370
    25
100
AcDbLine
 10
60.92556585046852
 20
-10.00000000000001
 30
0.0
 11
68.66062763166778
 21
-10.00000000000001
 31
0.0
  0
LINE
  5
A0
330
1F
100
AcDbEntity
  8
0
  6
Continuous
 62
     1
370
    25
100
AcDbLine
 10
14.24799759000432
 20
10.0
 30
0.0
 11
12.0
 21
10.0
 31
0.0
  0
LINE
  5
A1
330
1F
100
AcDbEntity
  8
0
  6
Continuous
 62
     1
370
    25
100
AcDbLine
 10
12.00000000000001
 20
-10.00000000000001
 30
0.0
 11
14.24799759000433
 21
-10.00000000000001
 31
0.0
  0
LINE
  5
A2
330
1F
100
AcDbEntity
  8
0
  6
Continuous
 62
     1
370
    25
100
AcDbLine
 10
68.66062763166778
 20
10.0
 30
0.0
 11
60.9255658504686
 21
10.0
 31
0.0
  0
LINE
  5
A3
330
1F
100
AcDbEntity
  8
0
  6
Continuous
 62
     1
370
    25
100
AcDbLine
 10
33.71920764991144
 20
-10.00000000000001
 30
0.0
 11
41.45270683600323
 21
-10.00000000000001
 31
0.0
  0
LINE
  5
A4
330
1F
100
AcDbEntity
  8
0
  6
Continuous
 62
     1
370
    25
100
AcDbLine
 10
92.0
 20
10.0
 30
0.0
 11
88.13136304921626
 21
10.0
 31
0.0
  0
SPLINE
  5
A5
330
1F
100
AcDbEntity
  8
0
  6
Continuous
 62
     4
370
    25
100
AcDbSpline
210
0.0
220
0.0
230
1.0
 70
     8
 71
     3
 72
    14
 73
    10
 74
     0
 42
0.000000001
 43
0.00000001
 40
0.0
 40
0.0
 40
0.0
 40
0.0
 40
0.25
 40
0.25
 40
0.5
 40
0.5
 40
0.75
 40
0.75
 40
1.0
 40
1.0
 40
1.0
 40
1.0
 10
11.5072402675359
 20
1.575781940982023
 30
0.0
 10
11.34952438705885
 20
1.665764277714013
 30
0.0
 10
11.20781190280631
 20
1.774588809140775
 30
0.0
 10
10.95545233877785
 20
2.028131818070501
 30
0.0
 10
10.84674373841543
 20
2.172052325016351
 30
0.0
 10
10.67346779350846
 20
2.478375376288602
 30
0.0
 10
10.60715923148847
 20
2.644371629369521
 30
0.0
 10
10.52111974152411
 20
2.979398656436022
 30
0.0
 10
10.50003921674573
 20
3.151644487828594
 30
0.0
 10
10.50003921674573
 20
3.323255743434096
 30
0.0
  0
SPLINE
  5
A6
330
1F
100
AcDbEntity
  8
0
  6
Continuous
 62
     4
370
    25
100
AcDbSpline
210
0.0
220
0.0
230
1.0
 70
     8
 71
     3
 72
     8
 73
     4
 74
     0
 42
0.000000001
 43
0.00000001
 40
0.0
 40
0.0
 40
0.0
 40
0.0
 40
1.0
 40
1.0
 40
1.0
 40
1.0
 10
12.0
 20
1.29374556303534
 30
0.0
 10
11.83598918428398
 20
1.387899259299669
 30
0.0
 10
11.67175480948275
 20
1.481920733943173
 30
0.0
 10
11.5072402675359
 20
1.575781940982023
 30
0.0
  0
SPLINE
  5
A7
330
1F
100
AcDbEntity
  8
0
  6
Continuous
 62
     4
370
    25
100
AcDbSpline
210
0.0
220
0.0
230
1.0
 70
     8
 71
     3
 72
    16
 73
    12
 74
     0
 42
0.000000001
 43
0.00000001
 40
0.0
 40
0.0
 40
0.0
 40
0.0
 40
0.2500000000000003
 40
0.2500000000000003
 40
0.5000000000000006
 40
0.5000000000000006
 40
0.6250000000000007
 40
0.6250000000000007
 40
0.7500000000000009
 40
0.7500000000000009
 40
1.0
 40
1.0
 40
1.0
 40
1.0
 10
10.50003921674573
 20
-5.510726063125984
 30
0.0
 10
10.50003921674573
 20
-5.321367266075702
 30
0.0
 10
10.53194241896977
 20
-5.132229002831225
 30
0.0
 10
10.66746135024231
 20
-4.756596309087294
 30
0.0
 10
10.76847029978222
 20
-4.578349514295447
 30
0.0
 10
10.9691563375608
 20
-4.333677567058557
 30
0.0
 10
11.04427517313536
 20
-4.256251288738842
 30
0.0
 10
11.20578685272997
 20
-4.115119485324533
 30
0.0
 10
11.29279488564263
 20
-4.05061137536212
 30
0.0
 10
11.57303434300308
 20
-3.876301443106055
 30
0.0
 10
11.78006156669331
 20
-3.789248624685325
 30
0.0
 10
11.99999999999999
 20
-3.736191292038315
 30
0.0
  0
LINE
  5
A8
330
1F
100
AcDbEntity
  8
0
  6
Continuous
 62
     4
370
    25
100
AcDbLine
 10
10.50003921674573
 20
-5.510726063125984
 30
0.0
 11
10.50003921674573
 21
-9.431647325029267
 31
0.0
  0
SPLINE
  5
A9
330
1F
100
AcDbEntity
  8
0
  6
Continuous
 62
     4
370
    25
100
AcDbSpline
210
0.0
220
0.0
230
1.0
 70
     8
 71
     3
 72
    14
 73
    10
 74
     0
 42
0.000000001
 43
0.00000001
 40
0.0
 40
0.0
 40
0.0
 40
0.0
 40
0.2500000000000002
 40
0.2500000000000002
 40
0.5000000000000001
 40
0.5000000000000001
 40
0.75
 40
0.75
 40
1.0
 40
1.0
 40
1.0
 40
1.0
 10
11.5072402675359
 20
-9.875065127604334
 30
0.0
 10
11.34952438705885
 20
-9.860706483950098
 30
0.0
 10
11.20781190280631
 20
-9.842129259425395
 30
0.0
 10
10.95545233877785
 20
-9.793025841347255
 30
0.0
 10
10.84674373841544
 20
-9.762529792611613
 30
0.0
 10
10.67346779350846
 20
-9.689295885070516
 30
0.0
 10
10.60715923148847
 20
-9.645608774434335
 30
0.0
 10
10.52111974152411
 20
-9.547442253802123
 30
0.0
 10
10.50003921674573
 20
-9.492114820385614
 30
0.0
 10
10.50003921674573
 20
-9.431647325029267
 30
0.0
  0
SPLINE
  5
AA
330
1F
100
AcDbEntity
  8
0
  6
Continuous
 62
     4
370
    25
100
AcDbSpline
210
0.0
220
0.0
230
1.0
 70
     8
 71
     3
 72
     8
 73
     4
 74
     0
 42
0.000000001
 43
0.00000001
 40
0.0
 40
0.0
 40
0.0
 40
0.0
 40
1.0
 40
1.0
 40
1.0
 40
1.0
 10
12.0
 20
-9.915957967744653
 30
0.0
 10
11.83598918428398
 20
-9.903673635037558
 30
0.0
 10
11.67175480948275
 20
-9.890042729584614
 30
0.0
 10
11.5072402675359
 20
-9.875065127604334
 30
0.0
  0
SPLINE
  5
AB
330
1F
100
AcDbEntity
  8
0
  6
Continuous
 62
     4
370
    25
100
AcDbSpline
210
0.0
220
0.0
230
1.0
 70
     8
 71
     3
 72
    16
 73
    12
 74
     0
 42
0.000000001
 43
0.00000001
 40
0.0
 40
0.0
 40
0.0
 40
0.0
 40
0.2500000000000001
 40
0.2500000000000001
 40
0.5000000000000001
 40
0.5000000000000001
 40
0.6250000000000001
 40
0.6250000000000001
 40
0.7500000000000002
 40
0.7500000000000002
 40
1.0
 40
1.0
 40
1.0
 40
1.0
 10
10.50003921674573
 20
8.344572982315093
 30
0.0
 10
10.50003921674573
 20
8.46962485260237
 30
0.0
 10
10.53194241896977
 20
8.585273126069664
 30
0.0
 10
10.66746135024231
 20
8.798947706350637
 30
0.0
 10
10.76847029978221
 20
8.892230585849074
 30
0.0
 10
10.9691563375608
 20
9.012630082917692
 30
0.0
 10
11.04427517313537
 20
9.049329380779568
 30
0.0
 10
11.20578685272998
 20
9.114374849447099
 30
0.0
 10
11.29279488564262
 20
9.143115643159636
 30
0.0
 10
11.57303434300308
 20
9.219021197273975
 30
0.0
 10
11.7800615666933
 20
9.254451180634877
 30
0.0
 10
11.99999999999999
 20
9.275822046012761
 30
0.0
  0
LINE
  5
AC
330
1F
100
AcDbEntity
  8
0
  6
Continuous
 62
     4
370
    25
100
AcDbLine
 10
10.50003921674573
 20
8.344572982315093
 30
0.0
 11
10.50003921674573
 21
3.323255743434096
 31
0.0
  0
LINE
  5
AD
330
1F
100
AcDbEntity
  8
0
  6
Continuous
 62
     4
370
    25
100
AcDbLine
 10
-57.50000000000001
 20
9.99999999999999
 30
0.0
 11
-57.50000000000001
 21
-10.0
 31
0.0
  0
LINE
  5
AE
330
1F
100
AcDbEntity
  8
0
  6
Continuous
 62
     4
370
    25
100
AcDbLine
 10
12.0
 20
1.29374556303534
 30
0.0
 11
12.0
 21
-3.736191292038322
 31
0.0
  0
LINE
  5
AF
330
1F
100
AcDbEntity
  8
0
  6
Continuous
 62
     4
370
    25
100
AcDbLine
 10
12.0
 20
9.999999999999996
 30
0.0
 11
12.0
 21
9.275822046012754
 31
0.0
  0
LINE
  5
B0
330
1F
100
AcDbEntity
  8
0
  6
Continuous
 62
     4
370
    25
100
AcDbLine
 10
-58.00000000000001
 20
9.499999999999986
 30
0.0
 11
-58.00000000000001
 21
-9.500000000000004
 31
0.0
  0
SPLINE
  5
B1
330
1F
100
AcDbEntity
  8
0
  6
Continuous
 62
     4
370
    25
100
AcDbSpline
210
0.0
220
0.0
230
1.0
 70
    24
 71
     3
 72
    18
 73
    14
 74
     0
 42
0.000000001
 43
0.00000001
 40
0.0
 40
0.0
 40
0.0
 40
0.0
 40
0.2499999999999998
 40
0.2499999999999998
 40
0.4999999999999997
 40
0.4999999999999997
 40
0.6249999999999997
 40
0.6249999999999997
 40
0.7499999999999997
 40
0.7499999999999997
 40
0.8749999999999999
 40
0.8749999999999999
 40
1.0
 40
1.0
 40
1.0
 40
1.0
 10
12.0
 20
9.275822046012754
 30
0.0
 10
12.0
 20
8.617225151906402
 30
0.0
 10
12.0
 20
7.947278391997314
 30
0.0
 10
12.0
 20
6.583422556144533
 30
0.0
 10
12.0
 20
5.924571291841195
 30
0.0
 10
12.0
 20
4.972713608440439
 30
0.0
 10
12.0
 20
4.663890528369596
 30
0.0
 10
12.0
 20
4.083614690106938
 30
0.0
 10
12.0
 20
3.809089566110234
 30
0.0
 10
12.0
 20
3.292046665893707
 30
0.0
 10
12.0
 20
3.05010442179152
 30
0.0
 10
12.0
 20
2.616058561909252
 30
0.0
 10
12.0
 20
2.42140206004639
 30
0.0
 10
12.0
 20
2.249121195296879
 30
0.0
  0
SPLINE
  5
B2
330
1F
100
AcDbEntity
  8
0
  6
Continuous
 62
     4
370
    25
100
AcDbSpline
210
0.0
220
0.0
230
1.0
 70
    24
 71
     3
 72
    10
 73
     6
 74
     0
 42
0.000000001
 43
0.00000001
 40
0.0
 40
0.0
 40
0.0
 40
0.0
 40
0.5
 40
0.5
 40
1.0
 40
1.0
 40
1.0
 40
1.0
 10
12.0
 20
2.249121195296681
 30
0.0
 10
12.0
 20
1.956094818402253
 30
0.0
 10
12.0
 20
1.718179579444525
 30
0.0
 10
12.0
 20
1.390947194933156
 30
0.0
 10
12.0
 20
1.302023492160887
 30
0.0
 10
12.0
 20
1.29374556303534
 30
0.0
  0
SPLINE
  5
B3
330
1F
100
AcDbEntity
  8
0
  6
Continuous
 62
     4
370
    25
100
AcDbSpline
210
0.0
220
0.0
230
1.0
 70
    24
 71
     3
 72
    12
 73
     8
 74
     0
 42
0.000000001
 43
0.00000001
 40
0.0
 40
0.0
 40
0.0
 40
0.0
 40
0.1830617423938272
 40
0.4091239883545278
 40
0.635162841259707
 40
0.8175692845363888
 40
1.0
 40
1.0
 40
1.0
 40
1.0
 10
12.0
 20
-3.736191292038321
 30
0.0
 10
12.0
 20
-3.813309175982024
 30
0.0
 10
12.0
 20
-3.985659640038206
 30
0.0
 10
12.0
 20
-4.471375698951963
 30
0.0
 10
12.0
 20
-5.082179043412166
 30
0.0
 10
12.0
 20
-5.761685797817371
 30
0.0
 10
12.0
 20
-6.240472585943071
 30
0.0
 10
12.00000000000001
 20
-6.479881906566772
 30
0.0
  0
SPLINE
  5
B4
330
1F
100
AcDbEntity
  8
0
  6
Continuous
 62
     4
370
    25
100
AcDbSpline
210
0.0
220
0.0
230
1.0
 70
    24
 71
     3
 72
    10
 73
     6
 74
     0
 42
0.000000001
 43
0.00000001
 40
0.0
 40
0.0
 40
0.0
 40
0.0
 40
0.5000000000000003
 40
0.5000000000000003
 40
1.0
 40
1.0
 40
1.0
 40
1.0
 10
12.0
 20
-6.47988190656721
 30
0.0
 10
12.0
 20
-6.981404022504458
 30
0.0
 10
12.0
 20
-7.534201196261089
 30
0.0
 10
12.0
 20
-8.697640779439473
 30
0.0
 10
12.0
 20
-9.307742873501521
 30
0.0
 10
12.0
 20
-9.915957967744653
 30
0.0
  0
SPLINE
  5
B5
330
1F
100
AcDbEntity
  8
0
  6
Continuous
 62
     1
370
    25
100
AcDbSpline
210
0.0
220
0.0
230
1.0
 70
     8
 71
     3
 72
    28
 73
    24
 74
     0
 42
0.000000001
 43
0.00000001
 40
0.0
 40
0.0
 40
0.0
 40
0.0
 40
0.0093944622256123
 40
0.0584361560451206
 40
0.1074775854561097
 40
0.1604056530270697
 40
0.2133307302465763
 40
0.2662581933512505
 40
0.3191889254346413
 40
0.372122448894051
 40
0.4250582844231255
 40
0.4779959513026195
 40
0.5309349676930273
 40
0.5838748509286856
 40
0.6368151178129695
 40
0.6897552849141888
 40
0.7426948688617965
 40
0.7921162717729795
 40
0.8415376504603858
 40
0.8909590067702735
 40
0.9403803425492337
 40
0.9898016596441632
 40
1.0
 40
1.0
 40
1.0
 40
1.0
 10
23.98131417050899
 20
8.439956790546198
 30
0.0
 10
24.18219349877681
 20
8.508347862162156
 30
0.0
 10
25.43171853714396
 20
8.933759262736793
 30
0.0
 10
27.72988789882037
 20
9.445070697102992
 30
0.0
 10
30.95888099571646
 20
9.936547622225083
 30
0.0
 10
34.27107234328227
 20
10.05793566018862
 30
0.0
 10
37.66624376649229
 20
9.804185707875408
 30
0.0
 10
41.0615379952653
 20
9.17289687961839
 30
0.0
 10
44.45704995419499
 20
8.190672609171589
 30
0.0
 10
47.85277800182428
 20
6.89446539415894
 30
0.0
 10
51.24868368661849
 20
5.334103129077985
 30
0.0
 10
54.64473025490554
 20
3.569320594335622
 30
0.0
 10
58.04088124332907
 20
1.66775382700442
 30
0.0
 10
61.43709679354234
 20
-0.2977358028774845
 30
0.0
 10
64.83334994207091
 20
-2.251809250973974
 30
0.0
 10
68.22956528690725
 20
-4.119642073610943
 30
0.0
 10
71.55063568385967
 20
-5.791564495049963
 30
0.0
 10
74.79605751342832
 20
-7.219849432364446
 30
0.0
 10
77.96635310857965
 20
-8.371757570652381
 30
0.0
 10
81.13661989525805
 20
-9.251685759233139
 30
0.0
 10
84.30689236391476
 20
-9.793715145209212
 30
0.0
 10
86.63847249886048
 20
-10.03077408963094
 30
0.0
 10
87.91329598306066
 20
-9.98110145244232
 30
0.0
 10
88.1313630492162
 20
-9.972604616296627
 30
0.0
  0
SPLINE
  5
B6
330
1F
100
AcDbEntity
  8
0
  6
Continuous
 62
     1
370
    25
100
AcDbSpline
210
0.0
220
0.0
230
1.0
 70
     8
 71
     3
 72
    22
 73
    18
 74
     0
 42
0.000000001
 43
0.00000001
 40
0.0
 40
0.0
 40
0.0
 40
0.0
 40
0.0671703760694703
 40
0.134345150419406
 40
0.2015237179054661
 40
0.2687054710696052
 40
0.3358898005079832
 40
0.4030760952414309
 40
0.4702637430879992
 40
0.5374521310370889
 40
0.6046406456246761
 40
0.6718286733091404
 40
0.7390156008471906
 40
0.8062008156694004
 40
0.8733837062548494
 40
0.9405636625043856
 40
1.0
 40
1.0
 40
1.0
 40
1.0
 10
92.0
 20
-9.751656983552614
 30
0.0
 10
90.8682845449347
 20
-9.570743151686237
 30
0.0
 10
88.60477953067858
 20
-9.208903641812086
 30
0.0
 10
85.20936310248022
 20
-8.213228421729843
 30
0.0
 10
81.8137202958757
 20
-6.929674192206625
 30
0.0
 10
78.4178833402824
 20
-5.373392070376449
 30
0.0
 10
75.02189041607177
 20
-3.613120988448025
 30
0.0
 10
71.62577824046593
 20
-1.71386511412684
 30
0.0
 10
68.22958402537911
 20
0.2509370477101369
 30
0.0
 10
64.83334492033035
 20
2.206182709506523
 30
0.0
 10
61.43709814189185
 20
4.076831504656441
 30
0.0
 10
58.04088087164565
 20
5.791443404772105
 30
0.0
 10
54.64473039331268
 20
7.283432170069144
 30
0.0
 10
51.24868350466858
 20
8.498904028189264
 30
0.0
 10
47.8527785911901
 20
9.37907008232433
 30
0.0
 10
44.58746016043978
 20
9.914444249875269
 30
0.0
 10
42.45413452511565
 20
9.959364765473923
 30
0.0
 10
41.45270683600334
 20
9.980451395374594
 30
0.0
  0
LINE
  5
B7
330
1F
100
AcDbEntity
  8
0
  6
Continuous
 62
     1
370
    25
100
AcDbLine
 10
92.0
 20
-10.00000000000002
 30
0.0
 11
92.0
 21
-9.751656983552621
 31
0.0
  0
SPLINE
  5
B8
330
1F
100
AcDbEntity
  8
0
  6
Continuous
 62
     1
370
    25
100
AcDbSpline
210
0.0
220
0.0
230
1.0
 70
     8
 71
     3
 72
    20
 73
    16
 74
     0
 42
0.000000001
 43
0.00000001
 40
0.0
 40
0.0
 40
0.0
 40
0.0
 40
0.0015288750129376
 40
0.0875916752906074
 40
0.1736566695200529
 40
0.2597230730131487
 40
0.3457901002185648
 40
0.4318569652028166
 40
0.5179228821318221
 40
0.5982691568905797
 40
0.6786153922678118
 40
0.7589615912650521
 40
0.839307756884374
 40
0.9196538921283491
 40
1.0
 40
1.0
 40
1.0
 40
1.0
 10
51.18831912116327
 20
8.458709238770677
 30
0.0
 10
51.20842888928979
 20
8.465800328788106
 30
0.0
 10
52.36054941255158
 20
8.872060127010402
 30
0.0
 10
54.6447321589781
 20
9.386745891599881
 30
0.0
 10
58.04088073311907
 20
9.93138299400184
 30
0.0
 10
61.43709693025708
 20
10.05819551589002
 30
0.0
 10
64.83334990542949
 20
9.809575107962562
 30
0.0
 10
68.2295652967578
 20
9.182387904538825
 30
0.0
 10
71.55063568137781
 20
8.225721744345405
 30
0.0
 10
74.79605751420068
 20
7.000104654653149
 30
0.0
 10
77.96635310789677
 20
5.569159578645255
 30
0.0
 10
81.1366198972174
 20
3.951885274624203
 30
0.0
 10
84.30689235676029
 20
2.203515808714477
 30
0.0
 10
87.47716145738852
 20
0.3780560752357602
 30
0.0
 10
89.59067394884948
 20
-0.8387011771775262
 30
0.0
 10
90.64743001457204
 20
-1.447079699752925
 30
0.0
  0
SPLINE
  5
B9
330
1F
100
AcDbEntity
  8
0
  6
Continuous
 62
     1
370
    25
100
AcDbSpline
210
0.0
220
0.0
230
1.0
 70
     8
 71
     3
 72
     8
 73
     4
 74
     0
 42
0.000000001
 43
0.00000001
 40
0.0
 40
0.0
 40
0.0
 40
0.0
 40
1.0
 40
1.0
 40
1.0
 40
1.0
 10
92.0
 20
-7.266081778456259
 30
0.0
 10
90.31587153796295
 20
-6.320024379565046
 30
0.0
 10
88.72553162703744
 20
-5.160603083795174
 30
0.0
 10
87.19539622185756
 20
-3.86421978356625
 30
0.0
  0
LINE
  5
BA
330
1F
100
AcDbEntity
  8
0
  6
Continuous
 62
     1
370
    25
100
AcDbLine
 10
92.0
 20
-9.751656983552621
 30
0.0
 11
92.0
 21
-7.266081778456254
 31
0.0
  0
SPLINE
  5
BB
330
1F
100
AcDbEntity
  8
0
  6
Continuous
 62
     1
370
    25
100
AcDbSpline
210
0.0
220
0.0
230
1.0
 70
    24
 71
     3
 72
    22
 73
    18
 74
     0
 42
0.000000001
 43
0.00000001
 40
0.0
 40
0.0
 40
0.0
 40
0.0
 40
0.2500000000000004
 40
0.2500000000000004
 40
0.3750000000000006
 40
0.3750000000000006
 40
0.5000000000000008
 40
0.5000000000000008
 40
0.5625000000000007
 40
0.5625000000000007
 40
0.6250000000000006
 40
0.6250000000000006
 40
0.7500000000000003
 40
0.7500000000000003
 40
0.8750000000000002
 40
0.8750000000000002
 40
1.0
 40
1.0
 40
1.0
 40
1.0
 10
90.64743001457201
 20
-1.447079699752911
 30
0.0
 10
90.64833007441128
 20
-1.446449471068629
 30
0.0
 10
90.58787192143814
 20
-1.488782725526661
 30
0.0
 10
90.37601742079482
 20
-1.637124843880747
 30
0.0
 10
90.28345551420597
 20
-1.701937388625336
 30
0.0
 10
90.05771133056523
 20
-1.860005167717572
 30
0.0
 10
89.92443790793995
 20
-1.95332422288291
 30
0.0
 10
89.69095893739478
 20
-2.116807958072031
 30
0.0
 10
89.60722578260926
 20
-2.175438544250957
 30
0.0
 10
89.43228580143278
 20
-2.297932837804997
 30
0.0
 10
89.34065279168863
 20
-2.362094961976604
 30
0.0
 10
89.05353353657314
 20
-2.563138028773608
 30
0.0
 10
88.84448072965392
 20
-2.709518380062344
 30
0.0
 10
88.39984449311739
 20
-3.020856024646465
 30
0.0
 10
88.16882063896725
 20
-3.182620668828621
 30
0.0
 10
87.69124356464533
 20
-3.517023736344944
 30
0.0
 10
87.4430893656618
 20
-3.690783177111663
 30
0.0
 10
87.19539622185754
 20
-3.864219783566277
 30
0.0
  0
SPLINE
  5
BC
330
1F
100
AcDbEntity
  8
0
  6
Continuous
 62
     1
370
    25
100
AcDbSpline
210
0.0
220
0.0
230
1.0
 70
     8
 71
     3
 72
    28
 73
    24
 74
     0
 42
0.000000001
 43
0.00000001
 40
0.0
 40
0.0
 40
0.0
 40
0.0
 40
0.0001242298307289
 40
0.053038653104285
 40
0.1059546242455663
 40
0.1588716610996559
 40
0.2117892808589915
 40
0.2647070003588934
 40
0.3176243363735666
 40
0.3705408059121805
 40
0.4234559265146409
 40
0.4763692165466576
 40
0.5292801954937262
 40
0.5821883842536292
 40
0.6350933054270813
 40
0.6879958417315198
 40
0.7409013671138145
 40
0.7899219096644844
 40
0.8389427165110617
 40
0.8879637983492273
 40
0.9369851658614169
 40
0.9860068297163128
 40
1.0
 40
1.0
 40
1.0
 40
1.0
 10
78.42589535574615
 20
-8.452385102305207
 30
0.0
 10
78.42323772152149
 20
-8.453326173120049
 30
0.0
 10
77.28858802512936
 20
-8.855106713286256
 30
0.0
 10
75.02188824111752
 20
-9.369455197321834
 30
0.0
 10
71.62577882331684
 20
-9.923678863182637
 30
0.0
 10
68.22958386900135
 20
-10.05942850218562
 30
0.0
 10
64.83334496297883
 20
-9.819953498463054
 30
0.0
 10
61.43709812767695
 20
-9.201443374203146
 30
0.0
 10
58.04088088585688
 20
-8.231081541389512
 30
0.0
 10
54.64473035068364
 20
-6.945127029602013
 30
0.0
 10
51.24868366096726
 20
-5.393117182033082
 30
0.0
 10
47.85277800865526
 20
-3.634468193978952
 30
0.0
 10
44.4570499525209
 20
-1.736598125923888
 30
0.0
 10
41.06153799513123
 20
0.2277697788707059
 30
0.0
 10
37.66624376870233
 20
2.183373280917449
 30
0.0
 10
34.27107233457635
 20
4.055395737917375
 30
0.0
 10
30.95888102732086
 20
5.729870289267515
 30
0.0
 10
27.72988779044285
 20
7.159976100049535
 30
0.0
 10
24.58394510419313
 20
8.316066931233353
 30
0.0
 10
21.43799214147273
 20
9.205201157902522
 30
0.0
 10
18.29201407568706
 20
9.766711795051322
 30
0.0
 10
15.89534721860651
 20
10.0202369017315
 30
0.0
 10
14.54733847077039
 20
9.976177176772097
 30
0.0
 10
14.24799759000432
 20
9.966393206974551
 30
0.0
  0
SPLINE
  5
BD
330
1F
100
AcDbEntity
  8
0
  6
Continuous
 62
     1
370
    25
100
AcDbSpline
210
0.0
220
0.0
230
1.0
 70
     8
 71
     3
 72
    19
 73
    15
 74
     0
 42
0.000000001
 43
0.00000001
 40
0.0
 40
0.0
 40
0.0
 40
0.0
 40
0.0851137881235067
 40
0.1717632081023757
 40
0.2584080587441366
 40
0.3450475582380576
 40
0.4316831521622675
 40
0.5183236411360052
 40
0.5986019059421478
 40
0.6788806035712609
 40
0.7591597515390771
 40
0.8394393673396373
 40
0.9197194684444603
 40
1.0
 40
1.0
 40
1.0
 40
1.0
 10
51.18831912116315
 20
-8.458709238770673
 30
0.0
 10
50.07645530371701
 20
-8.771714161116524
 30
0.0
 10
47.83266730569748
 20
-9.403371273310203
 30
0.0
 10
44.45705024989597
 20
-9.909222829005719
 30
0.0
 10
41.06153791544361
 20
-10.06278283242264
 30
0.0
 10
37.66624379010274
 20
-9.824278302846079
 30
0.0
 10
34.27107232865586
 20
-9.211135159727073
 30
0.0
 10
30.95888102940079
 20
-8.268226383414351
 30
0.0
 10
27.7298877877863
 20
-7.060057743493849
 30
0.0
 10
24.58394511286136
 20
-5.650719121750984
 30
0.0
 10
21.43799210945614
 20
-4.055283264092708
 30
0.0
 10
18.29201419508617
 20
-2.327249411818184
 30
0.0
 10
15.14601523271651
 20
-0.5195966322375773
 30
0.0
 10
13.0486736185098
 20
0.6892970842937375
 30
0.0
 10
12.00000000000059
 20
1.293745563034969
 30
0.0
  0
SPLINE
  5
BE
330
1F
100
AcDbEntity
  8
0
  6
Continuous
 62
     4
370
    25
100
AcDbSpline
210
0.0
220
0.0
230
1.0
 70
    24
 71
     3
 72
    24
 73
    20
 74
     0
 42
0.000000001
 43
0.00000001
 40
0.0
 40
0.0
 40
0.0
 40
0.0
 40
0.0624999999999999
 40
0.0624999999999999
 40
0.125
 40
0.125
 40
0.2500000000000001
 40
0.2500000000000001
 40
0.3750000000000001
 40
0.3750000000000001
 40
0.5000000000000002
 40
0.5000000000000002
 40
0.6250000000000001
 40
0.6250000000000001
 40
0.75
 40
0.75
 40
0.8749999999999999
 40
0.8749999999999999
 40
1.0
 40
1.0
 40
1.0
 40
1.0
 10
12.0
 20
9.502002429685502
 30
0.0
 10
12.0
 20
9.328741864454386
 30
0.0
 10
12.0
 20
9.16038323121189
 30
0.0
 10
12.0
 20
8.833935408476064
 30
0.0
 10
12.0
 20
8.668786612937954
 30
0.0
 10
12.0
 20
8.148750581426489
 30
0.0
 10
12.0
 20
7.776805882862916
 30
0.0
 10
12.0
 20
6.987217138017517
 30
0.0
 10
12.0
 20
6.569387787742033
 30
0.0
 10
12.0
 20
5.704290596910067
 30
0.0
 10
12.0
 20
5.256887218422522
 30
0.0
 10
12.0
 20
4.365900140322188
 30
0.0
 10
12.0
 20
3.922412479614202
 30
0.0
 10
12.0
 20
3.090886743971547
 30
0.0
 10
12.0
 20
2.703353396748676
 30
0.0
 10
12.0
 20
2.045268072985232
 30
0.0
 10
12.0
 20
1.775524325078217
 30
0.0
 10
12.0
 20
1.40389768811949
 30
0.0
 10
12.0
 20
1.302598403061887
 30
0.0
 10
12.0
 20
1.293745563035177
 30
0.0
  0
SPLINE
  5
BF
330
1F
100
AcDbEntity
  8
0
  6
Continuous
 62
     1
370
    25
100
AcDbSpline
210
0.0
220
0.0
230
1.0
 70
     8
 71
     3
 72
    22
 73
    18
 74
     0
 42
0.000000001
 43
0.00000001
 40
0.0
 40
0.0
 40
0.0
 40
0.0
 40
0.0643035683392292
 40
0.1286067918935332
 40
0.1929096267259987
 40
0.2572120868310646
 40
0.3215141862212099
 40
0.3858159389262887
 40
0.4552137430478579
 40
0.5246076263041101
 40
0.5940046378663656
 40
0.6634059356222243
 40
0.7328108933523666
 40
0.802218882603686
 40
0.871629273070533
 40
0.9410414329784035
 40
1.0
 40
1.0
 40
1.0
 40
1.0
 10
12.0
 20
9.502002429685458
 30
0.0
 10
13.04867361850982
 20
9.283084668682616
 30
0.0
 10
15.14601523271777
 20
8.845250320477174
 30
0.0
 10
18.29201419507871
 20
7.813752712116315
 30
0.0
 10
21.43799210948229
 20
6.547645534037796
 30
0.0
 10
24.58394511276239
 20
5.060136377178754
 30
0.0
 10
27.72988778815478
 20
3.4077468399536
 30
0.0
 10
30.95888102797904
 20
1.596315809296343
 30
0.0
 10
34.27107233443185
 20
-0.3212077474880963
 30
0.0
 10
37.66624376860206
 20
-2.274578331229058
 30
0.0
 10
41.06153799567687
 20
-4.140715786555497
 30
0.0
 10
44.45704995043837
 20
-5.848436682679212
 30
0.0
 10
47.8527780164403
 20
-7.331367318981671
 30
0.0
 10
51.24868363190795
 20
-8.536199898749294
 30
0.0
 10
54.64473045914053
 20
-9.403568606738606
 30
0.0
 10
57.87037271187241
 20
-9.922017501407062
 30
0.0
 10
59.96399809122154
 20
-9.95863913363647
 30
0.0
 10
60.92556585046852
 20
-9.975458847989444
 30
0.0
  0
LINE
  5
C0
330
1F
100
AcDbEntity
  8
0
  6
Continuous
 62
     4
370
    25
100
AcDbLine
 10
12.0
 20
9.502002429685486
 30
0.0
 11
12.0
 21
9.999999999999996
 31
0.0
  0
SPLINE
  5
C1
330
1F
100
AcDbEntity
  8
0
  6
Continuous
 62
     1
370
    25
100
AcDbSpline
210
0.0
220
0.0
230
1.0
 70
     8
 71
     3
 72
    14
 73
    10
 74
     0
 42
0.000000001
 43
0.00000001
 40
0.0
 40
0.0
 40
0.0
 40
0.0
 40
0.1454733759675934
 40
0.2909562774543989
 40
0.4364473938768628
 40
0.5819454096405541
 40
0.7274490049369632
 40
0.8729568565458318
 40
0.9999999999999999
 40
0.9999999999999999
 40
0.9999999999999999
 40
0.9999999999999999
 10
92.0
 20
2.214765467296677
 30
0.0
 10
90.86828454471049
 20
2.843795370966496
 30
0.0
 10
88.60477953000593
 20
4.101896366849345
 30
0.0
 10
85.20936310517111
 20
5.809293625351533
 30
0.0
 10
81.81372028578426
 20
7.299545387787947
 30
0.0
 10
78.41788337795965
 20
8.511152411971237
 30
0.0
 10
75.02189027544736
 20
9.387211195210963
 30
0.0
 10
71.76945566418993
 20
9.916956442859588
 30
0.0
 10
69.64901872062526
 20
9.959101930405092
 30
0.0
 10
68.66062763166778
 20
9.978747043859736
 30
0.0
  0
SPLINE
  5
C2
330
1F
100
AcDbEntity
  8
0
  6
Continuous
 62
     1
370
    25
100
AcDbSpline
210
0.0
220
0.0
230
1.0
 70
     8
 71
     3
 72
    11
 73
     7
 74
     0
 42
0.000000001
 43
0.00000001
 40
0.0
 40
0.0
 40
0.0
 40
0.0
 40
0.2122740184299703
 40
0.4748478181195258
 40
0.7374232051134426
 40
1.0
 40
1.0
 40
1.0
 40
1.0
 10
23.981314170509
 20
-8.439956790546205
 30
0.0
 10
23.13354200858084
 20
-8.692286152801614
 30
0.0
 10
21.23711226964475
 20
-9.256736046390444
 30
0.0
 10
18.29201425874994
 20
-9.773123826484454
 30
0.0
 10
15.14601521680043
 20
-10.05754127920631
 30
0.0
 10
13.04867361320442
 20
-9.963152489249872
 30
0.0
 10
12.00000000000059
 20
-9.915957967747106
 30
0.0
  0
LINE
  5
C3
330
1F
100
AcDbEntity
  8
0
  6
Continuous
 62
     1
370
    25
100
AcDbLine
 10
92.0
 20
-0.5000000000000344
 30
0.0
 11
92.0
 21
2.214765467296676
 31
0.0
  0
LINE
  5
C4
330
1F
100
AcDbEntity
  8
0
  6
Continuous
 62
     1
370
    25
100
AcDbLine
 10
92.0
 20
-0.500000000000038
 30
0.0
 11
90.64743001457201
 21
-1.447079699752914
 31
0.0
  0
SPLINE
  5
C5
330
1F
100
AcDbEntity
  8
0
  6
Continuous
 62
     1
370
    25
100
AcDbSpline
210
0.0
220
0.0
230
1.0
 70
     8
 71
     3
 72
    14
 73
    10
 74
     0
 42
0.000000001
 43
0.00000001
 40
0.0
 40
0.0
 40
0.0
 40
0.0
 40
0.1448496744515965
 40
0.2896985722435851
 40
0.4345465944040463
 40
0.579393772456735
 40
0.7242401379660428
 40
0.8690857225355006
 40
1.0
 40
1.0
 40
1.0
 40
1.0
 10
12.0
 20
-3.116400138982542
 30
0.0
 10
13.04867361737224
 20
-3.681739871134779
 30
0.0
 10
15.14601522930504
 20
-4.812416304182633
 30
0.0
 10
18.2920142087295
 20
-6.322815225949493
 30
0.0
 10
21.43799205829227
 20
-7.631887145732326
 30
0.0
 10
24.58394530387016
 20
-8.690464910922854
 30
0.0
 10
27.72988707491918
 20
-9.454159031463297
 30
0.0
 10
30.77492024160913
 20
-9.926573268860041
 30
0.0
 10
32.77139902067061
 20
-9.958657383661857
 30
0.0
 10
33.71920764991144
 20
-9.973889001042235
 30
0.0
  0
SPLINE
  5
C6
330
1F
100
AcDbEntity
  8
0
  6
Continuous
 62
     1
370
    25
100
AcDbSpline
210
0.0
220
0.0
230
1.0
 70
     8
 71
     3
 72
    11
 73
     7
 74
     0
 42
0.000000001
 43
0.00000001
 40
0.0
 40
0.0
 40
0.0
 40
0.0
 40
0.2217991349845624
 40
0.4811995181591162
 40
0.7405998032658079
 40
0.9999999999999999
 40
0.9999999999999999
 40
0.9999999999999999
 40
0.9999999999999999
 10
78.42589535574618
 20
8.452385102305207
 30
0.0
 10
79.32947075255383
 20
8.717211876246257
 30
0.0
 10
81.28980322001158
 20
9.291761078275092
 30
0.0
 10
84.30689202965425
 20
9.802986548069317
 30
0.0
 10
87.47716153916492
 20
10.06484096539815
 30
0.0
 10
89.59067397610826
 20
9.951443033132774
 30
0.0
 10
90.64743001457201
 20
9.894744076658192
 30
0.0
  0
LINE
  5
C7
330
1F
100
AcDbEntity
  8
0
  6
Continuous
 62
     4
370
    25
100
AcDbLine
 10
12.0
 20
-3.116400138982546
 30
0.0
 11
12.0
 21
1.293745563035177
 31
0.0
  0
LINE
  5
C8
330
1F
100
AcDbEntity
  8
0
  6
Continuous
 62
     1
370
    25
100
AcDbLine
 10
92.0
 20
9.9874921777191
 30
0.0
 11
92.0
 21
10.00000000000001
 31
0.0
  0
ELLIPSE
  5
C9
330
1F
100
AcDbEntity
  8
0
  6
Continuous
 62
     1
370
    25
100
AcDbEllipse
 10
92.71407400337105
 20
-0.0000000000000045
 30
0.0
 11
14.28148006742111
 21
-5.350968460038300E-17
 31
0.0
210
0.0
220
0.0
230
1.0
 40
0.7002075382097117
 41
1.620817183600666
 42
1.716014156413951
  0
SPLINE
  5
CA
330
1F
100
AcDbEntity
  8
0
  6
Continuous
 62
     1
370
    25
100
AcDbSpline
210
0.0
220
0.0
230
1.0
 70
     8
 71
     3
 72
    22
 73
    18
 74
     0
 42
0.000000001
 43
0.00000001
 40
0.0
 40
0.0
 40
0.0
 40
0.0
 40
0.2499999999999974
 40
0.2499999999999974
 40
0.3749999999999958
 40
0.3749999999999958
 40
0.4999999999999941
 40
0.4999999999999941
 40
0.5624999999999947
 40
0.5624999999999947
 40
0.6249999999999952
 40
0.6249999999999952
 40
0.7499999999999968
 40
0.7499999999999968
 40
0.8749999999999984
 40
0.8749999999999984
 40
1.0
 40
1.0
 40
1.0
 40
1.0
 10
90.64743001457201
 20
9.894744076658213
 30
0.0
 10
90.64833007441128
 20
9.283134665630076
 30
0.0
 10
90.58787192143811
 20
8.684986715119676
 30
0.0
 10
90.3760174207948
 20
7.814347839321172
 30
0.0
 10
90.28345551420597
 20
7.526023105511517
 30
0.0
 10
90.0577113305652
 20
6.983978845190977
 30
0.0
 10
89.92443790793989
 20
6.728016184879506
 30
0.0
 10
89.69095893739478
 20
6.368851405513237
 30
0.0
 10
89.60722578260926
 20
6.253066494950623
 30
0.0
 10
89.43228580143276
 20
6.035520208430542
 30
0.0
 10
89.34065279168863
 20
5.933023839203766
 30
0.0
 10
89.0535335365732
 20
5.643959723970075
 30
0.0
 10
88.84448072965395
 20
5.474803869360837
 30
0.0
 10
88.39984449311733
 20
5.189912301147327
 30
0.0
 10
88.16882063896722
 20
5.076535487151688
 30
0.0
 10
87.69124356464536
 20
4.901635336322657
 30
0.0
 10
87.4430893656618
 20
4.84025566364783
 30
0.0
 10
87.19539622185748
 20
4.804603778142476
 30
0.0
  0
SPLINE
  5
CB
330
1F
100
AcDbEntity
  8
0
  6
Continuous
 62
     1
370
    25
100
AcDbSpline
210
0.0
220
0.0
230
1.0
 70
     8
 71
     3
 72
     8
 73
     4
 74
     0
 42
0.000000001
 43
0.00000001
 40
0.0
 40
0.0
 40
0.0
 40
0.0
 40
1.0
 40
1.0
 40
1.0
 40
1.0
 10
92.0
 20
2.462652369968974
 30
0.0
 10
90.31587153796295
 20
3.373236042056514
 30
0.0
 10
88.72553162703736
 20
4.136275508719664
 30
0.0
 10
87.19539622185748
 20
4.804603778142472
 30
0.0
  0
SPLINE
  5
CC
330
1F
100
AcDbEntity
  8
0
  6
Continuous
 62
     4
370
    25
100
AcDbSpline
210
0.0
220
0.0
230
1.0
 70
    24
 71
     3
 72
    14
 73
    10
 74
     0
 42
0.000000001
 43
0.00000001
 40
0.0
 40
0.0
 40
0.0
 40
0.0
 40
0.0779919607484299
 40
0.2352982258481806
 40
0.3926044909479314
 40
0.549910756047682
 40
0.7072170211474326
 40
0.8645232862471833
 40
1.0
 40
1.0
 40
1.0
 40
1.0
 10
12.00000000000001
 20
-3.840510244647658
 30
0.0
 10
12.00000000000001
 20
-3.9273161707404
 30
0.0
 10
12.00000000000001
 20
-4.189205732263469
 30
0.0
 10
12.00000000000001
 20
-4.809518170065773
 30
0.0
 10
12.00000000000001
 20
-5.671206196361919
 30
0.0
 10
12.00000000000001
 20
-6.662840503882808
 30
0.0
 10
12.00000000000001
 20
-7.748996659393539
 30
0.0
 10
12.00000000000001
 20
-8.845528681814226
 30
0.0
 10
12.00000000000001
 20
-9.577335761491996
 30
0.0
 10
12.0
 20
-9.915957967756636
 30
0.0
  0
LINE
  5
CD
330
1F
100
AcDbEntity
  8
0
  6
Continuous
 62
     1
370
    25
100
AcDbLine
 10
92.0
 20
2.222770876104979
 30
0.0
 11
92.0
 21
2.462652369968976
 31
0.0
  0
LINE
  5
CE
330
1F
100
AcDbEntity
  8
0
  6
Continuous
 62
     1
370
    25
100
AcDbLine
 10
92.0
 20
-0.4999999999999995
 30
0.0
 11
92.0
 21
-7.266081778456255
 31
0.0
  0
LINE
  5
CF
330
1F
100
AcDbEntity
  8
0
  6
Continuous
 62
     1
370
    25
100
AcDbLine
 10
92.0
 20
2.462652369968976
 30
0.0
 11
92.0
 21
9.9874921777191
 31
0.0
  0
LINE
  5
D0
330
1F
100
AcDbEntity
  8
중심선
100
AcDbLine
 10
-61.0
 20
-0.0000000000000088
 30
0.0
 11
95.00000000000003
 21
0.0000000000000103
 31
0.0
  0
CIRCLE
  5
D1
330
1F
100
AcDbEntity
  8
해칭선
100
AcDbCircle
 10
0.0002128999291601
 20
-0.0000000000000043
 30
0.0
 40
3.0
  0
INSERT
  5
D2
330
1F
100
AcDbEntity
  8
0
  6
Continuous
 62
     7
100
AcDbBlockReference
 66
     1
  2
블럭10
 10
2.559900751058223
 20
-52.04717430164393
 30
0.0
  0
ATTRIB
  5
D3
330
D2
100
AcDbEntity
  8
FORMAT
 62
     2
100
AcDbText
 10
-13.55936028837733
 20
-49.97180738881174
 30
0.0
 40
4.233333333333333
  1
SEME7220080E [ 4 FLUTE ]
 41
0.75
  7
SLDTEXTSTYLE0
 11
-13.55936028837733
 21
-52.08847405547841
 31
0.0
100
AcDbAttribute
  2
AUTOATTR0
 70
     0
 74
     1
  0
SEQEND
  5
D4
330
D2
100
AcDbEntity
  8
0
  6
Continuous
 62
     7
  0
HATCH
  5
D5
330
1F
100
AcDbEntity
  8
중심선
100
AcDbHatch
 10
0.0
 20
0.0
 30
0.0
210
0.0
220
0.0
230
1.0
  2
SOLID
 70
     1
 71
     0
 91
        1
 92
        0
 93
        4
 72
     1
 10
8.274810055439064
 20
-35.8
 11
4.828534811601781
 21
-35.8
 72
     1
 10
4.828534811601781
 20
-35.8
 11
2.70030495239773
 21
-38.33632558057257
 72
     1
 10
2.70030495239773
 20
-38.33632558057257
 11
6.14661328134819
 21
-38.33628615127008
 72
     1
 10
6.14661328134819
 20
-38.33628615127008
 11
8.274810055439064
 21
-35.8
 97
        0
 75
     0
 76
     1
 98
        1
 10
0.0
 20
0.0
  0
HATCH
  5
D6
330
1F
100
AcDbEntity
  8
중심선
100
AcDbHatch
 10
0.0
 20
0.0
 30
0.0
210
0.0
220
0.0
230
1.0
  2
SOLID
 70
     1
 71
     0
 91
        1
 92
        0
 93
        4
 72
     1
 10
13.28757404647504
 20
-35.79999999999997
 11
9.84129880263776
 21
-35.8
 72
     1
 10
9.84129880263776
 20
-35.8
 11
5.310160794280344
 21
-41.20000000000002
 72
     1
 10
5.310160794280344
 20
-41.20000000000002
 11
8.756436038117627
 21
-41.20000000000002
 72
     1
 10
8.756436038117627
 20
-41.20000000000002
 11
13.28757404647504
 21
-35.79999999999997
 97
        0
 75
     0
 76
     1
 98
        1
 10
0.0
 20
0.0
  0
HATCH
  5
D7
330
1F
100
AcDbEntity
  8
중심선
100
AcDbHatch
 10
0.0
 20
0.0
 30
0.0
210
0.0
220
0.0
230
1.0
  2
SOLID
 70
     1
 71
     0
 91
        1
 92
        0
 93
        4
 72
     1
 10
18.30033803751094
 20
-35.79999999999997
 11
14.85406279367382
 21
-35.79999999999997
 72
     1
 10
14.85406279367382
 20
-35.79999999999997
 11
7.805625891784546
 21
-44.20000000000002
 72
     1
 10
7.805625891784546
 20
-44.20000000000002
 11
11.25190113562183
 21
-44.20000000000002
 72
     1
 10
11.25190113562183
 20
-44.20000000000002
 11
18.30033803751094
 21
-35.79999999999997
 97
        0
 75
     0
 76
     1
 98
        1
 10
0.0
 20
0.0
  0
HATCH
  5
D8
330
1F
100
AcDbEntity
  8
중심선
100
AcDbHatch
 10
0.0
 20
0.0
 30
0.0
210
0.0
220
0.0
230
1.0
  2
SOLID
 70
     1
 71
     0
 91
        1
 92
        0
 93
        6
 72
     3
 10
23.10022846852311
 20
-40.00000000005127
 11
3.960054785062284
 21
1.540850780301639E-10
 40
0.3939339440162633
 50
17.09539180608434
 51
320.0019657685081
 73
     0
 72
     1
 10
24.78322812422368
 20
-38.58789400463833
 11
27.08852999792474
 21
-36.65356729459038
 72
     3
 10
23.10022846847026
 20
-40.00000000000015
 11
6.600054785286829
 21
-1.249000902703301E-13
 40
0.6363583540795982
 50
39.9987384933741
 51
368.4976242363725
 73
     1
 72
     1
 10
29.52556096037087
 20
-39.03999999993002
 11
21.78029577530619
 21
-39.03999999993002
 72
     1
 10
21.78029577530619
 20
-39.03999999993002
 11
21.78027073086025
 21
-40.95999999992991
 72
     1
 10
21.78027073086025
 20
-40.95999999992991
 11
26.22165050033229
 21
-40.95999999992988
 97
        0
 75
     0
 76
     1
 98
        1
 10
0.0
 20
0.0
  0
DIMENSION
  5
D9
330
1F
100
AcDbEntity
  8
치수문자_일반주서
100
AcDbDimension
  2
_D
 10
108.0817610328087
 20
10.00000000000006
 30
0.0
 11
108.0817610328087
 21
20.76025000000007
 31
0.0
 70
   160
  1
%%c<>
 71
     2
 42
20.00000000000002
 52
-270.0
  3
SLDDIMSTYLE0
100
AcDbAlignedDimension
 13
92.00000000000003
 23
-10.00000000000001
 33
0.0
 14
92.00000000000003
 24
10.0
 34
0.0
 50
90.0000000000002
100
AcDbRotatedDimension
  0
DIMENSION
  5
E7
330
1F
100
AcDbEntity
  8
치수문자_일반주서
100
AcDbDimension
  2
_D_1
 10
92.00000000000001
 20
27.38913260158164
 30
0.0
 11
17.0
 21
27.38913260158164
 31
0.0
 70
   160
  1
<>
 71
     2
 42
150.0
  3
SLDDIMSTYLE1
100
AcDbAlignedDimension
 13
-58.00000000000001
 23
9.499999999999986
 33
0.0
 14
92.0
 24
10.00000000000001
 34
0.0
 50
-0.0000000000000014
100
AcDbRotatedDimension
  0
DIMENSION
  5
F2
330
1F
100
AcDbEntity
  8
치수문자_일반주서
100
AcDbDimension
  2
_D_2
 10
-72.71987756335054
 20
-10.00000000000007
 30
0.0
 11
-72.71987756335065
 21
20.76024999999995
 31
0.0
 70
   160
  1
%%c<>
 71
     2
 42
20.00000000000002
 52
-270.0
  3
SLDDIMSTYLE2
100
AcDbAlignedDimension
 13
-57.50000000000001
 23
10.0
 33
0.0
 14
-57.50000000000001
 24
-10.00000000000001
 34
0.0
 50
90.0000000000002
100
AcDbRotatedDimension
  0
DIMENSION
  5
100
330
1F
100
AcDbEntity
  8
치수문자_일반주서
100
AcDbDimension
  2
_D_3
 10
92.0
 20
20.84591830258766
 30
0.0
 11
52.0
 21
20.84591830258766
 31
0.0
 70
   160
  1
<>
 71
     2
 42
80.0
  3
SLDDIMSTYLE1
100
AcDbAlignedDimension
 13
12.0
 23
9.999999999999996
 33
0.0
 14
92.0
 24
10.00000000000001
 34
0.0
 50
0.0000000000000076
100
AcDbRotatedDimension
  0
INSERT
  5
110
330
1F
100
AcDbEntity
  8
해칭선
100
AcDbBlockReference
  2
SW_DOWELSYMBOL_0
 10
0.0002128999291601
 20
-0.0000000000000043
 30
0.0
  0
ENDSEC
  0
SECTION
  2
OBJECTS
  0
DICTIONARY
  5
C
330
0
100
AcDbDictionary
281
     1
  3
ACAD_GROUP
350
D
  3
ACAD_IMAGE_VARS
350
134
  3
ACAD_LAYOUT
350
1A
  3
ACAD_MLINESTYLE
350
17
  3
ACAD_PLOTSETTINGS
350
19
  3
ACAD_PLOTSTYLENAME
350
E
  3
ACAD_SCALELIST
350
47
  3
APPDATA
350
132
  3
DWGPROPS
350
143
  0
DICTIONARY
  5
D
102
{ACAD_REACTORS
330
C
102
}
330
C
100
AcDbDictionary
281
     1
  0
RASTERVARIABLES
  5
134
102
{ACAD_REACTORS
330
C
102
}
330
C
100
AcDbRasterVariables
 90
        0
 70
     1
 71
     1
 72
     1
  0
DICTIONARY
  5
1A
102
{ACAD_REACTORS
330
C
102
}
330
C
100
AcDbDictionary
281
     1
  3
Layout1
350
1E
  3
Layout2
350
26
  3
Model
350
22
  0
DICTIONARY
  5
17
102
{ACAD_REACTORS
330
C
102
}
330
C
100
AcDbDictionary
281
     1
  3
Standard
350
18
  0
DICTIONARY
  5
19
102
{ACAD_REACTORS
330
C
102
}
330
C
100
AcDbDictionary
281
     1
  0
ACDBDICTIONARYWDFLT
  5
E
102
{ACAD_REACTORS
330
C
102
}
330
C
100
AcDbDictionary
281
     1
  3
Normal
350
F
100
AcDbDictionaryWithDefault
340
F
  0
DICTIONARY
  5
47
102
{ACAD_REACTORS
330
C
102
}
330
C
100
AcDbDictionary
281
     1
  3
A0
350
48
  3
A1
350
49
  3
A2
350
4A
  3
A3
350
4B
  3
A4
350
4C
  3
A5
350
4D
  3
A6
350
4E
  3
A7
350
4F
  3
A8
350
50
  3
A9
350
51
  3
B0
350
52
  3
B1
350
53
  3
B2
350
54
  3
B3
350
55
  3
B4
350
56
  3
B5
350
57
  3
B6
350
58
  3
B7
350
59
  3
B8
350
5A
  3
B9
350
5B
  3
C0
350
5C
  3
C1
350
5D
  3
C2
350
5E
  3
C3
350
5F
  3
C4
350
60
  3
C5
350
61
  3
C6
350
62
  3
C7
350
63
  3
C8
350
64
  3
C9
350
65
  3
D0
350
66
  3
D1
350
67
  3
D2
350
68
  0
DICTIONARY
  5
132
102
{ACAD_REACTORS
330
C
102
}
330
C
100
AcDbDictionary
281
     1
  0
XRECORD
  5
143
102
{ACAD_REACTORS
330
C
102
}
330
C
100
AcDbXrecord
280
     1
  1
DWGPROPS COOKIE
  2

  3

  4

  6

  7

  8
12014102
  9

300
=
301
=
302
=
303
=
304
=
305
=
306
=
307
=
308
=
309
=
 40
0.0
 41
2458260.21147669
 42
2458268.226452072
  1

 90
        0
  0
LAYOUT
  5
1E
102
{ACAD_REACTORS
330
1A
102
}
330
1A
100
AcDbPlotSettings
  1

  2
none_device
  4

  6

 40
0.0
 41
0.0
 42
0.0
 43
0.0
 44
0.0
 45
0.0
 46
0.0
 47
0.0
 48
0.0
 49
0.0
140
0.0
141
0.0
142
1.0
143
1.0
 70
   688
 72
     1
 73
     0
 74
     5
  7

 75
    16
147
1.0
148
0.0
149
0.0
100
AcDbLayout
  1
Layout1
 70
     1
 71
     1
 10
0.0
 20
0.0
 11
420.0
 21
297.0
 12
0.0
 22
0.0
 32
0.0
 14
1.000000000000000E+20
 24
1.000000000000000E+20
 34
1.000000000000000E+20
 15
-1.000000000000000E+20
 25
-1.000000000000000E+20
 35
-1.000000000000000E+20
146
0.0
 13
0.0
 23
0.0
 33
0.0
 16
1.0
 26
0.0
 36
0.0
 17
0.0
 27
1.0
 37
0.0
 76
     0
330
1B
  0
LAYOUT
  5
26
102
{ACAD_REACTORS
330
1A
102
}
330
1A
100
AcDbPlotSettings
  1

  2
none_device
  4

  6

 40
0.0
 41
0.0
 42
0.0
 43
0.0
 44
0.0
 45
0.0
 46
0.0
 47
0.0
 48
0.0
 49
0.0
140
0.0
141
0.0
142
1.0
143
1.0
 70
   688
 72
     1
 73
     0
 74
     5
  7

 75
    16
147
1.0
148
0.0
149
0.0
100
AcDbLayout
  1
Layout2
 70
     1
 71
     2
 10
0.0
 20
0.0
 11
0.0
 21
0.0
 12
0.0
 22
0.0
 32
0.0
 14
0.0
 24
0.0
 34
0.0
 15
0.0
 25
0.0
 35
0.0
146
0.0
 13
0.0
 23
0.0
 33
0.0
 16
1.0
 26
0.0
 36
0.0
 17
0.0
 27
1.0
 37
0.0
 76
     0
330
23
  0
LAYOUT
  5
22
102
{ACAD_REACTORS
330
1A
102
}
330
1A
100
AcDbPlotSettings
  1

  2
none_device
  4
ANSI_A_(11.00_x_8.50_Inches)
  6

 40
6.35
 41
19.05
 42
6.35000508
 43
19.05000254
 44
279.4
 45
215.9
 46
109.5985600283411
 47
102.9761615973811
 48
0.0
 49
0.0
140
0.0
141
0.0
142
0.0589085814011888
143
1.0
 70
  1696
 72
     0
 73
     0
 74
     0
  7

 75
     0
147
0.0235690232323232
148
0.0
149
0.0
100
AcDbLayout
  1
Model
 70
     1
 71
     0
 10
0.0
 20
0.0
 11
420.0
 21
297.0
 12
0.0
 22
0.0
 32
0.0
 14
-77.09487756335066
 24
-49.97180738881174
 34
0.0
 15
108.6320943661421
 25
31.76413260158164
 35
0.0
146
0.0
 13
0.0
 23
0.0
 33
0.0
 16
1.0
 26
0.0
 36
0.0
 17
0.0
 27
1.0
 37
0.0
 76
     0
330
1F
331
29
  0
MLINESTYLE
  5
18
102
{ACAD_REACTORS
330
17
102
}
330
17
100
AcDbMlineStyle
  2
Standard
 70
     0
  3

 62
   256
 51
90.0
 52
90.0
 71
     2
 49
0.5
 62
   256
  6
BYLAYER
 49
-0.5
 62
   256
  6
BYLAYER
  0
ACDBPLACEHOLDER
  5
F
102
{ACAD_REACTORS
330
E
102
}
330
E
  0
SCALE
  5
48
102
{ACAD_REACTORS
330
47
102
}
330
47
100
AcDbScale
 70
     0
300
1:1
140
1.0
141
1.0
290
     1
  0
SCALE
  5
49
102
{ACAD_REACTORS
330
47
102
}
330
47
100
AcDbScale
 70
     0
300
1:2
140
1.0
141
2.0
290
     0
  0
SCALE
  5
4A
102
{ACAD_REACTORS
330
47
102
}
330
47
100
AcDbScale
 70
     0
300
1:4
140
1.0
141
4.0
290
     0
  0
SCALE
  5
4B
102
{ACAD_REACTORS
330
47
102
}
330
47
100
AcDbScale
 70
     0
300
1:5
140
1.0
141
5.0
290
     0
  0
SCALE
  5
4C
102
{ACAD_REACTORS
330
47
102
}
330
47
100
AcDbScale
 70
     0
300
1:8
140
1.0
141
8.0
290
     0
  0
SCALE
  5
4D
102
{ACAD_REACTORS
330
47
102
}
330
47
100
AcDbScale
 70
     0
300
1:10
140
1.0
141
10.0
290
     0
  0
SCALE
  5
4E
102
{ACAD_REACTORS
330
47
102
}
330
47
100
AcDbScale
 70
     0
300
1:16
140
1.0
141
16.0
290
     0
  0
SCALE
  5
4F
102
{ACAD_REACTORS
330
47
102
}
330
47
100
AcDbScale
 70
     0
300
1:20
140
1.0
141
20.0
290
     0
  0
SCALE
  5
50
102
{ACAD_REACTORS
330
47
102
}
330
47
100
AcDbScale
 70
     0
300
1:30
140
1.0
141
30.0
290
     0
  0
SCALE
  5
51
102
{ACAD_REACTORS
330
47
102
}
330
47
100
AcDbScale
 70
     0
300
1:40
140
1.0
141
40.0
290
     0
  0
SCALE
  5
52
102
{ACAD_REACTORS
330
47
102
}
330
47
100
AcDbScale
 70
     0
300
1:50
140
1.0
141
50.0
290
     0
  0
SCALE
  5
53
102
{ACAD_REACTORS
330
47
102
}
330
47
100
AcDbScale
 70
     0
300
1:100
140
1.0
141
100.0
290
     0
  0
SCALE
  5
54
102
{ACAD_REACTORS
330
47
102
}
330
47
100
AcDbScale
 70
     0
300
2:1
140
2.0
141
1.0
290
     0
  0
SCALE
  5
55
102
{ACAD_REACTORS
330
47
102
}
330
47
100
AcDbScale
 70
     0
300
4:1
140
4.0
141
1.0
290
     0
  0
SCALE
  5
56
102
{ACAD_REACTORS
330
47
102
}
330
47
100
AcDbScale
 70
     0
300
8:1
140
8.0
141
1.0
290
     0
  0
SCALE
  5
57
102
{ACAD_REACTORS
330
47
102
}
330
47
100
AcDbScale
 70
     0
300
10:1
140
10.0
141
1.0
290
     0
  0
SCALE
  5
58
102
{ACAD_REACTORS
330
47
102
}
330
47
100
AcDbScale
 70
     0
300
100:1
140
100.0
141
1.0
290
     0
  0
SCALE
  5
59
102
{ACAD_REACTORS
330
47
102
}
330
47
100
AcDbScale
 70
     0
300
1/128" = 1'-0"
140
0.0078125
141
12.0
290
     0
  0
SCALE
  5
5A
102
{ACAD_REACTORS
330
47
102
}
330
47
100
AcDbScale
 70
     0
300
1/64" = 1'-0"
140
0.015625
141
12.0
290
     0
  0
SCALE
  5
5B
102
{ACAD_REACTORS
330
47
102
}
330
47
100
AcDbScale
 70
     0
300
1/32" = 1'-0"
140
0.03125
141
12.0
290
     0
  0
SCALE
  5
5C
102
{ACAD_REACTORS
330
47
102
}
330
47
100
AcDbScale
 70
     0
300
1/16" = 1'-0"
140
0.0625
141
12.0
290
     0
  0
SCALE
  5
5D
102
{ACAD_REACTORS
330
47
102
}
330
47
100
AcDbScale
 70
     0
300
3/32" = 1'-0"
140
0.09375
141
12.0
290
     0
  0
SCALE
  5
5E
102
{ACAD_REACTORS
330
47
102
}
330
47
100
AcDbScale
 70
     0
300
1/8" = 1'-0"
140
0.125
141
12.0
290
     0
  0
SCALE
  5
5F
102
{ACAD_REACTORS
330
47
102
}
330
47
100
AcDbScale
 70
     0
300
3/16" = 1'-0"
140
0.1875
141
12.0
290
     0
  0
SCALE
  5
60
102
{ACAD_REACTORS
330
47
102
}
330
47
100
AcDbScale
 70
     0
300
1/4" = 1'-0"
140
0.25
141
12.0
290
     0
  0
SCALE
  5
61
102
{ACAD_REACTORS
330
47
102
}
330
47
100
AcDbScale
 70
     0
300
3/8" = 1'-0"
140
0.375
141
12.0
290
     0
  0
SCALE
  5
62
102
{ACAD_REACTORS
330
47
102
}
330
47
100
AcDbScale
 70
     0
300
1/2" = 1'-0"
140
0.5
141
12.0
290
     0
  0
SCALE
  5
63
102
{ACAD_REACTORS
330
47
102
}
330
47
100
AcDbScale
 70
     0
300
3/4" = 1'-0"
140
0.75
141
12.0
290
     0
  0
SCALE
  5
64
102
{ACAD_REACTORS
330
47
102
}
330
47
100
AcDbScale
 70
     0
300
1" = 1'-0"
140
1.0
141
12.0
290
     0
  0
SCALE
  5
65
102
{ACAD_REACTORS
330
47
102
}
330
47
100
AcDbScale
 70
     0
300
1-1/2" = 1'-0"
140
1.5
141
12.0
290
     0
  0
SCALE
  5
66
102
{ACAD_REACTORS
330
47
102
}
330
47
100
AcDbScale
 70
     0
300
3" = 1'-0"
140
3.0
141
12.0
290
     0
  0
SCALE
  5
67
102
{ACAD_REACTORS
330
47
102
}
330
47
100
AcDbScale
 70
     0
300
6" = 1'-0"
140
6.0
141
12.0
290
     0
  0
SCALE
  5
68
102
{ACAD_REACTORS
330
47
102
}
330
47
100
AcDbScale
 70
     0
300
1'-0" = 1'-0"
140
12.0
141
12.0
290
     0
  0
ENDSEC
  0
EOF
