  0
SECTION
  2
HEADER
  9
$ACADVER
  1
AC1015
  9
$ACADMAINTVER
 70
     6
  9
$DWGCODEPAGE
  3
ANSI_949
  9
$INSBASE
 10
0.0
 20
0.0
 30
0.0
  9
$EXTMIN
 10
-76.43609890939247
 20
-49.97180738881174
 30
0.0
  9
$EXTMAX
 10
89.77893923358504
 20
31.76413260158164
 30
0.0
  9
$LIMMIN
 10
0.0
 20
0.0
  9
$LIMMAX
 10
420.0
 20
297.0
  9
$ORTHOMODE
 70
     0
  9
$REGENMODE
 70
     1
  9
$FILLMODE
 70
     1
  9
$QTEXTMODE
 70
     0
  9
$MIRRTEXT
 70
     1
  9
$LTSCALE
 40
1.0
  9
$ATTMODE
 70
     1
  9
$TEXTSIZE
 40
3.5
  9
$TRACEWID
 40
1.0
  9
$TEXTSTYLE
  7
Standard
  9
$CLAYER
  8
0
  9
$CELTYPE
  6
ByLayer
  9
$CECOLOR
 62
   256
  9
$CELTSCALE
 40
1.0
  9
$DISPSILH
 70
     0
  9
$DIMSCALE
 40
1.0
  9
$DIMASZ
 40
3.302
  9
$DIMEXO
 40
1.0
  9
$DIMDLI
 40
3.75
  9
$DIMRND
 40
0.0
  9
$DIMDLE
 40
0.0
  9
$DIMEXE
 40
1.0
  9
$DIMTP
 40
0.0
  9
$DIMTM
 40
0.0
  9
$DIMTXT
 40
3.5
  9
$DIMCEN
 40
2.5
  9
$DIMTSZ
 40
0.0
  9
$DIMTOL
 70
     0
  9
$DIMLIM
 70
     0
  9
$DIMTIH
 70
     1
  9
$DIMTOH
 70
     1
  9
$DIMSE1
 70
     0
  9
$DIMSE2
 70
     0
  9
$DIMTAD
 70
     1
  9
$DIMZIN
 70
     0
  9
$DIMBLK
  1

  9
$DIMASO
 70
     1
  9
$DIMSHO
 70
     1
  9
$DIMPOST
  1

  9
$DIMAPOST
  1

  9
$DIMALT
 70
     0
  9
$DIMALTD
 70
     3
  9
$DIMALTF
 40
0.0393700787401575
  9
$DIMLFAC
 40
1.0
  9
$DIMTOFL
 70
     1
  9
$DIMTVP
 40
0.0
  9
$DIMTIX
 70
     0
  9
$DIMSOXD
 70
     0
  9
$DIMSAH
 70
     0
  9
$DIMBLK1
  1

  9
$DIMBLK2
  1

  9
$DIMSTYLE
  2
ISO-25
  9
$DIMCLRD
 70
     0
  9
$DIMCLRE
 70
     0
  9
$DIMCLRT
 70
     0
  9
$DIMTFAC
 40
1.0
  9
$DIMGAP
 40
1.524
  9
$DIMJUST
 70
     0
  9
$DIMSD1
 70
     0
  9
$DIMSD2
 70
     0
  9
$DIMTOLJ
 70
     0
  9
$DIMTZIN
 70
     0
  9
$DIMALTZ
 70
     0
  9
$DIMALTTZ
 70
     0
  9
$DIMUPT
 70
     0
  9
$DIMDEC
 70
     2
  9
$DIMTDEC
 70
     2
  9
$DIMALTU
 70
     2
  9
$DIMALTTD
 70
     3
  9
$DIMTXSTY
  7
Standard
  9
$DIMAUNIT
 70
     0
  9
$DIMADEC
 70
     2
  9
$DIMALTRND
 40
0.0
  9
$DIMAZIN
 70
     0
  9
$DIMDSEP
 70
    44
  9
$DIMATFIT
 70
     3
  9
$DIMFRAC
 70
     0
  9
$DIMLDRBLK
  1

  9
$DIMLUNIT
 70
     2
  9
$DIMLWD
 70
    -2
  9
$DIMLWE
 70
    -2
  9
$DIMTMOVE
 70
     0
  9
$LUNITS
 70
     2
  9
$LUPREC
 70
     2
  9
$SKETCHINC
 40
1.0
  9
$FILLETRAD
 40
10.0
  9
$AUNITS
 70
     0
  9
$AUPREC
 70
     2
  9
$MENU
  1
.
  9
$ELEVATION
 40
0.0
  9
$PELEVATION
 40
0.0
  9
$THICKNESS
 40
0.0
  9
$LIMCHECK
 70
     0
  9
$CHAMFERA
 40
0.0
  9
$CHAMFERB
 40
0.0
  9
$CHAMFERC
 40
0.0
  9
$CHAMFERD
 40
0.0
  9
$SKPOLY
 70
     0
  9
$TDCREATE
 40
2458260.586098611
  9
$TDUCREATE
 40
2458260.211098611
  9
$TDUPDATE
 40
2458268.600164121
  9
$TDUUPDATE
 40
2458268.225164121
  9
$TDINDWG
 40
0.0005146181
  9
$TDUSRTIMER
 40
2458268.224649537
  9
$USRTIMER
 70
     1
  9
$ANGBASE
 50
0.0
  9
$ANGDIR
 70
     0
  9
$PDMODE
 70
     0
  9
$PDSIZE
 40
-1.0
  9
$PLINEWID
 40
0.0
  9
$SPLFRAME
 70
     0
  9
$SPLINETYPE
 70
     6
  9
$SPLINESEGS
 70
     8
  9
$HANDSEED
  5
144
  9
$SURFTAB1
 70
     6
  9
$SURFTAB2
 70
     6
  9
$SURFTYPE
 70
     6
  9
$SURFU
 70
     6
  9
$SURFV
 70
     6
  9
$UCSBASE
  2

  9
$UCSNAME
  2

  9
$UCSORG
 10
0.0
 20
0.0
 30
0.0
  9
$UCSXDIR
 10
1.0
 20
0.0
 30
0.0
  9
$UCSYDIR
 10
0.0
 20
1.0
 30
0.0
  9
$UCSORTHOREF
  2

  9
$UCSORTHOVIEW
 70
     0
  9
$UCSORGTOP
 10
0.0
 20
0.0
 30
0.0
  9
$UCSORGBOTTOM
 10
0.0
 20
0.0
 30
0.0
  9
$UCSORGLEFT
 10
0.0
 20
0.0
 30
0.0
  9
$UCSORGRIGHT
 10
0.0
 20
0.0
 30
0.0
  9
$UCSORGFRONT
 10
0.0
 20
0.0
 30
0.0
  9
$UCSORGBACK
 10
0.0
 20
0.0
 30
0.0
  9
$PUCSBASE
  2

  9
$PUCSNAME
  2

  9
$PUCSORG
 10
0.0
 20
0.0
 30
0.0
  9
$PUCSXDIR
 10
1.0
 20
0.0
 30
0.0
  9
$PUCSYDIR
 10
0.0
 20
1.0
 30
0.0
  9
$PUCSORTHOREF
  2

  9
$PUCSORTHOVIEW
 70
     0
  9
$PUCSORGTOP
 10
0.0
 20
0.0
 30
0.0
  9
$PUCSORGBOTTOM
 10
0.0
 20
0.0
 30
0.0
  9
$PUCSORGLEFT
 10
0.0
 20
0.0
 30
0.0
  9
$PUCSORGRIGHT
 10
0.0
 20
0.0
 30
0.0
  9
$PUCSORGFRONT
 10
0.0
 20
0.0
 30
0.0
  9
$PUCSORGBACK
 10
0.0
 20
0.0
 30
0.0
  9
$USERI1
 70
     0
  9
$USERI2
 70
     0
  9
$USERI3
 70
     0
  9
$USERI4
 70
     0
  9
$USERI5
 70
     0
  9
$USERR1
 40
0.0
  9
$USERR2
 40
0.0
  9
$USERR3
 40
0.0
  9
$USERR4
 40
0.0
  9
$USERR5
 40
0.0
  9
$WORLDVIEW
 70
     1
  9
$SHADEDGE
 70
     3
  9
$SHADEDIF
 70
    70
  9
$TILEMODE
 70
     1
  9
$MAXACTVP
 70
    64
  9
$PINSBASE
 10
0.0
 20
0.0
 30
0.0
  9
$PLIMCHECK
 70
     0
  9
$PEXTMIN
 10
1.000000000000000E+20
 20
1.000000000000000E+20
 30
1.000000000000000E+20
  9
$PEXTMAX
 10
-1.000000000000000E+20
 20
-1.000000000000000E+20
 30
-1.000000000000000E+20
  9
$PLIMMIN
 10
0.0
 20
0.0
  9
$PLIMMAX
 10
0.0
 20
0.0
  9
$UNITMODE
 70
     0
  9
$VISRETAIN
 70
     1
  9
$PLINEGEN
 70
     0
  9
$PSLTSCALE
 70
     1
  9
$TREEDEPTH
 70
  3020
  9
$CMLSTYLE
  2
Standard
  9
$CMLJUST
 70
     0
  9
$CMLSCALE
 40
20.0
  9
$PROXYGRAPHICS
 70
     1
  9
$MEASUREMENT
 70
     1
  9
$CELWEIGHT
370
    -1
  9
$ENDCAPS
280
     0
  9
$JOINSTYLE
280
     0
  9
$LWDISPLAY
290
     1
  9
$INSUNITS
 70
     4
  9
$HYPERLINKBASE
  1

  9
$STYLESHEET
  1

  9
$XEDIT
290
     1
  9
$CEPSNTYPE
380
     0
  9
$PSTYLEMODE
290
     1
  9
$FINGERPRINTGUID
  2
{34A9DD63-F7F1-4A3C-9A3E-9F14CAD0CED9}
  9
$VERSIONGUID
  2
{FAEB1C32-E019-11D5-929B-00C0DF256EC4}
  9
$EXTNAMES
290
     1
  9
$PSVPSCALE
 40
0.0
  9
$OLESTARTUP
290
     0
  0
ENDSEC
  0
SECTION
  2
CLASSES
  0
CLASS
  1
ACDBDICTIONARYWDFLT
  2
AcDbDictionaryWithDefault
  3
ObjectDBX Classes
 90
        0
280
     0
281
     0
  0
CLASS
  1
VISUALSTYLE
  2
AcDbVisualStyle
  3
ObjectDBX Classes
 90
     4095
280
     0
281
     0
  0
CLASS
  1
MATERIAL
  2
AcDbMaterial
  3
ObjectDBX Classes
 90
     1153
280
     0
281
     0
  0
CLASS
  1
SCALE
  2
AcDbScale
  3
ObjectDBX Classes
 90
     1153
280
     0
281
     0
  0
CLASS
  1
TABLESTYLE
  2
AcDbTableStyle
  3
ObjectDBX Classes
 90
     4095
280
     0
281
     0
  0
CLASS
  1
MLEADERSTYLE
  2
AcDbMLeaderStyle
  3
ACDB_MLEADERSTYLE_CLASS
 90
     4095
280
     0
281
     0
  0
CLASS
  1
SUN
  2
AcDbSun
  3
SCENEOE
 90
     1153
280
     0
281
     0
  0
CLASS
  1
ACDBPLACEHOLDER
  2
AcDbPlaceHolder
  3
ObjectDBX Classes
 90
        0
280
     0
281
     0
  0
CLASS
  1
LAYOUT
  2
AcDbLayout
  3
ObjectDBX Classes
 90
        0
280
     0
281
     0
  0
CLASS
  1
RASTERVARIABLES
  2
AcDbRasterVariables
  3
ISM
 90
        0
280
     0
281
     0
  0
ENDSEC
  0
SECTION
  2
TABLES
  0
TABLE
  2
VPORT
  5
8
330
0
100
AcDbSymbolTable
 70
     1
  0
VPORT
  5
29
330
8
100
AcDbSymbolTableRecord
100
AcDbViewportTableRecord
  2
*Active
 70
     0
 10
0.0
 20
0.0
 11
1.0
 21
1.0
 12
6.671420162096283
 22
-9.103837393615052
 13
0.0
 23
0.0
 14
10.0
 24
10.0
 15
10.0
 25
10.0
 16
0.0
 26
0.0
 36
1.0
 17
0.0
 27
0.0
 37
0.0
 40
97.49141776606083
 41
1.739018087855297
 42
50.0
 43
0.0
 44
0.0
 50
0.0
 51
0.0
 71
    16
 72
  2000
 73
     1
 74
     3
 75
     0
 76
     0
 77
     0
 78
     0
281
     0
 65
     1
110
0.0
120
0.0
130
0.0
111
1.0
121
0.0
131
0.0
112
0.0
122
1.0
132
0.0
 79
     0
146
0.0
  0
ENDTAB
  0
TABLE
  2
LTYPE
  5
5
330
0
100
AcDbSymbolTable
 70
     6
  0
LTYPE
  5
14
330
5
100
AcDbSymbolTableRecord
100
AcDbLinetypeTableRecord
  2
ByBlock
 70
     0
  3

 72
    65
 73
     0
 40
0.0
  0
LTYPE
  5
15
330
5
100
AcDbSymbolTableRecord
100
AcDbLinetypeTableRecord
  2
ByLayer
 70
     0
  3

 72
    65
 73
     0
 40
0.0
  0
LTYPE
  5
16
330
5
100
AcDbSymbolTableRecord
100
AcDbLinetypeTableRecord
  2
Continuous
 70
     0
  3
Solid line
 72
    65
 73
     0
 40
0.0
  0
LTYPE
  5
6E
330
5
100
AcDbSymbolTableRecord
100
AcDbLinetypeTableRecord
  2
HIDDEN
 70
     0
  3
Hidden __ __ __ __ __ __ __ __ __ __ __ __ __ __
 72
    65
 73
     2
 40
1.905
 49
1.27
 74
     0
 49
-0.635
 74
     0
  0
LTYPE
  5
6F
330
5
100
AcDbSymbolTableRecord
100
AcDbLinetypeTableRecord
  2
PHANTOM
 70
     0
  3
Phantom ______  __  __  ______  __  __  ______
 72
    65
 73
     6
 40
12.7
 49
6.35
 74
     0
 49
-1.27
 74
     0
 49
1.27
 74
     0
 49
-1.27
 74
     0
 49
1.27
 74
     0
 49
-1.27
 74
     0
  0
LTYPE
  5
70
330
5
100
AcDbSymbolTableRecord
100
AcDbLinetypeTableRecord
  2
CENTER
 70
     0
  3
Center ____ _ ____ _ ____ _ ____ _ ____ _ ____
 72
    65
 73
     4
 40
10.16
 49
6.35
 74
     0
 49
-1.27
 74
     0
 49
1.27
 74
     0
 49
-1.27
 74
     0
  0
LTYPE
  5
71
330
5
100
AcDbSymbolTableRecord
100
AcDbLinetypeTableRecord
  2
CENTERX2
 70
     0
  3
Center (2x) ________  __  ________  __  _____
 72
    65
 73
     4
 40
20.32
 49
12.7
 74
     0
 49
-2.54
 74
     0
 49
2.54
 74
     0
 49
-2.54
 74
     0
  0
LTYPE
  5
72
330
5
100
AcDbSymbolTableRecord
100
AcDbLinetypeTableRecord
  2
DOT2
 70
     0
  3
Dot (.5x) ........................................
 72
    65
 73
     2
 40
0.635
 49
0.0
 74
     0
 49
-0.635
 74
     0
  0
ENDTAB
  0
TABLE
  2
LAYER
  5
2
330
0
100
AcDbSymbolTable
 70
    17
  0
LAYER
  5
10
330
2
100
AcDbSymbolTableRecord
100
AcDbLayerTableRecord
  2
0
 70
     0
 62
     7
  6
Continuous
370
    -3
390
F
  0
LAYER
  5
73
330
2
100
AcDbSymbolTableRecord
100
AcDbLayerTableRecord
  2
FORMAT
 70
     0
 62
     2
  6
Continuous
370
    -3
390
F
  0
LAYER
  5
74
330
2
100
AcDbSymbolTableRecord
100
AcDbLayerTableRecord
  2
외형선
 70
     0
 62
   100
  6
Continuous
370
    35
390
F
  0
LAYER
  5
75
330
2
100
AcDbSymbolTableRecord
100
AcDbLayerTableRecord
  2
숨은선
 70
     0
 62
     2
  6
HIDDEN
370
    25
390
F
  0
LAYER
  5
76
330
2
100
AcDbSymbolTableRecord
100
AcDbLayerTableRecord
  2
중심선
 70
     0
 62
     1
  6
CENTERX2
370
    -3
390
F
  0
LAYER
  5
77
330
2
100
AcDbSymbolTableRecord
100
AcDbLayerTableRecord
  2
파단선
 70
     0
 62
     4
  6
Continuous
370
    -3
390
F
  0
LAYER
  5
78
330
2
100
AcDbSymbolTableRecord
100
AcDbLayerTableRecord
  2
해칭선
 70
     0
 62
   100
  6
Continuous
370
    -3
390
F
  0
LAYER
  5
79
330
2
100
AcDbSymbolTableRecord
100
AcDbLayerTableRecord
  2
가는실선
 70
     0
 62
     4
  6
Continuous
370
    -3
390
F
  0
LAYER
  5
7A
330
2
100
AcDbSymbolTableRecord
100
AcDbLayerTableRecord
  2
치수_보조선
 70
     0
 62
     4
  6
Continuous
370
    -3
390
F
  0
LAYER
  5
7B
330
2
100
AcDbSymbolTableRecord
100
AcDbLayerTableRecord
  2
치수문자_일반주서
 70
     0
 62
     7
  6
Continuous
370
    25
390
F
  0
LAYER
  5
7C
330
2
100
AcDbSymbolTableRecord
100
AcDbLayerTableRecord
  2
개별주서
 70
     0
 62
   100
  6
Continuous
370
    35
390
F
  0
LAYER
  5
7D
330
2
100
AcDbSymbolTableRecord
100
AcDbLayerTableRecord
  2
중간선
 70
     0
 62
     2
  6
Continuous
370
    25
390
F
  0
LAYER
  5
7E
330
2
100
AcDbSymbolTableRecord
100
AcDbLayerTableRecord
  2
윤곽선
 70
     0
 62
     3
  6
Continuous
370
    50
390
F
  0
LAYER
  5
7F
330
2
100
AcDbSymbolTableRecord
100
AcDbLayerTableRecord
  2
중심마크
 70
     0
 62
   100
  6
Continuous
370
    35
390
F
  0
LAYER
  5
80
330
2
100
AcDbSymbolTableRecord
100
AcDbLayerTableRecord
  2
가상선
 70
     0
 62
     4
  6
PHANTOM
370
    -3
390
F
  0
LAYER
  5
81
330
2
100
AcDbSymbolTableRecord
100
AcDbLayerTableRecord
  2
특수지정선
 70
     0
 62
     5
  6
CENTERX2
370
    70
390
F
  0
LAYER
  5
135
330
2
100
AcDbSymbolTableRecord
100
AcDbLayerTableRecord
  2
Defpoints
 70
     0
 62
     7
  6
Continuous
290
     0
370
    -3
390
F
  0
ENDTAB
  0
TABLE
  2
STYLE
  5
3
330
0
100
AcDbSymbolTable
 70
     2
  0
STYLE
  5
11
330
3
100
AcDbSymbolTableRecord
100
AcDbTextStyleTableRecord
  2
Standard
 70
     0
 40
0.0
 41
1.0
 50
0.0
 71
     0
 42
3.5
  3
txt
  4

  0
STYLE
  5
97
330
3
100
AcDbSymbolTableRecord
100
AcDbTextStyleTableRecord
  2
SLDTEXTSTYLE0
 70
     0
 40
0.0
 41
0.75
 50
0.0
 71
     0
 42
3.5
  3
TXT
  4

  0
ENDTAB
  0
TABLE
  2
VIEW
  5
6
330
0
100
AcDbSymbolTable
 70
     0
  0
ENDTAB
  0
TABLE
  2
UCS
  5
7
330
0
100
AcDbSymbolTable
 70
     0
  0
ENDTAB
  0
TABLE
  2
APPID
  5
9
330
0
100
AcDbSymbolTable
 70
     1
  0
APPID
  5
12
330
9
100
AcDbSymbolTableRecord
100
AcDbRegAppTableRecord
  2
ACAD
 70
     0
  0
ENDTAB
  0
TABLE
  2
DIMSTYLE
  5
A
330
0
100
AcDbSymbolTable
 70
     4
100
AcDbDimStyleTable
  0
DIMSTYLE
105
27
330
A
100
AcDbSymbolTableRecord
100
AcDbDimStyleTableRecord
  2
ISO-25
 70
     0
 41
2.5
 42
0.625
 43
3.75
 44
1.25
 73
     0
 74
     0
 77
     1
 78
     8
140
2.5
141
2.5
143
0.03937007874016
147
0.625
171
     3
172
     1
178
     0
271
     2
272
     2
274
     3
278
    44
283
     0
284
     8
340
11
  0
DIMSTYLE
105
DA
102
{ACAD_REACTORS
330
D9
102
}
330
A
100
AcDbSymbolTableRecord
100
AcDbDimStyleTableRecord
  2
SLDDIMSTYLE0
 70
     0
 41
3.302
 44
0.0
 45
0.000000001
 73
     0
 74
     0
 77
     1
 78
    12
 79
     3
140
3.5
147
0.875
172
     1
173
     1
178
     0
271
     1
272
     1
276
     2
284
    12
289
     0
340
97
  0
DIMSTYLE
105
E8
102
{ACAD_REACTORS
330
E7
330
100
102
}
330
A
100
AcDbSymbolTableRecord
100
AcDbDimStyleTableRecord
  2
SLDDIMSTYLE1
 70
     0
 41
3.302
 44
0.0
 45
0.000000001
 73
     0
 74
     0
 77
     1
 78
    12
 79
     3
140
3.5
147
0.875
173
     1
178
     0
271
     2
272
     2
276
     2
284
    12
340
97
  0
DIMSTYLE
105
F3
102
{ACAD_REACTORS
330
F2
102
}
330
A
100
AcDbSymbolTableRecord
100
AcDbDimStyleTableRecord
  2
SLDDIMSTYLE2
 70
     0
 41
3.302
 44
0.0
 45
0.000000001
 73
     0
 74
     0
 77
     1
 78
    12
 79
     3
140
3.5
147
0.875
172
     1
173
     1
178
     0
271
     2
272
     2
276
     2
284
    12
289
     0
340
97
  0
ENDTAB
  0
TABLE
  2
BLOCK_RECORD
  5
1
330
0
100
AcDbSymbolTable
 70
     7
  0
BLOCK_RECORD
  5
1F
330
1
100
AcDbSymbolTableRecord
100
AcDbBlockTableRecord
  2
*Model_Space
340
22
  0
BLOCK_RECORD
  5
1B
330
1
100
AcDbSymbolTableRecord
100
AcDbBlockTableRecord
  2
*Paper_Space
340
1E
  0
BLOCK_RECORD
  5
23
330
1
100
AcDbSymbolTableRecord
100
AcDbBlockTableRecord
  2
*Paper_Space0
340
26
  0
BLOCK_RECORD
  5
82
330
1
100
AcDbSymbolTableRecord
100
AcDbBlockTableRecord
  2
블럭10
340
0
102
{BLKREFS
331
D2
102
}
  0
BLOCK_RECORD
  5
DB
330
1
100
AcDbSymbolTableRecord
100
AcDbBlockTableRecord
  2
_D
340
0
  0
BLOCK_RECORD
  5
E9
330
1
100
AcDbSymbolTableRecord
100
AcDbBlockTableRecord
  2
_D_1
340
0
  0
BLOCK_RECORD
  5
F4
330
1
100
AcDbSymbolTableRecord
100
AcDbBlockTableRecord
  2
_D_2
340
0
  0
BLOCK_RECORD
  5
101
330
1
100
AcDbSymbolTableRecord
100
AcDbBlockTableRecord
  2
_D_3
340
0
  0
BLOCK_RECORD
  5
10A
330
1
100
AcDbSymbolTableRecord
100
AcDbBlockTableRecord
  2
SW_DOWELSYMBOL_0
340
0
102
{BLKREFS
331
110
102
}
  0
ENDTAB
  0
ENDSEC
  0
SECTION
  2
BLOCKS
  0
BLOCK
  5
20
330
1F
100
AcDbEntity
  8
0
100
AcDbBlockBegin
  2
*Model_Space
 70
     0
 10
0.0
 20
0.0
 30
0.0
  3
*Model_Space
  1

  0
ENDBLK
  5
21
330
1F
100
AcDbEntity
  8
0
100
AcDbBlockEnd
  0
BLOCK
  5
1C
330
1B
100
AcDbEntity
 67
     1
  8
0
100
AcDbBlockBegin
  2
*Paper_Space
 70
     0
 10
0.0
 20
0.0
 30
0.0
  3
*Paper_Space
  1

  0
ENDBLK
  5
1D
330
1B
100
AcDbEntity
 67
     1
  8
0
100
AcDbBlockEnd
  0
BLOCK
  5
24
330
23
100
AcDbEntity
  8
0
100
AcDbBlockBegin
  2
*Paper_Space0
 70
     0
 10
0.0
 20
0.0
 30
0.0
  3
*Paper_Space0
  1

  0
ENDBLK
  5
25
330
23
100
AcDbEntity
  8
0
100
AcDbBlockEnd
  0
BLOCK
  5
83
330
82
100
AcDbEntity
  8
0
100
AcDbBlockBegin
  2
블럭10
 70
     2
 10
0.0
 20
0.0
 30
0.0
  3
블럭10
  1

  0
ELLIPSE
  5
85
330
82
100
AcDbEntity
  8
중심선
100
AcDbEllipse
 10
20.54032771741204
 20
12.0471743016438
 30
0.0
 11
6.600054785286829
 21
-1.261213355974178E-13
 31
0.0
210
0.0
220
0.0
230
1.0
 40
0.636358354079598
 41
0.9219305317359503
 42
6.513795318482858
  0
ELLIPSE
  5
86
330
82
100
AcDbEntity
  8
중심선
100
AcDbEllipse
 10
20.54032771746488
 20
12.04717430159265
 30
0.0
 11
3.960054785062283
 21
1.540847449632565E-10
 31
0.0
210
0.0
220
0.0
230
1.0
 40
0.3939339440162632
 41
1.131841032648279
 42
5.62031148352944
  0
LINE
  5
87
330
82
100
AcDbEntity
  8
중심선
100
AcDbLine
 10
2.268634060543552
 20
16.24717430164393
 30
0.0
 11
5.714909304380834
 21
16.24717430164393
 31
0.0
  0
LINE
  5
88
330
82
100
AcDbEntity
  8
중심선
100
AcDbLine
 10
5.245725140726316
 20
7.84717430164391
 30
0.0
 11
8.692000384563599
 21
7.84717430164391
 31
0.0
  0
LINE
  5
89
330
82
100
AcDbEntity
  8
중심선
100
AcDbLine
 10
15.74043728645272
 20
16.24717430164393
 30
0.0
 11
8.692000384563599
 21
7.84717430164391
 31
0.0
  0
LINE
  5
8A
330
82
100
AcDbEntity
  8
중심선
100
AcDbLine
 10
0.1404042013395286
 20
13.71084872107135
 30
0.0
 11
3.58671253028996
 21
13.71088815037384
 31
0.0
  0
LINE
  5
8B
330
82
100
AcDbEntity
  8
중심선
100
AcDbLine
 10
2.750260043222114
 20
10.84717430164391
 30
0.0
 11
6.196535287059397
 21
10.84717430164391
 31
0.0
  0
LINE
  5
8C
330
82
100
AcDbEntity
  8
중심선
100
AcDbLine
 10
12.29416204261559
 20
16.24717430164393
 30
0.0
 11
5.245725140726316
 21
7.84717430164391
 31
0.0
  0
LINE
  5
8D
330
82
100
AcDbEntity
  8
중심선
100
AcDbLine
 10
10.72767329541681
 20
16.24717430164393
 30
0.0
 11
6.196535287059397
 21
10.84717430164391
 31
0.0
  0
LINE
  5
8E
330
82
100
AcDbEntity
  8
중심선
100
AcDbLine
 10
7.28139805157953
 20
16.24717430164393
 30
0.0
 11
2.750260043222114
 21
10.84717430164391
 31
0.0
  0
LINE
  5
8F
330
82
100
AcDbEntity
  8
중심선
100
AcDbLine
 10
5.714909304380834
 20
16.24717430164393
 30
0.0
 11
3.58671253028996
 21
13.71088815037384
 31
0.0
  0
LINE
  5
90
330
82
100
AcDbEntity
  8
중심선
100
AcDbLine
 10
2.268634060543552
 20
16.24717430164393
 30
0.0
 11
0.1404042013395286
 21
13.71084872107135
 31
0.0
  0
LINE
  5
91
330
82
100
AcDbEntity
  8
중심선
100
AcDbLine
 10
7.28139805157953
 20
16.24717430164393
 30
0.0
 11
10.72767329541681
 21
16.24717430164393
 31
0.0
  0
LINE
  5
92
330
82
100
AcDbEntity
  8
중심선
100
AcDbLine
 10
12.29416204261559
 20
16.24717430164393
 30
0.0
 11
15.74043728645272
 21
16.24717430164393
 31
0.0
  0
LINE
  5
93
330
82
100
AcDbEntity
  8
중심선
100
AcDbLine
 10
19.22036997980202
 20
11.08717430171403
 30
0.0
 11
23.66174974927406
 21
11.08717430171406
 31
0.0
  0
LINE
  5
94
330
82
100
AcDbEntity
  8
중심선
100
AcDbLine
 10
19.22039502424796
 20
13.00717430171391
 30
0.0
 11
19.22036997980202
 21
11.08717430171403
 31
0.0
  0
LINE
  5
95
330
82
100
AcDbEntity
  8
중심선
100
AcDbLine
 10
19.22039502424796
 20
13.00717430171391
 30
0.0
 11
26.96566020931264
 21
13.00717430171391
 31
0.0
  0
LINE
  5
96
330
82
100
AcDbEntity
  8
중심선
100
AcDbLine
 10
22.22332737316547
 20
13.45928029700563
 30
0.0
 11
24.52862924686651
 21
15.39360700705356
 31
0.0
  0
ATTDEF
  5
98
330
82
100
AcDbEntity
  8
FORMAT
 62
     2
100
AcDbText
 10
-16.11926103943555
 20
2.075366912832191
 30
0.0
 40
4.233333333333333
  1
SEME7220060E [ 4 FLUTE ]
 41
0.75
  7
SLDTEXTSTYLE0
 11
-16.11926103943555
 21
-0.0412997538344756
 31
0.0
100
AcDbAttributeDefinition
  3

  2
AUTOATTR0
 70
     0
 74
     1
  0
ENDBLK
  5
84
330
82
100
AcDbEntity
  8
0
100
AcDbBlockEnd
  0
BLOCK
  5
DC
330
DB
100
AcDbEntity
  8
0
100
AcDbBlockBegin
  2
_D
 70
     0
 10
0.0
 20
0.0
 30
0.0
  3
_D
  1

  0
LINE
  5
DE
330
DB
100
AcDbEntity
  8
치수문자_일반주서
 62
     0
370
    -2
100
AcDbLine
 10
72.06250000000003
 20
-10.00000000000001
 30
0.0
 11
89.2286059002517
 21
-9.99999999999995
 31
0.0
  0
LINE
  5
DF
330
DB
100
AcDbEntity
  8
치수문자_일반주서
 62
     0
370
    -2
100
AcDbLine
 10
72.06250000000003
 20
10.0
 30
0.0
 11
89.22860590025162
 21
10.00000000000007
 31
0.0
  0
LINE
  5
E0
330
DB
100
AcDbEntity
  8
치수문자_일반주서
 62
     0
370
    -2
100
AcDbLine
 10
89.2286059002517
 20
-9.99999999999995
 30
0.0
 11
89.22860590025157
 21
24.91650000000007
 31
0.0
  0
LINE
  5
E1
330
DB
100
AcDbEntity
  8
치수문자_일반주서
 62
     0
370
    -2
100
AcDbLine
 10
89.2286059002517
 20
-9.99999999999995
 30
0.0
 11
89.22860590025162
 21
10.00000000000007
 31
0.0
  0
LINE
  5
E2
330
DB
100
AcDbEntity
  8
치수문자_일반주서
 62
     0
370
    -2
100
AcDbLine
 10
89.22860590025171
 20
-13.30199999999995
 30
0.0
 11
89.22860590025172
 21
-16.60399999999995
 31
0.0
  0
LINE
  5
E3
330
DB
100
AcDbEntity
  8
치수문자_일반주서
 62
     0
370
    -2
100
AcDbLine
 10
89.22860590025161
 20
13.30200000000007
 30
0.0
 11
89.2286059002516
 21
16.60400000000007
 31
0.0
  0
SOLID
  5
E4
330
DB
100
AcDbEntity
  8
치수문자_일반주서
 62
     0
100
AcDbTrace
 10
89.77893923358504
 20
-13.30199999999995
 30
0.0
 11
88.67827256691838
 21
-13.30199999999995
 31
0.0
 12
89.2286059002517
 22
-9.99999999999995
 32
0.0
 13
89.2286059002517
 23
-9.99999999999995
 33
0.0
  0
SOLID
  5
E5
330
DB
100
AcDbEntity
  8
치수문자_일반주서
 62
     0
100
AcDbTrace
 10
88.67827256691828
 20
13.30200000000007
 30
0.0
 11
89.77893923358494
 21
13.30200000000007
 31
0.0
 12
89.22860590025162
 22
10.00000000000007
 32
0.0
 13
89.22860590025162
 23
10.00000000000007
 33
0.0
  0
MTEXT
  5
E6
330
DB
100
AcDbEntity
  8
치수문자_일반주서
 62
     0
100
AcDbMText
 10
84.85360590025158
 20
20.76025000000005
 30
0.0
 40
3.5
 41
0.0
 71
     2
 72
     1
  1
\A1;%%c20
  7
SLDTEXTSTYLE0
 11
-3.552713678800498E-15
 21
1.0
 31
0.0
 73
     1
 44
1.0
  0
POINT
  5
13F
330
DB
100
AcDbEntity
  8
Defpoints
 62
     0
100
AcDbPoint
 10
72.00000000000003
 20
-10.00000000000001
 30
0.0
  0
POINT
  5
140
330
DB
100
AcDbEntity
  8
Defpoints
 62
     0
100
AcDbPoint
 10
72.00000000000003
 20
10.0
 30
0.0
  0
POINT
  5
141
330
DB
100
AcDbEntity
  8
Defpoints
 62
     0
100
AcDbPoint
 10
89.22860590025161
 20
10.00000000000007
 30
0.0
  0
ENDBLK
  5
DD
330
DB
100
AcDbEntity
  8
0
100
AcDbBlockEnd
  0
BLOCK
  5
EA
330
E9
100
AcDbEntity
  8
0
100
AcDbBlockBegin
  2
_D_1
 70
     0
 10
0.0
 20
0.0
 30
0.0
  3
_D_1
  1

  0
LINE
  5
EC
330
E9
100
AcDbEntity
  8
치수문자_일반주서
 62
     0
370
    -2
100
AcDbLine
 10
-58.0
 20
9.562499999999986
 30
0.0
 11
-57.99999999999999
 21
27.38913260158164
 31
0.0
  0
LINE
  5
ED
330
E9
100
AcDbEntity
  8
치수문자_일반주서
 62
     0
370
    -2
100
AcDbLine
 10
72.00000000000003
 20
-0.4375000000000009
 30
0.0
 11
72.00000000000003
 21
27.38913260158164
 31
0.0
  0
LINE
  5
EE
330
E9
100
AcDbEntity
  8
치수문자_일반주서
 62
     0
370
    -2
100
AcDbLine
 10
-54.69799999999999
 20
27.38913260158164
 30
0.0
 11
68.69800000000004
 21
27.38913260158164
 31
0.0
  0
SOLID
  5
EF
330
E9
100
AcDbEntity
  8
치수문자_일반주서
 62
     0
100
AcDbTrace
 10
-54.69799999999999
 20
27.93946593491497
 30
0.0
 11
-54.69799999999999
 21
26.8387992682483
 31
0.0
 12
-57.99999999999999
 22
27.38913260158164
 32
0.0
 13
-57.99999999999999
 23
27.38913260158164
 33
0.0
  0
SOLID
  5
F0
330
E9
100
AcDbEntity
  8
치수문자_일반주서
 62
     0
100
AcDbTrace
 10
68.69800000000004
 20
26.8387992682483
 30
0.0
 11
68.69800000000004
 21
27.93946593491497
 31
0.0
 12
72.00000000000003
 22
27.38913260158164
 32
0.0
 13
72.00000000000003
 23
27.38913260158164
 33
0.0
  0
MTEXT
  5
F1
330
E9
100
AcDbEntity
  8
치수문자_일반주서
 62
     0
100
AcDbMText
 10
7.000000000000006
 20
31.76413260158164
 30
0.0
 40
3.5
 41
0.0
 71
     2
 72
     1
  1
\A1;130
  7
SLDTEXTSTYLE0
 73
     1
 44
1.0
  0
POINT
  5
136
330
E9
100
AcDbEntity
  8
Defpoints
 62
     0
100
AcDbPoint
 10
-58.0
 20
9.499999999999986
 30
0.0
  0
POINT
  5
137
330
E9
100
AcDbEntity
  8
Defpoints
 62
     0
100
AcDbPoint
 10
72.00000000000003
 20
-0.5000000000000009
 30
0.0
  0
POINT
  5
138
330
E9
100
AcDbEntity
  8
Defpoints
 62
     0
100
AcDbPoint
 10
72.00000000000003
 20
27.38913260158163
 30
0.0
  0
ENDBLK
  5
EB
330
E9
100
AcDbEntity
  8
0
100
AcDbBlockEnd
  0
BLOCK
  5
F5
330
F4
100
AcDbEntity
  8
0
100
AcDbBlockBegin
  2
_D_2
 70
     0
 10
0.0
 20
0.0
 30
0.0
  3
_D_2
  1

  0
LINE
  5
F7
330
F4
100
AcDbEntity
  8
치수문자_일반주서
 62
     0
370
    -2
100
AcDbLine
 10
-57.5625
 20
10.0
 30
0.0
 11
-72.06109890939241
 21
9.999999999999948
 31
0.0
  0
LINE
  5
F8
330
F4
100
AcDbEntity
  8
치수문자_일반주서
 62
     0
370
    -2
100
AcDbLine
 10
-57.5625
 20
-10.00000000000001
 30
0.0
 11
-72.06109890939234
 21
-10.00000000000007
 31
0.0
  0
LINE
  5
F9
330
F4
100
AcDbEntity
  8
치수문자_일반주서
 62
     0
370
    -2
100
AcDbLine
 10
-72.06109890939241
 20
9.999999999999948
 30
0.0
 11
-72.06109890939247
 21
24.91649999999995
 31
0.0
  0
LINE
  5
FA
330
F4
100
AcDbEntity
  8
치수문자_일반주서
 62
     0
370
    -2
100
AcDbLine
 10
-72.06109890939241
 20
9.999999999999948
 30
0.0
 11
-72.06109890939234
 21
-10.00000000000007
 31
0.0
  0
LINE
  5
FB
330
F4
100
AcDbEntity
  8
치수문자_일반주서
 62
     0
370
    -2
100
AcDbLine
 10
-72.06109890939243
 20
13.30199999999995
 30
0.0
 11
-72.06109890939244
 21
16.60399999999995
 31
0.0
  0
LINE
  5
FC
330
F4
100
AcDbEntity
  8
치수문자_일반주서
 62
     0
370
    -2
100
AcDbLine
 10
-72.06109890939233
 20
-13.30200000000007
 30
0.0
 11
-72.06109890939231
 21
-16.60400000000007
 31
0.0
  0
SOLID
  5
FD
330
F4
100
AcDbEntity
  8
치수문자_일반주서
 62
     0
100
AcDbTrace
 10
-72.61143224272575
 20
13.30199999999995
 30
0.0
 11
-71.5107655760591
 21
13.30199999999995
 31
0.0
 12
-72.06109890939241
 22
9.999999999999948
 32
0.0
 13
-72.06109890939241
 23
9.999999999999948
 33
0.0
  0
SOLID
  5
FE
330
F4
100
AcDbEntity
  8
치수문자_일반주서
 62
     0
100
AcDbTrace
 10
-71.510765576059
 20
-13.30200000000007
 30
0.0
 11
-72.61143224272566
 21
-13.30200000000007
 31
0.0
 12
-72.06109890939234
 22
-10.00000000000007
 32
0.0
 13
-72.06109890939234
 23
-10.00000000000007
 33
0.0
  0
MTEXT
  5
FF
330
F4
100
AcDbEntity
  8
치수문자_일반주서
 62
     0
100
AcDbMText
 10
-76.43609890939246
 20
20.76024999999993
 30
0.0
 40
3.5
 41
0.0
 71
     2
 72
     1
  1
\A1;%%c20
  7
SLDTEXTSTYLE0
 11
-3.552713678800498E-15
 21
1.0
 31
0.0
 73
     1
 44
1.0
  0
POINT
  5
13C
330
F4
100
AcDbEntity
  8
Defpoints
 62
     0
100
AcDbPoint
 10
-57.5
 20
10.0
 30
0.0
  0
POINT
  5
13D
330
F4
100
AcDbEntity
  8
Defpoints
 62
     0
100
AcDbPoint
 10
-57.5
 20
-10.00000000000001
 30
0.0
  0
POINT
  5
13E
330
F4
100
AcDbEntity
  8
Defpoints
 62
     0
100
AcDbPoint
 10
-72.06109890939231
 20
-10.00000000000007
 30
0.0
  0
ENDBLK
  5
F6
330
F4
100
AcDbEntity
  8
0
100
AcDbBlockEnd
  0
BLOCK
  5
102
330
101
100
AcDbEntity
  8
0
100
AcDbBlockBegin
  2
_D_3
 70
     0
 10
0.0
 20
0.0
 30
0.0
  3
_D_3
  1

  0
LINE
  5
104
330
101
100
AcDbEntity
  8
치수문자_일반주서
 62
     0
370
    -2
100
AcDbLine
 10
12.00000000000001
 20
10.05697985920705
 30
0.0
 11
12.00000000000001
 21
20.84039816179469
 31
0.0
  0
LINE
  5
105
330
101
100
AcDbEntity
  8
치수문자_일반주서
 62
     0
370
    -2
100
AcDbLine
 10
72.00000000000003
 20
-0.4375000000000009
 30
0.0
 11
72.00000000000003
 21
20.84039816179469
 31
0.0
  0
LINE
  5
106
330
101
100
AcDbEntity
  8
치수문자_일반주서
 62
     0
370
    -2
100
AcDbLine
 10
15.30200000000001
 20
20.84039816179469
 30
0.0
 11
68.69800000000004
 21
20.84039816179469
 31
0.0
  0
SOLID
  5
107
330
101
100
AcDbEntity
  8
치수문자_일반주서
 62
     0
100
AcDbTrace
 10
15.30200000000001
 20
21.39073149512803
 30
0.0
 11
15.30200000000001
 21
20.29006482846136
 31
0.0
 12
12.00000000000001
 22
20.84039816179469
 32
0.0
 13
12.00000000000001
 23
20.84039816179469
 33
0.0
  0
SOLID
  5
108
330
101
100
AcDbEntity
  8
치수문자_일반주서
 62
     0
100
AcDbTrace
 10
68.69800000000004
 20
20.29006482846136
 30
0.0
 11
68.69800000000004
 21
21.39073149512803
 31
0.0
 12
72.00000000000003
 22
20.84039816179469
 32
0.0
 13
72.00000000000003
 23
20.84039816179469
 33
0.0
  0
MTEXT
  5
109
330
101
100
AcDbEntity
  8
치수문자_일반주서
 62
     0
100
AcDbMText
 10
42.0
 20
25.21539816179469
 30
0.0
 40
3.5
 41
0.0
 71
     2
 72
     1
  1
\A1;60
  7
SLDTEXTSTYLE0
 73
     1
 44
1.0
  0
POINT
  5
139
330
101
100
AcDbEntity
  8
Defpoints
 62
     0
100
AcDbPoint
 10
12.00000000000001
 20
9.994479859207045
 30
0.0
  0
POINT
  5
13A
330
101
100
AcDbEntity
  8
Defpoints
 62
     0
100
AcDbPoint
 10
72.00000000000003
 20
-0.5000000000000009
 30
0.0
  0
POINT
  5
13B
330
101
100
AcDbEntity
  8
Defpoints
 62
     0
100
AcDbPoint
 10
72.00000000000003
 20
20.84039816179469
 30
0.0
  0
ENDBLK
  5
103
330
101
100
AcDbEntity
  8
0
100
AcDbBlockEnd
  0
BLOCK
  5
10B
330
10A
100
AcDbEntity
  8
0
100
AcDbBlockBegin
  2
SW_DOWELSYMBOL_0
 70
     0
 10
0.0
 20
0.0
 30
0.0
  3
SW_DOWELSYMBOL_0
  1

  0
CIRCLE
  5
10D
330
10A
100
AcDbEntity
  8
해칭선
 62
     0
100
AcDbCircle
 10
0.0
 20
0.0
 30
0.0
 40
3.0
  0
HATCH
  5
10E
330
10A
100
AcDbEntity
  8
0
  6
Continuous
 62
     0
370
    18
100
AcDbHatch
 10
0.0
 20
0.0
 30
0.0
210
0.0
220
0.0
230
1.0
  2
SOLID
 70
     1
 71
     0
 91
        1
 92
        0
 93
        3
 72
     2
 10
0.0
 20
0.0
 40
3.0
 50
0.0
 51
90.0
 73
     1
 72
     1
 10
0.0
 20
3.0
 11
0.0
 21
0.0
 72
     1
 10
0.0
 20
0.0
 11
3.0
 21
0.0
 97
        0
 75
     0
 76
     1
 98
        1
 10
0.0
 20
0.0
  0
HATCH
  5
10F
330
10A
100
AcDbEntity
  8
0
  6
Continuous
 62
     0
370
    18
100
AcDbHatch
 10
0.0
 20
0.0
 30
0.0
210
0.0
220
0.0
230
1.0
  2
SOLID
 70
     1
 71
     0
 91
        1
 92
        0
 93
        3
 72
     2
 10
0.0
 20
0.0
 40
3.0
 50
180.0
 51
270.0000000000008
 73
     1
 72
     1
 10
0.0
 20
-3.0
 11
0.0
 21
0.0
 72
     1
 10
0.0
 20
0.0
 11
-3.0
 21
0.0
 97
        0
 75
     0
 76
     1
 98
        1
 10
0.0
 20
0.0
  0
ENDBLK
  5
10C
330
10A
100
AcDbEntity
  8
0
100
AcDbBlockEnd
  0
ENDSEC
  0
SECTION
  2
ENTITIES
  0
LINE
  5
99
330
1F
100
AcDbEntity
  8
0
  6
Continuous
 62
     4
370
    25
100
AcDbLine
 10
11.34424019087886
 20
9.999999999999996
 30
0.0
 11
-57.5
 21
9.999999999999993
 31
0.0
  0
LINE
  5
9A
330
1F
100
AcDbEntity
  8
0
  6
Continuous
 62
     4
370
    25
100
AcDbLine
 10
-57.5
 20
-10.00000000000001
 30
0.0
 11
11.34424019087884
 21
-10.0
 31
0.0
  0
LINE
  5
9B
330
1F
100
AcDbEntity
  8
0
  6
Continuous
 62
     4
370
    25
100
AcDbLine
 10
-57.5
 20
9.99999999999999
 30
0.0
 11
-58.0
 21
9.499999999999986
 31
0.0
  0
LINE
  5
9C
330
1F
100
AcDbEntity
  8
0
  6
Continuous
 62
     4
370
    25
100
AcDbLine
 10
-58.0
 20
-9.500000000000004
 30
0.0
 11
-57.5
 21
-10.0
 31
0.0
  0
LINE
  5
9D
330
1F
100
AcDbEntity
  8
0
  6
Continuous
 62
     1
370
    25
100
AcDbLine
 10
68.1320416682415
 20
-10.00000000000001
 30
0.0
 11
72.00000000000003
 21
-10.00000000000001
 31
0.0
  0
LINE
  5
9E
330
1F
100
AcDbEntity
  8
0
  6
Continuous
 62
     1
370
    25
100
AcDbLine
 10
21.45387441427578
 20
10.0
 30
0.0
 11
13.71723111642318
 21
10.0
 31
0.0
  0
LINE
  5
9F
330
1F
100
AcDbEntity
  8
0
  6
Continuous
 62
     1
370
    25
100
AcDbLine
 10
46.10632795942562
 20
1.46838593113847
 30
0.0
 11
46.17875211324623
 21
1.428605763208376
 31
0.0
  0
LINE
  5
A0
330
1F
100
AcDbEntity
  8
0
  6
Continuous
 62
     1
370
    25
100
AcDbLine
 10
45.86895772708409
 20
1.59876546898629
 30
0.0
 11
46.02659296173201
 21
1.512181701345375
 31
0.0
  0
LINE
  5
A1
330
1F
100
AcDbEntity
  8
0
  6
Continuous
 62
     1
370
    25
100
AcDbLine
 10
48.66021859091349
 20
10.0
 30
0.0
 11
40.92588707644571
 21
10.0
 31
0.0
  0
LINE
  5
A2
330
1F
100
AcDbEntity
  8
0
  6
Continuous
 62
     1
370
    25
100
AcDbLine
 10
40.92588707644561
 20
-10.00000000000001
 30
0.0
 11
48.66021859091347
 21
-10.00000000000001
 31
0.0
  0
LINE
  5
A3
330
1F
100
AcDbEntity
  8
0
  6
Continuous
 62
     1
370
    25
100
AcDbLine
 10
16.44411727854809
 20
-1.561709197795214
 30
0.0
 11
16.2009510663592
 21
-1.428536668695136
 31
0.0
  0
LINE
  5
A4
330
1F
100
AcDbEntity
  8
0
  6
Continuous
 62
     1
370
    25
100
AcDbLine
 10
13.71723111642324
 20
-10.00000000000001
 30
0.0
 11
21.45387441427569
 21
-10.00000000000001
 31
0.0
  0
LINE
  5
A5
330
1F
100
AcDbEntity
  8
0
  6
Continuous
 62
     1
370
    25
100
AcDbLine
 10
72.00000000000003
 20
10.0
 30
0.0
 11
68.13204166824153
 21
10.0
 31
0.0
  0
SPLINE
  5
A6
330
1F
100
AcDbEntity
  8
0
  6
Continuous
 62
     4
370
    25
100
AcDbSpline
210
0.0
220
0.0
230
1.0
 70
     8
 71
     3
 72
    14
 73
    10
 74
     0
 42
0.000000001
 43
0.00000001
 40
0.0
 40
0.0
 40
0.0
 40
0.0
 40
0.25
 40
0.25
 40
0.5
 40
0.5
 40
0.75
 40
0.75
 40
1.0
 40
1.0
 40
1.0
 40
1.0
 10
11.50695244714474
 20
-8.395916289724584
 30
0.0
 10
11.34929863915421
 20
-8.346407574170318
 30
0.0
 10
11.20764562163931
 20
-8.285432192534964
 30
0.0
 10
10.95539909906293
 20
-8.138061601260189
 30
0.0
 10
10.84673875399148
 20
-8.052013560023141
 30
0.0
 10
10.67354544099134
 20
-7.861267123888591
 30
0.0
 10
10.60726854615414
 20
-7.75424563052018
 30
0.0
 10
10.52127065696155
 20
-7.529112117301971
 30
0.0
 10
10.50020121881556
 20
-7.408930078259478
 30
0.0
 10
10.50020121881556
 20
-7.284301087036613
 30
0.0
  0
SPLINE
  5
A7
330
1F
100
AcDbEntity
  8
0
  6
Continuous
 62
     4
370
    25
100
AcDbSpline
210
0.0
220
0.0
230
1.0
 70
     8
 71
     3
 72
    16
 73
    12
 74
     0
 42
0.000000001
 43
0.00000001
 40
0.0
 40
0.0
 40
0.0
 40
0.0
 40
0.25
 40
0.25
 40
0.5
 40
0.5
 40
0.625
 40
0.625
 40
0.75
 40
0.75
 40
1.0
 40
1.0
 40
1.0
 40
1.0
 10
10.50020121881556
 20
-1.667240285092783
 30
0.0
 10
10.50020121881556
 20
-1.443507747990403
 30
0.0
 10
10.53210139760647
 20
-1.22377790109209
 30
0.0
 10
10.66760490585161
 20
-0.7938586849249208
 30
0.0
 10
10.76860290929063
 20
-0.5931272541989033
 30
0.0
 10
10.96926468167893
 20
-0.3206808624561766
 30
0.0
 10
11.0443752335806
 20
-0.2350299052682985
 30
0.0
 10
11.20586863546137
 20
-0.0796526963541045
 30
0.0
 10
11.29286671107183
 20
-0.0090326534894464
 30
0.0
 10
11.57307328110378
 20
0.1810862093524252
 30
0.0
 10
11.78008197634739
 20
0.2750411102247352
 30
0.0
 10
12.0
 20
0.3322233343770118
 30
0.0
  0
SPLINE
  5
A8
330
1F
100
AcDbEntity
  8
0
  6
Continuous
 62
     4
370
    25
100
AcDbSpline
210
0.0
220
0.0
230
1.0
 70
    24
 71
     3
 72
    18
 73
    14
 74
     0
 42
0.000000001
 43
0.00000001
 40
0.0
 40
0.0
 40
0.0
 40
0.0
 40
0.2500000000000001
 40
0.2500000000000001
 40
0.5000000000000001
 40
0.5000000000000001
 40
0.625
 40
0.625
 40
0.7499999999999999
 40
0.7499999999999999
 40
0.8749999999999999
 40
0.8749999999999999
 40
1.0
 40
1.0
 40
1.0
 40
1.0
 10
12.00000000000001
 20
0.3322233343769961
 30
0.0
 10
12.00000000000001
 20
0.2284400537345993
 30
0.0
 10
12.00000000000001
 20
0.0291961282116606
 30
0.0
 10
12.00000000000001
 20
-0.5722209221304274
 30
0.0
 10
12.00000000000001
 20
-0.9589070627215031
 30
0.0
 10
12.00000000000001
 20
-1.674681074895223
 30
0.0
 10
12.00000000000001
 20
-1.935139772253924
 30
0.0
 10
12.00000000000001
 20
-2.48270195469339
 30
0.0
 10
12.00000000000001
 20
-2.772008957005502
 30
0.0
 10
12.00000000000001
 20
-3.38245775760729
 30
0.0
 10
12.00000000000001
 20
-3.703620397620393
 30
0.0
 10
12.00000000000001
 20
-4.354584778100071
 30
0.0
 10
12.00000000000001
 20
-4.687212510216174
 30
0.0
 10
12.00000000000001
 20
-5.026990578177101
 30
0.0
  0
SPLINE
  5
A9
330
1F
100
AcDbEntity
  8
0
  6
Continuous
 62
     4
370
    25
100
AcDbSpline
210
0.0
220
0.0
230
1.0
 70
     8
 71
     3
 72
     8
 73
     4
 74
     0
 42
0.000000001
 43
0.00000001
 40
0.0
 40
0.0
 40
0.0
 40
0.0
 40
1.0
 40
1.0
 40
1.0
 40
1.0
 10
12.00000000000001
 20
-8.547183419663348
 30
0.0
 10
11.83545837739659
 20
-8.49789029462736
 30
0.0
 10
11.67107602204708
 20
-8.447456734507734
 30
0.0
 10
11.50695244714474
 20
-8.395916289724587
 30
0.0
  0
SPLINE
  5
AA
330
1F
100
AcDbEntity
  8
0
  6
Continuous
 62
     4
370
    25
100
AcDbSpline
210
0.0
220
0.0
230
1.0
 70
     8
 71
     3
 72
     9
 73
     5
 74
     0
 42
0.000000001
 43
0.00000001
 40
0.0
 40
0.0
 40
0.0
 40
0.0
 40
0.206900131981473
 40
1.0
 40
1.0
 40
1.0
 40
1.0
 10
11.34424019087885
 20
-9.998249967079499
 30
0.0
 10
11.38166669406438
 20
-9.998749090579478
 30
0.0
 10
11.56255832920782
 20
-10.001161479084
 30
0.0
 10
11.80651667117992
 20
-9.99743518363548
 30
0.0
 10
12.00000000000001
 20
-9.994479859207056
 30
0.0
  0
SPLINE
  5
AB
330
1F
100
AcDbEntity
  8
0
  6
Continuous
 62
     4
370
    25
100
AcDbSpline
210
0.0
220
0.0
230
1.0
 70
     8
 71
     3
 72
    16
 73
    12
 74
     0
 42
0.000000001
 43
0.00000001
 40
0.0
 40
0.0
 40
0.0
 40
0.0
 40
0.2500000000000001
 40
0.2500000000000001
 40
0.5000000000000001
 40
0.5000000000000001
 40
0.625
 40
0.625
 40
0.75
 40
0.75
 40
1.0
 40
1.0
 40
1.0
 40
1.0
 10
10.50020121881555
 20
9.860035995459855
 30
0.0
 10
10.50020121881555
 20
9.897867084424929
 30
0.0
 10
10.53210139760647
 20
9.927187435459608
 30
0.0
 10
10.66760490585161
 20
9.970780868032232
 30
0.0
 10
10.76860290929063
 20
9.984049569707867
 30
0.0
 10
10.96926468167893
 20
9.99527014252087
 30
0.0
 10
11.0443752335806
 20
9.997539595192029
 30
0.0
 10
11.20586863546137
 20
9.999984623076495
 30
0.0
 10
11.29286671107183
 20
10.00019673111988
 30
0.0
 10
11.57307328110378
 20
9.999163604247038
 30
0.0
 10
11.78008197634739
 20
9.996380635379749
 30
0.0
 10
12.0
 20
9.994479859207045
 30
0.0
  0
LINE
  5
AC
330
1F
100
AcDbEntity
  8
0
  6
Continuous
 62
     4
370
    25
100
AcDbLine
 10
10.50020121881555
 20
9.860035995459855
 30
0.0
 11
10.50020121881555
 21
6.851201184711939
 31
0.0
  0
SPLINE
  5
AD
330
1F
100
AcDbEntity
  8
0
  6
Continuous
 62
     4
370
    25
100
AcDbSpline
210
0.0
220
0.0
230
1.0
 70
     8
 71
     3
 72
    14
 73
    10
 74
     0
 42
0.000000001
 43
0.00000001
 40
0.0
 40
0.0
 40
0.0
 40
0.0
 40
0.25
 40
0.25
 40
0.5
 40
0.5
 40
0.75
 40
0.75
 40
1.0
 40
1.0
 40
1.0
 40
1.0
 10
11.50695244714474
 20
5.432180929966422
 30
0.0
 10
11.34929863915421
 20
5.508701030597162
 30
0.0
 10
11.20764562163931
 20
5.600739694739619
 30
0.0
 10
10.95539909906292
 20
5.812798389710516
 30
0.0
 10
10.84673875399148
 20
5.93210485386532
 30
0.0
 10
10.67354544099134
 20
6.182658778787443
 30
0.0
 10
10.60726854615414
 20
6.316813359860548
 30
0.0
 10
10.52127065696155
 20
6.583534540567906
 30
0.0
 10
10.50020121881556
 20
6.71869374962643
 30
0.0
 10
10.50020121881556
 20
6.85120118471194
 30
0.0
  0
SPLINE
  5
AE
330
1F
100
AcDbEntity
  8
0
  6
Continuous
 62
     4
370
    25
100
AcDbSpline
210
0.0
220
0.0
230
1.0
 70
     8
 71
     3
 72
     8
 73
     4
 74
     0
 42
0.000000001
 43
0.00000001
 40
0.0
 40
0.0
 40
0.0
 40
0.0
 40
1.0
 40
1.0
 40
1.0
 40
1.0
 10
12.00000000000001
 20
5.190920495498409
 30
0.0
 10
11.83545837739659
 20
5.272084786374441
 30
0.0
 10
11.67107602204707
 20
5.352520612036409
 30
0.0
 10
11.50695244714474
 20
5.432180929966422
 30
0.0
  0
LINE
  5
AF
330
1F
100
AcDbEntity
  8
0
  6
Continuous
 62
     4
370
    25
100
AcDbLine
 10
-57.5
 20
9.99999999999999
 30
0.0
 11
-57.5
 21
-10.0
 31
0.0
  0
LINE
  5
B0
330
1F
100
AcDbEntity
  8
0
  6
Continuous
 62
     4
370
    25
100
AcDbLine
 10
10.50020121881556
 20
-1.667240285092783
 30
0.0
 11
10.50020121881556
 21
-7.284301087036613
 31
0.0
  0
LINE
  5
B1
330
1F
100
AcDbEntity
  8
0
  6
Continuous
 62
     4
370
    25
100
AcDbLine
 10
12.00000000000001
 20
-8.547183419663348
 30
0.0
 11
12.00000000000001
 21
-9.994479859207056
 31
0.0
  0
LINE
  5
B2
330
1F
100
AcDbEntity
  8
0
  6
Continuous
 62
     4
370
    25
100
AcDbLine
 10
12.00000000000001
 20
5.190920495498409
 30
0.0
 11
12.00000000000001
 21
0.3322233343769961
 31
0.0
  0
LINE
  5
B3
330
1F
100
AcDbEntity
  8
0
  6
Continuous
 62
     4
370
    25
100
AcDbLine
 10
-58.0
 20
9.499999999999986
 30
0.0
 11
-58.0
 21
-9.500000000000004
 31
0.0
  0
SPLINE
  5
B4
330
1F
100
AcDbEntity
  8
0
  6
Continuous
 62
     4
370
    25
100
AcDbSpline
210
0.0
220
0.0
230
1.0
 70
    24
 71
     3
 72
    13
 73
     9
 74
     0
 42
0.000000001
 43
0.00000001
 40
0.0
 40
0.0
 40
0.0
 40
0.0
 40
0.1684335949063339
 40
0.3368281980870995
 40
0.52502316520828
 40
0.7131408388143561
 40
0.8883852719263944
 40
1.0
 40
1.0
 40
1.0
 40
1.0
 10
12.00000000000001
 20
9.994479859207045
 30
0.0
 10
12.00000000000001
 20
9.662212580332415
 30
0.0
 10
12.00000000000001
 20
8.997754941172714
 30
0.0
 10
12.00000000000001
 20
8.015267699550092
 30
0.0
 10
12.00000000000001
 20
7.073073945628294
 30
0.0
 10
12.00000000000001
 20
6.243403200140069
 30
0.0
 10
12.00000000000001
 20
5.635696574001102
 30
0.0
 10
12.00000000000001
 20
5.380994309293843
 30
0.0
 10
12.00000000000001
 20
5.281891586210042
 30
0.0
  0
SPLINE
  5
B5
330
1F
100
AcDbEntity
  8
0
  6
Continuous
 62
     4
370
    25
100
AcDbSpline
210
0.0
220
0.0
230
1.0
 70
    24
 71
     3
 72
    10
 73
     6
 74
     0
 42
0.000000001
 43
0.00000001
 40
0.0
 40
0.0
 40
0.0
 40
0.0
 40
0.5
 40
0.5
 40
1.0
 40
1.0
 40
1.0
 40
1.0
 10
12.00000000000001
 20
-5.026990578177704
 30
0.0
 10
12.00000000000001
 20
-5.602921805576401
 30
0.0
 10
12.00000000000001
 20
-6.203225700178218
 30
0.0
 10
12.00000000000001
 20
-7.39655863953962
 30
0.0
 10
12.00000000000001
 20
-7.988942288107584
 30
0.0
 10
12.00000000000001
 20
-8.547183419663352
 30
0.0
  0
SPLINE
  5
B6
330
1F
100
AcDbEntity
  8
0
  6
Continuous
 62
     1
370
    25
100
AcDbSpline
210
0.0
220
0.0
230
1.0
 70
     8
 71
     3
 72
    27
 73
    23
 74
     0
 42
0.000000001
 43
0.00000001
 40
0.0
 40
0.0
 40
0.0
 40
0.0
 40
0.0546054952234712
 40
0.1092122467044228
 40
0.163820438769623
 40
0.2184302553244739
 40
0.2730418797996564
 40
0.3276554950980736
 40
0.379157579672498
 40
0.4306504065685602
 40
0.4821361869297544
 40
0.533617143901021
 40
0.5850955080042493
 40
0.6365735137306686
 40
0.688053396120344
 40
0.7395373873398877
 40
0.7910277132695074
 40
0.8425265901104652
 40
0.8931137872656083
 40
0.9436890949973803
 40
0.9942549193373297
 40
1.0
 40
1.0
 40
1.0
 40
1.0
 10
12.00000000000001
 20
9.950904847839585
 30
0.0
 10
13.0217220942782
 20
9.97921976373166
 30
0.0
 10
15.06518978863777
 20
10.03585024693056
 30
0.0
 10
18.13044739720774
 20
9.724015987522419
 30
0.0
 10
21.19580100541169
 20
9.130743460559088
 30
0.0
 10
24.26126483121685
 20
8.24624676543268
 30
0.0
 10
27.32684815808407
 20
7.105762544341246
 30
0.0
 10
30.33431138006415
 20
5.768648556808317
 30
0.0
 10
33.28341125154066
 20
4.290317921247692
 30
0.0
 10
36.17384773342296
 20
2.721831298994313
 30
0.0
 10
39.06381863280858
 20
1.077864776157509
 30
0.0
 10
41.95346240318108
 20
-0.595987891490491
 30
0.0
 10
44.84293221319354
 20
-2.253253504717883
 30
0.0
 10
47.73237773313156
 20
-3.847923828149411
 30
0.0
 10
50.621949622751
 20
-5.335782592270188
 30
0.0
 10
53.51179831500364
 20
-6.675340352079024
 30
0.0
 10
56.40207294022021
 20
-7.830070434157197
 30
0.0
 10
59.27566559122269
 20
-8.759763019088247
 30
0.0
 10
62.1322473224937
 20
-9.452652273842093
 30
0.0
 10
64.97116038022034
 20
-9.861039798608639
 30
0.0
 10
66.97100561830055
 20
-10.03387375741591
 30
0.0
 10
68.02455411989837
 20
-9.990884565911877
 30
0.0
 10
68.1320416682415
 20
-9.986498623743087
 30
0.0
  0
SPLINE
  5
B7
330
1F
100
AcDbEntity
  8
0
  6
Continuous
 62
     1
370
    25
100
AcDbSpline
210
0.0
220
0.0
230
1.0
 70
     8
 71
     3
 72
    24
 73
    20
 74
     0
 42
0.000000001
 43
0.00000001
 40
0.0
 40
0.0
 40
0.0
 40
0.0
 40
0.0620437133371528
 40
0.1240868951799086
 40
0.1861295677241158
 40
0.2481717531996974
 40
0.3102134738691846
 40
0.3722547520262414
 40
0.4307546813622174
 40
0.4892498570081096
 40
0.5477414749902609
 40
0.6062307346994423
 40
0.6647188377585662
 40
0.723206986885904
 40
0.7816963847560923
 40
0.8401882328612293
 40
0.8986837303743545
 40
0.957184073017601
 40
1.0
 40
1.0
 40
1.0
 40
1.0
 10
72.0
 20
-9.751656983552614
 30
0.0
 10
70.9546017222167
 20
-9.58714565817033
 30
0.0
 10
68.8638141220026
 20
-9.25812441668389
 30
0.0
 10
65.72765244474388
 20
-8.376497045828412
 30
0.0
 10
62.59152204030991
 20
-7.243916294762583
 30
0.0
 10
59.45541832011542
 20
-5.868383304793308
 30
0.0
 10
56.31935381060041
 20
-4.302666217660639
 30
0.0
 10
53.24293748973014
 20
-2.628262531651388
 30
0.0
 10
50.2264262036982
 20
-0.9074036535737957
 30
0.0
 10
47.26974814655127
 20
0.8058975754118406
 30
0.0
 10
44.31329160679455
 20
2.495699866388285
 30
0.0
 10
41.35697652924721
 20
4.112949979307521
 30
0.0
 10
38.40073199620035
 20
5.61058238988621
 30
0.0
 10
35.44448460724607
 20
6.945316374681819
 30
0.0
 10
32.48816133788564
 20
8.077484016371326
 30
0.0
 10
29.53169015927969
 20
8.977455097810974
 30
0.0
 10
26.57499513509884
 20
9.606823842755318
 30
0.0
 10
23.88237912468838
 20
9.958427114187684
 30
0.0
 10
22.17528630422428
 20
9.96890050369177
 30
0.0
 10
21.45387441427578
 20
9.973326524131744
 30
0.0
  0
LINE
  5
B8
330
1F
100
AcDbEntity
  8
0
  6
Continuous
 62
     1
370
    25
100
AcDbLine
 10
72.0
 20
-10.00000000000001
 30
0.0
 11
72.00000000000003
 21
-9.751656983552618
 31
0.0
  0
SPLINE
  5
B9
330
1F
100
AcDbEntity
  8
0
  6
Continuous
 62
     1
370
    25
100
AcDbSpline
210
0.0
220
0.0
230
1.0
 70
     8
 71
     3
 72
    23
 73
    19
 74
     0
 42
0.000000001
 43
0.00000001
 40
0.0
 40
0.0
 40
0.0
 40
0.0
 40
0.0445392268972206
 40
0.1121449352474923
 40
0.1758916741716588
 40
0.2396332330512657
 40
0.3033709151832552
 40
0.3671060275307502
 40
0.4308398794892144
 40
0.494573781647712
 40
0.5583090445477589
 40
0.6220469774422716
 40
0.6857888870571136
 40
0.7495360763577328
 40
0.8121555600786186
 40
0.8747799639465181
 40
0.9373942603075981
 40
1.0
 40
1.0
 40
1.0
 40
1.0
 10
58.38539749851208
 20
-8.433235079546906
 30
0.0
 10
57.69671270200283
 20
-8.645775036972164
 30
0.0
 10
55.96267919287427
 20
-9.180927562586557
 30
0.0
 10
53.24293736081043
 20
-9.695547841704887
 30
0.0
 10
50.22642623741876
 20
-10.00931592576789
 30
0.0
 10
47.26974813736155
 20
-10.01586651755148
 30
0.0
 10
44.31329160983606
 20
-9.733952810122402
 30
0.0
 10
41.35697652627039
 20
-9.16837620591225
 30
0.0
 10
38.40073200506606
 20
-8.33649509483796
 30
0.0
 10
35.44448457475966
 20
-7.262242668329353
 30
0.0
 10
32.48816145897055
 20
-5.976894289255439
 30
0.0
 10
29.5316897073952
 20
-4.517792796531217
 30
0.0
 10
26.57499682171685
 20
-2.927277238222366
 30
0.0
 10
23.63554778326608
 20
-1.261717690595111
 30
0.0
 10
20.71332002235474
 20
0.4302245505233
 30
0.0
 10
17.80851966200366
 20
2.097036833526808
 30
0.0
 10
14.90407379514253
 20
3.715600514957437
 30
0.0
 10
12.96798049865204
 20
4.699169572081034
 30
0.0
 10
11.9999999999999
 20
5.190920495499404
 30
0.0
  0
SPLINE
  5
BA
330
1F
100
AcDbEntity
  8
0
  6
Continuous
 62
     4
370
    25
100
AcDbSpline
210
0.0
220
0.0
230
1.0
 70
    24
 71
     3
 72
    13
 73
     9
 74
     0
 42
0.000000001
 43
0.00000001
 40
0.0
 40
0.0
 40
0.0
 40
0.0
 40
0.1654183761717619
 40
0.3346590641648333
 40
0.5190413717332051
 40
0.7087707787120031
 40
0.8931530862803736
 40
1.0
 40
1.0
 40
1.0
 40
1.0
 10
12.00000000000001
 20
9.950904847839647
 30
0.0
 10
12.00000000000001
 20
9.616693075301818
 30
0.0
 10
12.00000000000001
 20
8.94054692020812
 30
0.0
 10
12.00000000000001
 20
7.965826343681236
 30
0.0
 10
12.00000000000001
 20
7.034574644877494
 30
0.0
 10
12.00000000000001
 20
6.216415896103411
 30
0.0
 10
12.00000000000001
 20
5.616485233414567
 30
0.0
 10
12.00000000000001
 20
5.371706593194689
 30
0.0
 10
12.00000000000001
 20
5.281901586209769
 30
0.0
  0
SPLINE
  5
BB
330
1F
100
AcDbEntity
  8
0
  6
Continuous
 62
     1
370
    25
100
AcDbSpline
210
0.0
220
0.0
230
1.0
 70
     8
 71
     3
 72
    21
 73
    17
 74
     0
 42
0.000000001
 43
0.00000001
 40
0.0
 40
0.0
 40
0.0
 40
0.0
 40
0.0533243259886254
 40
0.1265557221261788
 40
0.1997770969147906
 40
0.2729916120377014
 40
0.3462024396694043
 40
0.419412757629457
 40
0.4926257445179527
 40
0.5658445748484552
 40
0.6390724141942126
 40
0.7123124143633945
 40
0.7842558538221457
 40
0.8561823845360247
 40
0.9280954282835598
 40
1.0
 40
1.0
 40
1.0
 40
1.0
 10
31.17880191944136
 20
8.434519647485493
 30
0.0
 10
31.88039327132183
 20
8.647949583860543
 30
0.0
 10
33.54549448973489
 20
9.154487251623113
 30
0.0
 10
36.17384661570389
 20
9.665653481915683
 30
0.0
 10
39.06381893223102
 20
9.989893656593372
 30
0.0
 10
41.95346232303866
 20
10.02844369556679
 30
0.0
 10
44.84293223436869
 20
9.790660408042383
 30
0.0
 10
47.73237772857073
 20
9.280366370753415
 30
0.0
 10
50.6219496198182
 20
8.51246702043106
 30
0.0
 10
53.51179833129833
 20
7.508062280384189
 30
0.0
 10
56.40207287796182
 20
6.295051217232398
 30
0.0
 10
59.27566582225916
 20
4.915381768305958
 30
0.0
 10
62.13224647721852
 20
3.410513494386072
 30
0.0
 10
64.97116353565818
 20
1.823845207209083
 30
0.0
 10
67.80948026086148
 20
0.1856594515991772
 30
0.0
 10
69.70148391481982
 20
-0.9028546900906009
 30
0.0
 10
70.64743001457202
 20
-1.447079699752908
 30
0.0
  0
SPLINE
  5
BC
330
1F
100
AcDbEntity
  8
0
  6
Continuous
 62
     1
370
    25
100
AcDbSpline
210
0.0
220
0.0
230
1.0
 70
     8
 71
     3
 72
     8
 73
     4
 74
     0
 42
0.000000001
 43
0.00000001
 40
0.0
 40
0.0
 40
0.0
 40
0.0
 40
1.0
 40
1.0
 40
1.0
 40
1.0
 10
72.00000000000003
 20
-7.266081778456261
 30
0.0
 10
70.31587153796295
 20
-6.320024379565046
 30
0.0
 10
68.72553162703741
 20
-5.160603083795178
 30
0.0
 10
67.1953962218575
 20
-3.864219783566248
 30
0.0
  0
LINE
  5
BD
330
1F
100
AcDbEntity
  8
0
  6
Continuous
 62
     1
370
    25
100
AcDbLine
 10
72.00000000000003
 20
-9.751656983552618
 30
0.0
 11
72.00000000000003
 21
-7.266081778456262
 31
0.0
  0
SPLINE
  5
BE
330
1F
100
AcDbEntity
  8
0
  6
Continuous
 62
     1
370
    25
100
AcDbSpline
210
0.0
220
0.0
230
1.0
 70
    24
 71
     3
 72
    22
 73
    18
 74
     0
 42
0.000000001
 43
0.00000001
 40
0.0
 40
0.0
 40
0.0
 40
0.0
 40
0.2499999999999962
 40
0.2499999999999962
 40
0.374999999999995
 40
0.374999999999995
 40
0.4999999999999938
 40
0.4999999999999938
 40
0.5624999999999939
 40
0.5624999999999939
 40
0.6249999999999941
 40
0.6249999999999941
 40
0.7499999999999961
 40
0.7499999999999961
 40
0.8749999999999981
 40
0.8749999999999981
 40
1.0
 40
1.0
 40
1.0
 40
1.0
 10
70.64743001457202
 20
-1.447079699752908
 30
0.0
 10
70.64833007441126
 20
-1.446449471068624
 30
0.0
 10
70.58787192143814
 20
-1.488782725526656
 30
0.0
 10
70.3760174207948
 20
-1.637124843880741
 30
0.0
 10
70.28345551420597
 20
-1.701937388625347
 30
0.0
 10
70.05771133056524
 20
-1.86000516771758
 30
0.0
 10
69.92443790793988
 20
-1.953324222882908
 30
0.0
 10
69.69095893739478
 20
-2.116807958072028
 30
0.0
 10
69.60722578260928
 20
-2.175438544250955
 30
0.0
 10
69.43228580143278
 20
-2.297932837804995
 30
0.0
 10
69.34065279168863
 20
-2.362094961976599
 30
0.0
 10
69.05353353657316
 20
-2.563138028773603
 30
0.0
 10
68.84448072965395
 20
-2.709518380062344
 30
0.0
 10
68.39984449311734
 20
-3.020856024646463
 30
0.0
 10
68.16882063896728
 20
-3.182620668828628
 30
0.0
 10
67.69124356464539
 20
-3.517023736344949
 30
0.0
 10
67.44308936566182
 20
-3.690783177111651
 30
0.0
 10
67.19539622185752
 20
-3.864219783566264
 30
0.0
  0
SPLINE
  5
BF
330
1F
100
AcDbEntity
  8
0
  6
Continuous
 62
     1
370
    25
100
AcDbSpline
210
0.0
220
0.0
230
1.0
 70
     8
 71
     3
 72
    15
 73
    11
 74
     0
 42
0.000000001
 43
0.00000001
 40
0.0
 40
0.0
 40
0.0
 40
0.0
 40
0.1343695427917323
 40
0.2687379345134324
 40
0.4031052232351758
 40
0.5374714571008345
 40
0.671836684324901
 40
0.8062009531892921
 40
0.9328956388459723
 40
1.0
 40
1.0
 40
1.0
 40
1.0
 10
72.0
 20
2.214765467296677
 30
0.0
 10
70.95460172171957
 20
2.796299274665818
 30
0.0
 10
68.8638141205112
 20
3.959361907723544
 30
0.0
 10
65.72765245070937
 20
5.55504223742402
 30
0.0
 10
62.59152201793952
 20
6.974610065761602
 30
0.0
 10
59.45541840363059
 20
8.163634597488414
 30
0.0
 10
56.31935349891332
 20
9.090370094728387
 30
0.0
 10
53.24293862489241
 20
9.692378252896617
 30
0.0
 10
50.68993537452649
 20
9.98765655270239
 30
0.0
 10
49.18226178364315
 20
9.969880347090875
 30
0.0
 10
48.66021859091349
 20
9.963725203704291
 30
0.0
  0
LINE
  5
C0
330
1F
100
AcDbEntity
  8
0
  6
Continuous
 62
     1
370
    25
100
AcDbLine
 10
72.00000000000003
 20
-0.5000000000000357
 30
0.0
 11
72.00000000000003
 21
2.214765467296677
 31
0.0
  0
LINE
  5
C1
330
1F
100
AcDbEntity
  8
0
  6
Continuous
 62
     1
370
    25
100
AcDbLine
 10
72.00000000000003
 20
-0.5000000000000349
 30
0.0
 11
70.647430014572
 21
-1.447079699752924
 31
0.0
  0
SPLINE
  5
C2
330
1F
100
AcDbEntity
  8
0
  6
Continuous
 62
     1
370
    25
100
AcDbSpline
210
0.0
220
0.0
230
1.0
 70
     8
 71
     3
 72
    17
 73
    13
 74
     0
 42
0.000000001
 43
0.00000001
 40
0.0
 40
0.0
 40
0.0
 40
0.0
 40
0.1059664708074962
 40
0.2119353794863288
 40
0.317907083737807
 40
0.4238819404455429
 40
0.5298603055719145
 40
0.6358425340551024
 40
0.7357865803318796
 40
0.8357126613196341
 40
0.9356250679248319
 40
1.0
 40
1.0
 40
1.0
 40
1.0
 10
12.00000000000001
 20
0.9896932399697204
 30
0.0
 10
13.02172209431223
 20
0.3997027502499614
 30
0.0
 10
15.06518978873986
 20
-0.7802918025481164
 30
0.0
 10
18.13044739679939
 20
-2.534181840126109
 30
0.0
 10
21.19580100694308
 20
-4.206726678764319
 30
0.0
 10
24.26126482549941
 20
-5.748414395775585
 30
0.0
 10
27.32684817942348
 20
-7.110613605439474
 30
0.0
 10
30.33431130233893
 20
-8.22824597582812
 30
0.0
 10
33.28341152325919
 20
-9.08623983022938
 30
0.0
 10
36.17384671763227
 20
-9.663750513373126
 30
0.0
 10
38.72127601051782
 20
-9.973168268905207
 30
0.0
 10
40.30522636511647
 20
-9.969545713163537
 30
0.0
 10
40.92588707644561
 20
-9.968126238104283
 30
0.0
  0
LINE
  5
C3
330
1F
100
AcDbEntity
  8
0
  6
Continuous
 62
     4
370
    25
100
AcDbLine
 10
12.00000000000001
 20
0.989693239969737
 30
0.0
 11
12.00000000000001
 21
5.190920495498681
 31
0.0
  0
SPLINE
  5
C4
330
1F
100
AcDbEntity
  8
0
  6
Continuous
 62
     1
370
    25
100
AcDbSpline
210
0.0
220
0.0
230
1.0
 70
     8
 71
     3
 72
    14
 73
    10
 74
     0
 42
0.000000001
 43
0.00000001
 40
0.0
 40
0.0
 40
0.0
 40
0.0
 40
0.0858816013526828
 40
0.2400479894120391
 40
0.3942271469364348
 40
0.5456788321106543
 40
0.6971424171683014
 40
0.8485815561773739
 40
1.0
 40
1.0
 40
1.0
 40
1.0
 10
31.17880191944122
 20
-8.4345196474855
 30
0.0
 10
30.62978395104731
 20
-8.607777006818107
 30
0.0
 10
29.09522174693999
 20
-9.092049308493502
 30
0.0
 10
26.57499592090653
 20
-9.605596853576934
 30
0.0
 10
23.63554801989047
 20
-9.970021462552442
 30
0.0
 10
20.71331995944609
 20
-10.03802873075175
 30
0.0
 10
17.80851967877692
 20
-9.822557006914355
 30
0.0
 10
14.90407379095017
 20
-9.347976906344284
 30
0.0
 10
12.96798049725465
 20
-8.814102421465417
 30
0.0
 10
11.9999999999999
 20
-8.54718341966553
 30
0.0
  0
SPLINE
  5
C5
330
1F
100
AcDbEntity
  8
0
  6
Continuous
 62
     4
370
    25
100
AcDbSpline
210
0.0
220
0.0
230
1.0
 70
    24
 71
     3
 72
    17
 73
    13
 74
     0
 42
0.000000001
 43
0.00000001
 40
0.0
 40
0.0
 40
0.0
 40
0.0
 40
0.0127004699803898
 40
0.1275702632194611
 40
0.2457712882442983
 40
0.3606410814833694
 40
0.4788421065082057
 40
0.5937118997472771
 40
0.7119129247721142
 40
0.8267827180111855
 40
0.9449837430360222
 40
0.9999999999999999
 40
0.9999999999999999
 40
0.9999999999999999
 40
0.9999999999999999
 10
12.00000000000001
 20
0.2412422436656355
 30
0.0
 10
12.00000000000001
 20
0.2221813292289971
 30
0.0
 10
12.00000000000001
 20
0.0307233851025105
 30
0.0
 10
12.00000000000001
 20
-0.4914230696807804
 30
0.0
 10
12.00000000000001
 20
-1.321443173750064
 30
0.0
 10
12.00000000000001
 20
-2.303221379538683
 30
0.0
 10
12.00000000000002
 20
-3.370847492409359
 30
0.0
 10
12.00000000000001
 20
-4.518712076461404
 30
0.0
 10
12.00000000000001
 20
-5.692580199417038
 30
0.0
 10
12.00000000000001
 20
-6.879308706728432
 30
0.0
 10
12.00000000000002
 20
-7.83139590656431
 30
0.0
 10
12.00000000000001
 20
-8.37464107583062
 30
0.0
 10
12.00000000000001
 20
-8.547183419663986
 30
0.0
  0
LINE
  5
C6
330
1F
100
AcDbEntity
  8
0
  6
Continuous
 62
     1
370
    25
100
AcDbLine
 10
12.00000000000001
 20
-9.950904847839592
 30
0.0
 11
13.71723111642324
 21
-9.96144684808691
 31
0.0
  0
SPLINE
  5
C7
330
1F
100
AcDbEntity
  8
0
  6
Continuous
 62
     1
370
    25
100
AcDbSpline
210
0.0
220
0.0
230
1.0
 70
     8
 71
     3
 72
    12
 73
     8
 74
     0
 42
0.000000001
 43
0.00000001
 40
0.0
 40
0.0
 40
0.0
 40
0.0
 40
0.0739935375529246
 40
0.3055644957576522
 40
0.5370810282318121
 40
0.7685541489683226
 40
1.0
 40
1.0
 40
1.0
 40
1.0
 10
58.38539749851208
 20
8.433235079546902
 30
0.0
 10
58.68784477436421
 20
8.533417888660336
 30
0.0
 10
59.93683424554514
 20
8.947133877417272
 30
0.0
 10
62.13225111575501
 20
9.438789721170393
 30
0.0
 10
64.97116229909199
 20
9.87751115023197
 30
0.0
 10
67.8094805699364
 20
10.0543246363382
 30
0.0
 10
69.70148401784073
 20
9.947935507488921
 30
0.0
 10
70.64743001457202
 20
9.894744076658192
 30
0.0
  0
SPLINE
  5
C8
330
1F
100
AcDbEntity
  8
0
  6
Continuous
 62
     1
370
    25
100
AcDbSpline
210
0.0
220
0.0
230
1.0
 70
     8
 71
     3
 72
    22
 73
    18
 74
     0
 42
0.000000001
 43
0.00000001
 40
0.0
 40
0.0
 40
0.0
 40
0.0
 40
0.2499999999999967
 40
0.2499999999999967
 40
0.3749999999999954
 40
0.3749999999999954
 40
0.4999999999999941
 40
0.4999999999999941
 40
0.5624999999999942
 40
0.5624999999999942
 40
0.6249999999999942
 40
0.6249999999999942
 40
0.7499999999999961
 40
0.7499999999999961
 40
0.8749999999999981
 40
0.8749999999999981
 40
1.0
 40
1.0
 40
1.0
 40
1.0
 10
70.64743001457202
 20
9.894744076658213
 30
0.0
 10
70.64833007441129
 20
9.283134665630076
 30
0.0
 10
70.58787192143814
 20
8.68498671511968
 30
0.0
 10
70.37601742079482
 20
7.814347839321179
 30
0.0
 10
70.28345551420597
 20
7.526023105511515
 30
0.0
 10
70.05771133056521
 20
6.983978845190979
 30
0.0
 10
69.92443790793988
 20
6.728016184879503
 30
0.0
 10
69.69095893739478
 20
6.368851405513238
 30
0.0
 10
69.60722578260928
 20
6.253066494950627
 30
0.0
 10
69.43228580143278
 20
6.035520208430545
 30
0.0
 10
69.34065279168863
 20
5.933023839203766
 30
0.0
 10
69.05353353657316
 20
5.643959723970077
 30
0.0
 10
68.84448072965392
 20
5.474803869360841
 30
0.0
 10
68.39984449311734
 20
5.189912301147332
 30
0.0
 10
68.16882063896728
 20
5.076535487151688
 30
0.0
 10
67.69124356464539
 20
4.901635336322657
 30
0.0
 10
67.44308936566179
 20
4.840255663647828
 30
0.0
 10
67.19539622185752
 20
4.804603778142475
 30
0.0
  0
SPLINE
  5
C9
330
1F
100
AcDbEntity
  8
0
  6
Continuous
 62
     1
370
    25
100
AcDbSpline
210
0.0
220
0.0
230
1.0
 70
     8
 71
     3
 72
     8
 73
     4
 74
     0
 42
0.000000001
 43
0.00000001
 40
0.0
 40
0.0
 40
0.0
 40
0.0
 40
1.0
 40
1.0
 40
1.0
 40
1.0
 10
72.00000000000003
 20
2.462652369968974
 30
0.0
 10
70.31587153796295
 20
3.373236042056514
 30
0.0
 10
68.72553162703741
 20
4.136275508719677
 30
0.0
 10
67.19539622185752
 20
4.804603778142485
 30
0.0
  0
LINE
  5
CA
330
1F
100
AcDbEntity
  8
0
  6
Continuous
 62
     1
370
    25
100
AcDbLine
 10
72.00000000000003
 20
2.22270365104296
 30
0.0
 11
72.00000000000003
 21
2.462652369968976
 31
0.0
  0
ELLIPSE
  5
CB
330
1F
100
AcDbEntity
  8
0
  6
Continuous
 62
     1
370
    25
100
AcDbEllipse
 10
72.71407400337105
 20
-0.0000000000000046
 30
0.0
 11
14.28148006742111
 21
-5.350968460038310E-17
 31
0.0
210
0.0
220
0.0
230
1.0
 40
0.7002075382097117
 41
1.620817183600666
 42
1.716014156413952
  0
LINE
  5
CC
330
1F
100
AcDbEntity
  8
0
  6
Continuous
 62
     4
370
    25
100
AcDbLine
 10
12.00000000000001
 20
-9.950904847839658
 30
0.0
 11
12.00000000000001
 21
-8.547183419663986
 31
0.0
  0
LINE
  5
CD
330
1F
100
AcDbEntity
  8
0
  6
Continuous
 62
     1
370
    25
100
AcDbLine
 10
72.00000000000003
 20
9.987492177719096
 30
0.0
 11
72.0
 21
10.00000000000001
 31
0.0
  0
LINE
  5
CE
330
1F
100
AcDbEntity
  8
0
  6
Continuous
 62
     1
370
    25
100
AcDbLine
 10
72.00000000000003
 20
-0.5000000000000009
 30
0.0
 11
72.00000000000003
 21
-7.266081778456257
 31
0.0
  0
LINE
  5
CF
330
1F
100
AcDbEntity
  8
0
  6
Continuous
 62
     1
370
    25
100
AcDbLine
 10
72.00000000000003
 20
2.462652369968976
 30
0.0
 11
72.00000000000003
 21
9.987492177719096
 31
0.0
  0
LINE
  5
D0
330
1F
100
AcDbEntity
  8
중심선
100
AcDbLine
 10
-60.99999999999999
 20
-0.0000000000000089
 30
0.0
 11
75.00000000000003
 21
0.0000000000000077
 31
0.0
  0
CIRCLE
  5
D1
330
1F
100
AcDbEntity
  8
해칭선
100
AcDbCircle
 10
0.0003749019989747
 20
-0.0000000000000043
 30
0.0
 40
3.0
  0
INSERT
  5
D2
330
1F
100
AcDbEntity
  8
0
  6
Continuous
 62
     7
100
AcDbBlockReference
 66
     1
  2
블럭10
 10
-7.440099248941772
 20
-52.04717430164393
 30
0.0
  0
ATTRIB
  5
D3
330
D2
100
AcDbEntity
  8
FORMAT
 62
     2
100
AcDbText
 10
-23.55936028837733
 20
-49.97180738881174
 30
0.0
 40
4.233333333333333
  1
SEME7220060E [ 4 FLUTE ]
 41
0.75
  7
SLDTEXTSTYLE0
 11
-23.55936028837733
 21
-52.08847405547841
 31
0.0
100
AcDbAttribute
  2
AUTOATTR0
 70
     0
 74
     1
  0
SEQEND
  5
D4
330
D2
100
AcDbEntity
  8
0
  6
Continuous
 62
     7
  0
HATCH
  5
D5
330
1F
100
AcDbEntity
  8
중심선
100
AcDbHatch
 10
0.0
 20
0.0
 30
0.0
210
0.0
220
0.0
230
1.0
  2
SOLID
 70
     1
 71
     0
 91
        1
 92
        0
 93
        4
 72
     1
 10
-1.725189944560918
 20
-35.8
 11
-5.1714651883982
 21
-35.8
 72
     1
 10
-5.1714651883982
 20
-35.8
 11
-7.299695047602222
 21
-38.33632558057259
 72
     1
 10
-7.299695047602222
 20
-38.33632558057259
 11
-3.853386718651791
 21
-38.3362861512701
 72
     1
 10
-3.853386718651791
 20
-38.3362861512701
 11
-1.725189944560918
 21
-35.8
 97
        0
 75
     0
 76
     1
 98
        1
 10
0.0
 20
0.0
  0
HATCH
  5
D6
330
1F
100
AcDbEntity
  8
중심선
100
AcDbHatch
 10
0.0
 20
0.0
 30
0.0
210
0.0
220
0.0
230
1.0
  2
SOLID
 70
     1
 71
     0
 91
        1
 92
        0
 93
        4
 72
     1
 10
3.287574046475034
 20
-35.80000000000003
 11
-0.158701197362221
 21
-35.79999999999997
 72
     1
 10
-0.158701197362221
 20
-35.79999999999997
 11
-4.689839205719638
 21
-41.20000000000002
 72
     1
 10
-4.689839205719637
 20
-41.20000000000002
 11
-1.243563961882355
 21
-41.20000000000002
 72
     1
 10
-1.243563961882355
 20
-41.20000000000002
 11
3.287574046475033
 21
-35.80000000000003
 97
        0
 75
     0
 76
     1
 98
        1
 10
0.0
 20
0.0
  0
HATCH
  5
D7
330
1F
100
AcDbEntity
  8
중심선
100
AcDbHatch
 10
0.0
 20
0.0
 30
0.0
210
0.0
220
0.0
230
1.0
  2
SOLID
 70
     1
 71
     0
 91
        1
 92
        0
 93
        4
 72
     1
 10
8.30033803751093
 20
-35.79999999999997
 11
4.854062793673869
 21
-35.79999999999997
 72
     1
 10
4.854062793673869
 20
-35.79999999999997
 11
-2.194374108215436
 21
-44.20000000000002
 72
     1
 10
-2.194374108215436
 20
-44.20000000000002
 11
1.251901135621847
 21
-44.20000000000002
 72
     1
 10
1.251901135621847
 20
-44.20000000000002
 11
8.30033803751093
 21
-35.79999999999997
 97
        0
 75
     0
 76
     1
 98
        1
 10
0.0
 20
0.0
  0
HATCH
  5
D8
330
1F
100
AcDbEntity
  8
중심선
100
AcDbHatch
 10
0.0
 20
0.0
 30
0.0
210
0.0
220
0.0
230
1.0
  2
SOLID
 70
     1
 71
     0
 91
        1
 92
        0
 93
        6
 72
     3
 10
13.10022846852313
 20
-40.00000000005127
 11
3.960054785062284
 21
1.540850780301639E-10
 40
0.3939339440162633
 50
17.09539180608433
 51
320.0019657685087
 73
     0
 72
     1
 10
14.7832281242237
 20
-38.58789400463836
 11
17.08852999792476
 21
-36.6535672945904
 72
     3
 10
13.10022846847028
 20
-40.00000000000015
 11
6.600054785286829
 21
-1.249000902703301E-13
 40
0.6363583540795982
 50
39.9987384933739
 51
368.4976242363725
 73
     1
 72
     1
 10
19.52556096037089
 20
-39.03999999993002
 11
11.7802957753062
 21
-39.03999999993002
 72
     1
 10
11.7802957753062
 20
-39.03999999993002
 11
11.78027073086027
 21
-40.95999999992991
 72
     1
 10
11.78027073086027
 20
-40.95999999992991
 11
16.22165050033231
 21
-40.95999999992988
 97
        0
 75
     0
 76
     1
 98
        1
 10
0.0
 20
0.0
  0
DIMENSION
  5
D9
330
1F
100
AcDbEntity
  8
치수문자_일반주서
100
AcDbDimension
  2
_D
 10
89.22860590025162
 20
10.00000000000007
 30
0.0
 11
89.22860590025158
 21
20.76025000000007
 31
0.0
 70
   160
  1
%%c<>
 71
     2
 42
20.00000000000002
 52
-270.0
  3
SLDDIMSTYLE0
100
AcDbAlignedDimension
 13
72.00000000000003
 23
-10.00000000000001
 33
0.0
 14
72.00000000000003
 24
10.0
 34
0.0
 50
90.0000000000002
100
AcDbRotatedDimension
  0
DIMENSION
  5
E7
330
1F
100
AcDbEntity
  8
치수문자_일반주서
100
AcDbDimension
  2
_D_1
 10
72.00000000000003
 20
27.38913260158164
 30
0.0
 11
7.000000000000006
 21
27.38913260158164
 31
0.0
 70
   160
  1
<>
 71
     2
 42
130.0
  3
SLDDIMSTYLE1
100
AcDbAlignedDimension
 13
-58.0
 23
9.499999999999986
 33
0.0
 14
72.00000000000003
 24
-0.5000000000000009
 34
0.0
 50
-0.0000000000000016
100
AcDbRotatedDimension
  0
DIMENSION
  5
F2
330
1F
100
AcDbEntity
  8
치수문자_일반주서
100
AcDbDimension
  2
_D_2
 10
-72.06109890939234
 20
-10.00000000000007
 30
0.0
 11
-72.06109890939246
 21
20.76024999999995
 31
0.0
 70
   160
  1
%%c<>
 71
     2
 42
20.00000000000002
 52
-270.0
  3
SLDDIMSTYLE2
100
AcDbAlignedDimension
 13
-57.5
 23
10.0
 33
0.0
 14
-57.5
 24
-10.00000000000001
 34
0.0
 50
90.0000000000002
100
AcDbRotatedDimension
  0
DIMENSION
  5
100
330
1F
100
AcDbEntity
  8
치수문자_일반주서
100
AcDbDimension
  2
_D_3
 10
72.00000000000003
 20
20.84039816179469
 30
0.0
 11
42.0
 21
20.84039816179469
 31
0.0
 70
   160
  1
<>
 71
     2
 42
60.00000000000002
  3
SLDDIMSTYLE1
100
AcDbAlignedDimension
 13
12.00000000000001
 23
9.994479859207045
 33
0.0
 14
72.00000000000003
 24
-0.5000000000000009
 34
0.0
 50
-0.0000000000000068
100
AcDbRotatedDimension
  0
INSERT
  5
110
330
1F
100
AcDbEntity
  8
해칭선
100
AcDbBlockReference
  2
SW_DOWELSYMBOL_0
 10
0.0003749019989747
 20
-0.0000000000000043
 30
0.0
  0
ENDSEC
  0
SECTION
  2
OBJECTS
  0
DICTIONARY
  5
C
330
0
100
AcDbDictionary
281
     1
  3
ACAD_GROUP
350
D
  3
ACAD_IMAGE_VARS
350
134
  3
ACAD_LAYOUT
350
1A
  3
ACAD_MLINESTYLE
350
17
  3
ACAD_PLOTSETTINGS
350
19
  3
ACAD_PLOTSTYLENAME
350
E
  3
ACAD_SCALELIST
350
47
  3
APPDATA
350
132
  3
DWGPROPS
350
143
  0
DICTIONARY
  5
D
102
{ACAD_REACTORS
330
C
102
}
330
C
100
AcDbDictionary
281
     1
  0
RASTERVARIABLES
  5
134
102
{ACAD_REACTORS
330
C
102
}
330
C
100
AcDbRasterVariables
 90
        0
 70
     1
 71
     1
 72
     1
  0
DICTIONARY
  5
1A
102
{ACAD_REACTORS
330
C
102
}
330
C
100
AcDbDictionary
281
     1
  3
Layout1
350
1E
  3
Layout2
350
26
  3
Model
350
22
  0
DICTIONARY
  5
17
102
{ACAD_REACTORS
330
C
102
}
330
C
100
AcDbDictionary
281
     1
  3
Standard
350
18
  0
DICTIONARY
  5
19
102
{ACAD_REACTORS
330
C
102
}
330
C
100
AcDbDictionary
281
     1
  0
ACDBDICTIONARYWDFLT
  5
E
102
{ACAD_REACTORS
330
C
102
}
330
C
100
AcDbDictionary
281
     1
  3
Normal
350
F
100
AcDbDictionaryWithDefault
340
F
  0
DICTIONARY
  5
47
102
{ACAD_REACTORS
330
C
102
}
330
C
100
AcDbDictionary
281
     1
  3
A0
350
48
  3
A1
350
49
  3
A2
350
4A
  3
A3
350
4B
  3
A4
350
4C
  3
A5
350
4D
  3
A6
350
4E
  3
A7
350
4F
  3
A8
350
50
  3
A9
350
51
  3
B0
350
52
  3
B1
350
53
  3
B2
350
54
  3
B3
350
55
  3
B4
350
56
  3
B5
350
57
  3
B6
350
58
  3
B7
350
59
  3
B8
350
5A
  3
B9
350
5B
  3
C0
350
5C
  3
C1
350
5D
  3
C2
350
5E
  3
C3
350
5F
  3
C4
350
60
  3
C5
350
61
  3
C6
350
62
  3
C7
350
63
  3
C8
350
64
  3
C9
350
65
  3
D0
350
66
  3
D1
350
67
  3
D2
350
68
  0
DICTIONARY
  5
132
102
{ACAD_REACTORS
330
C
102
}
330
C
100
AcDbDictionary
281
     1
  0
XRECORD
  5
143
102
{ACAD_REACTORS
330
C
102
}
330
C
100
AcDbXrecord
280
     1
  1
DWGPROPS COOKIE
  2

  3

  4

  6

  7

  8
12014102
  9

300
=
301
=
302
=
303
=
304
=
305
=
306
=
307
=
308
=
309
=
 40
0.0
 41
2458260.211098611
 42
2458268.225164121
  1

 90
        0
  0
LAYOUT
  5
1E
102
{ACAD_REACTORS
330
1A
102
}
330
1A
100
AcDbPlotSettings
  1

  2
none_device
  4

  6

 40
0.0
 41
0.0
 42
0.0
 43
0.0
 44
0.0
 45
0.0
 46
0.0
 47
0.0
 48
0.0
 49
0.0
140
0.0
141
0.0
142
1.0
143
1.0
 70
   688
 72
     1
 73
     0
 74
     5
  7

 75
    16
147
1.0
148
0.0
149
0.0
100
AcDbLayout
  1
Layout1
 70
     1
 71
     1
 10
0.0
 20
0.0
 11
420.0
 21
297.0
 12
0.0
 22
0.0
 32
0.0
 14
1.000000000000000E+20
 24
1.000000000000000E+20
 34
1.000000000000000E+20
 15
-1.000000000000000E+20
 25
-1.000000000000000E+20
 35
-1.000000000000000E+20
146
0.0
 13
0.0
 23
0.0
 33
0.0
 16
1.0
 26
0.0
 36
0.0
 17
0.0
 27
1.0
 37
0.0
 76
     0
330
1B
  0
LAYOUT
  5
26
102
{ACAD_REACTORS
330
1A
102
}
330
1A
100
AcDbPlotSettings
  1

  2
none_device
  4

  6

 40
0.0
 41
0.0
 42
0.0
 43
0.0
 44
0.0
 45
0.0
 46
0.0
 47
0.0
 48
0.0
 49
0.0
140
0.0
141
0.0
142
1.0
143
1.0
 70
   688
 72
     1
 73
     0
 74
     5
  7

 75
    16
147
1.0
148
0.0
149
0.0
100
AcDbLayout
  1
Layout2
 70
     1
 71
     2
 10
0.0
 20
0.0
 11
0.0
 21
0.0
 12
0.0
 22
0.0
 32
0.0
 14
0.0
 24
0.0
 34
0.0
 15
0.0
 25
0.0
 35
0.0
146
0.0
 13
0.0
 23
0.0
 33
0.0
 16
1.0
 26
0.0
 36
0.0
 17
0.0
 27
1.0
 37
0.0
 76
     0
330
23
  0
LAYOUT
  5
22
102
{ACAD_REACTORS
330
1A
102
}
330
1A
100
AcDbPlotSettings
  1

  2
none_device
  4
ANSI_A_(11.00_x_8.50_Inches)
  6

 40
6.35
 41
19.05
 42
6.35000508
 43
19.05000254
 44
279.4
 45
215.9
 46
123.4951607295278
 47
104.6837840024109
 48
0.0
 49
0.0
140
0.0
141
0.0
142
0.0660549617320314
143
1.0
 70
  1696
 72
     0
 73
     0
 74
     0
  7

 75
     0
147
0.0235690232323232
148
0.0
149
0.0
100
AcDbLayout
  1
Model
 70
     1
 71
     0
 10
0.0
 20
0.0
 11
420.0
 21
297.0
 12
0.0
 22
0.0
 32
0.0
 14
-76.43609890939247
 24
-49.97180738881174
 34
0.0
 15
89.77893923358504
 25
31.76413260158164
 35
0.0
146
0.0
 13
0.0
 23
0.0
 33
0.0
 16
1.0
 26
0.0
 36
0.0
 17
0.0
 27
1.0
 37
0.0
 76
     0
330
1F
331
29
  0
MLINESTYLE
  5
18
102
{ACAD_REACTORS
330
17
102
}
330
17
100
AcDbMlineStyle
  2
Standard
 70
     0
  3

 62
   256
 51
90.0
 52
90.0
 71
     2
 49
0.5
 62
   256
  6
BYLAYER
 49
-0.5
 62
   256
  6
BYLAYER
  0
ACDBPLACEHOLDER
  5
F
102
{ACAD_REACTORS
330
E
102
}
330
E
  0
SCALE
  5
48
102
{ACAD_REACTORS
330
47
102
}
330
47
100
AcDbScale
 70
     0
300
1:1
140
1.0
141
1.0
290
     1
  0
SCALE
  5
49
102
{ACAD_REACTORS
330
47
102
}
330
47
100
AcDbScale
 70
     0
300
1:2
140
1.0
141
2.0
290
     0
  0
SCALE
  5
4A
102
{ACAD_REACTORS
330
47
102
}
330
47
100
AcDbScale
 70
     0
300
1:4
140
1.0
141
4.0
290
     0
  0
SCALE
  5
4B
102
{ACAD_REACTORS
330
47
102
}
330
47
100
AcDbScale
 70
     0
300
1:5
140
1.0
141
5.0
290
     0
  0
SCALE
  5
4C
102
{ACAD_REACTORS
330
47
102
}
330
47
100
AcDbScale
 70
     0
300
1:8
140
1.0
141
8.0
290
     0
  0
SCALE
  5
4D
102
{ACAD_REACTORS
330
47
102
}
330
47
100
AcDbScale
 70
     0
300
1:10
140
1.0
141
10.0
290
     0
  0
SCALE
  5
4E
102
{ACAD_REACTORS
330
47
102
}
330
47
100
AcDbScale
 70
     0
300
1:16
140
1.0
141
16.0
290
     0
  0
SCALE
  5
4F
102
{ACAD_REACTORS
330
47
102
}
330
47
100
AcDbScale
 70
     0
300
1:20
140
1.0
141
20.0
290
     0
  0
SCALE
  5
50
102
{ACAD_REACTORS
330
47
102
}
330
47
100
AcDbScale
 70
     0
300
1:30
140
1.0
141
30.0
290
     0
  0
SCALE
  5
51
102
{ACAD_REACTORS
330
47
102
}
330
47
100
AcDbScale
 70
     0
300
1:40
140
1.0
141
40.0
290
     0
  0
SCALE
  5
52
102
{ACAD_REACTORS
330
47
102
}
330
47
100
AcDbScale
 70
     0
300
1:50
140
1.0
141
50.0
290
     0
  0
SCALE
  5
53
102
{ACAD_REACTORS
330
47
102
}
330
47
100
AcDbScale
 70
     0
300
1:100
140
1.0
141
100.0
290
     0
  0
SCALE
  5
54
102
{ACAD_REACTORS
330
47
102
}
330
47
100
AcDbScale
 70
     0
300
2:1
140
2.0
141
1.0
290
     0
  0
SCALE
  5
55
102
{ACAD_REACTORS
330
47
102
}
330
47
100
AcDbScale
 70
     0
300
4:1
140
4.0
141
1.0
290
     0
  0
SCALE
  5
56
102
{ACAD_REACTORS
330
47
102
}
330
47
100
AcDbScale
 70
     0
300
8:1
140
8.0
141
1.0
290
     0
  0
SCALE
  5
57
102
{ACAD_REACTORS
330
47
102
}
330
47
100
AcDbScale
 70
     0
300
10:1
140
10.0
141
1.0
290
     0
  0
SCALE
  5
58
102
{ACAD_REACTORS
330
47
102
}
330
47
100
AcDbScale
 70
     0
300
100:1
140
100.0
141
1.0
290
     0
  0
SCALE
  5
59
102
{ACAD_REACTORS
330
47
102
}
330
47
100
AcDbScale
 70
     0
300
1/128" = 1'-0"
140
0.0078125
141
12.0
290
     0
  0
SCALE
  5
5A
102
{ACAD_REACTORS
330
47
102
}
330
47
100
AcDbScale
 70
     0
300
1/64" = 1'-0"
140
0.015625
141
12.0
290
     0
  0
SCALE
  5
5B
102
{ACAD_REACTORS
330
47
102
}
330
47
100
AcDbScale
 70
     0
300
1/32" = 1'-0"
140
0.03125
141
12.0
290
     0
  0
SCALE
  5
5C
102
{ACAD_REACTORS
330
47
102
}
330
47
100
AcDbScale
 70
     0
300
1/16" = 1'-0"
140
0.0625
141
12.0
290
     0
  0
SCALE
  5
5D
102
{ACAD_REACTORS
330
47
102
}
330
47
100
AcDbScale
 70
     0
300
3/32" = 1'-0"
140
0.09375
141
12.0
290
     0
  0
SCALE
  5
5E
102
{ACAD_REACTORS
330
47
102
}
330
47
100
AcDbScale
 70
     0
300
1/8" = 1'-0"
140
0.125
141
12.0
290
     0
  0
SCALE
  5
5F
102
{ACAD_REACTORS
330
47
102
}
330
47
100
AcDbScale
 70
     0
300
3/16" = 1'-0"
140
0.1875
141
12.0
290
     0
  0
SCALE
  5
60
102
{ACAD_REACTORS
330
47
102
}
330
47
100
AcDbScale
 70
     0
300
1/4" = 1'-0"
140
0.25
141
12.0
290
     0
  0
SCALE
  5
61
102
{ACAD_REACTORS
330
47
102
}
330
47
100
AcDbScale
 70
     0
300
3/8" = 1'-0"
140
0.375
141
12.0
290
     0
  0
SCALE
  5
62
102
{ACAD_REACTORS
330
47
102
}
330
47
100
AcDbScale
 70
     0
300
1/2" = 1'-0"
140
0.5
141
12.0
290
     0
  0
SCALE
  5
63
102
{ACAD_REACTORS
330
47
102
}
330
47
100
AcDbScale
 70
     0
300
3/4" = 1'-0"
140
0.75
141
12.0
290
     0
  0
SCALE
  5
64
102
{ACAD_REACTORS
330
47
102
}
330
47
100
AcDbScale
 70
     0
300
1" = 1'-0"
140
1.0
141
12.0
290
     0
  0
SCALE
  5
65
102
{ACAD_REACTORS
330
47
102
}
330
47
100
AcDbScale
 70
     0
300
1-1/2" = 1'-0"
140
1.5
141
12.0
290
     0
  0
SCALE
  5
66
102
{ACAD_REACTORS
330
47
102
}
330
47
100
AcDbScale
 70
     0
300
3" = 1'-0"
140
3.0
141
12.0
290
     0
  0
SCALE
  5
67
102
{ACAD_REACTORS
330
47
102
}
330
47
100
AcDbScale
 70
     0
300
6" = 1'-0"
140
6.0
141
12.0
290
     0
  0
SCALE
  5
68
102
{ACAD_REACTORS
330
47
102
}
330
47
100
AcDbScale
 70
     0
300
1'-0" = 1'-0"
140
12.0
141
12.0
290
     0
  0
ENDSEC
  0
EOF
