  0
SECTION
  2
HEADER
  9
$ACADVER
  1
AC1015
  9
$ACADMAINTVER
 70
     6
  9
$DWGCODEPAGE
  3
ANSI_949
  9
$INSBASE
 10
0.0
 20
0.0
 30
0.0
  9
$EXTMIN
 10
-104.6207642925971
 20
-49.97180738881174
 30
0.0
  9
$EXTMAX
 10
76.06802520924217
 20
31.76413260158163
 30
0.0
  9
$LIMMIN
 10
0.0
 20
0.0
  9
$LIMMAX
 10
420.0
 20
297.0
  9
$ORTHOMODE
 70
     0
  9
$REGENMODE
 70
     1
  9
$FILLMODE
 70
     1
  9
$QTEXTMODE
 70
     0
  9
$MIRRTEXT
 70
     1
  9
$LTSCALE
 40
1.0
  9
$ATTMODE
 70
     1
  9
$TEXTSIZE
 40
3.5
  9
$TRACEWID
 40
1.0
  9
$TEXTSTYLE
  7
Standard
  9
$CLAYER
  8
0
  9
$CELTYPE
  6
ByLayer
  9
$CECOLOR
 62
   256
  9
$CELTSCALE
 40
1.0
  9
$DISPSILH
 70
     0
  9
$DIMSCALE
 40
1.0
  9
$DIMASZ
 40
3.302
  9
$DIMEXO
 40
1.0
  9
$DIMDLI
 40
3.75
  9
$DIMRND
 40
0.0
  9
$DIMDLE
 40
0.0
  9
$DIMEXE
 40
1.0
  9
$DIMTP
 40
0.0
  9
$DIMTM
 40
0.0
  9
$DIMTXT
 40
3.5
  9
$DIMCEN
 40
2.5
  9
$DIMTSZ
 40
0.0
  9
$DIMTOL
 70
     0
  9
$DIMLIM
 70
     0
  9
$DIMTIH
 70
     1
  9
$DIMTOH
 70
     1
  9
$DIMSE1
 70
     0
  9
$DIMSE2
 70
     0
  9
$DIMTAD
 70
     1
  9
$DIMZIN
 70
     0
  9
$DIMBLK
  1

  9
$DIMASO
 70
     1
  9
$DIMSHO
 70
     1
  9
$DIMPOST
  1

  9
$DIMAPOST
  1

  9
$DIMALT
 70
     0
  9
$DIMALTD
 70
     3
  9
$DIMALTF
 40
0.0393700787401575
  9
$DIMLFAC
 40
1.0
  9
$DIMTOFL
 70
     1
  9
$DIMTVP
 40
0.0
  9
$DIMTIX
 70
     0
  9
$DIMSOXD
 70
     0
  9
$DIMSAH
 70
     0
  9
$DIMBLK1
  1

  9
$DIMBLK2
  1

  9
$DIMSTYLE
  2
ISO-25
  9
$DIMCLRD
 70
     0
  9
$DIMCLRE
 70
     0
  9
$DIMCLRT
 70
     0
  9
$DIMTFAC
 40
1.0
  9
$DIMGAP
 40
1.524
  9
$DIMJUST
 70
     0
  9
$DIMSD1
 70
     0
  9
$DIMSD2
 70
     0
  9
$DIMTOLJ
 70
     0
  9
$DIMTZIN
 70
     0
  9
$DIMALTZ
 70
     0
  9
$DIMALTTZ
 70
     0
  9
$DIMUPT
 70
     0
  9
$DIMDEC
 70
     2
  9
$DIMTDEC
 70
     2
  9
$DIMALTU
 70
     2
  9
$DIMALTTD
 70
     3
  9
$DIMTXSTY
  7
Standard
  9
$DIMAUNIT
 70
     0
  9
$DIMADEC
 70
     2
  9
$DIMALTRND
 40
0.0
  9
$DIMAZIN
 70
     0
  9
$DIMDSEP
 70
    44
  9
$DIMATFIT
 70
     3
  9
$DIMFRAC
 70
     0
  9
$DIMLDRBLK
  1

  9
$DIMLUNIT
 70
     2
  9
$DIMLWD
 70
    -2
  9
$DIMLWE
 70
    -2
  9
$DIMTMOVE
 70
     0
  9
$LUNITS
 70
     2
  9
$LUPREC
 70
     2
  9
$SKETCHINC
 40
1.0
  9
$FILLETRAD
 40
10.0
  9
$AUNITS
 70
     0
  9
$AUPREC
 70
     2
  9
$MENU
  1
.
  9
$ELEVATION
 40
0.0
  9
$PELEVATION
 40
0.0
  9
$THICKNESS
 40
0.0
  9
$LIMCHECK
 70
     0
  9
$CHAMFERA
 40
0.0
  9
$CHAMFERB
 40
0.0
  9
$CHAMFERC
 40
0.0
  9
$CHAMFERD
 40
0.0
  9
$SKPOLY
 70
     0
  9
$TDCREATE
 40
2458260.585720162
  9
$TDUCREATE
 40
2458260.210720162
  9
$TDUPDATE
 40
2458268.662997998
  9
$TDUUPDATE
 40
2458268.287997998
  9
$TDINDWG
 40
0.0009547338
  9
$TDUSRTIMER
 40
2458268.28704331
  9
$USRTIMER
 70
     1
  9
$ANGBASE
 50
0.0
  9
$ANGDIR
 70
     0
  9
$PDMODE
 70
     0
  9
$PDSIZE
 40
-1.0
  9
$PLINEWID
 40
0.0
  9
$SPLFRAME
 70
     0
  9
$SPLINETYPE
 70
     6
  9
$SPLINESEGS
 70
     8
  9
$HANDSEED
  5
140
  9
$SURFTAB1
 70
     6
  9
$SURFTAB2
 70
     6
  9
$SURFTYPE
 70
     6
  9
$SURFU
 70
     6
  9
$SURFV
 70
     6
  9
$UCSBASE
  2

  9
$UCSNAME
  2

  9
$UCSORG
 10
0.0
 20
0.0
 30
0.0
  9
$UCSXDIR
 10
1.0
 20
0.0
 30
0.0
  9
$UCSYDIR
 10
0.0
 20
1.0
 30
0.0
  9
$UCSORTHOREF
  2

  9
$UCSORTHOVIEW
 70
     0
  9
$UCSORGTOP
 10
0.0
 20
0.0
 30
0.0
  9
$UCSORGBOTTOM
 10
0.0
 20
0.0
 30
0.0
  9
$UCSORGLEFT
 10
0.0
 20
0.0
 30
0.0
  9
$UCSORGRIGHT
 10
0.0
 20
0.0
 30
0.0
  9
$UCSORGFRONT
 10
0.0
 20
0.0
 30
0.0
  9
$UCSORGBACK
 10
0.0
 20
0.0
 30
0.0
  9
$PUCSBASE
  2

  9
$PUCSNAME
  2

  9
$PUCSORG
 10
0.0
 20
0.0
 30
0.0
  9
$PUCSXDIR
 10
1.0
 20
0.0
 30
0.0
  9
$PUCSYDIR
 10
0.0
 20
1.0
 30
0.0
  9
$PUCSORTHOREF
  2

  9
$PUCSORTHOVIEW
 70
     0
  9
$PUCSORGTOP
 10
0.0
 20
0.0
 30
0.0
  9
$PUCSORGBOTTOM
 10
0.0
 20
0.0
 30
0.0
  9
$PUCSORGLEFT
 10
0.0
 20
0.0
 30
0.0
  9
$PUCSORGRIGHT
 10
0.0
 20
0.0
 30
0.0
  9
$PUCSORGFRONT
 10
0.0
 20
0.0
 30
0.0
  9
$PUCSORGBACK
 10
0.0
 20
0.0
 30
0.0
  9
$USERI1
 70
     0
  9
$USERI2
 70
     0
  9
$USERI3
 70
     0
  9
$USERI4
 70
     0
  9
$USERI5
 70
     0
  9
$USERR1
 40
0.0
  9
$USERR2
 40
0.0
  9
$USERR3
 40
0.0
  9
$USERR4
 40
0.0
  9
$USERR5
 40
0.0
  9
$WORLDVIEW
 70
     1
  9
$SHADEDGE
 70
     3
  9
$SHADEDIF
 70
    70
  9
$TILEMODE
 70
     1
  9
$MAXACTVP
 70
    64
  9
$PINSBASE
 10
0.0
 20
0.0
 30
0.0
  9
$PLIMCHECK
 70
     0
  9
$PEXTMIN
 10
1.000000000000000E+20
 20
1.000000000000000E+20
 30
1.000000000000000E+20
  9
$PEXTMAX
 10
-1.000000000000000E+20
 20
-1.000000000000000E+20
 30
-1.000000000000000E+20
  9
$PLIMMIN
 10
0.0
 20
0.0
  9
$PLIMMAX
 10
0.0
 20
0.0
  9
$UNITMODE
 70
     0
  9
$VISRETAIN
 70
     1
  9
$PLINEGEN
 70
     0
  9
$PSLTSCALE
 70
     1
  9
$TREEDEPTH
 70
  3020
  9
$CMLSTYLE
  2
Standard
  9
$CMLJUST
 70
     0
  9
$CMLSCALE
 40
20.0
  9
$PROXYGRAPHICS
 70
     1
  9
$MEASUREMENT
 70
     1
  9
$CELWEIGHT
370
    -1
  9
$ENDCAPS
280
     0
  9
$JOINSTYLE
280
     0
  9
$LWDISPLAY
290
     1
  9
$INSUNITS
 70
     4
  9
$HYPERLINKBASE
  1

  9
$STYLESHEET
  1

  9
$XEDIT
290
     1
  9
$CEPSNTYPE
380
     0
  9
$PSTYLEMODE
290
     1
  9
$FINGERPRINTGUID
  2
{F30B8D93-E61C-439A-B87E-5E036546A90D}
  9
$VERSIONGUID
  2
{FAEB1C32-E019-11D5-929B-00C0DF256EC4}
  9
$EXTNAMES
290
     1
  9
$PSVPSCALE
 40
0.0
  9
$OLESTARTUP
290
     0
  0
ENDSEC
  0
SECTION
  2
CLASSES
  0
CLASS
  1
ACDBDICTIONARYWDFLT
  2
AcDbDictionaryWithDefault
  3
ObjectDBX Classes
 90
        0
280
     0
281
     0
  0
CLASS
  1
VISUALSTYLE
  2
AcDbVisualStyle
  3
ObjectDBX Classes
 90
     4095
280
     0
281
     0
  0
CLASS
  1
MATERIAL
  2
AcDbMaterial
  3
ObjectDBX Classes
 90
     1153
280
     0
281
     0
  0
CLASS
  1
SCALE
  2
AcDbScale
  3
ObjectDBX Classes
 90
     1153
280
     0
281
     0
  0
CLASS
  1
TABLESTYLE
  2
AcDbTableStyle
  3
ObjectDBX Classes
 90
     4095
280
     0
281
     0
  0
CLASS
  1
MLEADERSTYLE
  2
AcDbMLeaderStyle
  3
ACDB_MLEADERSTYLE_CLASS
 90
     4095
280
     0
281
     0
  0
CLASS
  1
SUN
  2
AcDbSun
  3
SCENEOE
 90
     1153
280
     0
281
     0
  0
CLASS
  1
ACDBPLACEHOLDER
  2
AcDbPlaceHolder
  3
ObjectDBX Classes
 90
        0
280
     0
281
     0
  0
CLASS
  1
LAYOUT
  2
AcDbLayout
  3
ObjectDBX Classes
 90
        0
280
     0
281
     0
  0
CLASS
  1
RASTERVARIABLES
  2
AcDbRasterVariables
  3
ISM
 90
        0
280
     0
281
     0
  0
ENDSEC
  0
SECTION
  2
TABLES
  0
TABLE
  2
VPORT
  5
8
330
0
100
AcDbSymbolTable
 70
     1
  0
VPORT
  5
29
330
8
100
AcDbSymbolTableRecord
100
AcDbViewportTableRecord
  2
*Active
 70
     0
 10
0.0
 20
0.0
 11
1.0
 21
1.0
 12
-14.27636954167748
 22
-9.103837393615052
 13
0.0
 23
0.0
 14
10.0
 24
10.0
 15
10.0
 25
10.0
 16
0.0
 26
0.0
 36
1.0
 17
0.0
 27
0.0
 37
0.0
 40
106.3759772825593
 41
1.732558139534884
 42
50.0
 43
0.0
 44
0.0
 50
0.0
 51
0.0
 71
    16
 72
  2000
 73
     1
 74
     3
 75
     0
 76
     0
 77
     0
 78
     0
281
     0
 65
     1
110
0.0
120
0.0
130
0.0
111
1.0
121
0.0
131
0.0
112
0.0
122
1.0
132
0.0
 79
     0
146
0.0
  0
ENDTAB
  0
TABLE
  2
LTYPE
  5
5
330
0
100
AcDbSymbolTable
 70
     6
  0
LTYPE
  5
14
330
5
100
AcDbSymbolTableRecord
100
AcDbLinetypeTableRecord
  2
ByBlock
 70
     0
  3

 72
    65
 73
     0
 40
0.0
  0
LTYPE
  5
15
330
5
100
AcDbSymbolTableRecord
100
AcDbLinetypeTableRecord
  2
ByLayer
 70
     0
  3

 72
    65
 73
     0
 40
0.0
  0
LTYPE
  5
16
330
5
100
AcDbSymbolTableRecord
100
AcDbLinetypeTableRecord
  2
Continuous
 70
     0
  3
Solid line
 72
    65
 73
     0
 40
0.0
  0
LTYPE
  5
6E
330
5
100
AcDbSymbolTableRecord
100
AcDbLinetypeTableRecord
  2
HIDDEN
 70
     0
  3
Hidden __ __ __ __ __ __ __ __ __ __ __ __ __ __
 72
    65
 73
     2
 40
1.905
 49
1.27
 74
     0
 49
-0.635
 74
     0
  0
LTYPE
  5
6F
330
5
100
AcDbSymbolTableRecord
100
AcDbLinetypeTableRecord
  2
PHANTOM
 70
     0
  3
Phantom ______  __  __  ______  __  __  ______
 72
    65
 73
     6
 40
12.7
 49
6.35
 74
     0
 49
-1.27
 74
     0
 49
1.27
 74
     0
 49
-1.27
 74
     0
 49
1.27
 74
     0
 49
-1.27
 74
     0
  0
LTYPE
  5
70
330
5
100
AcDbSymbolTableRecord
100
AcDbLinetypeTableRecord
  2
CENTER
 70
     0
  3
Center ____ _ ____ _ ____ _ ____ _ ____ _ ____
 72
    65
 73
     4
 40
10.16
 49
6.35
 74
     0
 49
-1.27
 74
     0
 49
1.27
 74
     0
 49
-1.27
 74
     0
  0
LTYPE
  5
71
330
5
100
AcDbSymbolTableRecord
100
AcDbLinetypeTableRecord
  2
CENTERX2
 70
     0
  3
Center (2x) ________  __  ________  __  _____
 72
    65
 73
     4
 40
20.32
 49
12.7
 74
     0
 49
-2.54
 74
     0
 49
2.54
 74
     0
 49
-2.54
 74
     0
  0
LTYPE
  5
72
330
5
100
AcDbSymbolTableRecord
100
AcDbLinetypeTableRecord
  2
DOT2
 70
     0
  3
Dot (.5x) ........................................
 72
    65
 73
     2
 40
0.635
 49
0.0
 74
     0
 49
-0.635
 74
     0
  0
ENDTAB
  0
TABLE
  2
LAYER
  5
2
330
0
100
AcDbSymbolTable
 70
    17
  0
LAYER
  5
10
330
2
100
AcDbSymbolTableRecord
100
AcDbLayerTableRecord
  2
0
 70
     0
 62
     7
  6
Continuous
370
    -3
390
F
  0
LAYER
  5
73
330
2
100
AcDbSymbolTableRecord
100
AcDbLayerTableRecord
  2
FORMAT
 70
     0
 62
     2
  6
Continuous
370
    -3
390
F
  0
LAYER
  5
74
330
2
100
AcDbSymbolTableRecord
100
AcDbLayerTableRecord
  2
외형선
 70
     0
 62
   100
  6
Continuous
370
    35
390
F
  0
LAYER
  5
75
330
2
100
AcDbSymbolTableRecord
100
AcDbLayerTableRecord
  2
숨은선
 70
     0
 62
     2
  6
HIDDEN
370
    25
390
F
  0
LAYER
  5
76
330
2
100
AcDbSymbolTableRecord
100
AcDbLayerTableRecord
  2
중심선
 70
     0
 62
     1
  6
CENTERX2
370
    -3
390
F
  0
LAYER
  5
77
330
2
100
AcDbSymbolTableRecord
100
AcDbLayerTableRecord
  2
파단선
 70
     0
 62
     4
  6
Continuous
370
    -3
390
F
  0
LAYER
  5
78
330
2
100
AcDbSymbolTableRecord
100
AcDbLayerTableRecord
  2
해칭선
 70
     0
 62
   100
  6
Continuous
370
    -3
390
F
  0
LAYER
  5
79
330
2
100
AcDbSymbolTableRecord
100
AcDbLayerTableRecord
  2
가는실선
 70
     0
 62
     4
  6
Continuous
370
    -3
390
F
  0
LAYER
  5
7A
330
2
100
AcDbSymbolTableRecord
100
AcDbLayerTableRecord
  2
치수_보조선
 70
     0
 62
     4
  6
Continuous
370
    -3
390
F
  0
LAYER
  5
7B
330
2
100
AcDbSymbolTableRecord
100
AcDbLayerTableRecord
  2
치수문자_일반주서
 70
     0
 62
     7
  6
Continuous
370
    25
390
F
  0
LAYER
  5
7C
330
2
100
AcDbSymbolTableRecord
100
AcDbLayerTableRecord
  2
개별주서
 70
     0
 62
   100
  6
Continuous
370
    35
390
F
  0
LAYER
  5
7D
330
2
100
AcDbSymbolTableRecord
100
AcDbLayerTableRecord
  2
중간선
 70
     0
 62
     2
  6
Continuous
370
    25
390
F
  0
LAYER
  5
7E
330
2
100
AcDbSymbolTableRecord
100
AcDbLayerTableRecord
  2
윤곽선
 70
     0
 62
     3
  6
Continuous
370
    50
390
F
  0
LAYER
  5
7F
330
2
100
AcDbSymbolTableRecord
100
AcDbLayerTableRecord
  2
중심마크
 70
     0
 62
   100
  6
Continuous
370
    35
390
F
  0
LAYER
  5
80
330
2
100
AcDbSymbolTableRecord
100
AcDbLayerTableRecord
  2
가상선
 70
     0
 62
     4
  6
PHANTOM
370
    -3
390
F
  0
LAYER
  5
81
330
2
100
AcDbSymbolTableRecord
100
AcDbLayerTableRecord
  2
특수지정선
 70
     0
 62
     5
  6
CENTERX2
370
    70
390
F
  0
LAYER
  5
130
330
2
100
AcDbSymbolTableRecord
100
AcDbLayerTableRecord
  2
Defpoints
 70
     0
 62
     7
  6
Continuous
290
     0
370
    -3
390
F
  0
ENDTAB
  0
TABLE
  2
STYLE
  5
3
330
0
100
AcDbSymbolTable
 70
     2
  0
STYLE
  5
11
330
3
100
AcDbSymbolTableRecord
100
AcDbTextStyleTableRecord
  2
Standard
 70
     0
 40
0.0
 41
1.0
 50
0.0
 71
     0
 42
3.5
  3
txt
  4

  0
STYLE
  5
97
330
3
100
AcDbSymbolTableRecord
100
AcDbTextStyleTableRecord
  2
SLDTEXTSTYLE0
 70
     0
 40
0.0
 41
0.75
 50
0.0
 71
     0
 42
3.5
  3
TXT
  4

  0
ENDTAB
  0
TABLE
  2
VIEW
  5
6
330
0
100
AcDbSymbolTable
 70
     0
  0
ENDTAB
  0
TABLE
  2
UCS
  5
7
330
0
100
AcDbSymbolTable
 70
     0
  0
ENDTAB
  0
TABLE
  2
APPID
  5
9
330
0
100
AcDbSymbolTable
 70
     1
  0
APPID
  5
12
330
9
100
AcDbSymbolTableRecord
100
AcDbRegAppTableRecord
  2
ACAD
 70
     0
  0
ENDTAB
  0
TABLE
  2
DIMSTYLE
  5
A
330
0
100
AcDbSymbolTable
 70
     4
100
AcDbDimStyleTable
  0
DIMSTYLE
105
27
330
A
100
AcDbSymbolTableRecord
100
AcDbDimStyleTableRecord
  2
ISO-25
 70
     0
 41
2.5
 42
0.625
 43
3.75
 44
1.25
 73
     0
 74
     0
 77
     1
 78
     8
140
2.5
141
2.5
143
0.03937007874016
147
0.625
171
     3
172
     1
178
     0
271
     2
272
     2
274
     3
278
    44
283
     0
284
     8
340
11
  0
DIMSTYLE
105
D5
102
{ACAD_REACTORS
330
D4
102
}
330
A
100
AcDbSymbolTableRecord
100
AcDbDimStyleTableRecord
  2
SLDDIMSTYLE0
 70
     0
 41
3.302
 44
0.0
 45
0.000000001
 73
     0
 74
     0
 77
     1
 78
    12
 79
     3
140
3.5
147
0.875
172
     1
173
     1
178
     0
271
     1
272
     1
276
     2
284
    12
289
     0
340
97
  0
DIMSTYLE
105
E3
102
{ACAD_REACTORS
330
E2
330
FB
102
}
330
A
100
AcDbSymbolTableRecord
100
AcDbDimStyleTableRecord
  2
SLDDIMSTYLE1
 70
     0
 41
3.302
 44
0.0
 45
0.000000001
 73
     0
 74
     0
 77
     1
 78
    12
 79
     3
140
3.5
147
0.875
173
     1
178
     0
271
     2
272
     2
276
     2
284
    12
340
97
  0
DIMSTYLE
105
EE
102
{ACAD_REACTORS
330
ED
102
}
330
A
100
AcDbSymbolTableRecord
100
AcDbDimStyleTableRecord
  2
SLDDIMSTYLE2
 70
     0
 41
3.302
 44
0.0
 45
0.000000001
 73
     0
 74
     0
 77
     1
 78
    12
 79
     3
140
3.5
147
0.875
172
     1
173
     1
178
     0
271
     2
272
     2
276
     2
284
    12
289
     0
340
97
  0
ENDTAB
  0
TABLE
  2
BLOCK_RECORD
  5
1
330
0
100
AcDbSymbolTable
 70
     7
  0
BLOCK_RECORD
  5
1F
330
1
100
AcDbSymbolTableRecord
100
AcDbBlockTableRecord
  2
*Model_Space
340
22
  0
BLOCK_RECORD
  5
1B
330
1
100
AcDbSymbolTableRecord
100
AcDbBlockTableRecord
  2
*Paper_Space
340
1E
  0
BLOCK_RECORD
  5
23
330
1
100
AcDbSymbolTableRecord
100
AcDbBlockTableRecord
  2
*Paper_Space0
340
26
  0
BLOCK_RECORD
  5
82
330
1
100
AcDbSymbolTableRecord
100
AcDbBlockTableRecord
  2
블럭10
340
0
102
{BLKREFS
331
CD
102
}
  0
BLOCK_RECORD
  5
D6
330
1
100
AcDbSymbolTableRecord
100
AcDbBlockTableRecord
  2
_D
340
0
  0
BLOCK_RECORD
  5
E4
330
1
100
AcDbSymbolTableRecord
100
AcDbBlockTableRecord
  2
_D_1
340
0
  0
BLOCK_RECORD
  5
EF
330
1
100
AcDbSymbolTableRecord
100
AcDbBlockTableRecord
  2
_D_2
340
0
  0
BLOCK_RECORD
  5
FC
330
1
100
AcDbSymbolTableRecord
100
AcDbBlockTableRecord
  2
_D_3
340
0
  0
BLOCK_RECORD
  5
105
330
1
100
AcDbSymbolTableRecord
100
AcDbBlockTableRecord
  2
SW_DOWELSYMBOL_0
340
0
102
{BLKREFS
331
10B
102
}
  0
ENDTAB
  0
ENDSEC
  0
SECTION
  2
BLOCKS
  0
BLOCK
  5
20
330
1F
100
AcDbEntity
  8
0
100
AcDbBlockBegin
  2
*Model_Space
 70
     0
 10
0.0
 20
0.0
 30
0.0
  3
*Model_Space
  1

  0
ENDBLK
  5
21
330
1F
100
AcDbEntity
  8
0
100
AcDbBlockEnd
  0
BLOCK
  5
1C
330
1B
100
AcDbEntity
 67
     1
  8
0
100
AcDbBlockBegin
  2
*Paper_Space
 70
     0
 10
0.0
 20
0.0
 30
0.0
  3
*Paper_Space
  1

  0
ENDBLK
  5
1D
330
1B
100
AcDbEntity
 67
     1
  8
0
100
AcDbBlockEnd
  0
BLOCK
  5
24
330
23
100
AcDbEntity
  8
0
100
AcDbBlockBegin
  2
*Paper_Space0
 70
     0
 10
0.0
 20
0.0
 30
0.0
  3
*Paper_Space0
  1

  0
ENDBLK
  5
25
330
23
100
AcDbEntity
  8
0
100
AcDbBlockEnd
  0
BLOCK
  5
83
330
82
100
AcDbEntity
  8
0
100
AcDbBlockBegin
  2
블럭10
 70
     2
 10
0.0
 20
0.0
 30
0.0
  3
블럭10
  1

  0
ELLIPSE
  5
85
330
82
100
AcDbEntity
  8
중심선
100
AcDbEllipse
 10
20.54032771741204
 20
12.0471743016438
 30
0.0
 11
6.600054785286829
 21
-1.261213355974178E-13
 31
0.0
210
0.0
220
0.0
230
1.0
 40
0.636358354079598
 41
0.9219305317359503
 42
6.513795318482858
  0
ELLIPSE
  5
86
330
82
100
AcDbEntity
  8
중심선
100
AcDbEllipse
 10
20.54032771746488
 20
12.04717430159265
 30
0.0
 11
3.960054785062283
 21
1.540847449632565E-10
 31
0.0
210
0.0
220
0.0
230
1.0
 40
0.3939339440162632
 41
1.131841032648279
 42
5.62031148352944
  0
LINE
  5
87
330
82
100
AcDbEntity
  8
중심선
100
AcDbLine
 10
2.268634060543552
 20
16.24717430164393
 30
0.0
 11
5.714909304380834
 21
16.24717430164393
 31
0.0
  0
LINE
  5
88
330
82
100
AcDbEntity
  8
중심선
100
AcDbLine
 10
5.245725140726316
 20
7.84717430164391
 30
0.0
 11
8.692000384563599
 21
7.84717430164391
 31
0.0
  0
LINE
  5
89
330
82
100
AcDbEntity
  8
중심선
100
AcDbLine
 10
15.74043728645272
 20
16.24717430164393
 30
0.0
 11
8.692000384563599
 21
7.84717430164391
 31
0.0
  0
LINE
  5
8A
330
82
100
AcDbEntity
  8
중심선
100
AcDbLine
 10
0.1404042013395286
 20
13.71084872107135
 30
0.0
 11
3.58671253028996
 21
13.71088815037384
 31
0.0
  0
LINE
  5
8B
330
82
100
AcDbEntity
  8
중심선
100
AcDbLine
 10
2.750260043222114
 20
10.84717430164391
 30
0.0
 11
6.196535287059397
 21
10.84717430164391
 31
0.0
  0
LINE
  5
8C
330
82
100
AcDbEntity
  8
중심선
100
AcDbLine
 10
12.29416204261559
 20
16.24717430164393
 30
0.0
 11
5.245725140726316
 21
7.84717430164391
 31
0.0
  0
LINE
  5
8D
330
82
100
AcDbEntity
  8
중심선
100
AcDbLine
 10
10.72767329541681
 20
16.24717430164393
 30
0.0
 11
6.196535287059397
 21
10.84717430164391
 31
0.0
  0
LINE
  5
8E
330
82
100
AcDbEntity
  8
중심선
100
AcDbLine
 10
7.28139805157953
 20
16.24717430164393
 30
0.0
 11
2.750260043222114
 21
10.84717430164391
 31
0.0
  0
LINE
  5
8F
330
82
100
AcDbEntity
  8
중심선
100
AcDbLine
 10
5.714909304380834
 20
16.24717430164393
 30
0.0
 11
3.58671253028996
 21
13.71088815037384
 31
0.0
  0
LINE
  5
90
330
82
100
AcDbEntity
  8
중심선
100
AcDbLine
 10
2.268634060543552
 20
16.24717430164393
 30
0.0
 11
0.1404042013395286
 21
13.71084872107135
 31
0.0
  0
LINE
  5
91
330
82
100
AcDbEntity
  8
중심선
100
AcDbLine
 10
7.28139805157953
 20
16.24717430164393
 30
0.0
 11
10.72767329541681
 21
16.24717430164393
 31
0.0
  0
LINE
  5
92
330
82
100
AcDbEntity
  8
중심선
100
AcDbLine
 10
12.29416204261559
 20
16.24717430164393
 30
0.0
 11
15.74043728645272
 21
16.24717430164393
 31
0.0
  0
LINE
  5
93
330
82
100
AcDbEntity
  8
중심선
100
AcDbLine
 10
19.22036997980202
 20
11.08717430171403
 30
0.0
 11
23.66174974927406
 21
11.08717430171406
 31
0.0
  0
LINE
  5
94
330
82
100
AcDbEntity
  8
중심선
100
AcDbLine
 10
19.22039502424796
 20
13.00717430171391
 30
0.0
 11
19.22036997980202
 21
11.08717430171403
 31
0.0
  0
LINE
  5
95
330
82
100
AcDbEntity
  8
중심선
100
AcDbLine
 10
19.22039502424796
 20
13.00717430171391
 30
0.0
 11
26.96566020931264
 21
13.00717430171391
 31
0.0
  0
LINE
  5
96
330
82
100
AcDbEntity
  8
중심선
100
AcDbLine
 10
22.22332737316547
 20
13.45928029700563
 30
0.0
 11
24.52862924686651
 21
15.39360700705356
 31
0.0
  0
ATTDEF
  5
98
330
82
100
AcDbEntity
  8
FORMAT
 62
     2
100
AcDbText
 10
-20.85824753159254
 20
2.075366912832191
 30
0.0
 40
4.233333333333333
  1
SEME7220050150E [ 4 FLUTE ]
 41
0.75
  7
SLDTEXTSTYLE0
 11
-20.85824753159254
 21
-0.0412997538344756
 31
0.0
100
AcDbAttributeDefinition
  3

  2
AUTOATTR0
 70
     0
 74
     1
  0
ENDBLK
  5
84
330
82
100
AcDbEntity
  8
0
100
AcDbBlockEnd
  0
BLOCK
  5
D7
330
D6
100
AcDbEntity
  8
0
100
AcDbBlockBegin
  2
_D
 70
     0
 10
0.0
 20
0.0
 30
0.0
  3
_D
  1

  0
LINE
  5
D9
330
D6
100
AcDbEntity
  8
치수문자_일반주서
 62
     0
370
    -2
100
AcDbLine
 10
62.0625
 20
-10.00000000000002
 30
0.0
 11
75.51769187590882
 21
-9.999999999999968
 31
0.0
  0
LINE
  5
DA
330
D6
100
AcDbEntity
  8
치수문자_일반주서
 62
     0
370
    -2
100
AcDbLine
 10
62.0625
 20
10.0
 30
0.0
 11
75.51769187590875
 21
10.00000000000005
 31
0.0
  0
LINE
  5
DB
330
D6
100
AcDbEntity
  8
치수문자_일반주서
 62
     0
370
    -2
100
AcDbLine
 10
75.51769187590882
 20
-9.999999999999968
 30
0.0
 11
75.5176918759087
 21
24.91650000000005
 31
0.0
  0
LINE
  5
DC
330
D6
100
AcDbEntity
  8
치수문자_일반주서
 62
     0
370
    -2
100
AcDbLine
 10
75.51769187590882
 20
-9.999999999999968
 30
0.0
 11
75.51769187590875
 21
10.00000000000005
 31
0.0
  0
LINE
  5
DD
330
D6
100
AcDbEntity
  8
치수문자_일반주서
 62
     0
370
    -2
100
AcDbLine
 10
75.51769187590884
 20
-13.30199999999997
 30
0.0
 11
75.51769187590885
 21
-16.60399999999997
 31
0.0
  0
LINE
  5
DE
330
D6
100
AcDbEntity
  8
치수문자_일반주서
 62
     0
370
    -2
100
AcDbLine
 10
75.51769187590874
 20
13.30200000000005
 30
0.0
 11
75.51769187590872
 21
16.60400000000005
 31
0.0
  0
SOLID
  5
DF
330
D6
100
AcDbEntity
  8
치수문자_일반주서
 62
     0
100
AcDbTrace
 10
76.06802520924217
 20
-13.30199999999997
 30
0.0
 11
74.96735854257551
 21
-13.30199999999997
 31
0.0
 12
75.51769187590882
 22
-9.999999999999968
 32
0.0
 13
75.51769187590882
 23
-9.999999999999968
 33
0.0
  0
SOLID
  5
E0
330
D6
100
AcDbEntity
  8
치수문자_일반주서
 62
     0
100
AcDbTrace
 10
74.96735854257541
 20
13.30200000000005
 30
0.0
 11
76.06802520924207
 21
13.30200000000005
 31
0.0
 12
75.51769187590875
 22
10.00000000000005
 32
0.0
 13
75.51769187590875
 23
10.00000000000005
 33
0.0
  0
MTEXT
  5
E1
330
D6
100
AcDbEntity
  8
치수문자_일반주서
 62
     0
100
AcDbMText
 10
71.14269187590871
 20
20.76025000000003
 30
0.0
 40
3.5
 41
0.0
 71
     2
 72
     1
  1
\A1;%%c20
  7
SLDTEXTSTYLE0
 11
-3.552713678800498E-15
 21
1.0
 31
0.0
 73
     1
 44
1.0
  0
POINT
  5
13A
330
D6
100
AcDbEntity
  8
Defpoints
 62
     0
100
AcDbPoint
 10
62.0
 20
-10.00000000000002
 30
0.0
  0
POINT
  5
13B
330
D6
100
AcDbEntity
  8
Defpoints
 62
     0
100
AcDbPoint
 10
62.0
 20
10.0
 30
0.0
  0
POINT
  5
13C
330
D6
100
AcDbEntity
  8
Defpoints
 62
     0
100
AcDbPoint
 10
75.51769187590875
 20
10.00000000000005
 30
0.0
  0
ENDBLK
  5
D8
330
D6
100
AcDbEntity
  8
0
100
AcDbBlockEnd
  0
BLOCK
  5
E5
330
E4
100
AcDbEntity
  8
0
100
AcDbBlockBegin
  2
_D_1
 70
     0
 10
0.0
 20
0.0
 30
0.0
  3
_D_1
  1

  0
LINE
  5
E7
330
E4
100
AcDbEntity
  8
치수문자_일반주서
 62
     0
370
    -2
100
AcDbLine
 10
-88.0
 20
9.562499999999979
 30
0.0
 11
-88.0
 21
27.38913260158163
 31
0.0
  0
LINE
  5
E8
330
E4
100
AcDbEntity
  8
치수문자_일반주서
 62
     0
370
    -2
100
AcDbLine
 10
62.0
 20
10.0625
 30
0.0
 11
61.99999999999999
 21
27.38913260158163
 31
0.0
  0
LINE
  5
E9
330
E4
100
AcDbEntity
  8
치수문자_일반주서
 62
     0
370
    -2
100
AcDbLine
 10
-84.69800000000001
 20
27.38913260158163
 30
0.0
 11
58.69799999999999
 21
27.38913260158163
 31
0.0
  0
SOLID
  5
EA
330
E4
100
AcDbEntity
  8
치수문자_일반주서
 62
     0
100
AcDbTrace
 10
-84.69800000000001
 20
27.93946593491496
 30
0.0
 11
-84.69800000000001
 21
26.83879926824829
 31
0.0
 12
-88.0
 22
27.38913260158163
 32
0.0
 13
-88.0
 23
27.38913260158163
 33
0.0
  0
SOLID
  5
EB
330
E4
100
AcDbEntity
  8
치수문자_일반주서
 62
     0
100
AcDbTrace
 10
58.69799999999999
 20
26.83879926824829
 30
0.0
 11
58.69799999999999
 21
27.93946593491496
 31
0.0
 12
61.99999999999999
 22
27.38913260158163
 32
0.0
 13
61.99999999999999
 23
27.38913260158163
 33
0.0
  0
MTEXT
  5
EC
330
E4
100
AcDbEntity
  8
치수문자_일반주서
 62
     0
100
AcDbMText
 10
-12.99999999999999
 20
31.76413260158163
 30
0.0
 40
3.5
 41
0.0
 71
     2
 72
     1
  1
\A1;150
  7
SLDTEXTSTYLE0
 73
     1
 44
1.0
  0
POINT
  5
131
330
E4
100
AcDbEntity
  8
Defpoints
 62
     0
100
AcDbPoint
 10
-88.0
 20
9.499999999999979
 30
0.0
  0
POINT
  5
132
330
E4
100
AcDbEntity
  8
Defpoints
 62
     0
100
AcDbPoint
 10
62.0
 20
10.0
 30
0.0
  0
POINT
  5
133
330
E4
100
AcDbEntity
  8
Defpoints
 62
     0
100
AcDbPoint
 10
62.0
 20
27.38913260158163
 30
0.0
  0
ENDBLK
  5
E6
330
E4
100
AcDbEntity
  8
0
100
AcDbBlockEnd
  0
BLOCK
  5
F0
330
EF
100
AcDbEntity
  8
0
100
AcDbBlockBegin
  2
_D_2
 70
     0
 10
0.0
 20
0.0
 30
0.0
  3
_D_2
  1

  0
LINE
  5
F2
330
EF
100
AcDbEntity
  8
치수문자_일반주서
 62
     0
370
    -2
100
AcDbLine
 10
-87.5625
 20
9.999999999999972
 30
0.0
 11
-100.2457642925971
 21
9.999999999999924
 31
0.0
  0
LINE
  5
F3
330
EF
100
AcDbEntity
  8
치수문자_일반주서
 62
     0
370
    -2
100
AcDbLine
 10
-87.5625
 20
-10.00000000000002
 30
0.0
 11
-100.245764292597
 21
-10.00000000000007
 31
0.0
  0
LINE
  5
F4
330
EF
100
AcDbEntity
  8
치수문자_일반주서
 62
     0
370
    -2
100
AcDbLine
 10
-100.2457642925971
 20
9.999999999999924
 30
0.0
 11
-100.2457642925971
 21
24.91649999999992
 31
0.0
  0
LINE
  5
F5
330
EF
100
AcDbEntity
  8
치수문자_일반주서
 62
     0
370
    -2
100
AcDbLine
 10
-100.2457642925971
 20
9.999999999999924
 30
0.0
 11
-100.245764292597
 21
-10.00000000000007
 31
0.0
  0
LINE
  5
F6
330
EF
100
AcDbEntity
  8
치수문자_일반주서
 62
     0
370
    -2
100
AcDbLine
 10
-100.2457642925971
 20
13.30199999999992
 30
0.0
 11
-100.2457642925971
 21
16.60399999999992
 31
0.0
  0
LINE
  5
F7
330
EF
100
AcDbEntity
  8
치수문자_일반주서
 62
     0
370
    -2
100
AcDbLine
 10
-100.245764292597
 20
-13.30200000000007
 30
0.0
 11
-100.245764292597
 21
-16.60400000000007
 31
0.0
  0
SOLID
  5
F8
330
EF
100
AcDbEntity
  8
치수문자_일반주서
 62
     0
100
AcDbTrace
 10
-100.7960976259304
 20
13.30199999999992
 30
0.0
 11
-99.69543095926376
 21
13.30199999999992
 31
0.0
 12
-100.2457642925971
 22
9.999999999999924
 32
0.0
 13
-100.2457642925971
 23
9.999999999999924
 33
0.0
  0
SOLID
  5
F9
330
EF
100
AcDbEntity
  8
치수문자_일반주서
 62
     0
100
AcDbTrace
 10
-99.69543095926366
 20
-13.30200000000007
 30
0.0
 11
-100.7960976259303
 21
-13.30200000000007
 31
0.0
 12
-100.245764292597
 22
-10.00000000000007
 32
0.0
 13
-100.245764292597
 23
-10.00000000000007
 33
0.0
  0
MTEXT
  5
FA
330
EF
100
AcDbEntity
  8
치수문자_일반주서
 62
     0
100
AcDbMText
 10
-104.6207642925971
 20
20.76024999999991
 30
0.0
 40
3.5
 41
0.0
 71
     2
 72
     1
  1
\A1;%%c20
  7
SLDTEXTSTYLE0
 11
-3.552713678800503E-15
 21
1.0
 31
0.0
 73
     1
 44
1.0
  0
POINT
  5
137
330
EF
100
AcDbEntity
  8
Defpoints
 62
     0
100
AcDbPoint
 10
-87.5
 20
9.999999999999972
 30
0.0
  0
POINT
  5
138
330
EF
100
AcDbEntity
  8
Defpoints
 62
     0
100
AcDbPoint
 10
-87.5
 20
-10.00000000000002
 30
0.0
  0
POINT
  5
139
330
EF
100
AcDbEntity
  8
Defpoints
 62
     0
100
AcDbPoint
 10
-100.245764292597
 20
-10.00000000000007
 30
0.0
  0
ENDBLK
  5
F1
330
EF
100
AcDbEntity
  8
0
100
AcDbBlockEnd
  0
BLOCK
  5
FD
330
FC
100
AcDbEntity
  8
0
100
AcDbBlockBegin
  2
_D_3
 70
     0
 10
0.0
 20
0.0
 30
0.0
  3
_D_3
  1

  0
LINE
  5
FF
330
FC
100
AcDbEntity
  8
치수문자_일반주서
 62
     0
370
    -2
100
AcDbLine
 10
12.0
 20
10.05752564199147
 30
0.0
 11
12.0
 21
20.84094394457911
 31
0.0
  0
LINE
  5
100
330
FC
100
AcDbEntity
  8
치수문자_일반주서
 62
     0
370
    -2
100
AcDbLine
 10
62.0
 20
10.0625
 30
0.0
 11
62.0
 21
20.84094394457911
 31
0.0
  0
LINE
  5
101
330
FC
100
AcDbEntity
  8
치수문자_일반주서
 62
     0
370
    -2
100
AcDbLine
 10
15.302
 20
20.84094394457911
 30
0.0
 11
58.698
 21
20.84094394457911
 31
0.0
  0
SOLID
  5
102
330
FC
100
AcDbEntity
  8
치수문자_일반주서
 62
     0
100
AcDbTrace
 10
15.302
 20
21.39127727791244
 30
0.0
 11
15.302
 21
20.29061061124577
 31
0.0
 12
12.0
 22
20.84094394457911
 32
0.0
 13
12.0
 23
20.84094394457911
 33
0.0
  0
SOLID
  5
103
330
FC
100
AcDbEntity
  8
치수문자_일반주서
 62
     0
100
AcDbTrace
 10
58.698
 20
20.29061061124577
 30
0.0
 11
58.698
 21
21.39127727791244
 31
0.0
 12
62.0
 22
20.84094394457911
 32
0.0
 13
62.0
 23
20.84094394457911
 33
0.0
  0
MTEXT
  5
104
330
FC
100
AcDbEntity
  8
치수문자_일반주서
 62
     0
100
AcDbMText
 10
37.00000000000001
 20
25.21594394457911
 30
0.0
 40
3.5
 41
0.0
 71
     2
 72
     1
  1
\A1;50
  7
SLDTEXTSTYLE0
 73
     1
 44
1.0
  0
POINT
  5
134
330
FC
100
AcDbEntity
  8
Defpoints
 62
     0
100
AcDbPoint
 10
12.0
 20
9.995025641991466
 30
0.0
  0
POINT
  5
135
330
FC
100
AcDbEntity
  8
Defpoints
 62
     0
100
AcDbPoint
 10
62.0
 20
10.0
 30
0.0
  0
POINT
  5
136
330
FC
100
AcDbEntity
  8
Defpoints
 62
     0
100
AcDbPoint
 10
62.0
 20
20.84094394457911
 30
0.0
  0
ENDBLK
  5
FE
330
FC
100
AcDbEntity
  8
0
100
AcDbBlockEnd
  0
BLOCK
  5
106
330
105
100
AcDbEntity
  8
0
100
AcDbBlockBegin
  2
SW_DOWELSYMBOL_0
 70
     0
 10
0.0
 20
0.0
 30
0.0
  3
SW_DOWELSYMBOL_0
  1

  0
CIRCLE
  5
108
330
105
100
AcDbEntity
  8
해칭선
 62
     0
100
AcDbCircle
 10
0.0
 20
0.0
 30
0.0
 40
3.0
  0
HATCH
  5
109
330
105
100
AcDbEntity
  8
0
  6
Continuous
 62
     0
370
    18
100
AcDbHatch
 10
0.0
 20
0.0
 30
0.0
210
0.0
220
0.0
230
1.0
  2
SOLID
 70
     1
 71
     0
 91
        1
 92
        0
 93
        3
 72
     2
 10
0.0
 20
0.0
 40
3.0
 50
0.0
 51
90.0
 73
     1
 72
     1
 10
0.0
 20
3.0
 11
0.0
 21
0.0
 72
     1
 10
0.0
 20
0.0
 11
3.0
 21
0.0
 97
        0
 75
     0
 76
     1
 98
        1
 10
0.0
 20
0.0
  0
HATCH
  5
10A
330
105
100
AcDbEntity
  8
0
  6
Continuous
 62
     0
370
    18
100
AcDbHatch
 10
0.0
 20
0.0
 30
0.0
210
0.0
220
0.0
230
1.0
  2
SOLID
 70
     1
 71
     0
 91
        1
 92
        0
 93
        3
 72
     2
 10
0.0
 20
0.0
 40
3.0
 50
180.0
 51
270.0000000000008
 73
     1
 72
     1
 10
0.0
 20
-3.0
 11
0.0
 21
0.0
 72
     1
 10
0.0
 20
0.0
 11
-3.0
 21
0.0
 97
        0
 75
     0
 76
     1
 98
        1
 10
0.0
 20
0.0
  0
ENDBLK
  5
107
330
105
100
AcDbEntity
  8
0
100
AcDbBlockEnd
  0
ENDSEC
  0
SECTION
  2
ENTITIES
  0
LINE
  5
99
330
1F
100
AcDbEntity
  8
0
  6
Continuous
 62
     4
370
    25
100
AcDbLine
 10
11.46990059837174
 20
9.999999999999993
 30
0.0
 11
-87.5
 21
9.999999999999986
 31
0.0
  0
LINE
  5
9A
330
1F
100
AcDbEntity
  8
0
  6
Continuous
 62
     4
370
    25
100
AcDbLine
 10
-87.5
 20
-10.00000000000001
 30
0.0
 11
11.4624905052751
 21
-10.00000000000001
 31
0.0
  0
LINE
  5
9B
330
1F
100
AcDbEntity
  8
0
  6
Continuous
 62
     4
370
    25
100
AcDbLine
 10
-87.5
 20
9.999999999999979
 30
0.0
 11
-88.0
 21
9.499999999999979
 31
0.0
  0
LINE
  5
9C
330
1F
100
AcDbEntity
  8
0
  6
Continuous
 62
     4
370
    25
100
AcDbLine
 10
-88.0
 20
-9.500000000000007
 30
0.0
 11
-87.5
 21
-10.00000000000001
 31
0.0
  0
LINE
  5
9D
330
1F
100
AcDbEntity
  8
0
  6
Continuous
 62
     1
370
    25
100
AcDbLine
 10
58.13158263888558
 20
-10.00000000000001
 30
0.0
 11
62.0
 21
-10.00000000000001
 31
0.0
  0
LINE
  5
9E
330
1F
100
AcDbEntity
  8
0
  6
Continuous
 62
     1
370
    25
100
AcDbLine
 10
38.66035744976521
 20
9.999999999999996
 30
0.0
 11
30.923653790163
 21
9.999999999999996
 31
0.0
  0
LINE
  5
9F
330
1F
100
AcDbEntity
  8
0
  6
Continuous
 62
     1
370
    25
100
AcDbLine
 10
30.92365379016287
 20
-10.00000000000001
 30
0.0
 11
38.66035744976518
 21
-10.00000000000001
 31
0.0
  0
LINE
  5
A0
330
1F
100
AcDbEntity
  8
0
  6
Continuous
 62
     1
370
    25
100
AcDbLine
 10
62.0
 20
9.999999999999996
 30
0.0
 11
58.13158263888557
 21
9.999999999999996
 31
0.0
  0
SPLINE
  5
A1
330
1F
100
AcDbEntity
  8
0
  6
Continuous
 62
     4
370
    25
100
AcDbSpline
210
0.0
220
0.0
230
1.0
 70
    24
 71
     3
 72
    18
 73
    14
 74
     0
 42
0.000000001
 43
0.00000001
 40
0.0
 40
0.0
 40
0.0
 40
0.0
 40
0.2499999999999998
 40
0.2499999999999998
 40
0.4999999999999996
 40
0.4999999999999996
 40
0.6249999999999996
 40
0.6249999999999996
 40
0.7499999999999998
 40
0.7499999999999998
 40
0.8749999999999999
 40
0.8749999999999999
 40
1.0
 40
1.0
 40
1.0
 40
1.0
 10
12.0
 20
8.555851808619204
 30
0.0
 10
12.0
 20
7.933489279568108
 30
0.0
 10
12.0
 20
7.283842931808685
 30
0.0
 10
12.0
 20
5.927244386977183
 30
0.0
 10
12.0
 20
5.255049439741894
 30
0.0
 10
12.0
 20
4.256396091681818
 30
0.0
 10
12.0
 20
3.927596495036081
 30
0.0
 10
12.0
 20
3.299560474885213
 30
0.0
 10
12.0
 20
2.997151755246009
 30
0.0
 10
12.0
 20
2.416137598962054
 30
0.0
 10
12.0
 20
2.138193947361575
 30
0.0
 10
12.0
 20
1.626506175668416
 30
0.0
 10
12.0
 20
1.389931946970425
 30
0.0
 10
12.0
 20
1.172640541310898
 30
0.0
  0
SPLINE
  5
A2
330
1F
100
AcDbEntity
  8
0
  6
Continuous
 62
     4
370
    25
100
AcDbSpline
210
0.0
220
0.0
230
1.0
 70
     8
 71
     3
 72
    14
 73
    10
 74
     0
 42
0.000000001
 43
0.00000001
 40
0.0
 40
0.0
 40
0.0
 40
0.0
 40
0.25
 40
0.25
 40
0.5
 40
0.5
 40
0.75
 40
0.75
 40
1.0
 40
1.0
 40
1.0
 40
1.0
 10
11.50796478300853
 20
-0.0315574448079791
 30
0.0
 10
11.35016176727462
 20
0.0595372535414388
 30
0.0
 10
11.20836598331529
 20
0.1699260220238807
 30
0.0
 10
10.95584849974071
 20
0.4280892034853308
 30
0.0
 10
10.84707285854998
 20
0.5750639494638247
 30
0.0
 10
10.67368269086145
 20
0.8892553648595065
 30
0.0
 10
10.60733088919961
 20
1.060165339457069
 30
0.0
 10
10.52123527101669
 20
1.406722689052541
 30
0.0
 10
10.50014033998314
 20
1.585689864463727
 30
0.0
 10
10.50014033998314
 20
1.764848104924809
 30
0.0
  0
SPLINE
  5
A3
330
1F
100
AcDbEntity
  8
0
  6
Continuous
 62
     4
370
    25
100
AcDbSpline
210
0.0
220
0.0
230
1.0
 70
     8
 71
     3
 72
    16
 73
    12
 74
     0
 42
0.000000001
 43
0.00000001
 40
0.0
 40
0.0
 40
0.0
 40
0.0
 40
0.2499999999999987
 40
0.2499999999999987
 40
0.499999999999998
 40
0.499999999999998
 40
0.6249999999999984
 40
0.6249999999999984
 40
0.7499999999999988
 40
0.7499999999999988
 40
1.0
 40
1.0
 40
1.0
 40
1.0
 10
10.50014033998314
 20
7.351906353529244
 30
0.0
 10
10.50014033998314
 20
7.505720305519315
 30
0.0
 10
10.53204351865399
 20
7.650217805608586
 30
0.0
 10
10.66755732262351
 20
7.921396592135829
 30
0.0
 10
10.76856120455268
 20
8.04207256619398
 30
0.0
 10
10.96923423902752
 20
8.200174345233833
 30
0.0
 10
11.04434764377881
 20
8.248822876139117
 30
0.0
 10
11.20584740361953
 20
8.335674244555882
 30
0.0
 10
11.2928488224827
 20
8.374395295679829
 30
0.0
 10
11.57306626670122
 20
8.477293044544956
 30
0.0
 10
11.78007779406547
 20
8.526237897666244
 30
0.0
 10
12.0
 20
8.555851808619208
 30
0.0
  0
SPLINE
  5
A4
330
1F
100
AcDbEntity
  8
0
  6
Continuous
 62
     4
370
    25
100
AcDbSpline
210
0.0
220
0.0
230
1.0
 70
     8
 71
     3
 72
    14
 73
    10
 74
     0
 42
0.000000001
 43
0.00000001
 40
0.0
 40
0.0
 40
0.0
 40
0.0
 40
0.25
 40
0.25
 40
0.5
 40
0.5
 40
0.75
 40
0.75
 40
1.0
 40
1.0
 40
1.0
 40
1.0
 10
11.50796478300853
 20
-9.999950206257518
 30
0.0
 10
11.35016176727462
 20
-10.0002376792805
 30
0.0
 10
11.20836598331529
 20
-9.999390087112511
 30
0.0
 10
10.95584849974071
 20
-9.991667358407412
 30
0.0
 10
10.84707285854998
 20
-9.984693962381787
 30
0.0
 10
10.67368269086145
 20
-9.961628228581153
 30
0.0
 10
10.6073308891996
 20
-9.945176660694939
 30
0.0
 10
10.52123527101668
 20
-9.902101829183657
 30
0.0
 10
10.50014033998314
 20
-9.875156566429654
 30
0.0
 10
10.50014033998314
 20
-9.843033636361493
 30
0.0
  0
SPLINE
  5
A5
330
1F
100
AcDbEntity
  8
0
  6
Continuous
 62
     4
370
    25
100
AcDbSpline
210
0.0
220
0.0
230
1.0
 70
     8
 71
     3
 72
     8
 73
     4
 74
     0
 42
0.000000001
 43
0.00000001
 40
0.0
 40
0.0
 40
0.0
 40
0.0
 40
1.0
 40
1.0
 40
1.0
 40
1.0
 10
12.0
 20
-9.995025641989114
 30
0.0
 10
11.83587718886716
 20
-9.998010529242448
 30
0.0
 10
11.67183246414902
 20
-9.999651685107922
 30
0.0
 10
11.50796478300853
 20
-9.999950206257518
 30
0.0
  0
SPLINE
  5
A6
330
1F
100
AcDbEntity
  8
0
  6
Continuous
 62
     4
370
    25
100
AcDbSpline
210
0.0
220
0.0
230
1.0
 70
     8
 71
     3
 72
     8
 73
     4
 74
     0
 42
0.000000001
 43
0.00000001
 40
0.0
 40
0.0
 40
0.0
 40
0.0
 40
1.0
 40
1.0
 40
1.0
 40
1.0
 10
12.0
 20
9.9950256419891
 30
0.0
 10
11.83587718886716
 20
9.998010529242437
 30
0.0
 10
11.67183246414902
 20
9.999651685107908
 30
0.0
 10
11.50796478300853
 20
9.999950206257502
 30
0.0
  0
LINE
  5
A7
330
1F
100
AcDbEntity
  8
0
  6
Continuous
 62
     4
370
    25
100
AcDbLine
 10
12.0
 20
9.9950256419891
 30
0.0
 11
12.0
 21
8.555851808619204
 31
0.0
  0
LINE
  5
A8
330
1F
100
AcDbEntity
  8
0
  6
Continuous
 62
     4
370
    25
100
AcDbLine
 10
10.50014033998314
 20
7.351906353529242
 30
0.0
 11
10.50014033998314
 21
1.764848104924809
 31
0.0
  0
SPLINE
  5
A9
330
1F
100
AcDbEntity
  8
0
  6
Continuous
 62
     4
370
    25
100
AcDbSpline
210
0.0
220
0.0
230
1.0
 70
     8
 71
     3
 72
     8
 73
     4
 74
     0
 42
0.000000001
 43
0.00000001
 40
0.0
 40
0.0
 40
0.0
 40
0.0
 40
1.0
 40
1.0
 40
1.0
 40
1.0
 10
12.0
 20
-0.3153766255331422
 30
0.0
 10
11.83587718886716
 20
-0.2207785411472113
 30
0.0
 10
11.67183246414902
 20
-0.1261530830046626
 30
0.0
 10
11.50796478300853
 20
-0.0315574448079791
 30
0.0
  0
LINE
  5
AA
330
1F
100
AcDbEntity
  8
0
  6
Continuous
 62
     4
370
    25
100
AcDbLine
 10
12.0
 20
-0.3153766255331422
 30
0.0
 11
12.0
 21
-5.17662050269753
 31
0.0
  0
SPLINE
  5
AB
330
1F
100
AcDbEntity
  8
0
  6
Continuous
 62
     4
370
    25
100
AcDbSpline
210
0.0
220
0.0
230
1.0
 70
     8
 71
     3
 72
    16
 73
    12
 74
     0
 42
0.000000001
 43
0.00000001
 40
0.0
 40
0.0
 40
0.0
 40
0.0
 40
0.2500000000000003
 40
0.2500000000000003
 40
0.5000000000000006
 40
0.5000000000000006
 40
0.6250000000000004
 40
0.6250000000000004
 40
0.7500000000000003
 40
0.7500000000000003
 40
1.0
 40
1.0
 40
1.0
 40
1.0
 10
10.50014033998314
 20
-6.778604057542924
 30
0.0
 10
10.50014033998314
 20
-6.611781248407327
 30
0.0
 10
10.53204351865399
 20
-6.44366750542397
 30
0.0
 10
10.66755732262351
 20
-6.107221907201854
 30
0.0
 10
10.76856120455268
 20
-5.946268930776172
 30
0.0
 10
10.96923423902752
 20
-5.724107096048335
 30
0.0
 10
11.04434764377881
 20
-5.65357921017929
 30
0.0
 10
11.20584740361953
 20
-5.524723668776132
 30
0.0
 10
11.2928488224827
 20
-5.465667335501137
 30
0.0
 10
11.57306626670122
 20
-5.305804990722714
 30
0.0
 10
11.78007779406547
 20
-5.225565993960627
 30
0.0
 10
11.99999999999999
 20
-5.176620502697518
 30
0.0
  0
LINE
  5
AC
330
1F
100
AcDbEntity
  8
0
  6
Continuous
 62
     4
370
    25
100
AcDbLine
 10
10.50014033998314
 20
-6.778604057542926
 30
0.0
 11
10.50014033998314
 21
-9.843033636361493
 31
0.0
  0
LINE
  5
AD
330
1F
100
AcDbEntity
  8
0
  6
Continuous
 62
     4
370
    25
100
AcDbLine
 10
-87.5
 20
9.999999999999979
 30
0.0
 11
-87.5
 21
-10.00000000000001
 31
0.0
  0
LINE
  5
AE
330
1F
100
AcDbEntity
  8
0
  6
Continuous
 62
     4
370
    25
100
AcDbLine
 10
-88.0
 20
9.499999999999979
 30
0.0
 11
-88.0
 21
-9.500000000000007
 31
0.0
  0
SPLINE
  5
AF
330
1F
100
AcDbEntity
  8
0
  6
Continuous
 62
     4
370
    25
100
AcDbSpline
210
0.0
220
0.0
230
1.0
 70
    24
 71
     3
 72
    10
 73
     6
 74
     0
 42
0.000000001
 43
0.00000001
 40
0.0
 40
0.0
 40
0.0
 40
0.0
 40
0.5000000000000003
 40
0.5000000000000003
 40
1.0
 40
1.0
 40
1.0
 40
1.0
 10
12.0
 20
1.172640541310795
 30
0.0
 10
12.0
 20
0.8045575579814611
 30
0.0
 10
12.0
 20
0.482510978146201
 30
0.0
 10
12.0
 20
-0.0249307086257224
 30
0.0
 10
12.0
 20
-0.2098587631378361
 30
0.0
 10
12.0
 20
-0.3153766255331458
 30
0.0
  0
SPLINE
  5
B0
330
1F
100
AcDbEntity
  8
0
  6
Continuous
 62
     4
370
    25
100
AcDbSpline
210
0.0
220
0.0
230
1.0
 70
    24
 71
     3
 72
    10
 73
     6
 74
     0
 42
0.000000001
 43
0.00000001
 40
0.0
 40
0.0
 40
0.0
 40
0.0
 40
0.2837603699419146
 40
0.6381994007476585
 40
1.0
 40
1.0
 40
1.0
 40
1.0
 10
12.0
 20
-5.280939455306866
 30
0.0
 10
12.0
 20
-5.384904350682534
 30
0.0
 10
12.0
 20
-5.618729581249885
 30
0.0
 10
12.0
 20
-6.125151638190572
 30
0.0
 10
12.0
 20
-6.550347290156269
 30
0.0
 10
12.00000000000001
 20
-6.765130213670571
 30
0.0
  0
SPLINE
  5
B1
330
1F
100
AcDbEntity
  8
0
  6
Continuous
 62
     4
370
    25
100
AcDbSpline
210
0.0
220
0.0
230
1.0
 70
    24
 71
     3
 72
    10
 73
     6
 74
     0
 42
0.000000001
 43
0.00000001
 40
0.0
 40
0.0
 40
0.0
 40
0.0
 40
0.5
 40
0.5
 40
1.0
 40
1.0
 40
1.0
 40
1.0
 10
12.0
 20
-6.765130213671088
 30
0.0
 10
12.0
 20
-7.212434356428292
 30
0.0
 10
12.0
 20
-7.718755543360817
 30
0.0
 10
12.0
 20
-8.811696867291412
 30
0.0
 10
12.00000000000001
 20
-9.39785271602694
 30
0.0
 10
12.00000000000001
 20
-9.995025641989114
 30
0.0
  0
SPLINE
  5
B2
330
1F
100
AcDbEntity
  8
0
  6
Continuous
 62
     1
370
    25
100
AcDbSpline
210
0.0
220
0.0
230
1.0
 70
     8
 71
     3
 72
    23
 73
    19
 74
     0
 42
0.000000001
 43
0.00000001
 40
0.0
 40
0.0
 40
0.0
 40
0.0
 40
0.0661346380971625
 40
0.13227036506325
 40
0.1984074842868247
 40
0.2645462986592237
 40
0.3306871104668044
 40
0.3956520488975196
 40
0.4606220262803712
 40
0.5255946711522346
 40
0.5905623192304497
 40
0.6568492638514668
 40
0.7231341638337887
 40
0.7894172823266732
 40
0.8556988830595073
 40
0.9219792302563093
 40
0.9882585885498825
 40
0.9999999999999999
 40
0.9999999999999999
 40
0.9999999999999999
 40
0.9999999999999999
 10
11.99999999999999
 20
8.878248656838732
 30
0.0
 10
13.01694808953818
 20
8.581469386404454
 30
0.0
 10
15.0508610120822
 20
7.987905959235245
 30
0.0
 10
18.10177200508502
 20
6.776718998766522
 30
0.0
 10
21.15276017810784
 20
5.375511921120597
 30
0.0
 10
24.20383992577168
 20
3.802636961972754
 30
0.0
 10
27.23692204326139
 20
2.123472732278349
 30
0.0
 10
30.2520187909665
 20
0.3899375525487472
 30
0.0
 10
33.2492145586825
 20
-1.344741894470693
 30
0.0
 10
36.24649359595412
 20
-3.039237320791845
 30
0.0
 10
39.26394290190213
 20
-4.653947549234508
 30
0.0
 10
42.30157820933857
 20
-6.137471230625783
 30
0.0
 10
45.3594155205822
 20
-7.440624609388404
 30
0.0
 10
48.41715623193639
 20
-8.510452442527983
 30
0.0
 10
51.47481252881504
 20
-9.323272560645147
 30
0.0
 10
54.53239906351392
 20
-9.81809848620368
 30
0.0
 10
56.7513148416177
 20
-10.03204320062146
 30
0.0
 10
57.95103564344127
 20
-9.984477262145278
 30
0.0
 10
58.13158263888558
 20
-9.977319023941599
 30
0.0
  0
LINE
  5
B3
330
1F
100
AcDbEntity
  8
0
  6
Continuous
 62
     4
370
    25
100
AcDbLine
 10
12.0
 20
8.878248656838805
 30
0.0
 11
12.0
 21
9.995025641991466
 31
0.0
  0
SPLINE
  5
B4
330
1F
100
AcDbEntity
  8
0
  6
Continuous
 62
     1
370
    25
100
AcDbSpline
210
0.0
220
0.0
230
1.0
 70
     8
 71
     3
 72
    66
 73
    62
 74
     0
 42
0.000000001
 43
0.00000001
 40
0.0
 40
0.0
 40
0.0
 40
0.0
 40
0.0625
 40
0.0625
 40
0.125
 40
0.125
 40
0.15625
 40
0.15625
 40
0.1875
 40
0.1875
 40
0.21875
 40
0.21875
 40
0.25
 40
0.25
 40
0.28125
 40
0.28125
 40
0.3125
 40
0.3125
 40
0.34375
 40
0.34375
 40
0.375
 40
0.375
 40
0.40625
 40
0.40625
 40
0.4375
 40
0.4375
 40
0.46875
 40
0.46875
 40
0.5
 40
0.5
 40
0.53125
 40
0.53125
 40
0.5625
 40
0.5625
 40
0.59375
 40
0.59375
 40
0.625
 40
0.625
 40
0.65625
 40
0.65625
 40
0.6875
 40
0.6875
 40
0.71875
 40
0.71875
 40
0.75
 40
0.75
 40
0.78125
 40
0.78125
 40
0.8125
 40
0.8125
 40
0.84375
 40
0.84375
 40
0.875
 40
0.875
 40
0.90625
 40
0.90625
 40
0.9375
 40
0.9375
 40
0.96875
 40
0.96875
 40
1.0
 40
1.0
 40
1.0
 40
1.0
 10
62.0
 20
-9.751656983552618
 30
0.0
 10
60.96279303492524
 20
-9.618651063966423
 30
0.0
 10
59.91256994731553
 20
-9.431912040865244
 30
0.0
 10
57.8369251581281
 20
-8.959946016061293
 30
0.0
 10
56.78794717364055
 20
-8.672994855299246
 30
0.0
 10
55.2303346992606
 20
-8.175993113579993
 30
0.0
 10
54.70991272623621
 20
-7.998899373500032
 30
0.0
 10
53.66612978584562
 20
-7.623128325075748
 30
0.0
 10
53.14385409974032
 20
-7.42456759271682
 30
0.0
 10
52.10488942559957
 20
-7.008608788552696
 30
0.0
 10
51.58506843413637
 20
-6.790813067936855
 30
0.0
 10
50.54137574357439
 20
-6.336804834178102
 30
0.0
 10
50.01898982083673
 20
-6.100791333419903
 30
0.0
 10
48.97949840570806
 20
-5.613689211930692
 30
0.0
 10
48.46020143842402
 20
-5.362278852462524
 30
0.0
 10
47.4166290674803
 20
-4.844780377138133
 30
0.0
 10
46.89414799457215
 20
-4.578972920871868
 30
0.0
 10
45.8541595056864
 20
-4.036524845996053
 30
0.0
 10
45.33530955507801
 20
-3.759668450511162
 30
0.0
 10
44.29188756198574
 20
-3.195488316099551
 30
0.0
 10
43.76932643455475
 20
-2.90851461871032
 30
0.0
 10
42.7288705866679
 20
-2.328321382336251
 30
0.0
 10
42.21039060246648
 20
-2.035005005159247
 30
0.0
 10
41.16714903101766
 20
-1.442466864754313
 30
0.0
 10
40.64452295244141
 20
-1.143643172877273
 30
0.0
 10
39.60362950501896
 20
-0.5445372303411474
 30
0.0
 10
39.08544240155517
 20
-0.2442744765253944
 30
0.0
 10
38.04241127821886
 20
0.3573787438193418
 30
0.0
 10
37.51973535814765
 20
0.658350442021453
 30
0.0
 10
36.47843411253994
 20
1.256916962657061
 30
0.0
 10
35.96046277611573
 20
1.554391635016621
 30
0.0
 10
34.91767210715962
 20
2.14562337009564
 30
0.0
 10
34.39496146005786
 20
2.4389707051824
 30
0.0
 10
33.35328225666706
 20
3.017558310502159
 30
0.0
 10
32.83544955293296
 20
3.302603259727267
 30
0.0
 10
31.7929293215492
 20
3.864218412240087
 30
0.0
 10
31.27019906523586
 20
4.140416301336736
 30
0.0
 10
30.22817178067504
 20
4.680230180505522
 30
0.0
 10
29.71040056201184
 20
4.943607179077616
 30
0.0
 10
28.66818072544731
 20
5.457376030989454
 30
0.0
 10
28.14544597963572
 20
5.707456315582784
 30
0.0
 10
27.10310052388068
 20
6.19095755648814
 30
0.0
 10
26.5853136367836
 20
6.4241293746896
 30
0.0
 10
25.54342412347566
 20
6.873380001255045
 30
0.0
 10
25.02070000831284
 20
7.089222978354965
 30
0.0
 10
23.97806632184729
 20
7.500699053645055
 30
0.0
 10
23.46018661431139
 20
7.696104503932193
 30
0.0
 10
22.41865732102918
 20
8.066264417337221
 30
0.0
 10
21.89595895563516
 20
8.240862776736432
 30
0.0
 10
20.85306700658966
 20
8.56693872393135
 30
0.0
 10
20.33501733549497
 20
8.718236360925275
 30
0.0
 10
19.29387812448723
 20
8.997305766770225
 30
0.0
 10
18.77122062549458
 20
9.124992345518066
 30
0.0
 10
17.72810040677994
 20
9.355065993331259
 30
0.0
 10
17.20980364527477
 20
9.457338664353028
 30
0.0
 10
16.16908434142456
 20
9.636279944055381
 30
0.0
 10
15.64648282151837
 20
9.71291188743162
 30
0.0
 10
14.60316434795416
 20
9.839498951120026
 30
0.0
 10
14.08454339283518
 20
9.889412640541636
 30
0.0
 10
13.0442737808221
 20
9.9624434034068
 30
0.0
 10
12.52174334728077
 20
9.985536741234391
 30
0.0
 10
12.0
 20
9.995025641991473
 30
0.0
  0
LINE
  5
B5
330
1F
100
AcDbEntity
  8
0
  6
Continuous
 62
     1
370
    25
100
AcDbLine
 10
62.0
 20
-10.00000000000002
 30
0.0
 11
62.0
 21
-9.751656983552621
 31
0.0
  0
SPLINE
  5
B6
330
1F
100
AcDbEntity
  8
0
  6
Continuous
 62
     1
370
    25
100
AcDbSpline
210
0.0
220
0.0
230
1.0
 70
     8
 71
     3
 72
    19
 73
    15
 74
     0
 42
0.000000001
 43
0.00000001
 40
0.0
 40
0.0
 40
0.0
 40
0.0
 40
0.0558411460751668
 40
0.1405788669906644
 40
0.2253146533648598
 40
0.3100487063951501
 40
0.3947812276819543
 40
0.481241792344073
 40
0.5677020730155888
 40
0.6541620920684655
 40
0.7406218718887347
 40
0.827081434875295
 40
0.9135408034387088
 40
0.9999999999999999
 40
0.9999999999999999
 40
0.9999999999999999
 40
0.9999999999999999
 10
48.34904680766298
 20
-8.443879557251481
 30
0.0
 10
47.67244725204118
 20
-8.652609560783528
 30
0.0
 10
45.96912263173939
 20
-9.17808279093526
 30
0.0
 10
43.23913278239385
 20
-9.696763125355913
 30
0.0
 10
40.15907300529403
 20
-10.017064701625
 30
0.0
 10
37.07908514075887
 20
-10.01048587939228
 30
0.0
 10
33.97823303234335
 20
-9.688975470727819
 30
0.0
 10
30.8563880132524
 20
-9.051524010210136
 30
0.0
 10
27.7136356718005
 20
-8.112821494533089
 30
0.0
 10
24.57088891211358
 20
-6.907676088356138
 30
0.0
 10
21.42815414368601
 20
-5.475798128485868
 30
0.0
 10
18.28542843541053
 20
-3.863929412461612
 30
0.0
 10
15.14271124092619
 20
-2.125941296765749
 30
0.0
 10
13.04756971896287
 20
-0.9188977823955042
 30
0.0
 10
12.0
 20
-0.3153766255335647
 30
0.0
  0
SPLINE
  5
B7
330
1F
100
AcDbEntity
  8
0
  6
Continuous
 62
     4
370
    25
100
AcDbSpline
210
0.0
220
0.0
230
1.0
 70
    24
 71
     3
 72
    24
 73
    20
 74
     0
 42
0.000000001
 43
0.00000001
 40
0.0
 40
0.0
 40
0.0
 40
0.0
 40
0.0625
 40
0.0625
 40
0.125
 40
0.125
 40
0.25
 40
0.25
 40
0.375
 40
0.375
 40
0.5
 40
0.5
 40
0.625
 40
0.625
 40
0.75
 40
0.75
 40
0.875
 40
0.875
 40
1.0
 40
1.0
 40
1.0
 40
1.0
 10
12.0
 20
8.878248656838819
 30
0.0
 10
12.0
 20
8.712114897895953
 30
0.0
 10
12.0
 20
8.549602888906946
 30
0.0
 10
12.0
 20
8.23269106975136
 30
0.0
 10
12.0
 20
8.071461338288668
 30
0.0
 10
12.0
 20
7.560589080936372
 30
0.0
 10
12.0
 20
7.191091545507767
 30
0.0
 10
12.0
 20
6.395105269083278
 30
0.0
 10
12.0
 20
5.968413187117621
 30
0.0
 10
12.0
 20
5.069563346695304
 30
0.0
 10
12.0
 20
4.59722298976949
 30
0.0
 10
12.0
 20
3.635767411657883
 30
0.0
 10
12.0
 20
3.146672067218749
 30
0.0
 10
12.0
 20
2.200810366582996
 30
0.0
 10
12.0
 20
1.744477535647126
 30
0.0
 10
12.0
 20
0.9275742526052542
 30
0.0
 10
12.0
 20
0.5678125646725478
 30
0.0
 10
12.0
 20
0.0025864026842393
 30
0.0
 10
12.0
 20
-0.2021865753342165
 30
0.0
 10
12.0
 20
-0.3153766255335635
 30
0.0
  0
SPLINE
  5
B8
330
1F
100
AcDbEntity
  8
0
  6
Continuous
 62
     1
370
    25
100
AcDbSpline
210
0.0
220
0.0
230
1.0
 70
     8
 71
     3
 72
    20
 73
    16
 74
     0
 42
0.000000001
 43
0.00000001
 40
0.0
 40
0.0
 40
0.0
 40
0.0
 40
0.0767852028754401
 40
0.1540799847282907
 40
0.2300005942105963
 40
0.3059270924126729
 40
0.3818567079484443
 40
0.4577804840325301
 40
0.5352460425001127
 40
0.612709211521639
 40
0.6901702986237926
 40
0.7676296120112187
 40
0.8450874604666081
 40
0.9225441532503742
 40
1.0
 40
1.0
 40
1.0
 40
1.0
 10
21.17275955145097
 20
8.455761516330993
 30
0.0
 10
22.18310925505955
 20
8.742471522446971
 30
0.0
 10
24.21051376885339
 20
9.317794263150798
 30
0.0
 10
27.23692220513444
 20
9.820928841927806
 30
0.0
 10
30.25201874792509
 20
10.04328293251131
 30
0.0
 10
33.24921457019124
 20
9.959420644266066
 30
0.0
 10
36.24649359296431
 20
9.579507428332997
 30
0.0
 10
39.26394290237673
 20
8.908660164475704
 30
0.0
 10
42.3015782105284
 20
7.960829361510444
 30
0.0
 10
45.35941551535333
 20
6.759162374644813
 30
0.0
 10
48.41715625166129
 20
5.347463352790043
 30
0.0
 10
51.47481245514654
 20
3.769318734311227
 30
0.0
 10
54.53239933845633
 20
2.074884604182147
 30
0.0
 10
57.58993174825137
 20
0.3127357861584272
 30
0.0
 10
59.6282676364982
 20
-0.8604766735635084
 30
0.0
 10
60.64743001457202
 20
-1.447079699752915
 30
0.0
  0
SPLINE
  5
B9
330
1F
100
AcDbEntity
  8
0
  6
Continuous
 62
     1
370
    25
100
AcDbSpline
210
0.0
220
0.0
230
1.0
 70
     8
 71
     3
 72
     8
 73
     4
 74
     0
 42
0.000000001
 43
0.00000001
 40
0.0
 40
0.0
 40
0.0
 40
0.0
 40
1.0
 40
1.0
 40
1.0
 40
1.0
 10
62.0
 20
-7.266081778456265
 30
0.0
 10
60.31587153796294
 20
-6.320024379565052
 30
0.0
 10
58.72553162703739
 20
-5.16060308379518
 30
0.0
 10
57.19539622185751
 20
-3.864219783566253
 30
0.0
  0
LINE
  5
BA
330
1F
100
AcDbEntity
  8
0
  6
Continuous
 62
     1
370
    25
100
AcDbLine
 10
62.0
 20
-9.751656983552621
 30
0.0
 11
62.0
 21
-7.266081778456266
 31
0.0
  0
SPLINE
  5
BB
330
1F
100
AcDbEntity
  8
0
  6
Continuous
 62
     1
370
    25
100
AcDbSpline
210
0.0
220
0.0
230
1.0
 70
    24
 71
     3
 72
    22
 73
    18
 74
     0
 42
0.000000001
 43
0.00000001
 40
0.0
 40
0.0
 40
0.0
 40
0.0
 40
0.2499999999999992
 40
0.2499999999999992
 40
0.3749999999999992
 40
0.3749999999999992
 40
0.4999999999999991
 40
0.4999999999999991
 40
0.5624999999999984
 40
0.5624999999999984
 40
0.6249999999999979
 40
0.6249999999999979
 40
0.7499999999999986
 40
0.7499999999999986
 40
0.8749999999999992
 40
0.8749999999999992
 40
1.0
 40
1.0
 40
1.0
 40
1.0
 10
60.64743001457201
 20
-1.447079699752916
 30
0.0
 10
60.64833007441128
 20
-1.446449471068634
 30
0.0
 10
60.58787192143812
 20
-1.488782725526665
 30
0.0
 10
60.37601742079482
 20
-1.63712484388075
 30
0.0
 10
60.28345551420594
 20
-1.701937388625341
 30
0.0
 10
60.0577113305652
 20
-1.860005167717576
 30
0.0
 10
59.92443790793986
 20
-1.953324222882907
 30
0.0
 10
59.69095893739476
 20
-2.116807958072028
 30
0.0
 10
59.60722578260927
 20
-2.175438544250963
 30
0.0
 10
59.4322858014328
 20
-2.297932837805001
 30
0.0
 10
59.34065279168863
 20
-2.362094961976612
 30
0.0
 10
59.05353353657316
 20
-2.563138028773616
 30
0.0
 10
58.84448072965398
 20
-2.709518380062357
 30
0.0
 10
58.39984449311739
 20
-3.020856024646478
 30
0.0
 10
58.16882063896725
 20
-3.18262066882863
 30
0.0
 10
57.69124356464536
 20
-3.517023736344952
 30
0.0
 10
57.44308936566177
 20
-3.690783177111656
 30
0.0
 10
57.19539622185751
 20
-3.864219783566269
 30
0.0
  0
SPLINE
  5
BC
330
1F
100
AcDbEntity
  8
0
  6
Continuous
 62
     1
370
    25
100
AcDbSpline
210
0.0
220
0.0
230
1.0
 70
     8
 71
     3
 72
    15
 73
    11
 74
     0
 42
0.000000001
 43
0.00000001
 40
0.0
 40
0.0
 40
0.0
 40
0.0
 40
0.134371584525797
 40
0.2687420185865569
 40
0.4031113502133785
 40
0.537479627511083
 40
0.6718468986550327
 40
0.8038182145598525
 40
0.9357865175920275
 40
1.0
 40
1.0
 40
1.0
 40
1.0
 10
62.0
 20
2.214765467296673
 30
0.0
 10
60.95459581149663
 20
2.796302947244535
 30
0.0
 10
58.86379638505015
 20
3.959372928122254
 30
0.0
 10
55.72761734541004
 20
5.555054585453997
 30
0.0
 10
52.59146801253521
 20
6.974651969294958
 30
0.0
 10
49.45535116174002
 20
8.163587290740427
 30
0.0
 10
46.33788468870659
 20
9.085152612897101
 30
0.0
 10
43.23913312247282
 20
9.693051815098508
 30
0.0
 10
40.68616831332495
 20
9.992777885346046
 30
0.0
 10
39.15992248151129
 20
9.96848142745896
 30
0.0
 10
38.66035744976521
 20
9.960528802460628
 30
0.0
  0
LINE
  5
BD
330
1F
100
AcDbEntity
  8
0
  6
Continuous
 62
     1
370
    25
100
AcDbLine
 10
62.0
 20
-0.50000000000004
 30
0.0
 11
62.0
 21
2.214765467296673
 31
0.0
  0
LINE
  5
BE
330
1F
100
AcDbEntity
  8
0
  6
Continuous
 62
     1
370
    25
100
AcDbLine
 10
62.0
 20
-0.5000000000000436
 30
0.0
 11
60.64743001457201
 21
-1.447079699752926
 31
0.0
  0
SPLINE
  5
BF
330
1F
100
AcDbEntity
  8
0
  6
Continuous
 62
     1
370
    25
100
AcDbSpline
210
0.0
220
0.0
230
1.0
 70
     8
 71
     3
 72
    14
 73
    10
 74
     0
 42
0.000000001
 43
0.00000001
 40
0.0
 40
0.0
 40
0.0
 40
0.0
 40
0.1612205056986581
 40
0.3224436658005729
 40
0.483670219894843
 40
0.644900906358452
 40
0.8061364620935856
 40
0.9645055184282487
 40
1.0
 40
1.0
 40
1.0
 40
1.0
 10
12.0
 20
-4.601814944925688
 30
0.0
 10
13.01694809416863
 20
-5.109312905284968
 30
0.0
 10
15.05086102597363
 20
-6.124317181666681
 30
0.0
 10
18.10177194951775
 20
-7.419574720019149
 30
0.0
 10
21.15276038649215
 20
-8.493605123896813
 30
0.0
 10
24.20383914777201
 20
-9.308899304140276
 30
0.0
 10
27.23692492514391
 20
-9.808183042948613
 30
0.0
 10
29.47685132949064
 20
-10.02547990229939
 30
0.0
 10
30.69975273191719
 20
-9.981970112347303
 30
0.0
 10
30.92365379016287
 20
-9.974003903464897
 30
0.0
  0
LINE
  5
C0
330
1F
100
AcDbEntity
  8
0
  6
Continuous
 62
     4
370
    25
100
AcDbLine
 10
12.0
 20
-4.601814944925718
 30
0.0
 11
12.0
 21
-0.3153766255335642
 31
0.0
  0
SPLINE
  5
C1
330
1F
100
AcDbEntity
  8
0
  6
Continuous
 62
     1
370
    25
100
AcDbSpline
210
0.0
220
0.0
230
1.0
 70
     8
 71
     3
 72
    12
 73
     8
 74
     0
 42
0.000000001
 43
0.00000001
 40
0.0
 40
0.0
 40
0.0
 40
0.0
 40
0.0055397299388102
 40
0.2541608575061791
 40
0.50277728308177
 40
0.7513899992986075
 40
1.0
 40
1.0
 40
1.0
 40
1.0
 10
48.34904680766299
 20
8.443879557251467
 30
0.0
 10
48.37175692942343
 20
8.45181475729667
 30
0.0
 10
49.41368931321458
 20
8.815878939169895
 30
0.0
 10
51.47481137987375
 20
9.300800523693757
 30
0.0
 10
54.53239962518878
 20
9.837015857111977
 30
0.0
 10
57.58993167656964
 20
10.05970464289949
 30
0.0
 10
59.62826761260438
 20
9.949730731869348
 30
0.0
 10
60.64743001457204
 20
9.894744076658188
 30
0.0
  0
SPLINE
  5
C2
330
1F
100
AcDbEntity
  8
0
  6
Continuous
 62
     1
370
    25
100
AcDbSpline
210
0.0
220
0.0
230
1.0
 70
     8
 71
     3
 72
    22
 73
    18
 74
     0
 42
0.000000001
 43
0.00000001
 40
0.0
 40
0.0
 40
0.0
 40
0.0
 40
0.2499999999999969
 40
0.2499999999999969
 40
0.3749999999999953
 40
0.3749999999999953
 40
0.4999999999999938
 40
0.4999999999999938
 40
0.5624999999999939
 40
0.5624999999999939
 40
0.624999999999994
 40
0.624999999999994
 40
0.749999999999996
 40
0.749999999999996
 40
0.874999999999998
 40
0.874999999999998
 40
1.0
 40
1.0
 40
1.0
 40
1.0
 10
60.64743001457201
 20
9.89474407665821
 30
0.0
 10
60.64833007441126
 20
9.283134665630065
 30
0.0
 10
60.58787192143811
 20
8.68498671511968
 30
0.0
 10
60.37601742079482
 20
7.814347839321176
 30
0.0
 10
60.28345551420595
 20
7.526023105511516
 30
0.0
 10
60.05771133056523
 20
6.983978845190974
 30
0.0
 10
59.9244379079399
 20
6.7280161848795
 30
0.0
 10
59.69095893739479
 20
6.368851405513234
 30
0.0
 10
59.60722578260926
 20
6.253066494950613
 30
0.0
 10
59.43228580143278
 20
6.035520208430532
 30
0.0
 10
59.34065279168863
 20
5.933023839203759
 30
0.0
 10
59.05353353657316
 20
5.643959723970068
 30
0.0
 10
58.84448072965395
 20
5.47480386936084
 30
0.0
 10
58.39984449311736
 20
5.189912301147328
 30
0.0
 10
58.16882063896725
 20
5.076535487151682
 30
0.0
 10
57.69124356464539
 20
4.901635336322651
 30
0.0
 10
57.44308936566178
 20
4.840255663647826
 30
0.0
 10
57.19539622185751
 20
4.804603778142473
 30
0.0
  0
SPLINE
  5
C3
330
1F
100
AcDbEntity
  8
0
  6
Continuous
 62
     1
370
    25
100
AcDbSpline
210
0.0
220
0.0
230
1.0
 70
     8
 71
     3
 72
     8
 73
     4
 74
     0
 42
0.000000001
 43
0.00000001
 40
0.0
 40
0.0
 40
0.0
 40
0.0
 40
1.0
 40
1.0
 40
1.0
 40
1.0
 10
62.0
 20
2.46265236996897
 30
0.0
 10
60.31587153796294
 20
3.373236042056512
 30
0.0
 10
58.72553162703739
 20
4.136275508719668
 30
0.0
 10
57.19539622185751
 20
4.804603778142477
 30
0.0
  0
LINE
  5
C4
330
1F
100
AcDbEntity
  8
0
  6
Continuous
 62
     1
370
    25
100
AcDbLine
 10
62.0
 20
2.222863601136285
 30
0.0
 11
62.0
 21
2.462652369968972
 31
0.0
  0
SPLINE
  5
C5
330
1F
100
AcDbEntity
  8
0
  6
Continuous
 62
     1
370
    25
100
AcDbSpline
210
0.0
220
0.0
230
1.0
 70
     8
 71
     3
 72
    10
 73
     6
 74
     0
 42
0.000000001
 43
0.00000001
 40
0.0
 40
0.0
 40
0.0
 40
0.0
 40
0.3147724445531435
 40
0.6573865630745479
 40
1.0
 40
1.0
 40
1.0
 40
1.0
 10
21.17275955145084
 20
-8.455761516331007
 30
0.0
 10
20.21031505492417
 20
-8.73202905731582
 30
0.0
 10
18.2002976894592
 20
-9.309000048264181
 30
0.0
 10
15.1427112573459
 20
-9.838725491307093
 30
0.0
 10
13.04756972443611
 20
-9.942925626312654
 30
0.0
 10
12.00000000000001
 20
-9.995025641991488
 30
0.0
  0
SPLINE
  5
C6
330
1F
100
AcDbEntity
  8
0
  6
Continuous
 62
     4
370
    25
100
AcDbSpline
210
0.0
220
0.0
230
1.0
 70
    24
 71
     3
 72
    13
 73
     9
 74
     0
 42
0.000000001
 43
0.00000001
 40
0.0
 40
0.0
 40
0.0
 40
0.0
 40
0.0984383283308761
 40
0.3016531194482803
 40
0.4991407557346184
 40
0.7023555468520234
 40
0.8500077539036102
 40
0.9999999999999999
 40
0.9999999999999999
 40
0.9999999999999999
 40
0.9999999999999999
 10
12.0
 20
-5.280939455306864
 30
0.0
 10
12.0
 20
-5.378737245203375
 30
0.0
 10
12.0
 20
-5.678427507092723
 30
0.0
 10
12.00000000000001
 20
-6.351146850114997
 30
0.0
 10
12.00000000000001
 20
-7.26996242911175
 30
0.0
 10
12.00000000000001
 20
-8.21561575972944
 30
0.0
 10
12.00000000000001
 20
-9.13498504427959
 30
0.0
 10
12.00000000000001
 20
-9.706846810357153
 30
0.0
 10
12.00000000000001
 20
-9.99502564199148
 30
0.0
  0
LINE
  5
C7
330
1F
100
AcDbEntity
  8
0
  6
Continuous
 62
     1
370
    25
100
AcDbLine
 10
62.0
 20
-0.5000000000000051
 30
0.0
 11
62.0
 21
-7.26608177845626
 31
0.0
  0
ELLIPSE
  5
C8
330
1F
100
AcDbEntity
  8
0
  6
Continuous
 62
     1
370
    25
100
AcDbEllipse
 10
62.71407400337106
 20
-0.0000000000000083
 30
0.0
 11
14.28148006742111
 21
-5.350968460038310E-17
 31
0.0
210
0.0
220
0.0
230
1.0
 40
0.7002075382097122
 41
1.620817183600667
 42
1.716014156413952
  0
LINE
  5
C9
330
1F
100
AcDbEntity
  8
0
  6
Continuous
 62
     1
370
    25
100
AcDbLine
 10
62.0
 20
2.462652369968972
 30
0.0
 11
62.0
 21
9.987492177719092
 31
0.0
  0
LINE
  5
CA
330
1F
100
AcDbEntity
  8
0
  6
Continuous
 62
     1
370
    25
100
AcDbLine
 10
62.0
 20
9.987492177719092
 30
0.0
 11
62.0
 21
10.0
 31
0.0
  0
LINE
  5
CB
330
1F
100
AcDbEntity
  8
중심선
100
AcDbLine
 10
-91.0
 20
-0.0000000000000126
 30
0.0
 11
69.0
 21
0.000000000000007
 31
0.0
  0
CIRCLE
  5
CC
330
1F
100
AcDbEntity
  8
해칭선
100
AcDbCircle
 10
0.0003140231665689
 20
-0.0000000000000043
 30
0.0
 40
2.999999999999999
  0
INSERT
  5
CD
330
1F
100
AcDbEntity
  8
0
  6
Continuous
 62
     7
100
AcDbBlockReference
 66
     1
  2
블럭10
 10
-27.44009924894177
 20
-52.04717430164393
 30
0.0
  0
ATTRIB
  5
CE
330
CD
100
AcDbEntity
  8
FORMAT
 62
     2
100
AcDbText
 10
-48.29834678053431
 20
-49.97180738881174
 30
0.0
 40
4.233333333333333
  1
SEME7220050150E [ 4 FLUTE ]
 41
0.75
  7
SLDTEXTSTYLE0
 11
-48.29834678053431
 21
-52.08847405547841
 31
0.0
100
AcDbAttribute
  2
AUTOATTR0
 70
     0
 74
     1
  0
SEQEND
  5
CF
330
CD
100
AcDbEntity
  8
0
  6
Continuous
 62
     7
  0
HATCH
  5
D0
330
1F
100
AcDbEntity
  8
중심선
100
AcDbHatch
 10
0.0
 20
0.0
 30
0.0
210
0.0
220
0.0
230
1.0
  2
SOLID
 70
     1
 71
     0
 91
        1
 92
        0
 93
        4
 72
     1
 10
-21.72518994456093
 20
-35.8
 11
-25.17146518839822
 21
-35.8
 72
     1
 10
-25.17146518839822
 20
-35.8
 11
-27.29969504760224
 21
-38.33632558057259
 72
     1
 10
-27.29969504760224
 20
-38.33632558057259
 11
-23.85338671865181
 21
-38.3362861512701
 72
     1
 10
-23.85338671865181
 20
-38.3362861512701
 11
-21.72518994456093
 21
-35.8
 97
        0
 75
     0
 76
     1
 98
        1
 10
0.0
 20
0.0
  0
HATCH
  5
D1
330
1F
100
AcDbEntity
  8
중심선
100
AcDbHatch
 10
0.0
 20
0.0
 30
0.0
210
0.0
220
0.0
230
1.0
  2
SOLID
 70
     1
 71
     0
 91
        1
 92
        0
 93
        4
 72
     1
 10
-16.71242595352498
 20
-35.8
 11
-20.15870119736224
 21
-35.8
 72
     1
 10
-20.15870119736224
 20
-35.8
 11
-24.68983920571965
 21
-41.20000000000002
 72
     1
 10
-24.68983920571965
 20
-41.20000000000002
 11
-21.24356396188237
 21
-41.20000000000002
 72
     1
 10
-21.24356396188237
 20
-41.20000000000002
 11
-16.71242595352498
 21
-35.8
 97
        0
 75
     0
 76
     1
 98
        1
 10
0.0
 20
0.0
  0
HATCH
  5
D2
330
1F
100
AcDbEntity
  8
중심선
100
AcDbHatch
 10
0.0
 20
0.0
 30
0.0
210
0.0
220
0.0
230
1.0
  2
SOLID
 70
     1
 71
     0
 91
        1
 92
        0
 93
        4
 72
     1
 10
-11.69966196248909
 20
-35.8
 11
-15.1459372063262
 21
-35.8
 72
     1
 10
-15.1459372063262
 20
-35.8
 11
-22.19437410821545
 21
-44.20000000000002
 72
     1
 10
-22.19437410821545
 20
-44.20000000000002
 11
-18.74809886437817
 21
-44.20000000000002
 72
     1
 10
-18.74809886437817
 20
-44.20000000000002
 11
-11.69966196248909
 21
-35.8
 97
        0
 75
     0
 76
     1
 98
        1
 10
0.0
 20
0.0
  0
HATCH
  5
D3
330
1F
100
AcDbEntity
  8
중심선
100
AcDbHatch
 10
0.0
 20
0.0
 30
0.0
210
0.0
220
0.0
230
1.0
  2
SOLID
 70
     1
 71
     0
 91
        1
 92
        0
 93
        6
 72
     3
 10
-6.899771531476889
 20
-40.00000000005127
 11
3.960054785062284
 21
1.540850780301639E-10
 40
0.3939339440162633
 50
17.09539180608433
 51
320.0019657685086
 73
     0
 72
     1
 10
-5.216771875776294
 20
-38.58789400463833
 11
-2.911470002075256
 21
-36.65356729459038
 72
     3
 10
-6.899771531529736
 20
-40.00000000000015
 11
6.600054785286829
 21
-1.249000902703301E-13
 40
0.6363583540795982
 50
39.99873849337408
 51
368.4976242363725
 73
     1
 72
     1
 10
-0.4744390396291265
 20
-39.03999999993002
 11
-8.219704224693814
 21
-39.03999999993002
 72
     1
 10
-8.219704224693814
 20
-39.03999999993002
 11
-8.219729269139748
 21
-40.95999999992991
 72
     1
 10
-8.219729269139748
 20
-40.95999999992991
 11
-3.77834949966771
 21
-40.95999999992988
 97
        0
 75
     0
 76
     1
 98
        1
 10
0.0
 20
0.0
  0
DIMENSION
  5
D4
330
1F
100
AcDbEntity
  8
치수문자_일반주서
100
AcDbDimension
  2
_D
 10
75.51769187590875
 20
10.00000000000005
 30
0.0
 11
75.51769187590871
 21
20.76025000000005
 31
0.0
 70
   160
  1
%%c<>
 71
     2
 42
20.00000000000002
 52
-270.0
  3
SLDDIMSTYLE0
100
AcDbAlignedDimension
 13
62.0
 23
-10.00000000000002
 33
0.0
 14
62.0
 24
10.0
 34
0.0
 50
90.0000000000002
100
AcDbRotatedDimension
  0
DIMENSION
  5
E2
330
1F
100
AcDbEntity
  8
치수문자_일반주서
100
AcDbDimension
  2
_D_1
 10
61.99999999999999
 20
27.38913260158163
 30
0.0
 11
-12.99999999999999
 21
27.38913260158163
 31
0.0
 70
   160
  1
<>
 71
     2
 42
150.0
  3
SLDDIMSTYLE1
100
AcDbAlignedDimension
 13
-88.0
 23
9.499999999999979
 33
0.0
 14
62.0
 24
10.0
 34
0.0
 50
-0.0000000000000027
100
AcDbRotatedDimension
  0
DIMENSION
  5
ED
330
1F
100
AcDbEntity
  8
치수문자_일반주서
100
AcDbDimension
  2
_D_2
 10
-100.245764292597
 20
-10.00000000000007
 30
0.0
 11
-100.2457642925971
 21
20.76024999999992
 31
0.0
 70
   160
  1
%%c<>
 71
     2
 42
19.99999999999999
 52
-270.0
  3
SLDDIMSTYLE2
100
AcDbAlignedDimension
 13
-87.5
 23
9.999999999999972
 33
0.0
 14
-87.5
 24
-10.00000000000002
 34
0.0
 50
90.0000000000002
100
AcDbRotatedDimension
  0
DIMENSION
  5
FB
330
1F
100
AcDbEntity
  8
치수문자_일반주서
100
AcDbDimension
  2
_D_3
 10
62.0
 20
20.84094394457911
 30
0.0
 11
37.00000000000001
 21
20.84094394457911
 31
0.0
 70
   160
  1
<>
 71
     2
 42
50.0
  3
SLDDIMSTYLE1
100
AcDbAlignedDimension
 13
12.0
 23
9.995025641991466
 33
0.0
 14
62.0
 24
10.0
 34
0.0
 50
-0.0000000000000122
100
AcDbRotatedDimension
  0
INSERT
  5
10B
330
1F
100
AcDbEntity
  8
해칭선
100
AcDbBlockReference
  2
SW_DOWELSYMBOL_0
 10
0.0003140231665689
 20
-0.0000000000000043
 30
0.0
  0
ENDSEC
  0
SECTION
  2
OBJECTS
  0
DICTIONARY
  5
C
330
0
100
AcDbDictionary
281
     1
  3
ACAD_GROUP
350
D
  3
ACAD_IMAGE_VARS
350
12F
  3
ACAD_LAYOUT
350
1A
  3
ACAD_MLINESTYLE
350
17
  3
ACAD_PLOTSETTINGS
350
19
  3
ACAD_PLOTSTYLENAME
350
E
  3
ACAD_SCALELIST
350
47
  3
APPDATA
350
12D
  3
DWGPROPS
350
13F
  0
DICTIONARY
  5
D
102
{ACAD_REACTORS
330
C
102
}
330
C
100
AcDbDictionary
281
     1
  0
RASTERVARIABLES
  5
12F
102
{ACAD_REACTORS
330
C
102
}
330
C
100
AcDbRasterVariables
 90
        0
 70
     1
 71
     1
 72
     1
  0
DICTIONARY
  5
1A
102
{ACAD_REACTORS
330
C
102
}
330
C
100
AcDbDictionary
281
     1
  3
Layout1
350
1E
  3
Layout2
350
26
  3
Model
350
22
  0
DICTIONARY
  5
17
102
{ACAD_REACTORS
330
C
102
}
330
C
100
AcDbDictionary
281
     1
  3
Standard
350
18
  0
DICTIONARY
  5
19
102
{ACAD_REACTORS
330
C
102
}
330
C
100
AcDbDictionary
281
     1
  0
ACDBDICTIONARYWDFLT
  5
E
102
{ACAD_REACTORS
330
C
102
}
330
C
100
AcDbDictionary
281
     1
  3
Normal
350
F
100
AcDbDictionaryWithDefault
340
F
  0
DICTIONARY
  5
47
102
{ACAD_REACTORS
330
C
102
}
330
C
100
AcDbDictionary
281
     1
  3
A0
350
48
  3
A1
350
49
  3
A2
350
4A
  3
A3
350
4B
  3
A4
350
4C
  3
A5
350
4D
  3
A6
350
4E
  3
A7
350
4F
  3
A8
350
50
  3
A9
350
51
  3
B0
350
52
  3
B1
350
53
  3
B2
350
54
  3
B3
350
55
  3
B4
350
56
  3
B5
350
57
  3
B6
350
58
  3
B7
350
59
  3
B8
350
5A
  3
B9
350
5B
  3
C0
350
5C
  3
C1
350
5D
  3
C2
350
5E
  3
C3
350
5F
  3
C4
350
60
  3
C5
350
61
  3
C6
350
62
  3
C7
350
63
  3
C8
350
64
  3
C9
350
65
  3
D0
350
66
  3
D1
350
67
  3
D2
350
68
  0
DICTIONARY
  5
12D
102
{ACAD_REACTORS
330
C
102
}
330
C
100
AcDbDictionary
281
     1
  0
XRECORD
  5
13F
102
{ACAD_REACTORS
330
C
102
}
330
C
100
AcDbXrecord
280
     1
  1
DWGPROPS COOKIE
  2

  3

  4

  6

  7

  8
12014102
  9

300
=
301
=
302
=
303
=
304
=
305
=
306
=
307
=
308
=
309
=
 40
0.0
 41
2458260.210720162
 42
2458268.287997998
  1

 90
        0
  0
LAYOUT
  5
1E
102
{ACAD_REACTORS
330
1A
102
}
330
1A
100
AcDbPlotSettings
  1

  2
none_device
  4

  6

 40
0.0
 41
0.0
 42
0.0
 43
0.0
 44
0.0
 45
0.0
 46
0.0
 47
0.0
 48
0.0
 49
0.0
140
0.0
141
0.0
142
1.0
143
1.0
 70
   688
 72
     1
 73
     0
 74
     5
  7

 75
    16
147
1.0
148
0.0
149
0.0
100
AcDbLayout
  1
Layout1
 70
     1
 71
     1
 10
0.0
 20
0.0
 11
420.0
 21
297.0
 12
0.0
 22
0.0
 32
0.0
 14
1.000000000000000E+20
 24
1.000000000000000E+20
 34
1.000000000000000E+20
 15
-1.000000000000000E+20
 25
-1.000000000000000E+20
 35
-1.000000000000000E+20
146
0.0
 13
0.0
 23
0.0
 33
0.0
 16
1.0
 26
0.0
 36
0.0
 17
0.0
 27
1.0
 37
0.0
 76
     0
330
1B
  0
LAYOUT
  5
26
102
{ACAD_REACTORS
330
1A
102
}
330
1A
100
AcDbPlotSettings
  1

  2
none_device
  4

  6

 40
0.0
 41
0.0
 42
0.0
 43
0.0
 44
0.0
 45
0.0
 46
0.0
 47
0.0
 48
0.0
 49
0.0
140
0.0
141
0.0
142
1.0
143
1.0
 70
   688
 72
     1
 73
     0
 74
     5
  7

 75
    16
147
1.0
148
0.0
149
0.0
100
AcDbLayout
  1
Layout2
 70
     1
 71
     2
 10
0.0
 20
0.0
 11
0.0
 21
0.0
 12
0.0
 22
0.0
 32
0.0
 14
0.0
 24
0.0
 34
0.0
 15
0.0
 25
0.0
 35
0.0
146
0.0
 13
0.0
 23
0.0
 33
0.0
 16
1.0
 26
0.0
 36
0.0
 17
0.0
 27
1.0
 37
0.0
 76
     0
330
23
  0
LAYOUT
  5
22
102
{ACAD_REACTORS
330
1A
102
}
330
1A
100
AcDbPlotSettings
  1

  2
none_device
  4
ANSI_A_(11.00_x_8.50_Inches)
  6

 40
6.35
 41
19.05
 42
6.35000508
 43
19.05000254
 44
279.4
 45
215.9
 46
154.486899056047
 47
102.9761615973811
 48
0.0
 49
0.0
140
0.0
141
0.0
142
0.0589085814011889
143
1.0
 70
  1696
 72
     0
 73
     0
 74
     0
  7

 75
     0
147
0.0235690232323232
148
0.0
149
0.0
100
AcDbLayout
  1
Model
 70
     1
 71
     0
 10
0.0
 20
0.0
 11
420.0
 21
297.0
 12
0.0
 22
0.0
 32
0.0
 14
-104.6207642925971
 24
-49.97180738881174
 34
0.0
 15
76.06802520924217
 25
31.76413260158163
 35
0.0
146
0.0
 13
0.0
 23
0.0
 33
0.0
 16
1.0
 26
0.0
 36
0.0
 17
0.0
 27
1.0
 37
0.0
 76
     0
330
1F
331
29
  0
MLINESTYLE
  5
18
102
{ACAD_REACTORS
330
17
102
}
330
17
100
AcDbMlineStyle
  2
Standard
 70
     0
  3

 62
   256
 51
90.0
 52
90.0
 71
     2
 49
0.5
 62
   256
  6
BYLAYER
 49
-0.5
 62
   256
  6
BYLAYER
  0
ACDBPLACEHOLDER
  5
F
102
{ACAD_REACTORS
330
E
102
}
330
E
  0
SCALE
  5
48
102
{ACAD_REACTORS
330
47
102
}
330
47
100
AcDbScale
 70
     0
300
1:1
140
1.0
141
1.0
290
     1
  0
SCALE
  5
49
102
{ACAD_REACTORS
330
47
102
}
330
47
100
AcDbScale
 70
     0
300
1:2
140
1.0
141
2.0
290
     0
  0
SCALE
  5
4A
102
{ACAD_REACTORS
330
47
102
}
330
47
100
AcDbScale
 70
     0
300
1:4
140
1.0
141
4.0
290
     0
  0
SCALE
  5
4B
102
{ACAD_REACTORS
330
47
102
}
330
47
100
AcDbScale
 70
     0
300
1:5
140
1.0
141
5.0
290
     0
  0
SCALE
  5
4C
102
{ACAD_REACTORS
330
47
102
}
330
47
100
AcDbScale
 70
     0
300
1:8
140
1.0
141
8.0
290
     0
  0
SCALE
  5
4D
102
{ACAD_REACTORS
330
47
102
}
330
47
100
AcDbScale
 70
     0
300
1:10
140
1.0
141
10.0
290
     0
  0
SCALE
  5
4E
102
{ACAD_REACTORS
330
47
102
}
330
47
100
AcDbScale
 70
     0
300
1:16
140
1.0
141
16.0
290
     0
  0
SCALE
  5
4F
102
{ACAD_REACTORS
330
47
102
}
330
47
100
AcDbScale
 70
     0
300
1:20
140
1.0
141
20.0
290
     0
  0
SCALE
  5
50
102
{ACAD_REACTORS
330
47
102
}
330
47
100
AcDbScale
 70
     0
300
1:30
140
1.0
141
30.0
290
     0
  0
SCALE
  5
51
102
{ACAD_REACTORS
330
47
102
}
330
47
100
AcDbScale
 70
     0
300
1:40
140
1.0
141
40.0
290
     0
  0
SCALE
  5
52
102
{ACAD_REACTORS
330
47
102
}
330
47
100
AcDbScale
 70
     0
300
1:50
140
1.0
141
50.0
290
     0
  0
SCALE
  5
53
102
{ACAD_REACTORS
330
47
102
}
330
47
100
AcDbScale
 70
     0
300
1:100
140
1.0
141
100.0
290
     0
  0
SCALE
  5
54
102
{ACAD_REACTORS
330
47
102
}
330
47
100
AcDbScale
 70
     0
300
2:1
140
2.0
141
1.0
290
     0
  0
SCALE
  5
55
102
{ACAD_REACTORS
330
47
102
}
330
47
100
AcDbScale
 70
     0
300
4:1
140
4.0
141
1.0
290
     0
  0
SCALE
  5
56
102
{ACAD_REACTORS
330
47
102
}
330
47
100
AcDbScale
 70
     0
300
8:1
140
8.0
141
1.0
290
     0
  0
SCALE
  5
57
102
{ACAD_REACTORS
330
47
102
}
330
47
100
AcDbScale
 70
     0
300
10:1
140
10.0
141
1.0
290
     0
  0
SCALE
  5
58
102
{ACAD_REACTORS
330
47
102
}
330
47
100
AcDbScale
 70
     0
300
100:1
140
100.0
141
1.0
290
     0
  0
SCALE
  5
59
102
{ACAD_REACTORS
330
47
102
}
330
47
100
AcDbScale
 70
     0
300
1/128" = 1'-0"
140
0.0078125
141
12.0
290
     0
  0
SCALE
  5
5A
102
{ACAD_REACTORS
330
47
102
}
330
47
100
AcDbScale
 70
     0
300
1/64" = 1'-0"
140
0.015625
141
12.0
290
     0
  0
SCALE
  5
5B
102
{ACAD_REACTORS
330
47
102
}
330
47
100
AcDbScale
 70
     0
300
1/32" = 1'-0"
140
0.03125
141
12.0
290
     0
  0
SCALE
  5
5C
102
{ACAD_REACTORS
330
47
102
}
330
47
100
AcDbScale
 70
     0
300
1/16" = 1'-0"
140
0.0625
141
12.0
290
     0
  0
SCALE
  5
5D
102
{ACAD_REACTORS
330
47
102
}
330
47
100
AcDbScale
 70
     0
300
3/32" = 1'-0"
140
0.09375
141
12.0
290
     0
  0
SCALE
  5
5E
102
{ACAD_REACTORS
330
47
102
}
330
47
100
AcDbScale
 70
     0
300
1/8" = 1'-0"
140
0.125
141
12.0
290
     0
  0
SCALE
  5
5F
102
{ACAD_REACTORS
330
47
102
}
330
47
100
AcDbScale
 70
     0
300
3/16" = 1'-0"
140
0.1875
141
12.0
290
     0
  0
SCALE
  5
60
102
{ACAD_REACTORS
330
47
102
}
330
47
100
AcDbScale
 70
     0
300
1/4" = 1'-0"
140
0.25
141
12.0
290
     0
  0
SCALE
  5
61
102
{ACAD_REACTORS
330
47
102
}
330
47
100
AcDbScale
 70
     0
300
3/8" = 1'-0"
140
0.375
141
12.0
290
     0
  0
SCALE
  5
62
102
{ACAD_REACTORS
330
47
102
}
330
47
100
AcDbScale
 70
     0
300
1/2" = 1'-0"
140
0.5
141
12.0
290
     0
  0
SCALE
  5
63
102
{ACAD_REACTORS
330
47
102
}
330
47
100
AcDbScale
 70
     0
300
3/4" = 1'-0"
140
0.75
141
12.0
290
     0
  0
SCALE
  5
64
102
{ACAD_REACTORS
330
47
102
}
330
47
100
AcDbScale
 70
     0
300
1" = 1'-0"
140
1.0
141
12.0
290
     0
  0
SCALE
  5
65
102
{ACAD_REACTORS
330
47
102
}
330
47
100
AcDbScale
 70
     0
300
1-1/2" = 1'-0"
140
1.5
141
12.0
290
     0
  0
SCALE
  5
66
102
{ACAD_REACTORS
330
47
102
}
330
47
100
AcDbScale
 70
     0
300
3" = 1'-0"
140
3.0
141
12.0
290
     0
  0
SCALE
  5
67
102
{ACAD_REACTORS
330
47
102
}
330
47
100
AcDbScale
 70
     0
300
6" = 1'-0"
140
6.0
141
12.0
290
     0
  0
SCALE
  5
68
102
{ACAD_REACTORS
330
47
102
}
330
47
100
AcDbScale
 70
     0
300
1'-0" = 1'-0"
140
12.0
141
12.0
290
     0
  0
ENDSEC
  0
EOF
