  0
SECTION
  2
HEADER
  9
$ACADVER
  1
AC1015
  9
$ACADMAINTVER
 70
     6
  9
$DWGCODEPAGE
  3
ANSI_949
  9
$INSBASE
 10
0.0
 20
0.0
 30
0.0
  9
$EXTMIN
 10
-74.18205099456273
 20
-49.97180738881174
 30
0.0
  9
$EXTMAX
 10
89.1048835815225
 20
31.76413260158164
 30
0.0
  9
$LIMMIN
 10
0.0
 20
0.0
  9
$LIMMAX
 10
420.0
 20
297.0
  9
$ORTHOMODE
 70
     0
  9
$REGENMODE
 70
     1
  9
$FILLMODE
 70
     1
  9
$QTEXTMODE
 70
     0
  9
$MIRRTEXT
 70
     1
  9
$LTSCALE
 40
1.0
  9
$ATTMODE
 70
     1
  9
$TEXTSIZE
 40
3.5
  9
$TRACEWID
 40
1.0
  9
$TEXTSTYLE
  7
Standard
  9
$CLAYER
  8
0
  9
$CELTYPE
  6
ByLayer
  9
$CECOLOR
 62
   256
  9
$CELTSCALE
 40
1.0
  9
$DISPSILH
 70
     0
  9
$DIMSCALE
 40
1.0
  9
$DIMASZ
 40
3.302
  9
$DIMEXO
 40
1.0
  9
$DIMDLI
 40
3.75
  9
$DIMRND
 40
0.0
  9
$DIMDLE
 40
0.0
  9
$DIMEXE
 40
1.0
  9
$DIMTP
 40
0.0
  9
$DIMTM
 40
0.0
  9
$DIMTXT
 40
3.5
  9
$DIMCEN
 40
2.5
  9
$DIMTSZ
 40
0.0
  9
$DIMTOL
 70
     0
  9
$DIMLIM
 70
     0
  9
$DIMTIH
 70
     1
  9
$DIMTOH
 70
     1
  9
$DIMSE1
 70
     0
  9
$DIMSE2
 70
     0
  9
$DIMTAD
 70
     1
  9
$DIMZIN
 70
     0
  9
$DIMBLK
  1

  9
$DIMASO
 70
     1
  9
$DIMSHO
 70
     1
  9
$DIMPOST
  1

  9
$DIMAPOST
  1

  9
$DIMALT
 70
     0
  9
$DIMALTD
 70
     3
  9
$DIMALTF
 40
0.0393700787401575
  9
$DIMLFAC
 40
1.0
  9
$DIMTOFL
 70
     1
  9
$DIMTVP
 40
0.0
  9
$DIMTIX
 70
     0
  9
$DIMSOXD
 70
     0
  9
$DIMSAH
 70
     0
  9
$DIMBLK1
  1

  9
$DIMBLK2
  1

  9
$DIMSTYLE
  2
ISO-25
  9
$DIMCLRD
 70
     0
  9
$DIMCLRE
 70
     0
  9
$DIMCLRT
 70
     0
  9
$DIMTFAC
 40
1.0
  9
$DIMGAP
 40
1.524
  9
$DIMJUST
 70
     0
  9
$DIMSD1
 70
     0
  9
$DIMSD2
 70
     0
  9
$DIMTOLJ
 70
     0
  9
$DIMTZIN
 70
     0
  9
$DIMALTZ
 70
     0
  9
$DIMALTTZ
 70
     0
  9
$DIMUPT
 70
     0
  9
$DIMDEC
 70
     2
  9
$DIMTDEC
 70
     2
  9
$DIMALTU
 70
     2
  9
$DIMALTTD
 70
     3
  9
$DIMTXSTY
  7
Standard
  9
$DIMAUNIT
 70
     0
  9
$DIMADEC
 70
     2
  9
$DIMALTRND
 40
0.0
  9
$DIMAZIN
 70
     0
  9
$DIMDSEP
 70
    44
  9
$DIMATFIT
 70
     3
  9
$DIMFRAC
 70
     0
  9
$DIMLDRBLK
  1

  9
$DIMLUNIT
 70
     2
  9
$DIMLWD
 70
    -2
  9
$DIMLWE
 70
    -2
  9
$DIMTMOVE
 70
     0
  9
$LUNITS
 70
     2
  9
$LUPREC
 70
     2
  9
$SKETCHINC
 40
1.0
  9
$FILLETRAD
 40
10.0
  9
$AUNITS
 70
     0
  9
$AUPREC
 70
     2
  9
$MENU
  1
.
  9
$ELEVATION
 40
0.0
  9
$PELEVATION
 40
0.0
  9
$THICKNESS
 40
0.0
  9
$LIMCHECK
 70
     0
  9
$CHAMFERA
 40
0.0
  9
$CHAMFERB
 40
0.0
  9
$CHAMFERC
 40
0.0
  9
$CHAMFERD
 40
0.0
  9
$SKPOLY
 70
     0
  9
$TDCREATE
 40
2458260.585153924
  9
$TDUCREATE
 40
2458260.210153924
  9
$TDUPDATE
 40
2459677.588828218
  9
$TDUUPDATE
 40
2459677.213828218
  9
$TDINDWG
 40
0.0010910764
  9
$TDUSRTIMER
 40
0.0004991898
  9
$USRTIMER
 70
     1
  9
$ANGBASE
 50
0.0
  9
$ANGDIR
 70
     0
  9
$PDMODE
 70
     0
  9
$PDSIZE
 40
-1.0
  9
$PLINEWID
 40
0.0
  9
$SPLFRAME
 70
     0
  9
$SPLINETYPE
 70
     6
  9
$SPLINESEGS
 70
     8
  9
$HANDSEED
  5
174
  9
$SURFTAB1
 70
     6
  9
$SURFTAB2
 70
     6
  9
$SURFTYPE
 70
     6
  9
$SURFU
 70
     6
  9
$SURFV
 70
     6
  9
$UCSBASE
  2

  9
$UCSNAME
  2

  9
$UCSORG
 10
0.0
 20
0.0
 30
0.0
  9
$UCSXDIR
 10
1.0
 20
0.0
 30
0.0
  9
$UCSYDIR
 10
0.0
 20
1.0
 30
0.0
  9
$UCSORTHOREF
  2

  9
$UCSORTHOVIEW
 70
     0
  9
$UCSORGTOP
 10
0.0
 20
0.0
 30
0.0
  9
$UCSORGBOTTOM
 10
0.0
 20
0.0
 30
0.0
  9
$UCSORGLEFT
 10
0.0
 20
0.0
 30
0.0
  9
$UCSORGRIGHT
 10
0.0
 20
0.0
 30
0.0
  9
$UCSORGFRONT
 10
0.0
 20
0.0
 30
0.0
  9
$UCSORGBACK
 10
0.0
 20
0.0
 30
0.0
  9
$PUCSBASE
  2

  9
$PUCSNAME
  2

  9
$PUCSORG
 10
0.0
 20
0.0
 30
0.0
  9
$PUCSXDIR
 10
1.0
 20
0.0
 30
0.0
  9
$PUCSYDIR
 10
0.0
 20
1.0
 30
0.0
  9
$PUCSORTHOREF
  2

  9
$PUCSORTHOVIEW
 70
     0
  9
$PUCSORGTOP
 10
0.0
 20
0.0
 30
0.0
  9
$PUCSORGBOTTOM
 10
0.0
 20
0.0
 30
0.0
  9
$PUCSORGLEFT
 10
0.0
 20
0.0
 30
0.0
  9
$PUCSORGRIGHT
 10
0.0
 20
0.0
 30
0.0
  9
$PUCSORGFRONT
 10
0.0
 20
0.0
 30
0.0
  9
$PUCSORGBACK
 10
0.0
 20
0.0
 30
0.0
  9
$USERI1
 70
     0
  9
$USERI2
 70
     0
  9
$USERI3
 70
     0
  9
$USERI4
 70
     0
  9
$USERI5
 70
     0
  9
$USERR1
 40
0.0
  9
$USERR2
 40
0.0
  9
$USERR3
 40
0.0
  9
$USERR4
 40
0.0
  9
$USERR5
 40
0.0
  9
$WORLDVIEW
 70
     1
  9
$SHADEDGE
 70
     3
  9
$SHADEDIF
 70
    70
  9
$TILEMODE
 70
     1
  9
$MAXACTVP
 70
    64
  9
$PINSBASE
 10
0.0
 20
0.0
 30
0.0
  9
$PLIMCHECK
 70
     0
  9
$PEXTMIN
 10
1.000000000000000E+20
 20
1.000000000000000E+20
 30
1.000000000000000E+20
  9
$PEXTMAX
 10
-1.000000000000000E+20
 20
-1.000000000000000E+20
 30
-1.000000000000000E+20
  9
$PLIMMIN
 10
0.0
 20
0.0
  9
$PLIMMAX
 10
0.0
 20
0.0
  9
$UNITMODE
 70
     0
  9
$VISRETAIN
 70
     1
  9
$PLINEGEN
 70
     0
  9
$PSLTSCALE
 70
     1
  9
$TREEDEPTH
 70
  3020
  9
$CMLSTYLE
  2
Standard
  9
$CMLJUST
 70
     0
  9
$CMLSCALE
 40
20.0
  9
$PROXYGRAPHICS
 70
     1
  9
$MEASUREMENT
 70
     1
  9
$CELWEIGHT
370
    -1
  9
$ENDCAPS
280
     0
  9
$JOINSTYLE
280
     0
  9
$LWDISPLAY
290
     1
  9
$INSUNITS
 70
     4
  9
$HYPERLINKBASE
  1

  9
$STYLESHEET
  1

  9
$XEDIT
290
     1
  9
$CEPSNTYPE
380
     0
  9
$PSTYLEMODE
290
     1
  9
$FINGERPRINTGUID
  2
{C7DA404E-DF5C-4078-8766-A017A912120F}
  9
$VERSIONGUID
  2
{FAEB1C32-E019-11D5-929B-00C0DF256EC4}
  9
$EXTNAMES
290
     1
  9
$PSVPSCALE
 40
0.0
  9
$OLESTARTUP
290
     0
  0
ENDSEC
  0
SECTION
  2
CLASSES
  0
CLASS
  1
ACDBDICTIONARYWDFLT
  2
AcDbDictionaryWithDefault
  3
ObjectDBX Classes
 90
        0
280
     0
281
     0
  0
CLASS
  1
VISUALSTYLE
  2
AcDbVisualStyle
  3
ObjectDBX Classes
 90
     4095
280
     0
281
     0
  0
CLASS
  1
MATERIAL
  2
AcDbMaterial
  3
ObjectDBX Classes
 90
     1153
280
     0
281
     0
  0
CLASS
  1
SCALE
  2
AcDbScale
  3
ObjectDBX Classes
 90
     1153
280
     0
281
     0
  0
CLASS
  1
TABLESTYLE
  2
AcDbTableStyle
  3
ObjectDBX Classes
 90
     4095
280
     0
281
     0
  0
CLASS
  1
MLEADERSTYLE
  2
AcDbMLeaderStyle
  3
ACDB_MLEADERSTYLE_CLASS
 90
     4095
280
     0
281
     0
  0
CLASS
  1
SUN
  2
AcDbSun
  3
SCENEOE
 90
     1153
280
     0
281
     0
  0
CLASS
  1
ACDBPLACEHOLDER
  2
AcDbPlaceHolder
  3
ObjectDBX Classes
 90
        0
280
     0
281
     0
  0
CLASS
  1
LAYOUT
  2
AcDbLayout
  3
ObjectDBX Classes
 90
        0
280
     0
281
     0
  0
CLASS
  1
RASTERVARIABLES
  2
AcDbRasterVariables
  3
ISM
 90
        0
280
     0
281
     0
  0
ENDSEC
  0
SECTION
  2
TABLES
  0
TABLE
  2
VPORT
  5
8
330
0
100
AcDbSymbolTable
 70
     1
  0
VPORT
  5
29
330
8
100
AcDbSymbolTableRecord
100
AcDbViewportTableRecord
  2
*Active
 70
     0
 10
0.0
 20
0.0
 11
1.0
 21
1.0
 12
-3.833647908972141
 22
-15.77948295655638
 13
0.0
 23
0.0
 14
10.0
 24
10.0
 15
10.0
 25
10.0
 16
0.0
 26
0.0
 36
1.0
 17
0.0
 27
0.0
 37
0.0
 40
44.54508643775377
 41
1.531481481481481
 42
50.0
 43
0.0
 44
0.0
 50
0.0
 51
0.0
 71
    16
 72
  2000
 73
     1
 74
     3
 75
     0
 76
     0
 77
     0
 78
     0
281
     0
 65
     1
110
0.0
120
0.0
130
0.0
111
1.0
121
0.0
131
0.0
112
0.0
122
1.0
132
0.0
 79
     0
146
0.0
  0
ENDTAB
  0
TABLE
  2
LTYPE
  5
5
330
0
100
AcDbSymbolTable
 70
     6
  0
LTYPE
  5
14
330
5
100
AcDbSymbolTableRecord
100
AcDbLinetypeTableRecord
  2
ByBlock
 70
     0
  3

 72
    65
 73
     0
 40
0.0
  0
LTYPE
  5
15
330
5
100
AcDbSymbolTableRecord
100
AcDbLinetypeTableRecord
  2
ByLayer
 70
     0
  3

 72
    65
 73
     0
 40
0.0
  0
LTYPE
  5
16
330
5
100
AcDbSymbolTableRecord
100
AcDbLinetypeTableRecord
  2
Continuous
 70
     0
  3
Solid line
 72
    65
 73
     0
 40
0.0
  0
LTYPE
  5
6E
330
5
100
AcDbSymbolTableRecord
100
AcDbLinetypeTableRecord
  2
HIDDEN
 70
     0
  3
Hidden __ __ __ __ __ __ __ __ __ __ __ __ __ __
 72
    65
 73
     2
 40
1.905
 49
1.27
 74
     0
 49
-0.635
 74
     0
  0
LTYPE
  5
6F
330
5
100
AcDbSymbolTableRecord
100
AcDbLinetypeTableRecord
  2
PHANTOM
 70
     0
  3
Phantom ______  __  __  ______  __  __  ______
 72
    65
 73
     6
 40
12.7
 49
6.35
 74
     0
 49
-1.27
 74
     0
 49
1.27
 74
     0
 49
-1.27
 74
     0
 49
1.27
 74
     0
 49
-1.27
 74
     0
  0
LTYPE
  5
70
330
5
100
AcDbSymbolTableRecord
100
AcDbLinetypeTableRecord
  2
CENTER
 70
     0
  3
Center ____ _ ____ _ ____ _ ____ _ ____ _ ____
 72
    65
 73
     4
 40
10.16
 49
6.35
 74
     0
 49
-1.27
 74
     0
 49
1.27
 74
     0
 49
-1.27
 74
     0
  0
LTYPE
  5
71
330
5
100
AcDbSymbolTableRecord
100
AcDbLinetypeTableRecord
  2
CENTERX2
 70
     0
  3
Center (2x) ________  __  ________  __  _____
 72
    65
 73
     4
 40
20.32
 49
12.7
 74
     0
 49
-2.54
 74
     0
 49
2.54
 74
     0
 49
-2.54
 74
     0
  0
LTYPE
  5
72
330
5
100
AcDbSymbolTableRecord
100
AcDbLinetypeTableRecord
  2
DOT2
 70
     0
  3
Dot (.5x) ........................................
 72
    65
 73
     2
 40
0.635
 49
0.0
 74
     0
 49
-0.635
 74
     0
  0
ENDTAB
  0
TABLE
  2
LAYER
  5
2
330
0
100
AcDbSymbolTable
 70
    17
  0
LAYER
  5
10
330
2
100
AcDbSymbolTableRecord
100
AcDbLayerTableRecord
  2
0
 70
     0
 62
     7
  6
Continuous
370
    -3
390
F
  0
LAYER
  5
73
330
2
100
AcDbSymbolTableRecord
100
AcDbLayerTableRecord
  2
FORMAT
 70
     0
 62
     2
  6
Continuous
370
    -3
390
F
  0
LAYER
  5
74
330
2
100
AcDbSymbolTableRecord
100
AcDbLayerTableRecord
  2
외형선
 70
     0
 62
   100
  6
Continuous
370
    35
390
F
  0
LAYER
  5
75
330
2
100
AcDbSymbolTableRecord
100
AcDbLayerTableRecord
  2
숨은선
 70
     0
 62
     2
  6
HIDDEN
370
    25
390
F
  0
LAYER
  5
76
330
2
100
AcDbSymbolTableRecord
100
AcDbLayerTableRecord
  2
중심선
 70
     0
 62
     1
  6
CENTERX2
370
    -3
390
F
  0
LAYER
  5
77
330
2
100
AcDbSymbolTableRecord
100
AcDbLayerTableRecord
  2
파단선
 70
     0
 62
     4
  6
Continuous
370
    -3
390
F
  0
LAYER
  5
78
330
2
100
AcDbSymbolTableRecord
100
AcDbLayerTableRecord
  2
해칭선
 70
     0
 62
   100
  6
Continuous
370
    -3
390
F
  0
LAYER
  5
79
330
2
100
AcDbSymbolTableRecord
100
AcDbLayerTableRecord
  2
가는실선
 70
     0
 62
     4
  6
Continuous
370
    -3
390
F
  0
LAYER
  5
7A
330
2
100
AcDbSymbolTableRecord
100
AcDbLayerTableRecord
  2
치수_보조선
 70
     0
 62
     4
  6
Continuous
370
    -3
390
F
  0
LAYER
  5
7B
330
2
100
AcDbSymbolTableRecord
100
AcDbLayerTableRecord
  2
치수문자_일반주서
 70
     0
 62
     7
  6
Continuous
370
    25
390
F
  0
LAYER
  5
7C
330
2
100
AcDbSymbolTableRecord
100
AcDbLayerTableRecord
  2
개별주서
 70
     0
 62
   100
  6
Continuous
370
    35
390
F
  0
LAYER
  5
7D
330
2
100
AcDbSymbolTableRecord
100
AcDbLayerTableRecord
  2
중간선
 70
     0
 62
     2
  6
Continuous
370
    25
390
F
  0
LAYER
  5
7E
330
2
100
AcDbSymbolTableRecord
100
AcDbLayerTableRecord
  2
윤곽선
 70
     0
 62
     3
  6
Continuous
370
    50
390
F
  0
LAYER
  5
7F
330
2
100
AcDbSymbolTableRecord
100
AcDbLayerTableRecord
  2
중심마크
 70
     0
 62
   100
  6
Continuous
370
    35
390
F
  0
LAYER
  5
80
330
2
100
AcDbSymbolTableRecord
100
AcDbLayerTableRecord
  2
가상선
 70
     0
 62
     4
  6
PHANTOM
370
    -3
390
F
  0
LAYER
  5
81
330
2
100
AcDbSymbolTableRecord
100
AcDbLayerTableRecord
  2
특수지정선
 70
     0
 62
     5
  6
CENTERX2
370
    70
390
F
  0
LAYER
  5
140
330
2
100
AcDbSymbolTableRecord
100
AcDbLayerTableRecord
  2
Defpoints
 70
     0
 62
     7
  6
Continuous
290
     0
370
    -3
390
F
  0
ENDTAB
  0
TABLE
  2
STYLE
  5
3
330
0
100
AcDbSymbolTable
 70
     2
  0
STYLE
  5
11
330
3
100
AcDbSymbolTableRecord
100
AcDbTextStyleTableRecord
  2
Standard
 70
     0
 40
0.0
 41
1.0
 50
0.0
 71
     0
 42
3.5
  3
txt
  4

  0
STYLE
  5
97
330
3
100
AcDbSymbolTableRecord
100
AcDbTextStyleTableRecord
  2
SLDTEXTSTYLE0
 70
     0
 40
0.0
 41
0.75
 50
0.0
 71
     0
 42
3.5
  3
TXT
  4

  0
ENDTAB
  0
TABLE
  2
VIEW
  5
6
330
0
100
AcDbSymbolTable
 70
     0
  0
ENDTAB
  0
TABLE
  2
UCS
  5
7
330
0
100
AcDbSymbolTable
 70
     0
  0
ENDTAB
  0
TABLE
  2
APPID
  5
9
330
0
100
AcDbSymbolTable
 70
     1
  0
APPID
  5
12
330
9
100
AcDbSymbolTableRecord
100
AcDbRegAppTableRecord
  2
ACAD
 70
     0
  0
ENDTAB
  0
TABLE
  2
DIMSTYLE
  5
A
330
0
100
AcDbSymbolTable
 70
     4
100
AcDbDimStyleTable
  0
DIMSTYLE
105
27
330
A
100
AcDbSymbolTableRecord
100
AcDbDimStyleTableRecord
  2
ISO-25
 70
     0
 41
2.5
 42
0.625
 43
3.75
 44
1.25
 73
     0
 74
     0
 77
     1
 78
     8
140
2.5
141
2.5
143
0.03937007874016
147
0.625
171
     3
172
     1
178
     0
271
     2
272
     2
274
     3
278
    44
283
     0
284
     8
340
11
  0
DIMSTYLE
105
E5
102
{ACAD_REACTORS
330
E4
102
}
330
A
100
AcDbSymbolTableRecord
100
AcDbDimStyleTableRecord
  2
SLDDIMSTYLE0
 70
     0
 41
3.302
 44
0.0
 45
0.000000001
 73
     0
 74
     0
 77
     1
 78
    12
 79
     3
140
3.5
147
0.875
172
     1
173
     1
178
     0
271
     1
272
     1
276
     2
284
    12
289
     0
340
97
  0
DIMSTYLE
105
F3
102
{ACAD_REACTORS
330
F2
330
10B
102
}
330
A
100
AcDbSymbolTableRecord
100
AcDbDimStyleTableRecord
  2
SLDDIMSTYLE1
 70
     0
 41
3.302
 44
0.0
 45
0.000000001
 73
     0
 74
     0
 77
     1
 78
    12
 79
     3
140
3.5
147
0.875
173
     1
178
     0
271
     2
272
     2
276
     2
284
    12
340
97
  0
DIMSTYLE
105
FE
102
{ACAD_REACTORS
330
FD
102
}
330
A
100
AcDbSymbolTableRecord
100
AcDbDimStyleTableRecord
  2
SLDDIMSTYLE2
 70
     0
 41
3.302
 44
0.0
 45
0.000000001
 73
     0
 74
     0
 77
     1
 78
    12
 79
     3
140
3.5
147
0.875
172
     1
173
     1
178
     0
271
     2
272
     2
276
     2
284
    12
289
     0
340
97
  0
ENDTAB
  0
TABLE
  2
BLOCK_RECORD
  5
1
330
0
100
AcDbSymbolTable
 70
     7
  0
BLOCK_RECORD
  5
1F
102
{ACAD_XDICTIONARY
360
171
102
}
330
1
100
AcDbSymbolTableRecord
100
AcDbBlockTableRecord
  2
*Model_Space
340
22
  0
BLOCK_RECORD
  5
1B
330
1
100
AcDbSymbolTableRecord
100
AcDbBlockTableRecord
  2
*Paper_Space
340
1E
  0
BLOCK_RECORD
  5
23
330
1
100
AcDbSymbolTableRecord
100
AcDbBlockTableRecord
  2
*Paper_Space0
340
26
  0
BLOCK_RECORD
  5
82
330
1
100
AcDbSymbolTableRecord
100
AcDbBlockTableRecord
  2
블럭10
340
0
102
{BLKREFS
331
DD
102
}
  0
BLOCK_RECORD
  5
E6
330
1
100
AcDbSymbolTableRecord
100
AcDbBlockTableRecord
  2
_D
340
0
  0
BLOCK_RECORD
  5
F4
330
1
100
AcDbSymbolTableRecord
100
AcDbBlockTableRecord
  2
_D_1
340
0
  0
BLOCK_RECORD
  5
FF
330
1
100
AcDbSymbolTableRecord
100
AcDbBlockTableRecord
  2
_D_2
340
0
  0
BLOCK_RECORD
  5
10C
330
1
100
AcDbSymbolTableRecord
100
AcDbBlockTableRecord
  2
_D_3
340
0
  0
BLOCK_RECORD
  5
115
330
1
100
AcDbSymbolTableRecord
100
AcDbBlockTableRecord
  2
SW_DOWELSYMBOL_0
340
0
102
{BLKREFS
331
11B
102
}
  0
ENDTAB
  0
ENDSEC
  0
SECTION
  2
BLOCKS
  0
BLOCK
  5
20
330
1F
100
AcDbEntity
  8
0
100
AcDbBlockBegin
  2
*Model_Space
 70
     0
 10
0.0
 20
0.0
 30
0.0
  3
*Model_Space
  1

  0
ENDBLK
  5
21
330
1F
100
AcDbEntity
  8
0
100
AcDbBlockEnd
  0
BLOCK
  5
1C
330
1B
100
AcDbEntity
 67
     1
  8
0
100
AcDbBlockBegin
  2
*Paper_Space
 70
     0
 10
0.0
 20
0.0
 30
0.0
  3
*Paper_Space
  1

  0
ENDBLK
  5
1D
330
1B
100
AcDbEntity
 67
     1
  8
0
100
AcDbBlockEnd
  0
BLOCK
  5
24
330
23
100
AcDbEntity
  8
0
100
AcDbBlockBegin
  2
*Paper_Space0
 70
     0
 10
0.0
 20
0.0
 30
0.0
  3
*Paper_Space0
  1

  0
ENDBLK
  5
25
330
23
100
AcDbEntity
  8
0
100
AcDbBlockEnd
  0
BLOCK
  5
83
330
82
100
AcDbEntity
  8
0
100
AcDbBlockBegin
  2
블럭10
 70
     2
 10
0.0
 20
0.0
 30
0.0
  3
블럭10
  1

  0
ELLIPSE
  5
85
330
82
100
AcDbEntity
  8
중심선
100
AcDbEllipse
 10
20.54032771741204
 20
12.0471743016438
 30
0.0
 11
6.600054785286829
 21
-1.261213355974178E-13
 31
0.0
210
0.0
220
0.0
230
1.0
 40
0.636358354079598
 41
0.9219305317359503
 42
6.513795318482858
  0
ELLIPSE
  5
86
330
82
100
AcDbEntity
  8
중심선
100
AcDbEllipse
 10
20.54032771746488
 20
12.04717430159265
 30
0.0
 11
3.960054785062283
 21
1.540847449632565E-10
 31
0.0
210
0.0
220
0.0
230
1.0
 40
0.3939339440162632
 41
1.131841032648279
 42
5.62031148352944
  0
LINE
  5
87
330
82
100
AcDbEntity
  8
중심선
100
AcDbLine
 10
2.268634060543552
 20
16.24717430164393
 30
0.0
 11
5.714909304380834
 21
16.24717430164393
 31
0.0
  0
LINE
  5
88
330
82
100
AcDbEntity
  8
중심선
100
AcDbLine
 10
5.245725140726316
 20
7.84717430164391
 30
0.0
 11
8.692000384563599
 21
7.84717430164391
 31
0.0
  0
LINE
  5
89
330
82
100
AcDbEntity
  8
중심선
100
AcDbLine
 10
15.74043728645272
 20
16.24717430164393
 30
0.0
 11
8.692000384563599
 21
7.84717430164391
 31
0.0
  0
LINE
  5
8A
330
82
100
AcDbEntity
  8
중심선
100
AcDbLine
 10
0.1404042013395286
 20
13.71084872107135
 30
0.0
 11
3.58671253028996
 21
13.71088815037384
 31
0.0
  0
LINE
  5
8B
330
82
100
AcDbEntity
  8
중심선
100
AcDbLine
 10
2.750260043222114
 20
10.84717430164391
 30
0.0
 11
6.196535287059397
 21
10.84717430164391
 31
0.0
  0
LINE
  5
8C
330
82
100
AcDbEntity
  8
중심선
100
AcDbLine
 10
12.29416204261559
 20
16.24717430164393
 30
0.0
 11
5.245725140726316
 21
7.84717430164391
 31
0.0
  0
LINE
  5
8D
330
82
100
AcDbEntity
  8
중심선
100
AcDbLine
 10
10.72767329541681
 20
16.24717430164393
 30
0.0
 11
6.196535287059397
 21
10.84717430164391
 31
0.0
  0
LINE
  5
8E
330
82
100
AcDbEntity
  8
중심선
100
AcDbLine
 10
7.28139805157953
 20
16.24717430164393
 30
0.0
 11
2.750260043222114
 21
10.84717430164391
 31
0.0
  0
LINE
  5
8F
330
82
100
AcDbEntity
  8
중심선
100
AcDbLine
 10
5.714909304380834
 20
16.24717430164393
 30
0.0
 11
3.58671253028996
 21
13.71088815037384
 31
0.0
  0
LINE
  5
90
330
82
100
AcDbEntity
  8
중심선
100
AcDbLine
 10
2.268634060543552
 20
16.24717430164393
 30
0.0
 11
0.1404042013395286
 21
13.71084872107135
 31
0.0
  0
LINE
  5
91
330
82
100
AcDbEntity
  8
중심선
100
AcDbLine
 10
7.28139805157953
 20
16.24717430164393
 30
0.0
 11
10.72767329541681
 21
16.24717430164393
 31
0.0
  0
LINE
  5
92
330
82
100
AcDbEntity
  8
중심선
100
AcDbLine
 10
12.29416204261559
 20
16.24717430164393
 30
0.0
 11
15.74043728645272
 21
16.24717430164393
 31
0.0
  0
LINE
  5
93
330
82
100
AcDbEntity
  8
중심선
100
AcDbLine
 10
19.22036997980202
 20
11.08717430171403
 30
0.0
 11
23.66174974927406
 21
11.08717430171406
 31
0.0
  0
LINE
  5
94
330
82
100
AcDbEntity
  8
중심선
100
AcDbLine
 10
19.22039502424796
 20
13.00717430171391
 30
0.0
 11
19.22036997980202
 21
11.08717430171403
 31
0.0
  0
LINE
  5
95
330
82
100
AcDbEntity
  8
중심선
100
AcDbLine
 10
19.22039502424796
 20
13.00717430171391
 30
0.0
 11
26.96566020931264
 21
13.00717430171391
 31
0.0
  0
LINE
  5
96
330
82
100
AcDbEntity
  8
중심선
100
AcDbLine
 10
22.22332737316547
 20
13.45928029700563
 30
0.0
 11
24.52862924686651
 21
15.39360700705356
 31
0.0
  0
ATTDEF
  5
98
330
82
100
AcDbEntity
  8
FORMAT
 62
     2
100
AcDbText
 10
-16.11926103943555
 20
2.075366912832191
 30
0.0
 40
4.233333333333333
  1
SEME7218070E [ 4 FLUTE ]
 41
0.75
  7
SLDTEXTSTYLE0
 11
-16.11926103943555
 21
-0.0412997538344756
 31
0.0
100
AcDbAttributeDefinition
  3

  2
AUTOATTR0
 70
     0
 74
     1
  0
ENDBLK
  5
84
330
82
100
AcDbEntity
  8
0
100
AcDbBlockEnd
  0
BLOCK
  5
E7
330
E6
100
AcDbEntity
  8
0
100
AcDbBlockBegin
  2
_D
 70
     0
 10
0.0
 20
0.0
 30
0.0
  3
_D
  1

  0
LINE
  5
E9
330
E6
100
AcDbEntity
  8
치수문자_일반주서
 62
     0
370
    -2
100
AcDbLine
 10
74.06250420720731
 20
-9.000000000000014
 30
0.0
 11
88.55455024818917
 21
-8.999999999999961
 31
0.0
  0
LINE
  5
EA
330
E6
100
AcDbEntity
  8
치수문자_일반주서
 62
     0
370
    -2
100
AcDbLine
 10
74.06250420720731
 20
9.000000000000004
 30
0.0
 11
88.55455024818912
 21
9.000000000000059
 31
0.0
  0
LINE
  5
EB
330
E6
100
AcDbEntity
  8
치수문자_일반주서
 62
     0
370
    -2
100
AcDbLine
 10
88.55455024818912
 20
9.000000000000059
 30
0.0
 11
88.55455024818907
 21
23.47900000000007
 31
0.0
  0
LINE
  5
EC
330
E6
100
AcDbEntity
  8
치수문자_일반주서
 62
     0
370
    -2
100
AcDbLine
 10
88.55455024818917
 20
-8.999999999999961
 30
0.0
 11
88.55455024818912
 21
9.000000000000059
 31
0.0
  0
LINE
  5
ED
330
E6
100
AcDbEntity
  8
치수문자_일반주서
 62
     0
370
    -2
100
AcDbLine
 10
88.55455024818919
 20
-12.30199999999996
 30
0.0
 11
88.5545502481892
 21
-15.60399999999996
 31
0.0
  0
LINE
  5
EE
330
E6
100
AcDbEntity
  8
치수문자_일반주서
 62
     0
370
    -2
100
AcDbLine
 10
88.5545502481891
 20
12.30200000000006
 30
0.0
 11
88.55455024818909
 21
15.60400000000006
 31
0.0
  0
SOLID
  5
EF
330
E6
100
AcDbEntity
  8
치수문자_일반주서
 62
     0
100
AcDbTrace
 10
89.10488358152251
 20
-12.30199999999996
 30
0.0
 11
88.00421691485586
 21
-12.30199999999996
 31
0.0
 12
88.55455024818917
 22
-8.999999999999961
 32
0.0
 13
88.55455024818917
 23
-8.999999999999961
 33
0.0
  0
SOLID
  5
F0
330
E6
100
AcDbEntity
  8
치수문자_일반주서
 62
     0
100
AcDbTrace
 10
88.00421691485577
 20
12.30200000000006
 30
0.0
 11
89.10488358152243
 21
12.30200000000006
 31
0.0
 12
88.55455024818912
 22
9.000000000000059
 32
0.0
 13
88.55455024818912
 23
9.000000000000059
 33
0.0
  0
MTEXT
  5
F1
330
E6
100
AcDbEntity
  8
치수문자_일반주서
 62
     0
100
AcDbMText
 10
84.17955024818909
 20
19.54150000000005
 30
0.0
 40
3.5
 41
0.0
 71
     2
 72
     1
  1
\A1;%%c18
  7
SLDTEXTSTYLE0
 11
-3.157967714489331E-15
 21
1.0
 31
0.0
 73
     1
 44
1.0
  0
POINT
  5
14A
330
E6
100
AcDbEntity
  8
Defpoints
 62
     0
100
AcDbPoint
 10
74.00000420720731
 20
-9.000000000000014
 30
0.0
  0
POINT
  5
14B
330
E6
100
AcDbEntity
  8
Defpoints
 62
     0
100
AcDbPoint
 10
74.00000420720731
 20
9.000000000000004
 30
0.0
  0
POINT
  5
14C
330
E6
100
AcDbEntity
  8
Defpoints
 62
     0
100
AcDbPoint
 10
88.55455024818912
 20
9.000000000000059
 30
0.0
  0
ENDBLK
  5
E8
330
E6
100
AcDbEntity
  8
0
100
AcDbBlockEnd
  0
BLOCK
  5
F5
330
F4
100
AcDbEntity
  8
0
100
AcDbBlockBegin
  2
_D_1
 70
     0
 10
0.0
 20
0.0
 30
0.0
  3
_D_1
  1

  0
LINE
  5
F7
330
F4
100
AcDbEntity
  8
치수문자_일반주서
 62
     0
370
    -2
100
AcDbLine
 10
-55.9999957927927
 20
9.56249999999999
 30
0.0
 11
-55.99999579279269
 21
27.38913260158165
 31
0.0
  0
LINE
  5
F8
330
F4
100
AcDbEntity
  8
치수문자_일반주서
 62
     0
370
    -2
100
AcDbLine
 10
74.00000420720731
 20
9.062500000000005
 30
0.0
 11
74.00000420720733
 21
27.38913260158165
 31
0.0
  0
LINE
  5
F9
330
F4
100
AcDbEntity
  8
치수문자_일반주서
 62
     0
370
    -2
100
AcDbLine
 10
-52.69799579279269
 20
27.38913260158165
 30
0.0
 11
70.69800420720732
 21
27.38913260158165
 31
0.0
  0
SOLID
  5
FA
330
F4
100
AcDbEntity
  8
치수문자_일반주서
 62
     0
100
AcDbTrace
 10
-52.69799579279269
 20
27.93946593491498
 30
0.0
 11
-52.69799579279269
 21
26.83879926824831
 31
0.0
 12
-55.99999579279269
 22
27.38913260158165
 32
0.0
 13
-55.99999579279269
 23
27.38913260158165
 33
0.0
  0
SOLID
  5
FB
330
F4
100
AcDbEntity
  8
치수문자_일반주서
 62
     0
100
AcDbTrace
 10
70.69800420720732
 20
26.83879926824831
 30
0.0
 11
70.69800420720732
 21
27.93946593491498
 31
0.0
 12
74.00000420720733
 22
27.38913260158165
 32
0.0
 13
74.00000420720733
 23
27.38913260158165
 33
0.0
  0
MTEXT
  5
FC
330
F4
100
AcDbEntity
  8
치수문자_일반주서
 62
     0
100
AcDbMText
 10
9.000004207207297
 20
31.76413260158165
 30
0.0
 40
3.5
 41
0.0
 71
     2
 72
     1
  1
\A1;130
  7
SLDTEXTSTYLE0
 73
     1
 44
1.0
  0
POINT
  5
141
330
F4
100
AcDbEntity
  8
Defpoints
 62
     0
100
AcDbPoint
 10
-55.9999957927927
 20
9.49999999999999
 30
0.0
  0
POINT
  5
142
330
F4
100
AcDbEntity
  8
Defpoints
 62
     0
100
AcDbPoint
 10
74.00000420720731
 20
9.000000000000005
 30
0.0
  0
POINT
  5
143
330
F4
100
AcDbEntity
  8
Defpoints
 62
     0
100
AcDbPoint
 10
74.00000420720731
 20
27.38913260158165
 30
0.0
  0
ENDBLK
  5
F6
330
F4
100
AcDbEntity
  8
0
100
AcDbBlockEnd
  0
BLOCK
  5
100
330
FF
100
AcDbEntity
  8
0
100
AcDbBlockBegin
  2
_D_2
 70
     0
 10
0.0
 20
0.0
 30
0.0
  3
_D_2
  1

  0
LINE
  5
102
330
FF
100
AcDbEntity
  8
치수문자_일반주서
 62
     0
370
    -2
100
AcDbLine
 10
-55.5624957927927
 20
9.999999999999975
 30
0.0
 11
-69.80705099456266
 21
9.99999999999992
 31
0.0
  0
LINE
  5
103
330
FF
100
AcDbEntity
  8
치수문자_일반주서
 62
     0
370
    -2
100
AcDbLine
 10
-55.5624957927927
 20
-10.00000000000002
 30
0.0
 11
-69.80705099456259
 21
-10.00000000000007
 31
0.0
  0
LINE
  5
104
330
FF
100
AcDbEntity
  8
치수문자_일반주서
 62
     0
370
    -2
100
AcDbLine
 10
-69.80705099456266
 20
9.99999999999992
 30
0.0
 11
-69.80705099456272
 21
24.91649999999993
 31
0.0
  0
LINE
  5
105
330
FF
100
AcDbEntity
  8
치수문자_일반주서
 62
     0
370
    -2
100
AcDbLine
 10
-69.80705099456266
 20
9.99999999999992
 30
0.0
 11
-69.80705099456259
 21
-10.00000000000007
 31
0.0
  0
LINE
  5
106
330
FF
100
AcDbEntity
  8
치수문자_일반주서
 62
     0
370
    -2
100
AcDbLine
 10
-69.80705099456267
 20
13.30199999999992
 30
0.0
 11
-69.80705099456269
 21
16.60399999999992
 31
0.0
  0
LINE
  5
107
330
FF
100
AcDbEntity
  8
치수문자_일반주서
 62
     0
370
    -2
100
AcDbLine
 10
-69.80705099456257
 20
-13.30200000000007
 30
0.0
 11
-69.80705099456256
 21
-16.60400000000007
 31
0.0
  0
SOLID
  5
108
330
FF
100
AcDbEntity
  8
치수문자_일반주서
 62
     0
100
AcDbTrace
 10
-70.357384327896
 20
13.30199999999992
 30
0.0
 11
-69.25671766122935
 21
13.30199999999992
 31
0.0
 12
-69.80705099456266
 22
9.99999999999992
 32
0.0
 13
-69.80705099456266
 23
9.99999999999992
 33
0.0
  0
SOLID
  5
109
330
FF
100
AcDbEntity
  8
치수문자_일반주서
 62
     0
100
AcDbTrace
 10
-69.25671766122925
 20
-13.30200000000007
 30
0.0
 11
-70.3573843278959
 21
-13.30200000000007
 31
0.0
 12
-69.80705099456259
 22
-10.00000000000007
 32
0.0
 13
-69.80705099456259
 23
-10.00000000000007
 33
0.0
  0
MTEXT
  5
10A
330
FF
100
AcDbEntity
  8
치수문자_일반주서
 62
     0
100
AcDbMText
 10
-74.1820509945627
 20
20.76024999999991
 30
0.0
 40
3.5
 41
0.0
 71
     2
 72
     1
  1
\A1;%%c20
  7
SLDTEXTSTYLE0
 11
-3.552713678800503E-15
 21
1.0
 31
0.0
 73
     1
 44
1.0
  0
POINT
  5
147
330
FF
100
AcDbEntity
  8
Defpoints
 62
     0
100
AcDbPoint
 10
-55.4999957927927
 20
9.999999999999975
 30
0.0
  0
POINT
  5
148
330
FF
100
AcDbEntity
  8
Defpoints
 62
     0
100
AcDbPoint
 10
-55.4999957927927
 20
-10.00000000000002
 30
0.0
  0
POINT
  5
149
330
FF
100
AcDbEntity
  8
Defpoints
 62
     0
100
AcDbPoint
 10
-69.80705099456259
 20
-10.00000000000007
 30
0.0
  0
ENDBLK
  5
101
330
FF
100
AcDbEntity
  8
0
100
AcDbBlockEnd
  0
BLOCK
  5
10D
330
10C
100
AcDbEntity
  8
0
100
AcDbBlockBegin
  2
_D_3
 70
     0
 10
0.0
 20
0.0
 30
0.0
  3
_D_3
  1

  0
LINE
  5
10F
330
10C
100
AcDbEntity
  8
치수문자_일반주서
 62
     0
370
    -2
100
AcDbLine
 10
4.000004207207299
 20
9.062499999999996
 30
0.0
 11
4.000004207207297
 21
19.84591830258764
 31
0.0
  0
LINE
  5
110
330
10C
100
AcDbEntity
  8
치수문자_일반주서
 62
     0
370
    -2
100
AcDbLine
 10
74.00000420720731
 20
9.062500000000005
 30
0.0
 11
74.00000420720731
 21
19.84591830258764
 31
0.0
  0
LINE
  5
111
330
10C
100
AcDbEntity
  8
치수문자_일반주서
 62
     0
370
    -2
100
AcDbLine
 10
7.302004207207297
 20
19.84591830258764
 30
0.0
 11
70.6980042072073
 21
19.84591830258764
 31
0.0
  0
SOLID
  5
112
330
10C
100
AcDbEntity
  8
치수문자_일반주서
 62
     0
100
AcDbTrace
 10
7.302004207207297
 20
20.39625163592098
 30
0.0
 11
7.302004207207297
 21
19.29558496925431
 31
0.0
 12
4.000004207207297
 22
19.84591830258764
 32
0.0
 13
4.000004207207297
 23
19.84591830258764
 33
0.0
  0
SOLID
  5
113
330
10C
100
AcDbEntity
  8
치수문자_일반주서
 62
     0
100
AcDbTrace
 10
70.6980042072073
 20
19.29558496925431
 30
0.0
 11
70.6980042072073
 21
20.39625163592098
 31
0.0
 12
74.00000420720731
 22
19.84591830258764
 32
0.0
 13
74.00000420720731
 23
19.84591830258764
 33
0.0
  0
MTEXT
  5
114
330
10C
100
AcDbEntity
  8
치수문자_일반주서
 62
     0
100
AcDbMText
 10
39.0000042072073
 20
24.22091830258764
 30
0.0
 40
3.5
 41
0.0
 71
     2
 72
     1
  1
\A1;70
  7
SLDTEXTSTYLE0
 73
     1
 44
1.0
  0
POINT
  5
144
330
10C
100
AcDbEntity
  8
Defpoints
 62
     0
100
AcDbPoint
 10
4.000004207207299
 20
8.999999999999996
 30
0.0
  0
POINT
  5
145
330
10C
100
AcDbEntity
  8
Defpoints
 62
     0
100
AcDbPoint
 10
74.00000420720731
 20
9.000000000000005
 30
0.0
  0
POINT
  5
146
330
10C
100
AcDbEntity
  8
Defpoints
 62
     0
100
AcDbPoint
 10
74.00000420720731
 20
19.84591830258764
 30
0.0
  0
ENDBLK
  5
10E
330
10C
100
AcDbEntity
  8
0
100
AcDbBlockEnd
  0
BLOCK
  5
116
330
115
100
AcDbEntity
  8
0
100
AcDbBlockBegin
  2
SW_DOWELSYMBOL_0
 70
     0
 10
0.0
 20
0.0
 30
0.0
  3
SW_DOWELSYMBOL_0
  1

  0
CIRCLE
  5
118
330
115
100
AcDbEntity
  8
해칭선
 62
     0
100
AcDbCircle
 10
0.0
 20
0.0
 30
0.0
 40
3.0
  0
HATCH
  5
119
330
115
100
AcDbEntity
  8
0
  6
Continuous
 62
     0
370
    18
100
AcDbHatch
 10
0.0
 20
0.0
 30
0.0
210
0.0
220
0.0
230
1.0
  2
SOLID
 70
     1
 71
     0
 91
        1
 92
        0
 93
        3
 72
     2
 10
-0.0000042072072961
 20
-0.0000000000000043
 40
3.0
 50
0.0
 51
90.0
 73
     1
 72
     1
 10
-0.0000042072072961
 20
2.999999999999995
 11
-0.0000042072072961
 21
-0.0000000000000044
 72
     1
 10
-0.0000042072072961
 20
-0.0000000000000043
 11
2.999995792792704
 21
-0.0000000000000043
 97
        0
 75
     0
 76
     1
 98
        1
 10
0.0
 20
0.0
  0
HATCH
  5
11A
330
115
100
AcDbEntity
  8
0
  6
Continuous
 62
     0
370
    18
100
AcDbHatch
 10
0.0
 20
0.0
 30
0.0
210
0.0
220
0.0
230
1.0
  2
SOLID
 70
     1
 71
     0
 91
        1
 92
        0
 93
        3
 72
     2
 10
-0.0000042072072961
 20
-0.0000000000000043
 40
3.0
 50
180.0
 51
270.0000000000007
 73
     1
 72
     1
 10
-0.0000042072072961
 20
-3.000000000000004
 11
-0.0000042072072961
 21
-0.0000000000000044
 72
     1
 10
-0.0000042072072961
 20
-0.0000000000000043
 11
-3.000004207207296
 21
-0.0000000000000043
 97
        0
 75
     0
 76
     1
 98
        1
 10
0.0
 20
0.0
  0
ENDBLK
  5
117
330
115
100
AcDbEntity
  8
0
100
AcDbBlockEnd
  0
ENDSEC
  0
SECTION
  2
ENTITIES
  0
LINE
  5
99
330
1F
100
AcDbEntity
  8
0
  6
Continuous
 62
     4
370
    25
100
AcDbLine
 10
2.000004207207304
 20
9.999999999999993
 30
0.0
 11
-55.49999579279271
 21
9.99999999999999
 31
0.0
  0
LINE
  5
9A
330
1F
100
AcDbEntity
  8
0
  6
Continuous
 62
     4
370
    25
100
AcDbLine
 10
-55.4999957927927
 20
-10.00000000000001
 30
0.0
 11
2.000004207207288
 21
-10.0
 31
0.0
  0
LINE
  5
9B
330
1F
100
AcDbEntity
  8
0
  6
Continuous
 62
     4
370
    25
100
AcDbLine
 10
2.000004207207299
 20
-10.0
 30
0.0
 11
3.000004207207299
 21
-9.000000000000004
 31
0.0
  0
LINE
  5
9D
330
1F
100
AcDbEntity
  8
0
  6
Continuous
 62
     4
370
    25
100
AcDbLine
 10
-55.4999957927927
 20
9.99999999999999
 30
0.0
 11
-55.9999957927927
 21
9.49999999999999
 31
0.0
  0
LINE
  5
9E
330
1F
100
AcDbEntity
  8
0
  6
Continuous
 62
     4
370
    25
100
AcDbLine
 10
-55.9999957927927
 20
-9.500000000000007
 30
0.0
 11
-55.4999957927927
 21
-10.0
 31
0.0
  0
LINE
  5
9F
330
1F
100
AcDbEntity
  8
0
  6
Continuous
 62
     4
370
    25
100
AcDbLine
 10
4.000004207207295
 20
8.999999999999996
 30
0.0
 11
3.000004207207299
 21
8.999999999999996
 31
0.0
  0
LINE
  5
A0
330
1F
100
AcDbEntity
  8
0
  6
Continuous
 62
     4
370
    25
100
AcDbLine
 10
3.000004207207299
 20
-9.000000000000004
 30
0.0
 11
4.000004207207299
 21
-9.000000000000004
 31
0.0
  0
LINE
  5
A1
330
1F
100
AcDbEntity
  8
0
  6
Continuous
 62
     1
370
    25
100
AcDbLine
 10
70.51842860807628
 20
-9.00000000000001
 30
0.0
 11
74.00000420720731
 21
-9.00000000000001
 31
0.0
  0
LINE
  5
A2
330
1F
100
AcDbEntity
  8
0
  6
Continuous
 62
     1
370
    25
100
AcDbLine
 10
28.50950112670336
 20
9.0
 30
0.0
 11
21.5452154095353
 21
9.0
 31
0.0
  0
LINE
  5
A3
330
1F
100
AcDbEntity
  8
0
  6
Continuous
 62
     1
370
    25
100
AcDbLine
 10
46.0334902350922
 20
-9.00000000000001
 30
0.0
 11
52.99622779342428
 21
-9.00000000000001
 31
0.0
  0
LINE
  5
A4
330
1F
100
AcDbEntity
  8
0
  6
Continuous
 62
     1
370
    25
100
AcDbLine
 10
52.9962277934243
 20
9.0
 30
0.0
 11
46.03349023509226
 21
9.0
 31
0.0
  0
LINE
  5
A5
330
1F
100
AcDbEntity
  8
0
  6
Continuous
 62
     1
370
    25
100
AcDbLine
 10
24.17200865413698
 20
-1.502677882404624
 30
0.0
 11
23.78095001135988
 21
-1.285734272434739
 31
0.0
  0
LINE
  5
A6
330
1F
100
AcDbEntity
  8
0
  6
Continuous
 62
     1
370
    25
100
AcDbLine
 10
21.54521540953526
 20
-9.00000000000001
 30
0.0
 11
28.50950112670328
 21
-9.00000000000001
 31
0.0
  0
LINE
  5
A7
330
1F
100
AcDbEntity
  8
0
  6
Continuous
 62
     1
370
    25
100
AcDbLine
 10
74.00000420720731
 20
9.0
 30
0.0
 11
70.51842860807622
 21
9.0
 31
0.0
  0
LINE
  5
A8
330
1F
100
AcDbEntity
  8
0
  6
Continuous
 62
     4
370
    25
100
AcDbLine
 10
2.000004207207296
 20
10.0
 30
0.0
 11
2.000004207207296
 21
-9.999999999999995
 31
0.0
  0
LINE
  5
A9
330
1F
100
AcDbEntity
  8
0
  6
Continuous
 62
     4
370
    25
100
AcDbLine
 10
-55.4999957927927
 20
9.99999999999999
 30
0.0
 11
-55.4999957927927
 21
-10.0
 31
0.0
  0
SPLINE
  5
AA
330
1F
100
AcDbEntity
  8
0
  6
Continuous
 62
     4
370
    25
100
AcDbSpline
210
0.0
220
0.0
230
1.0
 70
     8
 71
     3
 72
    12
 73
     8
 74
     0
 42
0.000000001
 43
0.00000001
 40
0.0
 40
0.0
 40
0.0
 40
0.0
 40
0.2499999999999997
 40
0.2499999999999997
 40
0.4999999999999993
 40
0.4999999999999993
 40
1.0
 40
1.0
 40
1.0
 40
1.0
 10
2.499826316816574
 20
-5.858227221363693
 30
0.0
 10
2.499826316816549
 20
-5.767991772210463
 30
0.0
 10
2.509790759615628
 20
-5.6759747441315
 30
0.0
 10
2.551062555787246
 20
-5.488546168528221
 30
0.0
 10
2.582976933522913
 20
-5.39195193437306
 30
0.0
 10
2.709803374512539
 20
-5.108948258863141
 30
0.0
 10
2.83731095322807
 20
-4.924831562839438
 30
0.0
 10
3.000004207208644
 20
-4.762108018578863
 30
0.0
  0
LINE
  5
AB
330
1F
100
AcDbEntity
  8
0
  6
Continuous
 62
     4
370
    25
100
AcDbLine
 10
2.499826316816574
 20
-5.858227221363693
 30
0.0
 11
2.499826316816574
 21
-8.92567738348564
 31
0.0
  0
SPLINE
  5
AC
330
1F
100
AcDbEntity
  8
0
  6
Continuous
 62
     4
370
    25
100
AcDbSpline
210
0.0
220
0.0
230
1.0
 70
     8
 71
     3
 72
    12
 73
     8
 74
     0
 42
0.000000001
 43
0.00000001
 40
0.0
 40
0.0
 40
0.0
 40
0.0
 40
0.25
 40
0.25
 40
0.5
 40
0.5
 40
1.0
 40
1.0
 40
1.0
 40
1.0
 10
3.000004207207299
 20
-8.974507425693492
 30
0.0
 10
2.918700230847265
 20
-8.990044925438117
 30
0.0
 10
2.846911163762123
 20
-9.001369091115745
 30
0.0
 10
2.721668572486552
 20
-9.014550991533728
 30
0.0
 10
2.667861837114062
 20
-9.016300940060193
 30
0.0
 10
2.540957962624411
 20
-9.005166420039979
 30
0.0
 10
2.499826316816546
 20
-8.97563911708951
 30
0.0
 10
2.499826316816542
 20
-8.92567738348565
 30
0.0
  0
LINE
  5
AD
330
1F
100
AcDbEntity
  8
0
  6
Continuous
 62
     4
370
    25
100
AcDbLine
 10
3.000004207207299
 20
-8.974507425693492
 30
0.0
 11
3.000004207207299
 21
-9.000000000000004
 31
0.0
  0
LINE
  5
AE
330
1F
100
AcDbEntity
  8
0
  6
Continuous
 62
     4
370
    25
100
AcDbLine
 10
3.000004207207299
 20
8.999999999999996
 30
0.0
 11
3.000004207207299
 21
7.636905604981213
 31
0.0
  0
SPLINE
  5
AF
330
1F
100
AcDbEntity
  8
0
  6
Continuous
 62
     4
370
    25
100
AcDbSpline
210
0.0
220
0.0
230
1.0
 70
     8
 71
     3
 72
    12
 73
     8
 74
     0
 42
0.000000001
 43
0.00000001
 40
0.0
 40
0.0
 40
0.0
 40
0.0
 40
0.25
 40
0.25
 40
0.5
 40
0.5
 40
1.0
 40
1.0
 40
1.0
 40
1.0
 10
2.499826316816574
 20
7.007962364480046
 30
0.0
 10
2.499826316816546
 20
7.083393672051105
 30
0.0
 10
2.509790759615628
 20
7.153876157818559
 30
0.0
 10
2.551062555787246
 20
7.284823542545628
 30
0.0
 10
2.582976933522909
 20
7.345906558583554
 30
0.0
 10
2.709803374512539
 20
7.506725981880517
 30
0.0
 10
2.83731095322807
 20
7.586811315413256
 30
0.0
 10
3.000004207208644
 20
7.636905604980305
 30
0.0
  0
LINE
  5
B0
330
1F
100
AcDbEntity
  8
0
  6
Continuous
 62
     4
370
    25
100
AcDbLine
 10
2.499826316816574
 20
7.007962364480048
 30
0.0
 11
2.499826316816574
 21
1.939754088803237
 31
0.0
  0
SPLINE
  5
B1
330
1F
100
AcDbEntity
  8
0
  6
Continuous
 62
     4
370
    25
100
AcDbSpline
210
0.0
220
0.0
230
1.0
 70
     8
 71
     3
 72
    12
 73
     8
 74
     0
 42
0.000000001
 43
0.00000001
 40
0.0
 40
0.0
 40
0.0
 40
0.0
 40
0.25
 40
0.25
 40
0.5
 40
0.5
 40
1.0
 40
1.0
 40
1.0
 40
1.0
 10
3.000004207207299
 20
0.6769168827650054
 30
0.0
 10
2.918700230847265
 20
0.7605705895507603
 30
0.0
 10
2.846911163762116
 20
0.8512965376102318
 30
0.0
 10
2.721668572486545
 20
1.046497426846445
 30
0.0
 10
2.667861837114062
 20
1.152308538972021
 30
0.0
 10
2.540957962624408
 20
1.477372841021218
 30
0.0
 10
2.499826316816546
 20
1.709857774501459
 30
0.0
 10
2.499826316816542
 20
1.939754088803234
 30
0.0
  0
LINE
  5
B2
330
1F
100
AcDbEntity
  8
0
  6
Continuous
 62
     4
370
    25
100
AcDbLine
 10
3.000004207207299
 20
0.6769168827650055
 30
0.0
 11
3.000004207207299
 21
-4.762108018578089
 31
0.0
  0
LINE
  5
B3
330
1F
100
AcDbEntity
  8
0
  6
Continuous
 62
     4
370
    25
100
AcDbLine
 10
-55.9999957927927
 20
9.49999999999999
 30
0.0
 11
-55.9999957927927
 21
-9.500000000000007
 31
0.0
  0
SPLINE
  5
B4
330
1F
100
AcDbEntity
  8
0
  6
Continuous
 62
     4
370
    25
100
AcDbSpline
210
0.0
220
0.0
230
1.0
 70
     8
 71
     3
 72
    10
 73
     6
 74
     0
 42
0.000000001
 43
0.00000001
 40
0.0
 40
0.0
 40
0.0
 40
0.0
 40
0.5
 40
0.5
 40
1.0
 40
1.0
 40
1.0
 40
1.0
 10
3.000004207207299
 20
7.636905604981767
 30
0.0
 10
3.133059427644181
 20
7.711717942607972
 30
0.0
 10
3.284974095473892
 20
7.770554188432073
 30
0.0
 10
3.626425916940244
 20
7.861325343645031
 30
0.0
 10
3.80861209344519
 20
7.891208532592744
 30
0.0
 10
4.000004207207319
 20
7.906755721192082
 30
0.0
  0
SPLINE
  5
B5
330
1F
100
AcDbEntity
  8
0
  6
Continuous
 62
     4
370
    25
100
AcDbSpline
210
0.0
220
0.0
230
1.0
 70
    24
 71
     3
 72
    18
 73
    14
 74
     0
 42
0.000000001
 43
0.00000001
 40
0.0
 40
0.0
 40
0.0
 40
0.0
 40
0.2500000000000001
 40
0.2500000000000001
 40
0.3750000000000002
 40
0.3750000000000002
 40
0.5000000000000002
 40
0.5000000000000002
 40
0.6250000000000002
 40
0.6250000000000002
 40
0.7500000000000001
 40
0.7500000000000001
 40
1.0
 40
1.0
 40
1.0
 40
1.0
 10
4.000004207207295
 20
7.90675572119229
 30
0.0
 10
4.000004207207295
 20
7.390797571067524
 30
0.0
 10
4.000004207207295
 20
6.857764512653614
 30
0.0
 10
4.000004207207295
 20
6.03147487579619
 30
0.0
 10
4.000004207207299
 20
5.753446953051264
 30
0.0
 10
4.000004207207299
 20
5.204924949741236
 30
0.0
 10
4.000004207207295
 20
4.932570087306296
 30
0.0
 10
4.000004207207299
 20
4.391805652077227
 30
0.0
 10
4.000004207207295
 20
4.120962692758976
 30
0.0
 10
4.000004207207295
 20
3.597523241281447
 30
0.0
 10
4.000004207207299
 20
3.34520475761025
 30
0.0
 10
4.000004207207299
 20
2.61613422985923
 30
0.0
 10
4.000004207207295
 20
2.163379375366108
 30
0.0
 10
4.000004207207299
 20
1.771574224484444
 30
0.0
  0
SPLINE
  5
B6
330
1F
100
AcDbEntity
  8
0
  6
Continuous
 62
     4
370
    25
100
AcDbSpline
210
0.0
220
0.0
230
1.0
 70
     8
 71
     3
 72
     8
 73
     4
 74
     0
 42
0.000000001
 43
0.00000001
 40
0.0
 40
0.0
 40
0.0
 40
0.0
 40
1.0
 40
1.0
 40
1.0
 40
1.0
 10
3.407734009963527
 20
0.3548170364192969
 30
0.0
 10
3.255956266133433
 20
0.4422533261930903
 30
0.0
 10
3.120068957441161
 20
0.5496896761793895
 30
0.0
 10
3.000004207207299
 20
0.6769168827650052
 30
0.0
  0
SPLINE
  5
B7
330
1F
100
AcDbEntity
  8
0
  6
Continuous
 62
     4
370
    25
100
AcDbSpline
210
0.0
220
0.0
230
1.0
 70
     8
 71
     3
 72
    10
 73
     6
 74
     0
 42
0.000000001
 43
0.00000001
 40
0.0
 40
0.0
 40
0.0
 40
0.0
 40
0.4999999999999998
 40
0.4999999999999998
 40
1.0
 40
1.0
 40
1.0
 40
1.0
 10
3.000004207207299
 20
-4.762108018578433
 30
0.0
 10
3.133059427644185
 20
-4.642132839873874
 30
0.0
 10
3.284974095473892
 20
-4.541681104324088
 30
0.0
 10
3.626425916940244
 20
-4.382686788956981
 30
0.0
 10
3.80861209344519
 20
-4.327803966947644
 30
0.0
 10
4.000004207207319
 20
-4.299210853795788
 30
0.0
  0
SPLINE
  5
B8
330
1F
100
AcDbEntity
  8
0
  6
Continuous
 62
     4
370
    25
100
AcDbSpline
210
0.0
220
0.0
230
1.0
 70
     8
 71
     3
 72
     8
 73
     4
 74
     0
 42
0.000000001
 43
0.00000001
 40
0.0
 40
0.0
 40
0.0
 40
0.0
 40
1.0
 40
1.0
 40
1.0
 40
1.0
 10
4.000004207207295
 20
0.0133717777056709
 30
0.0
 10
3.802717857713267
 20
0.127191050927774
 30
0.0
 10
3.605223412670125
 20
0.2410471238711306
 30
0.0
 10
3.407734009965257
 20
0.3548170364182985
 30
0.0
  0
LINE
  5
B9
330
1F
100
AcDbEntity
  8
0
  6
Continuous
 62
     4
370
    25
100
AcDbLine
 10
4.000004207207295
 20
0.0133717777056709
 30
0.0
 11
4.000004207207295
 21
-4.299210853795753
 31
0.0
  0
SPLINE
  5
BA
330
1F
100
AcDbEntity
  8
0
  6
Continuous
 62
     4
370
    25
100
AcDbSpline
210
0.0
220
0.0
230
1.0
 70
    24
 71
     3
 72
    10
 73
     6
 74
     0
 42
0.000000001
 43
0.00000001
 40
0.0
 40
0.0
 40
0.0
 40
0.0
 40
0.5
 40
0.5
 40
1.0
 40
1.0
 40
1.0
 40
1.0
 10
4.000004207207299
 20
1.771574224482048
 30
0.0
 10
4.000004207207299
 20
1.325809601366283
 30
0.0
 10
4.000004207207295
 20
0.92944543816507
 30
0.0
 10
4.000004207207299
 20
0.3209157838321112
 30
0.0
 10
4.000004207207295
 20
0.1101877186976932
 30
0.0
 10
4.000004207207295
 20
0.0133717777056703
 30
0.0
  0
SPLINE
  5
BB
330
1F
100
AcDbEntity
  8
0
  6
Continuous
 62
     4
370
    25
100
AcDbSpline
210
0.0
220
0.0
230
1.0
 70
     8
 71
     3
 72
     8
 73
     4
 74
     0
 42
0.000000001
 43
0.00000001
 40
0.0
 40
0.0
 40
0.0
 40
0.0
 40
1.0
 40
1.0
 40
1.0
 40
1.0
 10
3.407734009963527
 20
-8.99300310634144
 30
0.0
 10
3.255956266133433
 20
-8.989553326012647
 30
0.0
 10
3.120068957441161
 20
-8.984103745580454
 30
0.0
 10
3.000004207207299
 20
-8.974507425693492
 30
0.0
  0
SPLINE
  5
BC
330
1F
100
AcDbEntity
  8
0
  6
Continuous
 62
     4
370
    25
100
AcDbSpline
210
0.0
220
0.0
230
1.0
 70
    24
 71
     3
 72
    10
 73
     6
 74
     0
 42
0.000000001
 43
0.00000001
 40
0.0
 40
0.0
 40
0.0
 40
0.0
 40
0.0459491550725946
 40
0.5571063181716898
 40
0.9999999999999999
 40
0.9999999999999999
 40
0.9999999999999999
 40
0.9999999999999999
 10
4.000004207207299
 20
-4.390021606438462
 30
0.0
 10
4.000004207207299
 20
-4.400214514129677
 30
0.0
 10
4.000004207207299
 20
-4.523797488971003
 30
0.0
 10
4.000004207207299
 20
-4.875607791752175
 30
0.0
 10
4.000004207207299
 20
-5.2745968582275
 30
0.0
 10
4.000004207207299
 20
-5.459817318541587
 30
0.0
  0
LINE
  5
BD
330
1F
100
AcDbEntity
  8
0
  6
Continuous
 62
     4
370
    25
100
AcDbLine
 10
4.000004207207295
 20
8.999990066414576
 30
0.0
 11
4.000004207207295
 21
7.906755721192103
 31
0.0
  0
SPLINE
  5
BE
330
1F
100
AcDbEntity
  8
0
  6
Continuous
 62
     4
370
    25
100
AcDbSpline
210
0.0
220
0.0
230
1.0
 70
     8
 71
     3
 72
     8
 73
     4
 74
     0
 42
0.000000001
 43
0.00000001
 40
0.0
 40
0.0
 40
0.0
 40
0.0
 40
1.0
 40
1.0
 40
1.0
 40
1.0
 10
4.000004207207299
 20
-8.999990066414586
 30
0.0
 10
3.802717857713267
 20
-8.999820958892366
 30
0.0
 10
3.605223412670125
 20
-8.997491874189798
 30
0.0
 10
3.407734009965257
 20
-8.993003106341481
 30
0.0
  0
SPLINE
  5
BF
330
1F
100
AcDbEntity
  8
0
  6
Continuous
 62
     4
370
    25
100
AcDbSpline
210
0.0
220
0.0
230
1.0
 70
    24
 71
     3
 72
    10
 73
     6
 74
     0
 42
0.000000001
 43
0.00000001
 40
0.0
 40
0.0
 40
0.0
 40
0.0
 40
0.5
 40
0.5
 40
1.0
 40
1.0
 40
1.0
 40
1.0
 10
4.000004207207299
 20
-5.459817318544057
 30
0.0
 10
4.000004207207299
 20
-5.910370992359187
 30
0.0
 10
4.000004207207299
 20
-6.450199498968492
 30
0.0
 10
4.000004207207299
 20
-7.656586889067589
 30
0.0
 10
4.000004207207299
 20
-8.322107850965704
 30
0.0
 10
4.000004207207299
 20
-8.99999006641459
 30
0.0
  0
SPLINE
  5
C0
330
1F
100
AcDbEntity
  8
0
  6
Continuous
 62
     1
370
    25
100
AcDbSpline
210
0.0
220
0.0
230
1.0
 70
     8
 71
     3
 72
    28
 73
    24
 74
     0
 42
0.000000001
 43
0.00000001
 40
0.0
 40
0.0
 40
0.0
 40
0.0
 40
0.0369140092969304
 40
0.0841890223338526
 40
0.1314644022140487
 40
0.183068188080614
 40
0.234672174872576
 40
0.2862762774633151
 40
0.3378804107039668
 40
0.3894844894397789
 40
0.4410884285264691
 40
0.4926921428465816
 40
0.5442955473258305
 40
0.5958985569494254
 40
0.6475010867783729
 40
0.6991030519657468
 40
0.7507043677729206
 40
0.7989054707043701
 40
0.8471059285963745
 40
0.8953058252803003
 40
0.9435052446936987
 40
0.9917042708644638
 40
1.0
 40
1.0
 40
1.0
 40
1.0
 10
12.78574566982466
 20
7.59543366506141
 30
0.0
 10
13.49608224890152
 20
7.808423778197105
 30
0.0
 10
15.1161322857158
 20
8.294185951778234
 30
0.0
 10
17.6459272184057
 20
8.759897745683203
 30
0.0
 10
20.45829604495523
 20
9.029790478261768
 30
0.0
 10
23.35440979692808
 20
8.993703054760283
 30
0.0
 10
26.33370694460292
 20
8.631304209112658
 30
0.0
 10
29.31304616390748
 20
7.954009034784543
 30
0.0
 10
32.29237838460075
 20
6.987235663228057
 30
0.0
 10
35.27170926739073
 20
5.765986567804791
 30
0.0
 10
38.25102984593011
 20
4.334787927923265
 30
0.0
 10
41.2303349355492
 20
2.7457422756929
 30
0.0
 10
44.20961886348997
 20
1.056719388653595
 30
0.0
 10
47.18887414632608
 20
-0.6707797978139545
 30
0.0
 10
50.16810105696466
 20
-2.37383791049949
 30
0.0
 10
53.14727068676643
 20
-3.990484772983375
 30
0.0
 10
56.06104033709792
 20
-5.429382965930813
 30
0.0
 10
58.90910637018465
 20
-6.652537069484214
 30
0.0
 10
61.69176924533112
 20
-7.634331468140949
 30
0.0
 10
64.47437754124599
 20
-8.380490345463432
 30
0.0
 10
67.25695672392621
 20
-8.834159805875709
 30
0.0
 10
69.27163643506542
 20
-9.030021695440023
 30
0.0
 10
70.35879019443098
 20
-8.986055040620442
 30
0.0
 10
70.51842860807625
 20
-8.97959894646796
 30
0.0
  0
SPLINE
  5
C1
330
1F
100
AcDbEntity
  8
0
  6
Continuous
 62
     1
370
    25
100
AcDbSpline
210
0.0
220
0.0
230
1.0
 70
     8
 71
     3
 72
    23
 73
    19
 74
     0
 42
0.000000001
 43
0.00000001
 40
0.0
 40
0.0
 40
0.0
 40
0.0
 40
0.0654820676209736
 40
0.1309656006348632
 40
0.196450492750072
 40
0.2619366374154375
 40
0.3274239278403663
 40
0.3929122570150662
 40
0.4584015177308716
 40
0.5238916026006463
 40
0.589382404079264
 40
0.654873814484151
 40
0.7203657260158887
 40
0.7858580307788608
 40
0.8513506208019425
 40
0.9168433880592204
 40
0.982336224490736
 40
1.0
 40
1.0
 40
1.0
 40
1.0
 10
74.00000420720734
 20
-8.77649128519735
 30
0.0
 10
73.0070892091105
 20
-8.618580895082275
 30
0.0
 10
71.02123699293116
 20
-8.302756581048518
 30
0.0
 10
68.04240981078516
 20
-7.441097217014661
 30
0.0
 10
65.06350948154758
 20
-6.331440734581327
 30
0.0
 10
62.08454051854881
 20
-4.985094143787688
 30
0.0
 10
59.10550909652217
 20
-3.458870609842137
 30
0.0
 10
56.1264209610732
 20
-1.806252359016711
 30
0.0
 10
53.14728198738246
 20
-0.0879704493970814
 30
0.0
 10
50.16809802907424
 20
1.633545757182511
 30
0.0
 10
47.18887495708973
 20
3.29561371491457
 30
0.0
 10
44.20961864836768
 20
4.837555103208136
 30
0.0
 10
41.23033498526525
 20
6.203835957987102
 30
0.0
 10
38.25102986219039
 20
7.342393925258944
 30
0.0
 10
35.27170915263255
 20
8.220385920574165
 30
0.0
 10
32.29237882737455
 20
8.77367376278067
 30
0.0
 10
30.03830817986529
 20
9.022189946474876
 30
0.0
 10
28.77734878397816
 20
8.977219071351234
 30
0.0
 10
28.50950112670336
 20
8.9676665484177
 30
0.0
  0
LINE
  5
C2
330
1F
100
AcDbEntity
  8
0
  6
Continuous
 62
     1
370
    25
100
AcDbLine
 10
74.00000420720731
 20
-9.000000000000012
 30
0.0
 11
74.00000420720731
 21
-8.77649128519736
 31
0.0
  0
SPLINE
  5
C3
330
1F
100
AcDbEntity
  8
0
  6
Continuous
 62
     1
370
    25
100
AcDbSpline
210
0.0
220
0.0
230
1.0
 70
     8
 71
     3
 72
    20
 73
    16
 74
     0
 42
0.000000001
 43
0.00000001
 40
0.0
 40
0.0
 40
0.0
 40
0.0
 40
0.0276067450763507
 40
0.1114041460393528
 40
0.1952010438630085
 40
0.2789973004948818
 40
0.3627927780056208
 40
0.4465873386153776
 40
0.5303808447201686
 40
0.6086528683995058
 40
0.686923844622672
 40
0.765193909520384
 40
0.8434631993957883
 40
0.9217318506987364
 40
1.0
 40
1.0
 40
1.0
 40
1.0
 10
37.26951131288418
 20
7.584692749017154
 30
0.0
 10
37.59668548879033
 20
7.693731057666875
 30
0.0
 10
38.91696281855704
 20
8.133743801911166
 30
0.0
 10
41.23033483071995
 20
8.61662062472308
 30
0.0
 10
44.20961889158247
 20
8.996297785349492
 30
0.0
 10
47.18887413878428
 20
9.029213015953225
 30
0.0
 10
50.16810105903974
 20
8.738480784900961
 30
0.0
 10
53.1472706860078
 20
8.128189250734547
 30
0.0
 10
56.06104033801962
 20
7.242159896328754
 30
0.0
 10
58.90910636742657
 20
6.13291467831554
 30
0.0
 10
61.69176925552604
 20
4.854317559669669
 30
0.0
 10
64.47437750322493
 20
3.421229912807545
 30
0.0
 10
67.2569568658137
 20
1.880230117530411
 30
0.0
 10
70.0395080468626
 20
0.2764578818802976
 30
0.0
 10
71.89453248365888
 20
-0.7910606524919562
 30
0.0
 10
72.82204172759546
 20
-1.324818207952469
 30
0.0
  0
SPLINE
  5
C4
330
1F
100
AcDbEntity
  8
0
  6
Continuous
 62
     1
370
    25
100
AcDbSpline
210
0.0
220
0.0
230
1.0
 70
     8
 71
     3
 72
     8
 73
     4
 74
     0
 42
0.000000001
 43
0.00000001
 40
0.0
 40
0.0
 40
0.0
 40
0.0
 40
1.0
 40
1.0
 40
1.0
 40
1.0
 10
74.00000420720731
 20
-6.567570641756578
 30
0.0
 10
72.48989450263821
 20
-5.718922115361499
 30
0.0
 10
71.06402614435065
 20
-4.678996385370535
 30
0.0
 10
69.6922039439323
 20
-3.516354217446971
 30
0.0
  0
LINE
  5
C5
330
1F
100
AcDbEntity
  8
0
  6
Continuous
 62
     1
370
    25
100
AcDbLine
 10
74.00000420720731
 20
-8.77649128519736
 30
0.0
 11
74.00000420720731
 21
-6.567570641756577
 31
0.0
  0
SPLINE
  5
C6
330
1F
100
AcDbEntity
  8
0
  6
Continuous
 62
     1
370
    25
100
AcDbSpline
210
0.0
220
0.0
230
1.0
 70
    24
 71
     3
 72
    20
 73
    16
 74
     0
 42
0.000000001
 43
0.00000001
 40
0.0
 40
0.0
 40
0.0
 40
0.0
 40
0.2500000000000003
 40
0.2500000000000003
 40
0.3750000000000003
 40
0.3750000000000003
 40
0.5000000000000002
 40
0.5000000000000002
 40
0.6250000000000001
 40
0.6250000000000001
 40
0.7500000000000001
 40
0.7500000000000001
 40
0.875
 40
0.875
 40
1.0
 40
1.0
 40
1.0
 40
1.0
 10
72.82204172759543
 20
-1.324818207952465
 30
0.0
 10
72.82395524667562
 20
-1.323478347468006
 30
0.0
 10
72.77008594905033
 20
-1.361198035743302
 30
0.0
 10
72.5787002239123
 20
-1.495207763190696
 30
0.0
 10
72.49489737338565
 20
-1.553887150852913
 30
0.0
 10
72.29027866551529
 20
-1.697162712562464
 30
0.0
 10
72.16932639984752
 20
-1.781854400746591
 30
0.0
 10
71.88639744968272
 20
-1.979963384429731
 30
0.0
 10
71.72602341066556
 20
-2.092258495482725
 30
0.0
 10
71.37826387047343
 20
-2.335762347009569
 30
0.0
 10
71.18790981700413
 20
-2.469049690177537
 30
0.0
 10
70.7845930516389
 20
-2.751455129572641
 30
0.0
 10
70.57497734671311
 20
-2.898229626288817
 30
0.0
 10
70.14151220126297
 20
-3.201745188684163
 30
0.0
 10
69.91654667464583
 20
-3.359267746258834
 30
0.0
 10
69.69220394393233
 20
-3.516354217446974
 30
0.0
  0
SPLINE
  5
C7
330
1F
100
AcDbEntity
  8
0
  6
Continuous
 62
     1
370
    25
100
AcDbSpline
210
0.0
220
0.0
230
1.0
 70
     8
 71
     3
 72
    27
 73
    23
 74
     0
 42
0.000000001
 43
0.00000001
 40
0.0
 40
0.0
 40
0.0
 40
0.0
 40
0.0455738582958619
 40
0.0971707979165783
 40
0.1487684714798275
 40
0.2003667943774409
 40
0.2519656818767732
 40
0.3035650491368863
 40
0.3551648112247828
 40
0.4067648831316735
 40
0.4583651797892767
 40
0.5099656160861443
 40
0.5615661068840051
 40
0.6131665670341163
 40
0.664766911393624
 40
0.7163670548419173
 40
0.7636390978214463
 40
0.8109107739835946
 40
0.8581823928278964
 40
0.9054542638797012
 40
0.9527266965507731
 40
1.0
 40
1.0
 40
1.0
 40
1.0
 10
61.73684554759988
 20
-7.606995763693346
 30
0.0
 10
60.85973868749679
 20
-7.861340925192074
 30
0.0
 10
58.98960575073683
 20
-8.403645729156766
 30
0.0
 10
56.12642080084957
 20
-8.868545068415804
 30
0.0
 10
53.14728203035595
 20
-9.055709962829004
 30
0.0
 10
50.16809801740686
 20
-8.906067198653027
 30
0.0
 10
47.18887496078506
 20
-8.434019754607498
 30
0.0
 10
44.20961864525388
 20
-7.654352343842792
 30
0.0
 10
41.2303349940252
 20
-6.596096055670315
 30
0.0
 10
38.25102983026418
 20
-5.297612083557149
 30
0.0
 10
35.27170927157807
 20
-3.806228756171163
 30
0.0
 10
32.29237838351749
 20
-2.176241472849081
 30
0.0
 10
29.31304616405326
 20
-0.4670073641740572
 30
0.0
 10
26.33370694510312
 20
1.259228082346778
 30
0.0
 10
23.35440979478146
 20
2.939623563529215
 30
0.0
 10
20.45829605275534
 20
4.468931568748141
 30
0.0
 10
17.64592719198317
 20
5.805803998038928
 30
0.0
 10
14.91675468765296
 20
6.925175742907924
 30
0.0
 10
12.18761443558219
 20
7.834209256108233
 30
0.0
 10
9.458448893176877
 20
8.498396901568135
 30
0.0
 10
6.729247437758788
 20
8.922480699535612
 30
0.0
 10
4.909757536634956
 20
8.974153452150727
 30
0.0
 10
4.000004207207295
 20
8.999990066414572
 30
0.0
  0
SPLINE
  5
C8
330
1F
100
AcDbEntity
  8
0
  6
Continuous
 62
     1
370
    25
100
AcDbSpline
210
0.0
220
0.0
230
1.0
 70
     8
 71
     3
 72
    22
 73
    18
 74
     0
 42
0.000000001
 43
0.00000001
 40
0.0
 40
0.0
 40
0.0
 40
0.0
 40
0.0649337652150016
 40
0.1298663343446827
 40
0.1947981320441702
 40
0.2597295833159367
 40
0.3246611133184732
 40
0.3895931471748114
 40
0.4604701825258628
 40
0.5313474938449697
 40
0.6022249642119815
 40
0.6731024766761943
 40
0.7439799142788172
 40
0.8148571600754401
 40
0.8857340971584988
 40
0.9566106086797216
 40
1.0
 40
1.0
 40
1.0
 40
1.0
 10
4.000004207207285
 20
8.122833522398167
 30
0.0
 10
4.909757536634945
 20
7.87262379455435
 30
0.0
 10
6.729247437758771
 20
7.372208947750576
 30
0.0
 10
9.458448893176948
 20
6.329598077350526
 30
0.0
 10
12.18761443558199
 20
5.111279128783111
 30
0.0
 10
14.91675468765383
 20
3.731891820467081
 30
0.0
 10
17.64592719197998
 20
2.239674291200541
 30
0.0
 10
20.45829605276773
 20
0.6309776343284629
 30
0.0
 10
23.35440979473053
 20
-1.048225518896753
 30
0.0
 10
26.33370694529268
 20
-2.73762521693036
 30
0.0
 10
29.31304616334603
 20
-4.327253140342607
 30
0.0
 10
32.29237838615674
 20
-5.759582754379201
 30
0.0
 10
35.27170926172826
 20
-6.981171210684316
 30
0.0
 10
38.25102986702397
 20
-7.952316019866843
 30
0.0
 10
41.23033485683681
 20
-8.619816764599873
 30
0.0
 10
43.8244874535681
 20
-8.973439053679181
 30
0.0
 10
45.42553547769104
 20
-8.964432666834716
 30
0.0
 10
46.0334902350922
 20
-8.961012734611204
 30
0.0
  0
LINE
  5
C9
330
1F
100
AcDbEntity
  8
0
  6
Continuous
 62
     4
370
    25
100
AcDbLine
 10
4.000004207207295
 20
8.122833522398192
 30
0.0
 11
4.000004207207295
 21
8.999990066414568
 31
0.0
  0
SPLINE
  5
CA
330
1F
100
AcDbEntity
  8
0
  6
Continuous
 62
     1
370
    25
100
AcDbSpline
210
0.0
220
0.0
230
1.0
 70
     8
 71
     3
 72
    15
 73
    11
 74
     0
 42
0.000000001
 43
0.00000001
 40
0.0
 40
0.0
 40
0.0
 40
0.0
 40
0.1418213169420951
 40
0.2836458076378717
 40
0.4254732418805757
 40
0.5673033889012844
 40
0.7091360174125155
 40
0.850970895652044
 40
0.992807791426925
 40
1.0
 40
1.0
 40
1.0
 40
1.0
 10
74.00000420720734
 20
1.99328892056701
 30
0.0
 10
73.00708920932644
 20
2.545341043822724
 30
0.0
 10
71.02123699357895
 20
3.64945764445338
 30
0.0
 10
68.04240980819387
 20
5.15312204967483
 30
0.0
 10
65.06350949126524
 20
6.475092417427925
 30
0.0
 10
62.08454048226858
 20
7.557257722617826
 30
0.0
 10
59.10550923192857
 20
8.374543778187771
 30
0.0
 10
56.12642045571714
 20
8.849816373699461
 30
0.0
 10
54.08998745781749
 20
9.04879718122043
 30
0.0
 10
53.04658294335901
 20
8.994718928246366
 30
0.0
 10
52.9962277934243
 20
8.99210908853513
 30
0.0
  0
SPLINE
  5
CB
330
1F
100
AcDbEntity
  8
0
  6
Continuous
 62
     1
370
    25
100
AcDbSpline
210
0.0
220
0.0
230
1.0
 70
     8
 71
     3
 72
    11
 73
     7
 74
     0
 42
0.000000001
 43
0.00000001
 40
0.0
 40
0.0
 40
0.0
 40
0.0
 40
0.0680796645870331
 40
0.378715408657477
 40
0.689354843274013
 40
1.0
 40
1.0
 40
1.0
 40
1.0
 10
12.78574566982465
 20
-7.595433665061417
 30
0.0
 10
12.58636962706014
 20
-7.662803985774724
 30
0.0
 10
11.47727515707281
 20
-8.037573437050563
 30
0.0
 10
9.458449142536848
 20
-8.486266501132661
 30
0.0
 10
6.729247375417144
 20
-8.925513379828992
 30
0.0
 10
4.909757515854281
 20
-8.975164351788816
 30
0.0
 10
4.000004207207299
 20
-8.999990066414583
 30
0.0
  0
LINE
  5
CC
330
1F
100
AcDbEntity
  8
0
  6
Continuous
 62
     1
370
    25
100
AcDbLine
 10
74.00000420720731
 20
-0.5000000000000306
 30
0.0
 11
74.00000420720731
 21
1.99328892056701
 31
0.0
  0
LINE
  5
CD
330
1F
100
AcDbEntity
  8
0
  6
Continuous
 62
     1
370
    25
100
AcDbLine
 10
74.00000420720731
 20
-0.5000000000000333
 30
0.0
 11
72.82204172759543
 21
-1.324818207952469
 31
0.0
  0
SPLINE
  5
CE
330
1F
100
AcDbEntity
  8
0
  6
Continuous
 62
     1
370
    25
100
AcDbSpline
210
0.0
220
0.0
230
1.0
 70
     8
 71
     3
 72
    19
 73
    15
 74
     0
 42
0.000000001
 43
0.00000001
 40
0.0
 40
0.0
 40
0.0
 40
0.0
 40
0.0600463408383741
 40
0.1495937944025808
 40
0.2391413425478702
 40
0.3286888375070219
 40
0.4182361315230334
 40
0.507783076877504
 40
0.5898190319465798
 40
0.6718543504403721
 40
0.7538895694647112
 40
0.8359252261702265
 40
0.9179618575104321
 40
1.0
 40
1.0
 40
1.0
 40
1.0
 10
37.26951131288407
 20
-7.584692749017153
 30
0.0
 10
36.60357815743716
 20
-7.789800675435791
 30
0.0
 10
34.94453505587782
 20
-8.300787232595004
 30
0.0
 10
32.29237832665572
 20
-8.782798659240786
 30
0.0
 10
29.31304617928955
 20
-9.044712573860874
 30
0.0
 10
26.33370694101976
 20
-8.966484296598043
 30
0.0
 10
23.35440979587879
 20
-8.564643612405607
 30
0.0
 10
20.45829605248865
 20
-7.870123136341998
 30
0.0
 10
17.64592719205196
 20
-6.937247342359681
 30
0.0
 10
14.91675468763452
 20
-5.81984468827867
 30
0.0
 10
12.18761443558714
 20
-4.524489558385747
 30
0.0
 10
9.458448893175557
 20
-3.090788656111874
 30
0.0
 10
6.729247437759119
 20
-1.562539755479743
 30
0.0
 10
4.909757536635064
 20
-0.5119352920893411
 30
0.0
 10
4.000004207207299
 20
0.0133717777056715
 30
0.0
  0
SPLINE
  5
CF
330
1F
100
AcDbEntity
  8
0
  6
Continuous
 62
     4
370
    25
100
AcDbSpline
210
0.0
220
0.0
230
1.0
 70
    24
 71
     3
 72
    24
 73
    20
 74
     0
 42
0.000000001
 43
0.00000001
 40
0.0
 40
0.0
 40
0.0
 40
0.0
 40
0.0625
 40
0.0625
 40
0.1250000000000001
 40
0.1250000000000001
 40
0.2500000000000001
 40
0.2500000000000001
 40
0.375
 40
0.375
 40
0.4999999999999999
 40
0.4999999999999999
 40
0.6249999999999999
 40
0.6249999999999999
 40
0.75
 40
0.75
 40
0.875
 40
0.875
 40
1.0
 40
1.0
 40
1.0
 40
1.0
 10
4.000004207207295
 20
8.1228335223982
 30
0.0
 10
4.000004207207295
 20
7.971676638009457
 30
0.0
 10
4.000004207207295
 20
7.824023183596188
 30
0.0
 10
4.000004207207295
 20
7.536432015280925
 30
0.0
 10
4.000004207207295
 20
7.39029181045922
 30
0.0
 10
4.000004207207295
 20
6.92783447709395
 30
0.0
 10
4.000004207207295
 20
6.594127661592681
 30
0.0
 10
4.000004207207299
 20
5.877402910940802
 30
0.0
 10
4.000004207207299
 20
5.494204918579784
 30
0.0
 10
4.000004207207299
 20
4.689769221920433
 30
0.0
 10
4.000004207207299
 20
4.268375539930078
 30
0.0
 10
4.000004207207299
 20
3.414270341907613
 30
0.0
 10
4.000004207207299
 20
2.981590848887183
 30
0.0
 10
4.000004207207299
 20
2.149668852077705
 30
0.0
 10
4.000004207207299
 20
1.75083052751984
 30
0.0
 10
4.000004207207299
 20
1.0434501958763
 30
0.0
 10
4.000004207207295
 20
0.735637522994144
 30
0.0
 10
4.000004207207299
 20
0.2616848696802924
 30
0.0
 10
4.000004207207299
 20
0.0961485886799161
 30
0.0
 10
4.000004207207299
 20
0.0133717777056728
 30
0.0
  0
SPLINE
  5
D0
330
1F
100
AcDbEntity
  8
0
  6
Continuous
 62
     1
370
    25
100
AcDbSpline
210
0.0
220
0.0
230
1.0
 70
     8
 71
     3
 72
    14
 73
    10
 74
     0
 42
0.000000001
 43
0.00000001
 40
0.0
 40
0.0
 40
0.0
 40
0.0
 40
0.1555558668915526
 40
0.3111088684311843
 40
0.4666600219262412
 40
0.6222103455161744
 40
0.7777608577141938
 40
0.9333125769485623
 40
1.0
 40
1.0
 40
1.0
 40
1.0
 10
4.000004207207285
 20
-3.875509717108625
 30
0.0
 10
4.909757548105308
 20
-4.33810368942367
 30
0.0
 10
6.729247472169648
 20
-5.263283113034568
 30
0.0
 10
9.458448755537077
 20
-6.458695845998469
 30
0.0
 10
12.18761495172382
 20
-7.463803272110027
 30
0.0
 10
14.91675276073393
 20
-8.243322751528252
 30
0.0
 10
17.6459343835551
 20
-8.753021033689215
 30
0.0
 10
19.85529140117166
 20
-9.004347147020429
 30
0.0
 10
21.15516239679486
 20
-8.970877116650765
 30
0.0
 10
21.54521540953526
 20
-8.960833746019253
 30
0.0
  0
SPLINE
  5
D1
330
1F
100
AcDbEntity
  8
0
  6
Continuous
 62
     1
370
    25
100
AcDbSpline
210
0.0
220
0.0
230
1.0
 70
     8
 71
     3
 72
    11
 73
     7
 74
     0
 42
0.000000001
 43
0.00000001
 40
0.0
 40
0.0
 40
0.0
 40
0.0
 40
0.2469540157266636
 40
0.4979712457832066
 40
0.748986427875733
 40
1.0
 40
1.0
 40
1.0
 40
1.0
 10
61.73684554759988
 20
7.606995763693349
 30
0.0
 10
62.64935958234642
 20
7.866818772472884
 30
0.0
 10
64.48940154052357
 20
8.390739742068666
 30
0.0
 10
67.25695659818356
 20
8.844107467918112
 30
0.0
 10
70.03950811376939
 20
9.057093815799341
 30
0.0
 10
71.89453250596108
 20
8.95366984609486
 30
0.0
 10
72.82204172759546
 20
8.90195802707905
 30
0.0
  0
LINE
  5
D2
330
1F
100
AcDbEntity
  8
0
  6
Continuous
 62
     4
370
    25
100
AcDbLine
 10
4.000004207207295
 20
-3.875509717108639
 30
0.0
 11
4.000004207207295
 21
0.0133717777056722
 31
0.0
  0
ELLIPSE
  5
D3
330
1F
100
AcDbEntity
  8
0
  6
Continuous
 62
     1
370
    25
100
AcDbEllipse
 10
74.71407821057838
 20
-0.0000000000000037
 30
0.0
 11
12.85333206067899
 21
-5.350968460038311E-17
 31
0.0
210
0.0
220
0.0
230
1.0
 40
0.7002075382097123
 41
1.626380500075815
 42
1.718535207603882
  0
LINE
  5
D4
330
1F
100
AcDbEntity
  8
0
  6
Continuous
 62
     1
370
    25
100
AcDbLine
 10
74.00000420720731
 20
8.986100377805723
 30
0.0
 11
74.00000420720731
 21
9.000000000000005
 31
0.0
  0
SPLINE
  5
D5
330
1F
100
AcDbEntity
  8
0
  6
Continuous
 62
     1
370
    25
100
AcDbSpline
210
0.0
220
0.0
230
1.0
 70
     8
 71
     3
 72
    20
 73
    16
 74
     0
 42
0.000000001
 43
0.00000001
 40
0.0
 40
0.0
 40
0.0
 40
0.0
 40
0.25
 40
0.25
 40
0.375
 40
0.375
 40
0.5
 40
0.5
 40
0.625
 40
0.625
 40
0.75
 40
0.75
 40
0.875
 40
0.875
 40
1.0
 40
1.0
 40
1.0
 40
1.0
 10
72.82204172759543
 20
8.901958027079065
 30
0.0
 10
72.82395524667562
 20
8.3481613589841
 30
0.0
 10
72.7700859490503
 20
7.806412835584626
 30
0.0
 10
72.57870022391228
 20
7.017673843903403
 30
0.0
 10
72.49489737338565
 20
6.756545815091517
 30
0.0
 10
72.29027866551529
 20
6.266013134418242
 30
0.0
 10
72.16932639984749
 20
6.034414731260073
 30
0.0
 10
71.88639744968272
 20
5.601294727719607
 30
0.0
 10
71.7260234106655
 20
5.403248424429186
 30
0.0
 10
71.37826387047342
 20
5.055955997420845
 30
0.0
 10
71.18790981700407
 20
4.903553740793228
 30
0.0
 10
70.78459305163884
 20
4.648474346462751
 30
0.0
 10
70.57497734671308
 20
4.547289387139269
 30
0.0
 10
70.14151220126297
 20
4.392061755651984
 30
0.0
 10
69.91654667464577
 20
4.338272105579482
 30
0.0
 10
69.6922039439323
 20
4.307800263275012
 30
0.0
  0
SPLINE
  5
D6
330
1F
100
AcDbEntity
  8
0
  6
Continuous
 62
     1
370
    25
100
AcDbSpline
210
0.0
220
0.0
230
1.0
 70
     8
 71
     3
 72
     8
 73
     4
 74
     0
 42
0.000000001
 43
0.00000001
 40
0.0
 40
0.0
 40
0.0
 40
0.0
 40
1.0
 40
1.0
 40
1.0
 40
1.0
 10
74.00000420720731
 20
2.208415107906843
 30
0.0
 10
72.48989450263821
 20
3.024783451196134
 30
0.0
 10
71.06402614435065
 20
3.708760542780129
 30
0.0
 10
69.69220394393227
 20
4.307800263275008
 30
0.0
  0
SPLINE
  5
D7
330
1F
100
AcDbEntity
  8
0
  6
Continuous
 62
     4
370
    25
100
AcDbSpline
210
0.0
220
0.0
230
1.0
 70
    24
 71
     3
 72
    13
 73
     9
 74
     0
 42
0.000000001
 43
0.00000001
 40
0.0
 40
0.0
 40
0.0
 40
0.0
 40
0.0265289899487519
 40
0.2093255383944782
 40
0.3921220868402046
 40
0.5749186352859313
 40
0.7577151837316578
 40
1.0
 40
1.0
 40
1.0
 40
1.0
 10
4.000004207207299
 20
-4.390021606438461
 30
0.0
 10
4.000004207207299
 20
-4.411709761979907
 30
0.0
 10
4.000004207207299
 20
-4.582838962310041
 30
0.0
 10
4.000004207207299
 20
-5.056284730722232
 30
0.0
 10
4.000004207207299
 20
-5.795273532172773
 30
0.0
 10
4.000004207207299
 20
-6.668875076279765
 30
0.0
 10
4.000004207207299
 20
-7.729536776160291
 30
0.0
 10
4.000004207207299
 20
-8.538756712405464
 30
0.0
 10
4.000004207207299
 20
-8.999990066414579
 30
0.0
  0
LINE
  5
D8
330
1F
100
AcDbEntity
  8
0
  6
Continuous
 62
     1
370
    25
100
AcDbLine
 10
74.00000420720731
 20
2.00045884774656
 30
0.0
 11
74.00000420720731
 21
2.208415107906843
 31
0.0
  0
LINE
  5
D9
330
1F
100
AcDbEntity
  8
0
  6
Continuous
 62
     1
370
    25
100
AcDbLine
 10
74.00000420720731
 20
-0.4999999999999994
 30
0.0
 11
74.00000420720731
 21
-6.567570641756578
 31
0.0
  0
LINE
  5
DA
330
1F
100
AcDbEntity
  8
0
  6
Continuous
 62
     1
370
    25
100
AcDbLine
 10
74.00000420720731
 20
2.208415107906843
 30
0.0
 11
74.00000420720731
 21
8.986100377805723
 31
0.0
  0
LINE
  5
DB
330
1F
100
AcDbEntity
  8
중심선
100
AcDbLine
 10
-58.9999957927927
 20
-0.0000000000000081
 30
0.0
 11
77.00000420720731
 21
0.0000000000000086
 31
0.0
  0
CIRCLE
  5
DC
330
1F
100
AcDbEntity
  8
해칭선
100
AcDbCircle
 10
0.0
 20
0.0
 30
0.0
 40
2.999999999999999
  0
INSERT
  5
DD
330
1F
100
AcDbEntity
  8
0
  6
Continuous
 62
     7
100
AcDbBlockReference
 66
     1
  2
블럭10
 10
2.559900751058223
 20
-52.04717430164393
 30
0.0
  0
ATTRIB
  5
DE
330
DD
100
AcDbEntity
  8
FORMAT
 62
     2
100
AcDbText
 10
-13.55936028837733
 20
-49.97180738881174
 30
0.0
 40
4.233333333333333
  1
SEME7218070E [ 4 FLUTE ]
 41
0.75
  7
SLDTEXTSTYLE0
 11
-13.55936028837733
 21
-52.08847405547841
 31
0.0
100
AcDbAttribute
  2
AUTOATTR0
 70
     0
 74
     1
  0
SEQEND
  5
DF
330
DD
100
AcDbEntity
  8
0
  6
Continuous
 62
     7
  0
HATCH
  5
E0
330
1F
100
AcDbEntity
  8
중심선
100
AcDbHatch
 10
0.0
 20
0.0
 30
0.0
210
0.0
220
0.0
230
1.0
  2
SOLID
 70
     1
 71
     0
 91
        1
 92
        0
 93
        4
 72
     1
 10
8.274810055439064
 20
-35.8
 11
4.828534811601781
 21
-35.8
 72
     1
 10
4.828534811601781
 20
-35.8
 11
2.70030495239773
 21
-38.33632558057257
 72
     1
 10
2.70030495239773
 20
-38.33632558057257
 11
6.14661328134819
 21
-38.33628615127008
 72
     1
 10
6.14661328134819
 20
-38.33628615127008
 11
8.274810055439064
 21
-35.8
 97
        0
 75
     0
 76
     1
 98
        1
 10
0.0
 20
0.0
  0
HATCH
  5
E1
330
1F
100
AcDbEntity
  8
중심선
100
AcDbHatch
 10
0.0
 20
0.0
 30
0.0
210
0.0
220
0.0
230
1.0
  2
SOLID
 70
     1
 71
     0
 91
        1
 92
        0
 93
        4
 72
     1
 10
13.28757404647504
 20
-35.79999999999997
 11
9.84129880263776
 21
-35.8
 72
     1
 10
9.84129880263776
 20
-35.8
 11
5.310160794280344
 21
-41.20000000000002
 72
     1
 10
5.310160794280344
 20
-41.20000000000002
 11
8.756436038117627
 21
-41.20000000000002
 72
     1
 10
8.756436038117627
 20
-41.20000000000002
 11
13.28757404647504
 21
-35.79999999999997
 97
        0
 75
     0
 76
     1
 98
        1
 10
0.0
 20
0.0
  0
HATCH
  5
E2
330
1F
100
AcDbEntity
  8
중심선
100
AcDbHatch
 10
0.0
 20
0.0
 30
0.0
210
0.0
220
0.0
230
1.0
  2
SOLID
 70
     1
 71
     0
 91
        1
 92
        0
 93
        4
 72
     1
 10
18.30033803751094
 20
-35.79999999999997
 11
14.85406279367382
 21
-35.79999999999997
 72
     1
 10
14.85406279367382
 20
-35.79999999999997
 11
7.805625891784546
 21
-44.20000000000002
 72
     1
 10
7.805625891784546
 20
-44.20000000000002
 11
11.25190113562183
 21
-44.20000000000002
 72
     1
 10
11.25190113562183
 20
-44.20000000000002
 11
18.30033803751094
 21
-35.79999999999997
 97
        0
 75
     0
 76
     1
 98
        1
 10
0.0
 20
0.0
  0
HATCH
  5
E3
330
1F
100
AcDbEntity
  8
중심선
100
AcDbHatch
 10
0.0
 20
0.0
 30
0.0
210
0.0
220
0.0
230
1.0
  2
SOLID
 70
     1
 71
     0
 91
        1
 92
        0
 93
        6
 72
     3
 10
23.10022846852311
 20
-40.00000000005127
 11
3.960054785062284
 21
1.540850780301639E-10
 40
0.3939339440162633
 50
17.09539180608434
 51
320.0019657685081
 73
     0
 72
     1
 10
24.78322812422368
 20
-38.58789400463833
 11
27.08852999792474
 21
-36.65356729459038
 72
     3
 10
23.10022846847026
 20
-40.00000000000015
 11
6.600054785286829
 21
-1.249000902703301E-13
 40
0.6363583540795982
 50
39.99873849337411
 51
368.4976242363725
 73
     1
 72
     1
 10
29.52556096037087
 20
-39.03999999993002
 11
21.78029577530619
 21
-39.03999999993002
 72
     1
 10
21.78029577530619
 20
-39.03999999993002
 11
21.78027073086025
 21
-40.95999999992991
 72
     1
 10
21.78027073086025
 20
-40.95999999992991
 11
26.22165050033229
 21
-40.95999999992988
 97
        0
 75
     0
 76
     1
 98
        1
 10
0.0
 20
0.0
  0
DIMENSION
  5
E4
330
1F
100
AcDbEntity
  8
치수문자_일반주서
100
AcDbDimension
  2
_D
 10
88.55455024818912
 20
9.000000000000059
 30
0.0
 11
88.55455024818909
 21
19.54150000000007
 31
0.0
 70
   160
  1
%%c<>
 71
     2
 42
18.00000000000002
 52
-270.0
  3
SLDDIMSTYLE0
100
AcDbAlignedDimension
 13
74.00000420720731
 23
-9.000000000000014
 33
0.0
 14
74.00000420720731
 24
9.000000000000004
 34
0.0
 50
90.0000000000002
100
AcDbRotatedDimension
  0
DIMENSION
  5
F2
330
1F
100
AcDbEntity
  8
치수문자_일반주서
100
AcDbDimension
  2
_D_1
 10
74.00000420720733
 20
27.38913260158165
 30
0.0
 11
9.000004207207297
 21
27.38913260158165
 31
0.0
 70
   160
  1
<>
 71
     2
 42
130.0
  3
SLDDIMSTYLE1
100
AcDbAlignedDimension
 13
-55.9999957927927
 23
9.49999999999999
 33
0.0
 14
74.00000420720731
 24
9.000000000000005
 34
0.0
 50
-0.0000000000000031
100
AcDbRotatedDimension
  0
DIMENSION
  5
FD
330
1F
100
AcDbEntity
  8
치수문자_일반주서
100
AcDbDimension
  2
_D_2
 10
-69.80705099456259
 20
-10.00000000000007
 30
0.0
 11
-69.8070509945627
 21
20.76024999999993
 31
0.0
 70
   160
  1
%%c<>
 71
     2
 42
19.99999999999999
 52
-270.0
  3
SLDDIMSTYLE2
100
AcDbAlignedDimension
 13
-55.4999957927927
 23
9.999999999999975
 33
0.0
 14
-55.4999957927927
 24
-10.00000000000002
 34
0.0
 50
90.0000000000002
100
AcDbRotatedDimension
  0
DIMENSION
  5
10B
330
1F
100
AcDbEntity
  8
치수문자_일반주서
100
AcDbDimension
  2
_D_3
 10
74.00000420720731
 20
19.84591830258764
 30
0.0
 11
39.0000042072073
 21
19.84591830258764
 31
0.0
 70
   160
  1
<>
 71
     2
 42
70.00000000000001
  3
SLDDIMSTYLE1
100
AcDbAlignedDimension
 13
4.000004207207299
 23
8.999999999999996
 33
0.0
 14
74.00000420720731
 24
9.000000000000005
 34
0.0
 50
-0.0000000000000058
100
AcDbRotatedDimension
  0
INSERT
  5
11B
330
1F
100
AcDbEntity
  8
해칭선
100
AcDbBlockReference
  2
SW_DOWELSYMBOL_0
 10
0.0
 20
0.0
 30
0.0
  0
LINE
  5
170
330
1F
100
AcDbEntity
  8
0
  6
Continuous
 62
     4
370
    25
100
AcDbLine
 10
2.000004207207296
 20
10.0
 30
0.0
 11
3.000004207207297
 21
9.000000000000002
 31
0.0
  0
ENDSEC
  0
SECTION
  2
OBJECTS
  0
DICTIONARY
  5
C
330
0
100
AcDbDictionary
281
     1
  3
ACAD_GROUP
350
D
  3
ACAD_IMAGE_VARS
350
13F
  3
ACAD_LAYOUT
350
1A
  3
ACAD_MLINESTYLE
350
17
  3
ACAD_PLOTSETTINGS
350
19
  3
ACAD_PLOTSTYLENAME
350
E
  3
ACAD_SCALELIST
350
47
  3
APPDATA
350
13D
  3
DWGPROPS
350
173
  0
DICTIONARY
  5
171
330
1F
100
AcDbDictionary
280
     1
281
     1
  3
DIM_BOUNDING_BOXES_V1
360
172
  0
DICTIONARY
  5
D
102
{ACAD_REACTORS
330
C
102
}
330
C
100
AcDbDictionary
281
     1
  0
RASTERVARIABLES
  5
13F
102
{ACAD_REACTORS
330
C
102
}
330
C
100
AcDbRasterVariables
 90
        0
 70
     1
 71
     1
 72
     1
  0
DICTIONARY
  5
1A
102
{ACAD_REACTORS
330
C
102
}
330
C
100
AcDbDictionary
281
     1
  3
Layout1
350
1E
  3
Layout2
350
26
  3
Model
350
22
  0
DICTIONARY
  5
17
102
{ACAD_REACTORS
330
C
102
}
330
C
100
AcDbDictionary
281
     1
  3
Standard
350
18
  0
DICTIONARY
  5
19
102
{ACAD_REACTORS
330
C
102
}
330
C
100
AcDbDictionary
281
     1
  0
ACDBDICTIONARYWDFLT
  5
E
102
{ACAD_REACTORS
330
C
102
}
330
C
100
AcDbDictionary
281
     1
  3
Normal
350
F
100
AcDbDictionaryWithDefault
340
F
  0
DICTIONARY
  5
47
102
{ACAD_REACTORS
330
C
102
}
330
C
100
AcDbDictionary
281
     1
  3
A0
350
48
  3
A1
350
49
  3
A2
350
4A
  3
A3
350
4B
  3
A4
350
4C
  3
A5
350
4D
  3
A6
350
4E
  3
A7
350
4F
  3
A8
350
50
  3
A9
350
51
  3
B0
350
52
  3
B1
350
53
  3
B2
350
54
  3
B3
350
55
  3
B4
350
56
  3
B5
350
57
  3
B6
350
58
  3
B7
350
59
  3
B8
350
5A
  3
B9
350
5B
  3
C0
350
5C
  3
C1
350
5D
  3
C2
350
5E
  3
C3
350
5F
  3
C4
350
60
  3
C5
350
61
  3
C6
350
62
  3
C7
350
63
  3
C8
350
64
  3
C9
350
65
  3
D0
350
66
  3
D1
350
67
  3
D2
350
68
  0
DICTIONARY
  5
13D
102
{ACAD_REACTORS
330
C
102
}
330
C
100
AcDbDictionary
281
     1
  0
XRECORD
  5
173
102
{ACAD_REACTORS
330
C
102
}
330
C
100
AcDbXrecord
280
     1
  1
DWGPROPS COOKIE
  2

  3

  4

  6

  7

  8
12016016
  9

300
=
301
=
302
=
303
=
304
=
305
=
306
=
307
=
308
=
309
=
 40
0.0
 41
2458260.210153924
 42
2459677.213828218
  1

 90
        0
  0
DICTIONARY
  5
172
102
{ACAD_REACTORS
330
171
102
}
330
171
100
AcDbDictionary
281
     1
  0
LAYOUT
  5
1E
102
{ACAD_REACTORS
330
1A
102
}
330
1A
100
AcDbPlotSettings
  1

  2
none_device
  4

  6

 40
0.0
 41
0.0
 42
0.0
 43
0.0
 44
0.0
 45
0.0
 46
0.0
 47
0.0
 48
0.0
 49
0.0
140
0.0
141
0.0
142
1.0
143
1.0
 70
   688
 72
     1
 73
     0
 74
     5
  7

 75
    16
147
1.0
148
0.0
149
0.0
100
AcDbLayout
  1
Layout1
 70
     1
 71
     1
 10
0.0
 20
0.0
 11
420.0
 21
297.0
 12
0.0
 22
0.0
 32
0.0
 14
1.000000000000000E+20
 24
1.000000000000000E+20
 34
1.000000000000000E+20
 15
-1.000000000000000E+20
 25
-1.000000000000000E+20
 35
-1.000000000000000E+20
146
0.0
 13
0.0
 23
0.0
 33
0.0
 16
1.0
 26
0.0
 36
0.0
 17
0.0
 27
1.0
 37
0.0
 76
     0
330
1B
  0
LAYOUT
  5
26
102
{ACAD_REACTORS
330
1A
102
}
330
1A
100
AcDbPlotSettings
  1

  2
none_device
  4

  6

 40
0.0
 41
0.0
 42
0.0
 43
0.0
 44
0.0
 45
0.0
 46
0.0
 47
0.0
 48
0.0
 49
0.0
140
0.0
141
0.0
142
1.0
143
1.0
 70
   688
 72
     1
 73
     0
 74
     5
  7

 75
    16
147
1.0
148
0.0
149
0.0
100
AcDbLayout
  1
Layout2
 70
     1
 71
     2
 10
0.0
 20
0.0
 11
0.0
 21
0.0
 12
0.0
 22
0.0
 32
0.0
 14
0.0
 24
0.0
 34
0.0
 15
0.0
 25
0.0
 35
0.0
146
0.0
 13
0.0
 23
0.0
 33
0.0
 16
1.0
 26
0.0
 36
0.0
 17
0.0
 27
1.0
 37
0.0
 76
     0
330
23
  0
LAYOUT
  5
22
102
{ACAD_REACTORS
330
1A
102
}
330
1A
100
AcDbPlotSettings
  1

  2
none_device
  4
ANSI_A_(11.00_x_8.50_Inches)
  6

 40
6.35
 41
19.05
 42
6.35000508
 43
19.05000254
 44
279.4
 45
215.9
 46
106.7172004495918
 47
104.6837840024109
 48
0.0
 49
0.0
140
0.0
141
0.0
142
0.0660549617320314
143
1.0
 70
  1696
 72
     0
 73
     0
 74
     0
  7

 75
     0
147
0.0235690232323232
148
0.0
149
0.0
100
AcDbLayout
  1
Model
 70
     1
 71
     0
 10
0.0
 20
0.0
 11
420.0
 21
297.0
 12
0.0
 22
0.0
 32
0.0
 14
-74.18205099456273
 24
-49.97180738881174
 34
0.0
 15
89.1048835815225
 25
31.76413260158164
 35
0.0
146
0.0
 13
0.0
 23
0.0
 33
0.0
 16
1.0
 26
0.0
 36
0.0
 17
0.0
 27
1.0
 37
0.0
 76
     0
330
1F
331
29
  0
MLINESTYLE
  5
18
102
{ACAD_REACTORS
330
17
102
}
330
17
100
AcDbMlineStyle
  2
Standard
 70
     0
  3

 62
   256
 51
90.0
 52
90.0
 71
     2
 49
0.5
 62
   256
  6
BYLAYER
 49
-0.5
 62
   256
  6
BYLAYER
  0
ACDBPLACEHOLDER
  5
F
102
{ACAD_REACTORS
330
E
102
}
330
E
  0
SCALE
  5
48
102
{ACAD_REACTORS
330
47
102
}
330
47
100
AcDbScale
 70
     0
300
1:1
140
1.0
141
1.0
290
     1
  0
SCALE
  5
49
102
{ACAD_REACTORS
330
47
102
}
330
47
100
AcDbScale
 70
     0
300
1:2
140
1.0
141
2.0
290
     0
  0
SCALE
  5
4A
102
{ACAD_REACTORS
330
47
102
}
330
47
100
AcDbScale
 70
     0
300
1:4
140
1.0
141
4.0
290
     0
  0
SCALE
  5
4B
102
{ACAD_REACTORS
330
47
102
}
330
47
100
AcDbScale
 70
     0
300
1:5
140
1.0
141
5.0
290
     0
  0
SCALE
  5
4C
102
{ACAD_REACTORS
330
47
102
}
330
47
100
AcDbScale
 70
     0
300
1:8
140
1.0
141
8.0
290
     0
  0
SCALE
  5
4D
102
{ACAD_REACTORS
330
47
102
}
330
47
100
AcDbScale
 70
     0
300
1:10
140
1.0
141
10.0
290
     0
  0
SCALE
  5
4E
102
{ACAD_REACTORS
330
47
102
}
330
47
100
AcDbScale
 70
     0
300
1:16
140
1.0
141
16.0
290
     0
  0
SCALE
  5
4F
102
{ACAD_REACTORS
330
47
102
}
330
47
100
AcDbScale
 70
     0
300
1:20
140
1.0
141
20.0
290
     0
  0
SCALE
  5
50
102
{ACAD_REACTORS
330
47
102
}
330
47
100
AcDbScale
 70
     0
300
1:30
140
1.0
141
30.0
290
     0
  0
SCALE
  5
51
102
{ACAD_REACTORS
330
47
102
}
330
47
100
AcDbScale
 70
     0
300
1:40
140
1.0
141
40.0
290
     0
  0
SCALE
  5
52
102
{ACAD_REACTORS
330
47
102
}
330
47
100
AcDbScale
 70
     0
300
1:50
140
1.0
141
50.0
290
     0
  0
SCALE
  5
53
102
{ACAD_REACTORS
330
47
102
}
330
47
100
AcDbScale
 70
     0
300
1:100
140
1.0
141
100.0
290
     0
  0
SCALE
  5
54
102
{ACAD_REACTORS
330
47
102
}
330
47
100
AcDbScale
 70
     0
300
2:1
140
2.0
141
1.0
290
     0
  0
SCALE
  5
55
102
{ACAD_REACTORS
330
47
102
}
330
47
100
AcDbScale
 70
     0
300
4:1
140
4.0
141
1.0
290
     0
  0
SCALE
  5
56
102
{ACAD_REACTORS
330
47
102
}
330
47
100
AcDbScale
 70
     0
300
8:1
140
8.0
141
1.0
290
     0
  0
SCALE
  5
57
102
{ACAD_REACTORS
330
47
102
}
330
47
100
AcDbScale
 70
     0
300
10:1
140
10.0
141
1.0
290
     0
  0
SCALE
  5
58
102
{ACAD_REACTORS
330
47
102
}
330
47
100
AcDbScale
 70
     0
300
100:1
140
100.0
141
1.0
290
     0
  0
SCALE
  5
59
102
{ACAD_REACTORS
330
47
102
}
330
47
100
AcDbScale
 70
     0
300
1/128" = 1'-0"
140
0.0078125
141
12.0
290
     0
  0
SCALE
  5
5A
102
{ACAD_REACTORS
330
47
102
}
330
47
100
AcDbScale
 70
     0
300
1/64" = 1'-0"
140
0.015625
141
12.0
290
     0
  0
SCALE
  5
5B
102
{ACAD_REACTORS
330
47
102
}
330
47
100
AcDbScale
 70
     0
300
1/32" = 1'-0"
140
0.03125
141
12.0
290
     0
  0
SCALE
  5
5C
102
{ACAD_REACTORS
330
47
102
}
330
47
100
AcDbScale
 70
     0
300
1/16" = 1'-0"
140
0.0625
141
12.0
290
     0
  0
SCALE
  5
5D
102
{ACAD_REACTORS
330
47
102
}
330
47
100
AcDbScale
 70
     0
300
3/32" = 1'-0"
140
0.09375
141
12.0
290
     0
  0
SCALE
  5
5E
102
{ACAD_REACTORS
330
47
102
}
330
47
100
AcDbScale
 70
     0
300
1/8" = 1'-0"
140
0.125
141
12.0
290
     0
  0
SCALE
  5
5F
102
{ACAD_REACTORS
330
47
102
}
330
47
100
AcDbScale
 70
     0
300
3/16" = 1'-0"
140
0.1875
141
12.0
290
     0
  0
SCALE
  5
60
102
{ACAD_REACTORS
330
47
102
}
330
47
100
AcDbScale
 70
     0
300
1/4" = 1'-0"
140
0.25
141
12.0
290
     0
  0
SCALE
  5
61
102
{ACAD_REACTORS
330
47
102
}
330
47
100
AcDbScale
 70
     0
300
3/8" = 1'-0"
140
0.375
141
12.0
290
     0
  0
SCALE
  5
62
102
{ACAD_REACTORS
330
47
102
}
330
47
100
AcDbScale
 70
     0
300
1/2" = 1'-0"
140
0.5
141
12.0
290
     0
  0
SCALE
  5
63
102
{ACAD_REACTORS
330
47
102
}
330
47
100
AcDbScale
 70
     0
300
3/4" = 1'-0"
140
0.75
141
12.0
290
     0
  0
SCALE
  5
64
102
{ACAD_REACTORS
330
47
102
}
330
47
100
AcDbScale
 70
     0
300
1" = 1'-0"
140
1.0
141
12.0
290
     0
  0
SCALE
  5
65
102
{ACAD_REACTORS
330
47
102
}
330
47
100
AcDbScale
 70
     0
300
1-1/2" = 1'-0"
140
1.5
141
12.0
290
     0
  0
SCALE
  5
66
102
{ACAD_REACTORS
330
47
102
}
330
47
100
AcDbScale
 70
     0
300
3" = 1'-0"
140
3.0
141
12.0
290
     0
  0
SCALE
  5
67
102
{ACAD_REACTORS
330
47
102
}
330
47
100
AcDbScale
 70
     0
300
6" = 1'-0"
140
6.0
141
12.0
290
     0
  0
SCALE
  5
68
102
{ACAD_REACTORS
330
47
102
}
330
47
100
AcDbScale
 70
     0
300
1'-0" = 1'-0"
140
12.0
141
12.0
290
     0
  0
ENDSEC
  0
EOF
