  0
SECTION
  2
HEADER
  9
$ACADVER
  1
AC1015
  9
$ACADMAINTVER
 70
     6
  9
$DWGCODEPAGE
  3
ANSI_949
  9
$INSBASE
 10
0.0
 20
0.0
 30
0.0
  9
$EXTMIN
 10
-112.888094295973
 20
-49.97180738881174
 30
0.0
  9
$EXTMAX
 10
118.3514777582651
 20
31.76413260158163
 30
0.0
  9
$LIMMIN
 10
0.0
 20
0.0
  9
$LIMMAX
 10
420.0
 20
297.0
  9
$ORTHOMODE
 70
     0
  9
$REGENMODE
 70
     1
  9
$FILLMODE
 70
     1
  9
$QTEXTMODE
 70
     0
  9
$MIRRTEXT
 70
     1
  9
$LTSCALE
 40
1.0
  9
$ATTMODE
 70
     1
  9
$TEXTSIZE
 40
3.5
  9
$TRACEWID
 40
1.0
  9
$TEXTSTYLE
  7
Standard
  9
$CLAYER
  8
0
  9
$CELTYPE
  6
ByLayer
  9
$CECOLOR
 62
   256
  9
$CELTSCALE
 40
1.0
  9
$DISPSILH
 70
     0
  9
$DIMSCALE
 40
1.0
  9
$DIMASZ
 40
3.302
  9
$DIMEXO
 40
1.0
  9
$DIMDLI
 40
3.75
  9
$DIMRND
 40
0.0
  9
$DIMDLE
 40
0.0
  9
$DIMEXE
 40
1.0
  9
$DIMTP
 40
0.0
  9
$DIMTM
 40
0.0
  9
$DIMTXT
 40
3.5
  9
$DIMCEN
 40
2.5
  9
$DIMTSZ
 40
0.0
  9
$DIMTOL
 70
     0
  9
$DIMLIM
 70
     0
  9
$DIMTIH
 70
     1
  9
$DIMTOH
 70
     1
  9
$DIMSE1
 70
     0
  9
$DIMSE2
 70
     0
  9
$DIMTAD
 70
     1
  9
$DIMZIN
 70
     0
  9
$DIMBLK
  1

  9
$DIMASO
 70
     1
  9
$DIMSHO
 70
     1
  9
$DIMPOST
  1

  9
$DIMAPOST
  1

  9
$DIMALT
 70
     0
  9
$DIMALTD
 70
     3
  9
$DIMALTF
 40
0.0393700787401575
  9
$DIMLFAC
 40
1.0
  9
$DIMTOFL
 70
     1
  9
$DIMTVP
 40
0.0
  9
$DIMTIX
 70
     0
  9
$DIMSOXD
 70
     0
  9
$DIMSAH
 70
     0
  9
$DIMBLK1
  1

  9
$DIMBLK2
  1

  9
$DIMSTYLE
  2
ISO-25
  9
$DIMCLRD
 70
     0
  9
$DIMCLRE
 70
     0
  9
$DIMCLRT
 70
     0
  9
$DIMTFAC
 40
1.0
  9
$DIMGAP
 40
1.524
  9
$DIMJUST
 70
     0
  9
$DIMSD1
 70
     0
  9
$DIMSD2
 70
     0
  9
$DIMTOLJ
 70
     0
  9
$DIMTZIN
 70
     0
  9
$DIMALTZ
 70
     0
  9
$DIMALTTZ
 70
     0
  9
$DIMUPT
 70
     0
  9
$DIMDEC
 70
     2
  9
$DIMTDEC
 70
     2
  9
$DIMALTU
 70
     2
  9
$DIMALTTD
 70
     3
  9
$DIMTXSTY
  7
Standard
  9
$DIMAUNIT
 70
     0
  9
$DIMADEC
 70
     2
  9
$DIMALTRND
 40
0.0
  9
$DIMAZIN
 70
     0
  9
$DIMDSEP
 70
    44
  9
$DIMATFIT
 70
     3
  9
$DIMFRAC
 70
     0
  9
$DIMLDRBLK
  1

  9
$DIMLUNIT
 70
     2
  9
$DIMLWD
 70
    -2
  9
$DIMLWE
 70
    -2
  9
$DIMTMOVE
 70
     0
  9
$LUNITS
 70
     2
  9
$LUPREC
 70
     2
  9
$SKETCHINC
 40
1.0
  9
$FILLETRAD
 40
10.0
  9
$AUNITS
 70
     0
  9
$AUPREC
 70
     2
  9
$MENU
  1
.
  9
$ELEVATION
 40
0.0
  9
$PELEVATION
 40
0.0
  9
$THICKNESS
 40
0.0
  9
$LIMCHECK
 70
     0
  9
$CHAMFERA
 40
0.0
  9
$CHAMFERB
 40
0.0
  9
$CHAMFERC
 40
0.0
  9
$CHAMFERD
 40
0.0
  9
$SKPOLY
 70
     0
  9
$TDCREATE
 40
2458260.584775301
  9
$TDUCREATE
 40
2458260.209775301
  9
$TDUPDATE
 40
2459677.588316053
  9
$TDUUPDATE
 40
2459677.213316053
  9
$TDINDWG
 40
0.0013021065
  9
$TDUSRTIMER
 40
0.0004100231
  9
$USRTIMER
 70
     1
  9
$ANGBASE
 50
0.0
  9
$ANGDIR
 70
     0
  9
$PDMODE
 70
     0
  9
$PDSIZE
 40
-1.0
  9
$PLINEWID
 40
0.0
  9
$SPLFRAME
 70
     0
  9
$SPLINETYPE
 70
     6
  9
$SPLINESEGS
 70
     8
  9
$HANDSEED
  5
17E
  9
$SURFTAB1
 70
     6
  9
$SURFTAB2
 70
     6
  9
$SURFTYPE
 70
     6
  9
$SURFU
 70
     6
  9
$SURFV
 70
     6
  9
$UCSBASE
  2

  9
$UCSNAME
  2

  9
$UCSORG
 10
0.0
 20
0.0
 30
0.0
  9
$UCSXDIR
 10
1.0
 20
0.0
 30
0.0
  9
$UCSYDIR
 10
0.0
 20
1.0
 30
0.0
  9
$UCSORTHOREF
  2

  9
$UCSORTHOVIEW
 70
     0
  9
$UCSORGTOP
 10
0.0
 20
0.0
 30
0.0
  9
$UCSORGBOTTOM
 10
0.0
 20
0.0
 30
0.0
  9
$UCSORGLEFT
 10
0.0
 20
0.0
 30
0.0
  9
$UCSORGRIGHT
 10
0.0
 20
0.0
 30
0.0
  9
$UCSORGFRONT
 10
0.0
 20
0.0
 30
0.0
  9
$UCSORGBACK
 10
0.0
 20
0.0
 30
0.0
  9
$PUCSBASE
  2

  9
$PUCSNAME
  2

  9
$PUCSORG
 10
0.0
 20
0.0
 30
0.0
  9
$PUCSXDIR
 10
1.0
 20
0.0
 30
0.0
  9
$PUCSYDIR
 10
0.0
 20
1.0
 30
0.0
  9
$PUCSORTHOREF
  2

  9
$PUCSORTHOVIEW
 70
     0
  9
$PUCSORGTOP
 10
0.0
 20
0.0
 30
0.0
  9
$PUCSORGBOTTOM
 10
0.0
 20
0.0
 30
0.0
  9
$PUCSORGLEFT
 10
0.0
 20
0.0
 30
0.0
  9
$PUCSORGRIGHT
 10
0.0
 20
0.0
 30
0.0
  9
$PUCSORGFRONT
 10
0.0
 20
0.0
 30
0.0
  9
$PUCSORGBACK
 10
0.0
 20
0.0
 30
0.0
  9
$USERI1
 70
     0
  9
$USERI2
 70
     0
  9
$USERI3
 70
     0
  9
$USERI4
 70
     0
  9
$USERI5
 70
     0
  9
$USERR1
 40
0.0
  9
$USERR2
 40
0.0
  9
$USERR3
 40
0.0
  9
$USERR4
 40
0.0
  9
$USERR5
 40
0.0
  9
$WORLDVIEW
 70
     1
  9
$SHADEDGE
 70
     3
  9
$SHADEDIF
 70
    70
  9
$TILEMODE
 70
     1
  9
$MAXACTVP
 70
    64
  9
$PINSBASE
 10
0.0
 20
0.0
 30
0.0
  9
$PLIMCHECK
 70
     0
  9
$PEXTMIN
 10
1.000000000000000E+20
 20
1.000000000000000E+20
 30
1.000000000000000E+20
  9
$PEXTMAX
 10
-1.000000000000000E+20
 20
-1.000000000000000E+20
 30
-1.000000000000000E+20
  9
$PLIMMIN
 10
0.0
 20
0.0
  9
$PLIMMAX
 10
0.0
 20
0.0
  9
$UNITMODE
 70
     0
  9
$VISRETAIN
 70
     1
  9
$PLINEGEN
 70
     0
  9
$PSLTSCALE
 70
     1
  9
$TREEDEPTH
 70
  3020
  9
$CMLSTYLE
  2
Standard
  9
$CMLJUST
 70
     0
  9
$CMLSCALE
 40
20.0
  9
$PROXYGRAPHICS
 70
     1
  9
$MEASUREMENT
 70
     1
  9
$CELWEIGHT
370
    -1
  9
$ENDCAPS
280
     0
  9
$JOINSTYLE
280
     0
  9
$LWDISPLAY
290
     1
  9
$INSUNITS
 70
     4
  9
$HYPERLINKBASE
  1

  9
$STYLESHEET
  1

  9
$XEDIT
290
     1
  9
$CEPSNTYPE
380
     0
  9
$PSTYLEMODE
290
     1
  9
$FINGERPRINTGUID
  2
{1F488751-6EE7-45EC-ADE5-A302841433D4}
  9
$VERSIONGUID
  2
{FAEB1C32-E019-11D5-929B-00C0DF256EC4}
  9
$EXTNAMES
290
     1
  9
$PSVPSCALE
 40
0.0
  9
$OLESTARTUP
290
     0
  0
ENDSEC
  0
SECTION
  2
CLASSES
  0
CLASS
  1
ACDBDICTIONARYWDFLT
  2
AcDbDictionaryWithDefault
  3
ObjectDBX Classes
 90
        0
280
     0
281
     0
  0
CLASS
  1
VISUALSTYLE
  2
AcDbVisualStyle
  3
ObjectDBX Classes
 90
     4095
280
     0
281
     0
  0
CLASS
  1
MATERIAL
  2
AcDbMaterial
  3
ObjectDBX Classes
 90
     1153
280
     0
281
     0
  0
CLASS
  1
SCALE
  2
AcDbScale
  3
ObjectDBX Classes
 90
     1153
280
     0
281
     0
  0
CLASS
  1
TABLESTYLE
  2
AcDbTableStyle
  3
ObjectDBX Classes
 90
     4095
280
     0
281
     0
  0
CLASS
  1
MLEADERSTYLE
  2
AcDbMLeaderStyle
  3
ACDB_MLEADERSTYLE_CLASS
 90
     4095
280
     0
281
     0
  0
CLASS
  1
SUN
  2
AcDbSun
  3
SCENEOE
 90
     1153
280
     0
281
     0
  0
CLASS
  1
ACDBPLACEHOLDER
  2
AcDbPlaceHolder
  3
ObjectDBX Classes
 90
        0
280
     0
281
     0
  0
CLASS
  1
LAYOUT
  2
AcDbLayout
  3
ObjectDBX Classes
 90
        0
280
     0
281
     0
  0
CLASS
  1
RASTERVARIABLES
  2
AcDbRasterVariables
  3
ISM
 90
        0
280
     0
281
     0
  0
ENDSEC
  0
SECTION
  2
TABLES
  0
TABLE
  2
VPORT
  5
8
330
0
100
AcDbSymbolTable
 70
     1
  0
VPORT
  5
29
330
8
100
AcDbSymbolTableRecord
100
AcDbViewportTableRecord
  2
*Active
 70
     0
 10
0.0
 20
0.0
 11
1.0
 21
1.0
 12
-1.865732938427701
 22
-69.78600628347067
 13
0.0
 23
0.0
 14
10.0
 24
10.0
 15
10.0
 25
10.0
 16
0.0
 26
0.0
 36
1.0
 17
0.0
 27
0.0
 37
0.0
 40
240.6415437716792
 41
1.531481481481481
 42
50.0
 43
0.0
 44
0.0
 50
0.0
 51
0.0
 71
    16
 72
  2000
 73
     1
 74
     3
 75
     0
 76
     0
 77
     0
 78
     0
281
     0
 65
     1
110
0.0
120
0.0
130
0.0
111
1.0
121
0.0
131
0.0
112
0.0
122
1.0
132
0.0
 79
     0
146
0.0
  0
ENDTAB
  0
TABLE
  2
LTYPE
  5
5
330
0
100
AcDbSymbolTable
 70
     6
  0
LTYPE
  5
14
330
5
100
AcDbSymbolTableRecord
100
AcDbLinetypeTableRecord
  2
ByBlock
 70
     0
  3

 72
    65
 73
     0
 40
0.0
  0
LTYPE
  5
15
330
5
100
AcDbSymbolTableRecord
100
AcDbLinetypeTableRecord
  2
ByLayer
 70
     0
  3

 72
    65
 73
     0
 40
0.0
  0
LTYPE
  5
16
330
5
100
AcDbSymbolTableRecord
100
AcDbLinetypeTableRecord
  2
Continuous
 70
     0
  3
Solid line
 72
    65
 73
     0
 40
0.0
  0
LTYPE
  5
6E
330
5
100
AcDbSymbolTableRecord
100
AcDbLinetypeTableRecord
  2
HIDDEN
 70
     0
  3
Hidden __ __ __ __ __ __ __ __ __ __ __ __ __ __
 72
    65
 73
     2
 40
1.905
 49
1.27
 74
     0
 49
-0.635
 74
     0
  0
LTYPE
  5
6F
330
5
100
AcDbSymbolTableRecord
100
AcDbLinetypeTableRecord
  2
PHANTOM
 70
     0
  3
Phantom ______  __  __  ______  __  __  ______
 72
    65
 73
     6
 40
12.7
 49
6.35
 74
     0
 49
-1.27
 74
     0
 49
1.27
 74
     0
 49
-1.27
 74
     0
 49
1.27
 74
     0
 49
-1.27
 74
     0
  0
LTYPE
  5
70
330
5
100
AcDbSymbolTableRecord
100
AcDbLinetypeTableRecord
  2
CENTER
 70
     0
  3
Center ____ _ ____ _ ____ _ ____ _ ____ _ ____
 72
    65
 73
     4
 40
10.16
 49
6.35
 74
     0
 49
-1.27
 74
     0
 49
1.27
 74
     0
 49
-1.27
 74
     0
  0
LTYPE
  5
71
330
5
100
AcDbSymbolTableRecord
100
AcDbLinetypeTableRecord
  2
CENTERX2
 70
     0
  3
Center (2x) ________  __  ________  __  _____
 72
    65
 73
     4
 40
20.32
 49
12.7
 74
     0
 49
-2.54
 74
     0
 49
2.54
 74
     0
 49
-2.54
 74
     0
  0
LTYPE
  5
72
330
5
100
AcDbSymbolTableRecord
100
AcDbLinetypeTableRecord
  2
DOT2
 70
     0
  3
Dot (.5x) ........................................
 72
    65
 73
     2
 40
0.635
 49
0.0
 74
     0
 49
-0.635
 74
     0
  0
ENDTAB
  0
TABLE
  2
LAYER
  5
2
330
0
100
AcDbSymbolTable
 70
    17
  0
LAYER
  5
10
330
2
100
AcDbSymbolTableRecord
100
AcDbLayerTableRecord
  2
0
 70
     0
 62
     7
  6
Continuous
370
    -3
390
F
  0
LAYER
  5
73
330
2
100
AcDbSymbolTableRecord
100
AcDbLayerTableRecord
  2
FORMAT
 70
     0
 62
     2
  6
Continuous
370
    -3
390
F
  0
LAYER
  5
74
330
2
100
AcDbSymbolTableRecord
100
AcDbLayerTableRecord
  2
외형선
 70
     0
 62
   100
  6
Continuous
370
    35
390
F
  0
LAYER
  5
75
330
2
100
AcDbSymbolTableRecord
100
AcDbLayerTableRecord
  2
숨은선
 70
     0
 62
     2
  6
HIDDEN
370
    25
390
F
  0
LAYER
  5
76
330
2
100
AcDbSymbolTableRecord
100
AcDbLayerTableRecord
  2
중심선
 70
     0
 62
     1
  6
CENTERX2
370
    -3
390
F
  0
LAYER
  5
77
330
2
100
AcDbSymbolTableRecord
100
AcDbLayerTableRecord
  2
파단선
 70
     0
 62
     4
  6
Continuous
370
    -3
390
F
  0
LAYER
  5
78
330
2
100
AcDbSymbolTableRecord
100
AcDbLayerTableRecord
  2
해칭선
 70
     0
 62
   100
  6
Continuous
370
    -3
390
F
  0
LAYER
  5
79
330
2
100
AcDbSymbolTableRecord
100
AcDbLayerTableRecord
  2
가는실선
 70
     0
 62
     4
  6
Continuous
370
    -3
390
F
  0
LAYER
  5
7A
330
2
100
AcDbSymbolTableRecord
100
AcDbLayerTableRecord
  2
치수_보조선
 70
     0
 62
     4
  6
Continuous
370
    -3
390
F
  0
LAYER
  5
7B
330
2
100
AcDbSymbolTableRecord
100
AcDbLayerTableRecord
  2
치수문자_일반주서
 70
     0
 62
     7
  6
Continuous
370
    25
390
F
  0
LAYER
  5
7C
330
2
100
AcDbSymbolTableRecord
100
AcDbLayerTableRecord
  2
개별주서
 70
     0
 62
   100
  6
Continuous
370
    35
390
F
  0
LAYER
  5
7D
330
2
100
AcDbSymbolTableRecord
100
AcDbLayerTableRecord
  2
중간선
 70
     0
 62
     2
  6
Continuous
370
    25
390
F
  0
LAYER
  5
7E
330
2
100
AcDbSymbolTableRecord
100
AcDbLayerTableRecord
  2
윤곽선
 70
     0
 62
     3
  6
Continuous
370
    50
390
F
  0
LAYER
  5
7F
330
2
100
AcDbSymbolTableRecord
100
AcDbLayerTableRecord
  2
중심마크
 70
     0
 62
   100
  6
Continuous
370
    35
390
F
  0
LAYER
  5
80
330
2
100
AcDbSymbolTableRecord
100
AcDbLayerTableRecord
  2
가상선
 70
     0
 62
     4
  6
PHANTOM
370
    -3
390
F
  0
LAYER
  5
81
330
2
100
AcDbSymbolTableRecord
100
AcDbLayerTableRecord
  2
특수지정선
 70
     0
 62
     5
  6
CENTERX2
370
    70
390
F
  0
LAYER
  5
14A
330
2
100
AcDbSymbolTableRecord
100
AcDbLayerTableRecord
  2
Defpoints
 70
     0
 62
     7
  6
Continuous
290
     0
370
    -3
390
F
  0
ENDTAB
  0
TABLE
  2
STYLE
  5
3
330
0
100
AcDbSymbolTable
 70
     2
  0
STYLE
  5
11
330
3
100
AcDbSymbolTableRecord
100
AcDbTextStyleTableRecord
  2
Standard
 70
     0
 40
0.0
 41
1.0
 50
0.0
 71
     0
 42
3.5
  3
txt
  4

  0
STYLE
  5
97
330
3
100
AcDbSymbolTableRecord
100
AcDbTextStyleTableRecord
  2
SLDTEXTSTYLE0
 70
     0
 40
0.0
 41
0.75
 50
0.0
 71
     0
 42
3.5
  3
TXT
  4

  0
ENDTAB
  0
TABLE
  2
VIEW
  5
6
330
0
100
AcDbSymbolTable
 70
     0
  0
ENDTAB
  0
TABLE
  2
UCS
  5
7
330
0
100
AcDbSymbolTable
 70
     0
  0
ENDTAB
  0
TABLE
  2
APPID
  5
9
330
0
100
AcDbSymbolTable
 70
     1
  0
APPID
  5
12
330
9
100
AcDbSymbolTableRecord
100
AcDbRegAppTableRecord
  2
ACAD
 70
     0
  0
ENDTAB
  0
TABLE
  2
DIMSTYLE
  5
A
330
0
100
AcDbSymbolTable
 70
     4
100
AcDbDimStyleTable
  0
DIMSTYLE
105
27
330
A
100
AcDbSymbolTableRecord
100
AcDbDimStyleTableRecord
  2
ISO-25
 70
     0
 41
2.5
 42
0.625
 43
3.75
 44
1.25
 73
     0
 74
     0
 77
     1
 78
     8
140
2.5
141
2.5
143
0.03937007874016
147
0.625
171
     3
172
     1
178
     0
271
     2
272
     2
274
     3
278
    44
283
     0
284
     8
340
11
  0
DIMSTYLE
105
EF
102
{ACAD_REACTORS
330
EE
102
}
330
A
100
AcDbSymbolTableRecord
100
AcDbDimStyleTableRecord
  2
SLDDIMSTYLE0
 70
     0
 41
3.302
 44
0.0
 45
0.000000001
 73
     0
 74
     0
 77
     1
 78
    12
 79
     3
140
3.5
147
0.875
172
     1
173
     1
178
     0
271
     1
272
     1
276
     2
284
    12
289
     0
340
97
  0
DIMSTYLE
105
FD
102
{ACAD_REACTORS
330
FC
330
115
102
}
330
A
100
AcDbSymbolTableRecord
100
AcDbDimStyleTableRecord
  2
SLDDIMSTYLE1
 70
     0
 41
3.302
 44
0.0
 45
0.000000001
 73
     0
 74
     0
 77
     1
 78
    12
 79
     3
140
3.5
147
0.875
173
     1
178
     0
271
     2
272
     2
276
     2
284
    12
340
97
  0
DIMSTYLE
105
108
102
{ACAD_REACTORS
330
107
102
}
330
A
100
AcDbSymbolTableRecord
100
AcDbDimStyleTableRecord
  2
SLDDIMSTYLE2
 70
     0
 41
3.302
 44
0.0
 45
0.000000001
 73
     0
 74
     0
 77
     1
 78
    12
 79
     3
140
3.5
147
0.875
172
     1
173
     1
178
     0
271
     2
272
     2
276
     2
284
    12
289
     0
340
97
  0
ENDTAB
  0
TABLE
  2
BLOCK_RECORD
  5
1
330
0
100
AcDbSymbolTable
 70
     7
  0
BLOCK_RECORD
  5
1F
102
{ACAD_XDICTIONARY
360
17B
102
}
330
1
100
AcDbSymbolTableRecord
100
AcDbBlockTableRecord
  2
*Model_Space
340
22
  0
BLOCK_RECORD
  5
1B
330
1
100
AcDbSymbolTableRecord
100
AcDbBlockTableRecord
  2
*Paper_Space
340
1E
  0
BLOCK_RECORD
  5
23
330
1
100
AcDbSymbolTableRecord
100
AcDbBlockTableRecord
  2
*Paper_Space0
340
26
  0
BLOCK_RECORD
  5
82
330
1
100
AcDbSymbolTableRecord
100
AcDbBlockTableRecord
  2
블럭10
340
0
102
{BLKREFS
331
E7
102
}
  0
BLOCK_RECORD
  5
F0
330
1
100
AcDbSymbolTableRecord
100
AcDbBlockTableRecord
  2
_D
340
0
  0
BLOCK_RECORD
  5
FE
330
1
100
AcDbSymbolTableRecord
100
AcDbBlockTableRecord
  2
_D_1
340
0
  0
BLOCK_RECORD
  5
109
330
1
100
AcDbSymbolTableRecord
100
AcDbBlockTableRecord
  2
_D_2
340
0
  0
BLOCK_RECORD
  5
116
330
1
100
AcDbSymbolTableRecord
100
AcDbBlockTableRecord
  2
_D_3
340
0
  0
BLOCK_RECORD
  5
11F
330
1
100
AcDbSymbolTableRecord
100
AcDbBlockTableRecord
  2
SW_DOWELSYMBOL_0
340
0
102
{BLKREFS
331
125
102
}
  0
ENDTAB
  0
ENDSEC
  0
SECTION
  2
BLOCKS
  0
BLOCK
  5
20
330
1F
100
AcDbEntity
  8
0
100
AcDbBlockBegin
  2
*Model_Space
 70
     0
 10
0.0
 20
0.0
 30
0.0
  3
*Model_Space
  1

  0
ENDBLK
  5
21
330
1F
100
AcDbEntity
  8
0
100
AcDbBlockEnd
  0
BLOCK
  5
1C
330
1B
100
AcDbEntity
 67
     1
  8
0
100
AcDbBlockBegin
  2
*Paper_Space
 70
     0
 10
0.0
 20
0.0
 30
0.0
  3
*Paper_Space
  1

  0
ENDBLK
  5
1D
330
1B
100
AcDbEntity
 67
     1
  8
0
100
AcDbBlockEnd
  0
BLOCK
  5
24
330
23
100
AcDbEntity
  8
0
100
AcDbBlockBegin
  2
*Paper_Space0
 70
     0
 10
0.0
 20
0.0
 30
0.0
  3
*Paper_Space0
  1

  0
ENDBLK
  5
25
330
23
100
AcDbEntity
  8
0
100
AcDbBlockEnd
  0
BLOCK
  5
83
330
82
100
AcDbEntity
  8
0
100
AcDbBlockBegin
  2
블럭10
 70
     2
 10
0.0
 20
0.0
 30
0.0
  3
블럭10
  1

  0
ELLIPSE
  5
85
330
82
100
AcDbEntity
  8
중심선
100
AcDbEllipse
 10
20.54032771741204
 20
12.0471743016438
 30
0.0
 11
6.600054785286829
 21
-1.261213355974178E-13
 31
0.0
210
0.0
220
0.0
230
1.0
 40
0.636358354079598
 41
0.9219305317359503
 42
6.513795318482858
  0
ELLIPSE
  5
86
330
82
100
AcDbEntity
  8
중심선
100
AcDbEllipse
 10
20.54032771746488
 20
12.04717430159265
 30
0.0
 11
3.960054785062283
 21
1.540847449632565E-10
 31
0.0
210
0.0
220
0.0
230
1.0
 40
0.3939339440162632
 41
1.131841032648279
 42
5.62031148352944
  0
LINE
  5
87
330
82
100
AcDbEntity
  8
중심선
100
AcDbLine
 10
2.268634060543552
 20
16.24717430164393
 30
0.0
 11
5.714909304380834
 21
16.24717430164393
 31
0.0
  0
LINE
  5
88
330
82
100
AcDbEntity
  8
중심선
100
AcDbLine
 10
5.245725140726316
 20
7.84717430164391
 30
0.0
 11
8.692000384563599
 21
7.84717430164391
 31
0.0
  0
LINE
  5
89
330
82
100
AcDbEntity
  8
중심선
100
AcDbLine
 10
15.74043728645272
 20
16.24717430164393
 30
0.0
 11
8.692000384563599
 21
7.84717430164391
 31
0.0
  0
LINE
  5
8A
330
82
100
AcDbEntity
  8
중심선
100
AcDbLine
 10
0.1404042013395286
 20
13.71084872107135
 30
0.0
 11
3.58671253028996
 21
13.71088815037384
 31
0.0
  0
LINE
  5
8B
330
82
100
AcDbEntity
  8
중심선
100
AcDbLine
 10
2.750260043222114
 20
10.84717430164391
 30
0.0
 11
6.196535287059397
 21
10.84717430164391
 31
0.0
  0
LINE
  5
8C
330
82
100
AcDbEntity
  8
중심선
100
AcDbLine
 10
12.29416204261559
 20
16.24717430164393
 30
0.0
 11
5.245725140726316
 21
7.84717430164391
 31
0.0
  0
LINE
  5
8D
330
82
100
AcDbEntity
  8
중심선
100
AcDbLine
 10
10.72767329541681
 20
16.24717430164393
 30
0.0
 11
6.196535287059397
 21
10.84717430164391
 31
0.0
  0
LINE
  5
8E
330
82
100
AcDbEntity
  8
중심선
100
AcDbLine
 10
7.28139805157953
 20
16.24717430164393
 30
0.0
 11
2.750260043222114
 21
10.84717430164391
 31
0.0
  0
LINE
  5
8F
330
82
100
AcDbEntity
  8
중심선
100
AcDbLine
 10
5.714909304380834
 20
16.24717430164393
 30
0.0
 11
3.58671253028996
 21
13.71088815037384
 31
0.0
  0
LINE
  5
90
330
82
100
AcDbEntity
  8
중심선
100
AcDbLine
 10
2.268634060543552
 20
16.24717430164393
 30
0.0
 11
0.1404042013395286
 21
13.71084872107135
 31
0.0
  0
LINE
  5
91
330
82
100
AcDbEntity
  8
중심선
100
AcDbLine
 10
7.28139805157953
 20
16.24717430164393
 30
0.0
 11
10.72767329541681
 21
16.24717430164393
 31
0.0
  0
LINE
  5
92
330
82
100
AcDbEntity
  8
중심선
100
AcDbLine
 10
12.29416204261559
 20
16.24717430164393
 30
0.0
 11
15.74043728645272
 21
16.24717430164393
 31
0.0
  0
LINE
  5
93
330
82
100
AcDbEntity
  8
중심선
100
AcDbLine
 10
19.22036997980202
 20
11.08717430171403
 30
0.0
 11
23.66174974927406
 21
11.08717430171406
 31
0.0
  0
LINE
  5
94
330
82
100
AcDbEntity
  8
중심선
100
AcDbLine
 10
19.22039502424796
 20
13.00717430171391
 30
0.0
 11
19.22036997980202
 21
11.08717430171403
 31
0.0
  0
LINE
  5
95
330
82
100
AcDbEntity
  8
중심선
100
AcDbLine
 10
19.22039502424796
 20
13.00717430171391
 30
0.0
 11
26.96566020931264
 21
13.00717430171391
 31
0.0
  0
LINE
  5
96
330
82
100
AcDbEntity
  8
중심선
100
AcDbLine
 10
22.22332737316547
 20
13.45928029700563
 30
0.0
 11
24.52862924686651
 21
15.39360700705356
 31
0.0
  0
ATTDEF
  5
98
330
82
100
AcDbEntity
  8
FORMAT
 62
     2
100
AcDbText
 10
-17.69892196172445
 20
2.075366912832191
 30
0.0
 40
4.233333333333333
  1
SEME72180100E [ 4 FLUTE ]
 41
0.75
  7
SLDTEXTSTYLE0
 11
-17.69892196172445
 21
-0.0412997538344756
 31
0.0
100
AcDbAttributeDefinition
  3

  2
AUTOATTR0
 70
     0
 74
     1
  0
ENDBLK
  5
84
330
82
100
AcDbEntity
  8
0
100
AcDbBlockEnd
  0
BLOCK
  5
F1
330
F0
100
AcDbEntity
  8
0
100
AcDbBlockBegin
  2
_D
 70
     0
 10
0.0
 20
0.0
 30
0.0
  3
_D
  1

  0
LINE
  5
F3
330
F0
100
AcDbEntity
  8
치수문자_일반주서
 62
     0
370
    -2
100
AcDbLine
 10
104.0621468823468
 20
-9.00000000000001
 30
0.0
 11
117.8011444249317
 21
-8.999999999999961
 31
0.0
  0
LINE
  5
F4
330
F0
100
AcDbEntity
  8
치수문자_일반주서
 62
     0
370
    -2
100
AcDbLine
 10
104.0621468823468
 20
9.000000000000007
 30
0.0
 11
117.8011444249317
 21
9.000000000000059
 31
0.0
  0
LINE
  5
F5
330
F0
100
AcDbEntity
  8
치수문자_일반주서
 62
     0
370
    -2
100
AcDbLine
 10
117.8011444249317
 20
9.000000000000059
 30
0.0
 11
117.8011444249316
 21
23.47900000000006
 31
0.0
  0
LINE
  5
F6
330
F0
100
AcDbEntity
  8
치수문자_일반주서
 62
     0
370
    -2
100
AcDbLine
 10
117.8011444249317
 20
-8.999999999999961
 30
0.0
 11
117.8011444249317
 21
9.000000000000059
 31
0.0
  0
LINE
  5
F7
330
F0
100
AcDbEntity
  8
치수문자_일반주서
 62
     0
370
    -2
100
AcDbLine
 10
117.8011444249318
 20
-12.30199999999996
 30
0.0
 11
117.8011444249318
 21
-15.60399999999996
 31
0.0
  0
LINE
  5
F8
330
F0
100
AcDbEntity
  8
치수문자_일반주서
 62
     0
370
    -2
100
AcDbLine
 10
117.8011444249317
 20
12.30200000000006
 30
0.0
 11
117.8011444249317
 21
15.60400000000006
 31
0.0
  0
SOLID
  5
F9
330
F0
100
AcDbEntity
  8
치수문자_일반주서
 62
     0
100
AcDbTrace
 10
118.3514777582651
 20
-12.30199999999996
 30
0.0
 11
117.2508110915984
 21
-12.30199999999996
 31
0.0
 12
117.8011444249317
 22
-8.999999999999961
 32
0.0
 13
117.8011444249317
 23
-8.999999999999961
 33
0.0
  0
SOLID
  5
FA
330
F0
100
AcDbEntity
  8
치수문자_일반주서
 62
     0
100
AcDbTrace
 10
117.2508110915984
 20
12.30200000000006
 30
0.0
 11
118.351477758265
 21
12.30200000000006
 31
0.0
 12
117.8011444249317
 22
9.000000000000059
 32
0.0
 13
117.8011444249317
 23
9.000000000000059
 33
0.0
  0
MTEXT
  5
FB
330
F0
100
AcDbEntity
  8
치수문자_일반주서
 62
     0
100
AcDbMText
 10
113.4261444249317
 20
19.54150000000005
 30
0.0
 40
3.5
 41
0.0
 71
     2
 72
     1
  1
\A1;%%c18
  7
SLDTEXTSTYLE0
 11
-3.157967714489331E-15
 21
1.0
 31
0.0
 73
     1
 44
1.0
  0
POINT
  5
154
330
F0
100
AcDbEntity
  8
Defpoints
 62
     0
100
AcDbPoint
 10
103.9996468823468
 20
-9.00000000000001
 30
0.0
  0
POINT
  5
155
330
F0
100
AcDbEntity
  8
Defpoints
 62
     0
100
AcDbPoint
 10
103.9996468823468
 20
9.000000000000007
 30
0.0
  0
POINT
  5
156
330
F0
100
AcDbEntity
  8
Defpoints
 62
     0
100
AcDbPoint
 10
117.8011444249317
 20
9.000000000000059
 30
0.0
  0
ENDBLK
  5
F2
330
F0
100
AcDbEntity
  8
0
100
AcDbBlockEnd
  0
BLOCK
  5
FF
330
FE
100
AcDbEntity
  8
0
100
AcDbBlockBegin
  2
_D_1
 70
     0
 10
0.0
 20
0.0
 30
0.0
  3
_D_1
  1

  0
LINE
  5
101
330
FE
100
AcDbEntity
  8
치수문자_일반주서
 62
     0
370
    -2
100
AcDbLine
 10
-96.00035311765326
 20
9.562499999999986
 30
0.0
 11
-96.00035311765326
 21
27.38913260158164
 31
0.0
  0
LINE
  5
102
330
FE
100
AcDbEntity
  8
치수문자_일반주서
 62
     0
370
    -2
100
AcDbLine
 10
103.9996468823468
 20
9.062500000000005
 30
0.0
 11
103.9996468823468
 21
27.38913260158164
 31
0.0
  0
LINE
  5
103
330
FE
100
AcDbEntity
  8
치수문자_일반주서
 62
     0
370
    -2
100
AcDbLine
 10
-92.69835311765326
 20
27.38913260158164
 30
0.0
 11
100.6976468823468
 21
27.38913260158164
 31
0.0
  0
SOLID
  5
104
330
FE
100
AcDbEntity
  8
치수문자_일반주서
 62
     0
100
AcDbTrace
 10
-92.69835311765326
 20
27.93946593491497
 30
0.0
 11
-92.69835311765326
 21
26.83879926824831
 31
0.0
 12
-96.00035311765326
 22
27.38913260158164
 32
0.0
 13
-96.00035311765326
 23
27.38913260158164
 33
0.0
  0
SOLID
  5
105
330
FE
100
AcDbEntity
  8
치수문자_일반주서
 62
     0
100
AcDbTrace
 10
100.6976468823468
 20
26.83879926824831
 30
0.0
 11
100.6976468823468
 21
27.93946593491497
 31
0.0
 12
103.9996468823468
 22
27.38913260158164
 32
0.0
 13
103.9996468823468
 23
27.38913260158164
 33
0.0
  0
MTEXT
  5
106
330
FE
100
AcDbEntity
  8
치수문자_일반주서
 62
     0
100
AcDbMText
 10
3.999646882346747
 20
31.76413260158164
 30
0.0
 40
3.5
 41
0.0
 71
     2
 72
     1
  1
\A1;200
  7
SLDTEXTSTYLE0
 73
     1
 44
1.0
  0
POINT
  5
14B
330
FE
100
AcDbEntity
  8
Defpoints
 62
     0
100
AcDbPoint
 10
-96.00035311765326
 20
9.499999999999986
 30
0.0
  0
POINT
  5
14C
330
FE
100
AcDbEntity
  8
Defpoints
 62
     0
100
AcDbPoint
 10
103.9996468823468
 20
9.000000000000005
 30
0.0
  0
POINT
  5
14D
330
FE
100
AcDbEntity
  8
Defpoints
 62
     0
100
AcDbPoint
 10
103.9996468823468
 20
27.38913260158164
 30
0.0
  0
ENDBLK
  5
100
330
FE
100
AcDbEntity
  8
0
100
AcDbBlockEnd
  0
BLOCK
  5
10A
330
109
100
AcDbEntity
  8
0
100
AcDbBlockBegin
  2
_D_2
 70
     0
 10
0.0
 20
0.0
 30
0.0
  3
_D_2
  1

  0
LINE
  5
10C
330
109
100
AcDbEntity
  8
치수문자_일반주서
 62
     0
370
    -2
100
AcDbLine
 10
-95.56285311765326
 20
9.999999999999979
 30
0.0
 11
-108.513094295973
 21
9.999999999999929
 31
0.0
  0
LINE
  5
10D
330
109
100
AcDbEntity
  8
치수문자_일반주서
 62
     0
370
    -2
100
AcDbLine
 10
-95.56285311765326
 20
-10.00000000000001
 30
0.0
 11
-108.5130942959729
 21
-10.00000000000006
 31
0.0
  0
LINE
  5
10E
330
109
100
AcDbEntity
  8
치수문자_일반주서
 62
     0
370
    -2
100
AcDbLine
 10
-108.513094295973
 20
9.999999999999929
 30
0.0
 11
-108.513094295973
 21
24.91649999999993
 31
0.0
  0
LINE
  5
10F
330
109
100
AcDbEntity
  8
치수문자_일반주서
 62
     0
370
    -2
100
AcDbLine
 10
-108.513094295973
 20
9.999999999999929
 30
0.0
 11
-108.5130942959729
 21
-10.00000000000006
 31
0.0
  0
LINE
  5
110
330
109
100
AcDbEntity
  8
치수문자_일반주서
 62
     0
370
    -2
100
AcDbLine
 10
-108.513094295973
 20
13.30199999999993
 30
0.0
 11
-108.513094295973
 21
16.60399999999993
 31
0.0
  0
LINE
  5
111
330
109
100
AcDbEntity
  8
치수문자_일반주서
 62
     0
370
    -2
100
AcDbLine
 10
-108.5130942959729
 20
-13.30200000000006
 30
0.0
 11
-108.5130942959729
 21
-16.60400000000006
 31
0.0
  0
SOLID
  5
112
330
109
100
AcDbEntity
  8
치수문자_일반주서
 62
     0
100
AcDbTrace
 10
-109.0634276293063
 20
13.30199999999993
 30
0.0
 11
-107.9627609626397
 21
13.30199999999993
 31
0.0
 12
-108.513094295973
 22
9.999999999999929
 32
0.0
 13
-108.513094295973
 23
9.999999999999929
 33
0.0
  0
SOLID
  5
113
330
109
100
AcDbEntity
  8
치수문자_일반주서
 62
     0
100
AcDbTrace
 10
-107.9627609626396
 20
-13.30200000000006
 30
0.0
 11
-109.0634276293062
 21
-13.30200000000006
 31
0.0
 12
-108.5130942959729
 22
-10.00000000000006
 32
0.0
 13
-108.5130942959729
 23
-10.00000000000006
 33
0.0
  0
MTEXT
  5
114
330
109
100
AcDbEntity
  8
치수문자_일반주서
 62
     0
100
AcDbMText
 10
-112.888094295973
 20
20.76024999999991
 30
0.0
 40
3.5
 41
0.0
 71
     2
 72
     1
  1
\A1;%%c20
  7
SLDTEXTSTYLE0
 11
-3.552713678800503E-15
 21
1.0
 31
0.0
 73
     1
 44
1.0
  0
POINT
  5
151
330
109
100
AcDbEntity
  8
Defpoints
 62
     0
100
AcDbPoint
 10
-95.50035311765326
 20
9.999999999999979
 30
0.0
  0
POINT
  5
152
330
109
100
AcDbEntity
  8
Defpoints
 62
     0
100
AcDbPoint
 10
-95.50035311765326
 20
-10.00000000000001
 30
0.0
  0
POINT
  5
153
330
109
100
AcDbEntity
  8
Defpoints
 62
     0
100
AcDbPoint
 10
-108.5130942959729
 20
-10.00000000000006
 30
0.0
  0
ENDBLK
  5
10B
330
109
100
AcDbEntity
  8
0
100
AcDbBlockEnd
  0
BLOCK
  5
117
330
116
100
AcDbEntity
  8
0
100
AcDbBlockBegin
  2
_D_3
 70
     0
 10
0.0
 20
0.0
 30
0.0
  3
_D_3
  1

  0
LINE
  5
119
330
116
100
AcDbEntity
  8
치수문자_일반주서
 62
     0
370
    -2
100
AcDbLine
 10
3.999646882346745
 20
9.062500000000005
 30
0.0
 11
3.999646882346738
 21
19.80822292002016
 31
0.0
  0
LINE
  5
11A
330
116
100
AcDbEntity
  8
치수문자_일반주서
 62
     0
370
    -2
100
AcDbLine
 10
103.9996468823468
 20
9.062500000000005
 30
0.0
 11
103.9996468823468
 21
19.80822292002016
 31
0.0
  0
LINE
  5
11B
330
116
100
AcDbEntity
  8
치수문자_일반주서
 62
     0
370
    -2
100
AcDbLine
 10
7.301646882346738
 20
19.80822292002016
 30
0.0
 11
100.6976468823467
 21
19.80822292002016
 31
0.0
  0
SOLID
  5
11C
330
116
100
AcDbEntity
  8
치수문자_일반주서
 62
     0
100
AcDbTrace
 10
7.301646882346738
 20
20.35855625335349
 30
0.0
 11
7.301646882346738
 21
19.25788958668683
 31
0.0
 12
3.999646882346738
 22
19.80822292002016
 32
0.0
 13
3.999646882346738
 23
19.80822292002016
 33
0.0
  0
SOLID
  5
11D
330
116
100
AcDbEntity
  8
치수문자_일반주서
 62
     0
100
AcDbTrace
 10
100.6976468823467
 20
19.25788958668683
 30
0.0
 11
100.6976468823467
 21
20.35855625335349
 31
0.0
 12
103.9996468823468
 22
19.80822292002016
 32
0.0
 13
103.9996468823468
 23
19.80822292002016
 33
0.0
  0
MTEXT
  5
11E
330
116
100
AcDbEntity
  8
치수문자_일반주서
 62
     0
100
AcDbMText
 10
53.99964688234675
 20
24.18322292002016
 30
0.0
 40
3.5
 41
0.0
 71
     2
 72
     1
  1
\A1;100
  7
SLDTEXTSTYLE0
 73
     1
 44
1.0
  0
POINT
  5
14E
330
116
100
AcDbEntity
  8
Defpoints
 62
     0
100
AcDbPoint
 10
3.999646882346745
 20
9.000000000000005
 30
0.0
  0
POINT
  5
14F
330
116
100
AcDbEntity
  8
Defpoints
 62
     0
100
AcDbPoint
 10
103.9996468823468
 20
9.000000000000005
 30
0.0
  0
POINT
  5
150
330
116
100
AcDbEntity
  8
Defpoints
 62
     0
100
AcDbPoint
 10
103.9996468823468
 20
19.80822292002016
 30
0.0
  0
ENDBLK
  5
118
330
116
100
AcDbEntity
  8
0
100
AcDbBlockEnd
  0
BLOCK
  5
120
330
11F
100
AcDbEntity
  8
0
100
AcDbBlockBegin
  2
SW_DOWELSYMBOL_0
 70
     0
 10
0.0
 20
0.0
 30
0.0
  3
SW_DOWELSYMBOL_0
  1

  0
CIRCLE
  5
122
330
11F
100
AcDbEntity
  8
해칭선
 62
     0
100
AcDbCircle
 10
0.0
 20
0.0
 30
0.0
 40
3.0
  0
HATCH
  5
123
330
11F
100
AcDbEntity
  8
0
  6
Continuous
 62
     0
370
    18
100
AcDbHatch
 10
0.0
 20
0.0
 30
0.0
210
0.0
220
0.0
230
1.0
  2
SOLID
 70
     1
 71
     0
 91
        1
 92
        0
 93
        3
 72
     2
 10
0.0
 20
0.0
 40
3.0
 50
0.0
 51
90.0
 73
     1
 72
     1
 10
0.0
 20
3.0
 11
0.0
 21
0.0
 72
     1
 10
0.0
 20
0.0
 11
3.0
 21
0.0
 97
        0
 75
     0
 76
     1
 98
        1
 10
0.0
 20
0.0
  0
HATCH
  5
124
330
11F
100
AcDbEntity
  8
0
  6
Continuous
 62
     0
370
    18
100
AcDbHatch
 10
0.0
 20
0.0
 30
0.0
210
0.0
220
0.0
230
1.0
  2
SOLID
 70
     1
 71
     0
 91
        1
 92
        0
 93
        3
 72
     2
 10
0.0
 20
0.0
 40
3.0
 50
180.0
 51
270.0000000000007
 73
     1
 72
     1
 10
0.0
 20
-3.0
 11
0.0
 21
0.0
 72
     1
 10
0.0
 20
0.0
 11
-3.0
 21
0.0
 97
        0
 75
     0
 76
     1
 98
        1
 10
0.0
 20
0.0
  0
ENDBLK
  5
121
330
11F
100
AcDbEntity
  8
0
100
AcDbBlockEnd
  0
ENDSEC
  0
SECTION
  2
ENTITIES
  0
LINE
  5
99
330
1F
100
AcDbEntity
  8
0
  6
Continuous
 62
     4
370
    25
100
AcDbLine
 10
1.999646882346749
 20
9.999999999999996
 30
0.0
 11
-95.50035311765326
 21
9.99999999999999
 31
0.0
  0
LINE
  5
9A
330
1F
100
AcDbEntity
  8
0
  6
Continuous
 62
     4
370
    25
100
AcDbLine
 10
-95.50035311765326
 20
-10.0
 30
0.0
 11
1.999646882346754
 21
-9.999999999999996
 31
0.0
  0
LINE
  5
9B
330
1F
100
AcDbEntity
  8
0
  6
Continuous
 62
     4
370
    25
100
AcDbLine
 10
1.999646882346748
 20
-9.999999999999996
 30
0.0
 11
2.999646882346745
 21
-9.0
 31
0.0
  0
LINE
  5
9C
330
1F
100
AcDbEntity
  8
0
  6
Continuous
 62
     4
370
    25
100
AcDbLine
 10
2.999646882346745
 20
9.0
 30
0.0
 11
1.999646882346749
 21
9.999999999999996
 31
0.0
  0
LINE
  5
9D
330
1F
100
AcDbEntity
  8
0
  6
Continuous
 62
     4
370
    25
100
AcDbLine
 10
-95.50035311765326
 20
9.999999999999986
 30
0.0
 11
-96.00035311765326
 21
9.499999999999986
 31
0.0
  0
LINE
  5
9E
330
1F
100
AcDbEntity
  8
0
  6
Continuous
 62
     4
370
    25
100
AcDbLine
 10
-96.00035311765326
 20
-9.5
 30
0.0
 11
-95.50035311765326
 21
-10.0
 31
0.0
  0
LINE
  5
9F
330
1F
100
AcDbEntity
  8
0
  6
Continuous
 62
     4
370
    25
100
AcDbLine
 10
2.595542779084253
 20
-2.486864360238329
 30
0.0
 11
2.614250139712371
 21
-2.434484640687831
 31
0.0
  0
LINE
  5
A0
330
1F
100
AcDbEntity
  8
0
  6
Continuous
 62
     4
370
    25
100
AcDbLine
 10
2.999646882346745
 20
-9.0
 30
0.0
 11
3.999646882346745
 21
-9.0
 31
0.0
  0
LINE
  5
A1
330
1F
100
AcDbEntity
  8
0
  6
Continuous
 62
     4
370
    25
100
AcDbLine
 10
3.999646882346743
 20
9.0
 30
0.0
 11
2.999646882346745
 21
9.0
 31
0.0
  0
LINE
  5
A2
330
1F
100
AcDbEntity
  8
0
  6
Continuous
 62
     1
370
    25
100
AcDbLine
 10
100.5180425423356
 20
-9.000000000000009
 30
0.0
 11
103.9996468823468
 21
-9.000000000000009
 31
0.0
  0
LINE
  5
A3
330
1F
100
AcDbEntity
  8
0
  6
Continuous
 62
     1
370
    25
100
AcDbLine
 10
3.999646882346745
 20
-9.000000000000009
 30
0.0
 11
9.535714340994252
 21
-9.000000000000009
 31
0.0
  0
LINE
  5
A4
330
1F
100
AcDbEntity
  8
0
  6
Continuous
 62
     1
370
    25
100
AcDbLine
 10
58.50856935369141
 20
9.000000000000005
 30
0.0
 11
51.54540902788014
 21
9.000000000000005
 31
0.0
  0
SPLINE
  5
A5
330
1F
100
AcDbEntity
  8
0
  6
Continuous
 62
     1
370
    25
100
AcDbSpline
210
0.0
220
0.0
230
1.0
 70
     8
 71
     3
 72
    12
 73
     8
 74
     0
 42
0.000000001
 43
0.00000001
 40
0.0
 40
0.0
 40
0.0
 40
0.0
 40
0.0787106431185621
 40
0.1719090619585767
 40
0.2858890609393762
 40
0.5875624317737793
 40
1.0
 40
1.0
 40
1.0
 40
1.0
 10
55.10916119532567
 20
-2.025808413928859
 30
0.0
 10
55.06477433458083
 20
-2.003976597364794
 30
0.0
 10
54.96783060128629
 20
-1.956294518325917
 30
0.0
 10
54.80878698486563
 20
-1.874160092308446
 30
0.0
 10
54.55581034760759
 20
-1.736284596065668
 30
0.0
 10
54.19609751920825
 20
-1.527187601326645
 30
0.0
 10
53.93278519185846
 20
-1.374173843902443
 30
0.0
 10
53.78070812646722
 20
-1.285800149333065
 30
0.0
  0
LINE
  5
A6
330
1F
100
AcDbEntity
  8
0
  6
Continuous
 62
     1
370
    25
100
AcDbLine
 10
4.8807821793282
 20
-1.326646597878022
 30
0.0
 11
4.808125292143444
 21
-1.285800149333067
 31
0.0
  0
SPLINE
  5
A7
330
1F
100
AcDbEntity
  8
0
  6
Continuous
 62
     1
370
    25
100
AcDbSpline
210
0.0
220
0.0
230
1.0
 70
     8
 71
     3
 72
     9
 73
     5
 74
     0
 42
0.000000001
 43
0.00000001
 40
0.0
 40
0.0
 40
0.0
 40
0.0
 40
0.3167408059783641
 40
1.0
 40
1.0
 40
1.0
 40
1.0
 10
5.689062805402902
 20
-1.776542457796536
 30
0.0
 10
5.603410783627266
 20
-1.730130072809548
 30
0.0
 10
5.332994025953523
 20
-1.583598953007581
 30
0.0
 10
5.064341492682695
 20
-1.430947266302309
 30
0.0
 10
4.880782179328204
 20
-1.326646597878022
 30
0.0
  0
LINE
  5
A8
330
1F
100
AcDbEntity
  8
0
  6
Continuous
 62
     1
370
    25
100
AcDbLine
 10
6.323069634032466
 20
-2.134442603969037
 30
0.0
 11
6.054481213698988
 21
-2.003810907512459
 31
0.0
  0
SPLINE
  5
A9
330
1F
100
AcDbEntity
  8
0
  6
Continuous
 62
     1
370
    25
100
AcDbSpline
210
0.0
220
0.0
230
1.0
 70
     8
 71
     3
 72
     9
 73
     5
 74
     0
 42
0.000000001
 43
0.00000001
 40
0.0
 40
0.0
 40
0.0
 40
0.0
 40
0.4469809857437652
 40
1.0
 40
1.0
 40
1.0
 40
1.0
 10
79.51353016716334
 20
1.983591944473111
 30
0.0
 10
79.72048212125152
 20
1.87215689555737
 30
0.0
 10
80.1834815791453
 20
1.622850879261587
 30
0.0
 10
80.55524794870023
 20
1.405668895189761
 30
0.0
 10
80.76084181992516
 20
1.285563128444147
 30
0.0
  0
LINE
  5
AA
330
1F
100
AcDbEntity
  8
0
  6
Continuous
 62
     1
370
    25
100
AcDbLine
 10
76.03067195633376
 20
-9.000000000000009
 30
0.0
 11
82.99310901078871
 21
-9.000000000000009
 31
0.0
  0
LINE
  5
AB
330
1F
100
AcDbEntity
  8
0
  6
Continuous
 62
     1
370
    25
100
AcDbLine
 10
34.02331829870235
 20
9.000000000000005
 30
0.0
 11
27.06084660791653
 21
9.000000000000005
 31
0.0
  0
LINE
  5
AC
330
1F
100
AcDbEntity
  8
0
  6
Continuous
 62
     1
370
    25
100
AcDbLine
 10
27.06084660791661
 20
-9.000000000000009
 30
0.0
 11
34.02331829870238
 21
-9.000000000000009
 31
0.0
  0
LINE
  5
AD
330
1F
100
AcDbEntity
  8
0
  6
Continuous
 62
     1
370
    25
100
AcDbLine
 10
82.99310901078866
 20
9.000000000000005
 30
0.0
 11
76.03067195633386
 21
9.000000000000005
 31
0.0
  0
LINE
  5
AE
330
1F
100
AcDbEntity
  8
0
  6
Continuous
 62
     1
370
    25
100
AcDbLine
 10
51.54540902788023
 20
-9.000000000000009
 30
0.0
 11
58.50856935369129
 21
-9.000000000000009
 31
0.0
  0
LINE
  5
AF
330
1F
100
AcDbEntity
  8
0
  6
Continuous
 62
     1
370
    25
100
AcDbLine
 10
9.535714340994103
 20
9.000000000000005
 30
0.0
 11
3.999646882346745
 21
9.000000000000005
 31
0.0
  0
LINE
  5
B0
330
1F
100
AcDbEntity
  8
0
  6
Continuous
 62
     1
370
    25
100
AcDbLine
 10
103.9996468823468
 20
9.000000000000005
 30
0.0
 11
100.5180425423357
 21
9.000000000000005
 31
0.0
  0
LINE
  5
B1
330
1F
100
AcDbEntity
  8
0
  6
Continuous
 62
     4
370
    25
100
AcDbLine
 10
1.999646882346748
 20
10.0
 30
0.0
 11
1.999646882346748
 21
-9.999999999999996
 31
0.0
  0
LINE
  5
B2
330
1F
100
AcDbEntity
  8
0
  6
Continuous
 62
     4
370
    25
100
AcDbLine
 10
-95.50035311765326
 20
9.999999999999986
 30
0.0
 11
-95.50035311765326
 21
-10.0
 31
0.0
  0
SPLINE
  5
B3
330
1F
100
AcDbEntity
  8
0
  6
Continuous
 62
     4
370
    25
100
AcDbSpline
210
0.0
220
0.0
230
1.0
 70
     8
 71
     3
 72
    12
 73
     8
 74
     0
 42
0.000000001
 43
0.00000001
 40
0.0
 40
0.0
 40
0.0
 40
0.0
 40
0.2500000000000002
 40
0.2500000000000002
 40
0.5000000000000003
 40
0.5000000000000003
 40
1.0
 40
1.0
 40
1.0
 40
1.0
 10
2.499826316816568
 20
8.6033652474736
 30
0.0
 10
2.499826316816568
 20
8.642851997149593
 30
0.0
 10
2.509782562468185
 20
8.677083223106793
 30
0.0
 10
2.551021320694754
 20
8.734980181059392
 30
0.0
 10
2.582910060511432
 20
8.758816358684316
 30
0.0
 10
2.709642926361533
 20
8.811646515718442
 30
0.0
 10
2.837056544196046
 20
8.823011687032619
 30
0.0
 10
2.999646882348102
 20
8.813663765691043
 30
0.0
  0
LINE
  5
B4
330
1F
100
AcDbEntity
  8
0
  6
Continuous
 62
     4
370
    25
100
AcDbLine
 10
2.499826316816568
 20
8.6033652474736
 30
0.0
 11
2.499826316816568
 21
4.910828186422527
 31
0.0
  0
SPLINE
  5
B5
330
1F
100
AcDbEntity
  8
0
  6
Continuous
 62
     4
370
    25
100
AcDbSpline
210
0.0
220
0.0
230
1.0
 70
     8
 71
     3
 72
    12
 73
     8
 74
     0
 42
0.000000001
 43
0.00000001
 40
0.0
 40
0.0
 40
0.0
 40
0.0
 40
0.2499999999999996
 40
0.2499999999999996
 40
0.4999999999999991
 40
0.4999999999999991
 40
1.0
 40
1.0
 40
1.0
 40
1.0
 10
2.999646882346745
 20
3.743454126822744
 30
0.0
 10
2.918399316816175
 20
3.827298893090692
 30
0.0
 10
2.846661170273906
 20
3.916311345613607
 30
0.0
 10
2.721509611971958
 20
4.103941208122537
 30
0.0
 10
2.667742418259974
 20
4.203774971514303
 30
0.0
 10
2.540928971468531
 20
4.504758572544735
 30
0.0
 10
2.499826316816548
 20
4.712540021559684
 30
0.0
 10
2.499826316816548
 20
4.910828186422527
 30
0.0
  0
LINE
  5
B6
330
1F
100
AcDbEntity
  8
0
  6
Continuous
 62
     4
370
    25
100
AcDbLine
 10
2.999646882346745
 20
3.743454126822744
 30
0.0
 11
2.999646882346745
 21
-1.821903132807685
 31
0.0
  0
SPLINE
  5
B7
330
1F
100
AcDbEntity
  8
0
  6
Continuous
 62
     4
370
    25
100
AcDbSpline
210
0.0
220
0.0
230
1.0
 70
     8
 71
     3
 72
    12
 73
     8
 74
     0
 42
0.000000001
 43
0.00000001
 40
0.0
 40
0.0
 40
0.0
 40
0.0
 40
0.2500000000000001
 40
0.2500000000000001
 40
0.5000000000000002
 40
0.5000000000000002
 40
1.0
 40
1.0
 40
1.0
 40
1.0
 10
2.499826316816568
 20
-3.067689690074295
 30
0.0
 10
2.499826316816568
 20
-2.95694872073919
 30
0.0
 10
2.509782562468185
 20
-2.846250698249481
 30
0.0
 10
2.551021320694754
 20
-2.625140146598548
 30
0.0
 10
2.582910060511432
 20
-2.513404155445081
 30
0.0
 10
2.709642926361533
 20
-2.192302612611903
 30
0.0
 10
2.837056544196046
 20
-1.991892473654907
 30
0.0
 10
2.999646882348102
 20
-1.821903132808737
 30
0.0
  0
LINE
  5
B8
330
1F
100
AcDbEntity
  8
0
  6
Continuous
 62
     4
370
    25
100
AcDbLine
 10
2.499826316816568
 20
-3.067689690074295
 30
0.0
 11
2.499826316816568
 21
-7.701453118695378
 31
0.0
  0
SPLINE
  5
B9
330
1F
100
AcDbEntity
  8
0
  6
Continuous
 62
     4
370
    25
100
AcDbSpline
210
0.0
220
0.0
230
1.0
 70
     8
 71
     3
 72
    12
 73
     8
 74
     0
 42
0.000000001
 43
0.00000001
 40
0.0
 40
0.0
 40
0.0
 40
0.0
 40
0.2499999999999999
 40
0.2499999999999999
 40
0.4999999999999998
 40
0.4999999999999998
 40
1.0
 40
1.0
 40
1.0
 40
1.0
 10
2.999646882346745
 20
-8.184531214454129
 30
0.0
 10
2.918399316816175
 20
-8.17012146304995
 30
0.0
 10
2.846661170273906
 20
-8.149314821656551
 30
0.0
 10
2.721509611971962
 20
-8.094070897023734
 30
0.0
 10
2.667742418259974
 20
-8.059069872758938
 30
0.0
 10
2.540928971468531
 20
-7.936067498614194
 30
0.0
 10
2.499826316816548
 20
-7.827891479616992
 30
0.0
 10
2.499826316816548
 20
-7.701453118695384
 30
0.0
  0
LINE
  5
BA
330
1F
100
AcDbEntity
  8
0
  6
Continuous
 62
     4
370
    25
100
AcDbLine
 10
2.999646882346745
 20
-8.184531214454129
 30
0.0
 11
2.999646882346745
 21
-9.0
 31
0.0
  0
LINE
  5
BB
330
1F
100
AcDbEntity
  8
0
  6
Continuous
 62
     4
370
    25
100
AcDbLine
 10
2.999646882346745
 20
9.0
 30
0.0
 11
2.999646882346745
 21
8.813663765691633
 31
0.0
  0
LINE
  5
BC
330
1F
100
AcDbEntity
  8
0
  6
Continuous
 62
     4
370
    25
100
AcDbLine
 10
-96.00035311765326
 20
9.499999999999986
 30
0.0
 11
-96.00035311765326
 21
-9.500000000000004
 31
0.0
  0
SPLINE
  5
BD
330
1F
100
AcDbEntity
  8
0
  6
Continuous
 62
     4
370
    25
100
AcDbSpline
210
0.0
220
0.0
230
1.0
 70
     8
 71
     3
 72
    10
 73
     6
 74
     0
 42
0.000000001
 43
0.00000001
 40
0.0
 40
0.0
 40
0.0
 40
0.0
 40
0.4999999999999998
 40
0.4999999999999998
 40
1.0
 40
1.0
 40
1.0
 40
1.0
 10
2.999646882346745
 20
-1.821903132807818
 30
0.0
 10
3.132678537117215
 20
-1.683381928062245
 30
0.0
 10
3.284582370886163
 20
-1.568710061493317
 30
0.0
 10
3.626039659304177
 20
-1.3880033010733
 30
0.0
 10
3.808233886492248
 20
-1.32611809336981
 30
0.0
 10
3.99964688234677
 20
-1.293866207860199
 30
0.0
  0
SPLINE
  5
BE
330
1F
100
AcDbEntity
  8
0
  6
Continuous
 62
     4
370
    25
100
AcDbSpline
210
0.0
220
0.0
230
1.0
 70
     8
 71
     3
 72
     8
 73
     4
 74
     0
 42
0.000000001
 43
0.00000001
 40
0.0
 40
0.0
 40
0.0
 40
0.0
 40
1.0
 40
1.0
 40
1.0
 40
1.0
 10
3.405711170693571
 20
-8.313140216561035
 30
0.0
 10
3.254583968813031
 20
-8.279655363564892
 30
0.0
 10
3.119251729675719
 20
-8.237426313266186
 30
0.0
 10
2.999646882346748
 20
-8.184531214454129
 30
0.0
  0
SPLINE
  5
BF
330
1F
100
AcDbEntity
  8
0
  6
Continuous
 62
     4
370
    25
100
AcDbSpline
210
0.0
220
0.0
230
1.0
 70
    24
 71
     3
 72
    14
 73
    10
 74
     0
 42
0.000000001
 43
0.00000001
 40
0.0
 40
0.0
 40
0.0
 40
0.0
 40
0.1132784838372226
 40
0.2551445877357925
 40
0.4146021097791761
 40
0.573994488514815
 40
0.7225718171152176
 40
0.8711338936111229
 40
1.0
 40
1.0
 40
1.0
 40
1.0
 10
3.999646882346743
 20
-1.302154887523127
 30
0.0
 10
3.999646882346745
 20
-1.306324878948825
 30
0.0
 10
3.999646882346745
 20
-1.315717225201451
 30
0.0
 10
3.999646882346743
 20
-1.498303221357037
 30
0.0
 10
3.999646882346745
 20
-1.845553402840343
 30
0.0
 10
3.999646882346745
 20
-2.363235762044449
 30
0.0
 10
3.999646882346743
 20
-3.016294652001402
 30
0.0
 10
3.999646882346745
 20
-3.731924529345313
 30
0.0
 10
3.999646882346745
 20
-4.263235429023495
 30
0.0
 10
3.999646882346745
 20
-4.510030712082153
 30
0.0
  0
SPLINE
  5
C0
330
1F
100
AcDbEntity
  8
0
  6
Continuous
 62
     4
370
    25
100
AcDbSpline
210
0.0
220
0.0
230
1.0
 70
     8
 71
     3
 72
     8
 73
     4
 74
     0
 42
0.000000001
 43
0.00000001
 40
0.0
 40
0.0
 40
0.0
 40
0.0
 40
1.0
 40
1.0
 40
1.0
 40
1.0
 10
3.405711170693571
 20
3.448434389660902
 30
0.0
 10
3.254583968813031
 20
3.529156319276977
 30
0.0
 10
3.119251729675719
 20
3.627806499617455
 30
0.0
 10
2.999646882346748
 20
3.743454126822748
 30
0.0
  0
SPLINE
  5
C1
330
1F
100
AcDbEntity
  8
0
  6
Continuous
 62
     4
370
    25
100
AcDbSpline
210
0.0
220
0.0
230
1.0
 70
     8
 71
     3
 72
     8
 73
     4
 74
     0
 42
0.000000001
 43
0.00000001
 40
0.0
 40
0.0
 40
0.0
 40
0.0
 40
1.0
 40
1.0
 40
1.0
 40
1.0
 10
3.999646882346745
 20
3.129158416086344
 30
0.0
 10
3.801373184765831
 20
3.236420449564548
 30
0.0
 10
3.603323023313675
 20
3.342883503652234
 30
0.0
 10
3.405711170693571
 20
3.448434389660903
 30
0.0
  0
LINE
  5
C2
330
1F
100
AcDbEntity
  8
0
  6
Continuous
 62
     4
370
    25
100
AcDbLine
 10
3.999646882346745
 20
3.129158416086344
 30
0.0
 11
3.999646882346743
 21
-1.293866207860156
 31
0.0
  0
LINE
  5
C3
330
1F
100
AcDbEntity
  8
0
  6
Continuous
 62
     4
370
    25
100
AcDbLine
 10
3.999646882346745
 20
3.551962020260008
 30
0.0
 11
3.999646882346745
 21
3.129158416086344
 31
0.0
  0
SPLINE
  5
C4
330
1F
100
AcDbEntity
  8
0
  6
Continuous
 62
     4
370
    25
100
AcDbSpline
210
0.0
220
0.0
230
1.0
 70
     8
 71
     3
 72
    10
 73
     6
 74
     0
 42
0.000000001
 43
0.00000001
 40
0.0
 40
0.0
 40
0.0
 40
0.0
 40
0.5
 40
0.5
 40
1.0
 40
1.0
 40
1.0
 40
1.0
 10
2.999646882346745
 20
8.813663765692278
 30
0.0
 10
3.132678537117215
 20
8.84229796636018
 30
0.0
 10
3.284582370886163
 20
8.86270494025408
 30
0.0
 10
3.626039659304177
 20
8.892796913864837
 30
0.0
 10
3.808233886492248
 20
8.901824135453708
 30
0.0
 10
3.99964688234677
 20
8.906509430532115
 30
0.0
  0
SPLINE
  5
C5
330
1F
100
AcDbEntity
  8
0
  6
Continuous
 62
     4
370
    25
100
AcDbSpline
210
0.0
220
0.0
230
1.0
 70
    24
 71
     3
 72
    18
 73
    14
 74
     0
 42
0.000000001
 43
0.00000001
 40
0.0
 40
0.0
 40
0.0
 40
0.0
 40
0.2499999999999997
 40
0.2499999999999997
 40
0.3749999999999997
 40
0.3749999999999997
 40
0.4999999999999998
 40
0.4999999999999998
 40
0.6249999999999998
 40
0.6249999999999998
 40
0.7499999999999999
 40
0.7499999999999999
 40
1.0
 40
1.0
 40
1.0
 40
1.0
 10
3.999646882346743
 20
9.0
 30
0.0
 10
3.999646882346743
 20
8.35030309954281
 30
0.0
 10
3.999646882346743
 20
7.802907431395685
 30
0.0
 10
3.999646882346743
 20
6.995611049874881
 30
0.0
 10
3.999646882346743
 20
6.730845401243607
 30
0.0
 10
3.999646882346745
 20
6.222094950902565
 30
0.0
 10
3.999646882346743
 20
5.976281320786232
 30
0.0
 10
3.999646882346743
 20
5.502363663551377
 30
0.0
 10
3.999646882346743
 20
5.272298157330217
 30
0.0
 10
3.999646882346745
 20
4.842933111738446
 30
0.0
 10
3.999646882346743
 20
4.643656678636396
 30
0.0
 10
3.999646882346743
 20
4.091543560643268
 30
0.0
 10
3.999646882346745
 20
3.782331319968759
 30
0.0
 10
3.999646882346745
 20
3.551962020259948
 30
0.0
  0
SPLINE
  5
C6
330
1F
100
AcDbEntity
  8
0
  6
Continuous
 62
     4
370
    25
100
AcDbSpline
210
0.0
220
0.0
230
1.0
 70
     8
 71
     3
 72
     8
 73
     4
 74
     0
 42
0.000000001
 43
0.00000001
 40
0.0
 40
0.0
 40
0.0
 40
0.0
 40
1.0
 40
1.0
 40
1.0
 40
1.0
 10
3.999646882346745
 20
-8.438505057593815
 30
0.0
 10
3.801373184765831
 20
-8.398730252400942
 30
0.0
 10
3.603323023313675
 20
-8.356924550241148
 30
0.0
 10
3.405711170693571
 20
-8.313140216561035
 30
0.0
  0
LINE
  5
C7
330
1F
100
AcDbEntity
  8
0
  6
Continuous
 62
     4
370
    25
100
AcDbLine
 10
3.999646882346745
 20
-8.438505057593812
 30
0.0
 11
3.999646882346745
 21
-9.0
 31
0.0
  0
SPLINE
  5
C8
330
1F
100
AcDbEntity
  8
0
  6
Continuous
 62
     4
370
    25
100
AcDbSpline
210
0.0
220
0.0
230
1.0
 70
    24
 71
     3
 72
    10
 73
     6
 74
     0
 42
0.000000001
 43
0.00000001
 40
0.0
 40
0.0
 40
0.0
 40
0.0
 40
0.5
 40
0.5
 40
1.0
 40
1.0
 40
1.0
 40
1.0
 10
3.999646882346745
 20
-4.510030712085219
 30
0.0
 10
3.999646882346745
 20
-5.086932641102056
 30
0.0
 10
3.999646882346745
 20
-5.730395838588611
 30
0.0
 10
3.999646882346745
 20
-7.072329060587212
 30
0.0
 10
3.999646882346745
 20
-7.769330281974673
 30
0.0
 10
3.999646882346745
 20
-8.438505057593806
 30
0.0
  0
SPLINE
  5
C9
330
1F
100
AcDbEntity
  8
0
  6
Continuous
 62
     1
370
    25
100
AcDbSpline
210
0.0
220
0.0
230
1.0
 70
     8
 71
     3
 72
    24
 73
    20
 74
     0
 42
0.000000001
 43
0.00000001
 40
0.0
 40
0.0
 40
0.0
 40
0.0
 40
0.0556549585480558
 40
0.1184146513955044
 40
0.1812086492970702
 40
0.2440193477868639
 40
0.3068099250150209
 40
0.3695702530071703
 40
0.4323684888587839
 40
0.4951786559374745
 40
0.5579639383158904
 40
0.6207266714960772
 40
0.6784466320666501
 40
0.7361745526331493
 40
0.7939022336779163
 40
0.8516214766587596
 40
0.9093241173692701
 40
0.9670202415712394
 40
0.9999999999999999
 40
0.9999999999999999
 40
0.9999999999999999
 40
0.9999999999999999
 10
42.78691687492288
 20
7.59469693933565
 30
0.0
 10
43.85802315311608
 20
7.901593465042357
 30
0.0
 10
46.13696971688481
 20
8.554563946992713
 30
0.0
 10
49.62363958483296
 20
9.006128487588196
 30
0.0
 10
53.24876440958295
 20
9.029033950030847
 30
0.0
 10
56.87463460156312
 20
8.555648802077263
 30
0.0
 10
60.49963812362918
 20
7.624563848193618
 30
0.0
 10
64.1237335933566
 20
6.281599397850335
 30
0.0
 10
67.74900399589515
 20
4.601406178723091
 30
0.0
 10
71.37485473528682
 20
2.673444407071123
 30
0.0
 10
74.99964921625954
 20
0.601435497708673
 30
0.0
 10
78.52616607434648
 20
-1.446983273065681
 30
0.0
 10
81.95548626928958
 20
-3.363960123797593
 30
0.0
 10
85.28802917442982
 20
-5.074154344099003
 30
0.0
 10
88.6205479470086
 20
-6.5519846973652
 30
0.0
 10
91.9524923735707
 20
-7.736628588986733
 30
0.0
 10
95.28360741718772
 20
-8.550363793641303
 30
0.0
 10
98.13854049952506
 20
-8.974702875692063
 30
0.0
 10
99.88341397318777
 20
-8.95640272420587
 30
0.0
 10
100.5180425423356
 20
-8.949746769417075
 30
0.0
  0
SPLINE
  5
CA
330
1F
100
AcDbEntity
  8
0
  6
Continuous
 62
     1
370
    25
100
AcDbSpline
210
0.0
220
0.0
230
1.0
 70
     8
 71
     3
 72
    20
 73
    16
 74
     0
 42
0.000000001
 43
0.00000001
 40
0.0
 40
0.0
 40
0.0
 40
0.0
 40
0.079665607861676
 40
0.159374868910991
 40
0.2390811009865814
 40
0.3187391656189381
 40
0.3984130503463602
 40
0.4781245558894182
 40
0.5578269750789022
 40
0.6374797414148368
 40
0.7171611251472211
 40
0.7968740902833427
 40
0.876571913388609
 40
0.9562216272781152
 40
1.0
 40
1.0
 40
1.0
 40
1.0
 10
103.9996468823468
 20
-8.776491285197347
 30
0.0
 10
102.7917148197607
 20
-8.576100657836458
 30
0.0
 10
100.3751888018797
 20
-8.175209598019455
 30
0.0
 10
96.74951732881756
 20
-7.007458123383699
 30
0.0
 10
93.12396950660654
 20
-5.49661288092117
 30
0.0
 10
89.49968349872283
 20
-3.679989502112449
 30
0.0
 10
85.87503330213828
 20
-1.668021241494223
 30
0.0
 10
82.2492593000386
 20
0.4340237780312142
 30
0.0
 10
78.62384347420534
 20
2.512316327491573
 30
0.0
 10
74.9996790657733
 20
4.456870715067851
 30
0.0
 10
71.37484586840311
 20
6.159065066216916
 30
0.0
 10
67.7490095971492
 20
7.535836267795327
 30
0.0
 10
64.1237200620203
 20
8.483799012796664
 30
0.0
 10
61.04411617304976
 20
8.975072702748951
 30
0.0
 10
59.17243194700434
 20
8.949053330611834
 30
0.0
 10
58.50856935369141
 20
8.939824590195604
 30
0.0
  0
SPLINE
  5
CB
330
1F
100
AcDbEntity
  8
0
  6
Continuous
 62
     1
370
    25
100
AcDbSpline
210
0.0
220
0.0
230
1.0
 70
     8
 71
     3
 72
    12
 73
     8
 74
     0
 42
0.000000001
 43
0.00000001
 40
0.0
 40
0.0
 40
0.0
 40
0.0
 40
0.0912619493131976
 40
0.3462173003659105
 40
0.6011872261262659
 40
0.8559367478204478
 40
1.0
 40
1.0
 40
1.0
 40
1.0
 10
18.26680365515803
 20
-7.57800880066771
 30
0.0
 10
17.83281316855153
 20
-7.72361866085934
 30
0.0
 10
16.18639847120889
 20
-8.276013750834856
 30
0.0
 10
13.32691948658922
 20
-8.79875792275706
 30
0.0
 10
9.689998884177083
 20
-9.082196285395876
 30
0.0
 10
6.58062434495162
 20
-8.900517497231553
 30
0.0
 10
4.684562018069629
 20
-8.561109503934691
 30
0.0
 10
3.999646882346743
 20
-8.438505057604786
 30
0.0
  0
LINE
  5
CC
330
1F
100
AcDbEntity
  8
0
  6
Continuous
 62
     1
370
    25
100
AcDbLine
 10
103.9996468823468
 20
-9.00000000000002
 30
0.0
 11
103.9996468823468
 21
-8.776491285197364
 31
0.0
  0
SPLINE
  5
CD
330
1F
100
AcDbEntity
  8
0
  6
Continuous
 62
     1
370
    25
100
AcDbSpline
210
0.0
220
0.0
230
1.0
 70
     8
 71
     3
 72
    24
 73
    20
 74
     0
 42
0.000000001
 43
0.00000001
 40
0.0
 40
0.0
 40
0.0
 40
0.0
 40
0.0544563054217665
 40
0.11721895599591
 40
0.1800118569255001
 40
0.2428248798613573
 40
0.3056212015909459
 40
0.3683832169968838
 40
0.4311807979364748
 40
0.493993733499163
 40
0.5567852014462001
 40
0.6195483519027307
 40
0.682349996941009
 40
0.7453652742263912
 40
0.8083528926157834
 40
0.8713227576934601
 40
0.9343321493023347
 40
0.997345142888801
 40
1.0
 40
1.0
 40
1.0
 40
1.0
 10
67.26705363973221
 20
-7.591727868780942
 30
0.0
 10
66.21904434901127
 20
-7.894051662590611
 30
0.0
 10
63.96317050702235
 20
-8.54481339180861
 30
0.0
 10
60.49964206845199
 20
-9.000799540913077
 30
0.0
 10
56.87463380750569
 20
-9.033416422420435
 30
0.0
 10
53.24876363846346
 20
-8.56904524282641
 30
0.0
 10
49.62364346107509
 20
-7.646421216937157
 30
0.0
 10
45.99956715479342
 20
-6.310670192374307
 30
0.0
 10
42.37440299693887
 20
-4.636098959259854
 30
0.0
 10
38.74853643521611
 20
-2.711909327287432
 30
0.0
 10
35.12358095329967
 20
-0.6417292444719866
 30
0.0
 10
31.49946951198447
 20
1.464020813348633
 30
0.0
 10
27.87025517750207
 20
3.491718399180719
 30
0.0
 10
24.23661257256645
 20
5.334253840987454
 30
0.0
 10
20.60014097092922
 20
6.886050368596263
 30
0.0
 10
16.9641708551295
 20
8.07992680372538
 30
0.0
 10
13.32697968998698
 20
8.779771161648647
 30
0.0
 10
10.85043097040108
 20
9.074083839123238
 30
0.0
 10
9.586801086597882
 20
8.99341614497162
 30
0.0
 10
9.535714340994112
 20
8.990154865682177
 30
0.0
  0
SPLINE
  5
CE
330
1F
100
AcDbEntity
  8
0
  6
Continuous
 62
     1
370
    25
100
AcDbSpline
210
0.0
220
0.0
230
1.0
 70
     8
 71
     3
 72
    24
 73
    20
 74
     0
 42
0.000000001
 43
0.00000001
 40
0.0
 40
0.0
 40
0.0
 40
0.0
 40
0.0482184705049258
 40
0.1072708641311632
 40
0.1663311730551348
 40
0.2290967179021442
 40
0.2918237902951983
 40
0.3545791639010513
 40
0.4173559927823522
 40
0.4801174758668351
 40
0.5428434138617563
 40
0.6056036384600663
 40
0.6683805546643121
 40
0.7311373604289981
 40
0.793863933227012
 40
0.8566283934960187
 40
0.919404778574977
 40
0.982156292337719
 40
0.9999999999999999
 40
0.9999999999999999
 40
0.9999999999999999
 40
0.9999999999999999
 10
18.26680365515791
 20
7.578008800667718
 30
0.0
 10
19.19512292383957
 20
7.852414883890764
 30
0.0
 10
21.26034003044436
 20
8.46288173117861
 30
0.0
 10
24.46297060885046
 20
8.939911933804357
 30
0.0
 10
27.94561372232961
 20
9.063997163257438
 30
0.0
 10
31.49949721924357
 20
8.715288361586799
 30
0.0
 10
35.12357352779561
 20
7.893043575039323
 30
0.0
 10
38.74853842469138
 20
6.645370391903601
 30
0.0
 10
42.37440246891434
 20
5.040305228371595
 30
0.0
 10
45.99956727753904
 20
3.163980533844116
 30
0.0
 10
49.6236434976754
 20
1.116263623329831
 30
0.0
 10
53.24876336905577
 20
-0.9905409402832998
 30
0.0
 10
56.87463484865215
 20
-3.043892576071423
 30
0.0
 10
60.49963817553741
 20
-4.934153537853772
 30
0.0
 10
64.12373313894797
 20
-6.55690924700396
 30
0.0
 10
67.74900576305126
 20
-7.83558250180291
 30
0.0
 10
71.37484812125992
 20
-8.656132930415442
 30
0.0
 10
74.13542242876147
 20
-9.02998514958255
 30
0.0
 10
75.68712617794473
 20
-8.9649666759888
 30
0.0
 10
76.03067195633373
 20
-8.950571645924466
 30
0.0
  0
SPLINE
  5
CF
330
1F
100
AcDbEntity
  8
0
  6
Continuous
 62
     4
370
    25
100
AcDbSpline
210
0.0
220
0.0
230
1.0
 70
    24
 71
     3
 72
    16
 73
    12
 74
     0
 42
0.000000001
 43
0.00000001
 40
0.0
 40
0.0
 40
0.0
 40
0.0
 40
0.087738708142289
 40
0.2114995822895743
 40
0.3317725327263248
 40
0.4555334068736097
 40
0.5758063573103603
 40
0.699567231457645
 40
0.8198401818943952
 40
0.9436010560416801
 40
1.0
 40
1.0
 40
1.0
 40
1.0
 10
3.999646882346743
 20
-1.327740608114467
 30
0.0
 10
3.999646882346743
 20
-1.428997601259884
 30
0.0
 10
3.999646882346743
 20
-1.673083845605115
 30
0.0
 10
3.999646882346743
 20
-2.239766137529561
 30
0.0
 10
3.999646882346743
 20
-2.985515214434818
 30
0.0
 10
3.999646882346743
 20
-3.846775896441174
 30
0.0
 10
3.999646882346743
 20
-4.807492944588978
 30
0.0
 10
3.999646882346743
 20
-5.825296178198604
 30
0.0
 10
3.999646882346743
 20
-6.888400398190111
 30
0.0
 10
3.999646882346743
 20
-7.764394519540974
 30
0.0
 10
3.999646882346743
 20
-8.277787601501002
 30
0.0
 10
3.999646882346743
 20
-8.438505057604786
 30
0.0
  0
SPLINE
  5
D0
330
1F
100
AcDbEntity
  8
0
  6
Continuous
 62
     1
370
    25
100
AcDbSpline
210
0.0
220
0.0
230
1.0
 70
     8
 71
     3
 72
    14
 73
    10
 74
     0
 42
0.000000001
 43
0.00000001
 40
0.0
 40
0.0
 40
0.0
 40
0.0
 40
0.1479208055989353
 40
0.2958468651690584
 40
0.443744936586454
 40
0.5915832920623586
 40
0.7394383519155187
 40
0.8873463778835098
 40
1.0
 40
1.0
 40
1.0
 40
1.0
 10
3.999646882346745
 20
-0.8228583987227331
 30
0.0
 10
5.136759826704077
 20
-1.472686449400448
 30
0.0
 10
7.411026104318882
 20
-2.772365631875816
 30
0.0
 10
10.82229270282074
 20
-4.579217129660524
 30
0.0
 10
14.23282219241725
 20
-6.16945111745013
 30
0.0
 10
17.642383331976
 20
-7.468820643897794
 30
0.0
 10
21.05216364323793
 20
-8.39825388356725
 30
0.0
 10
24.19178237839596
 20
-8.932928188397923
 30
0.0
 10
26.19483038793099
 20
-8.952490595086864
 30
0.0
 10
27.06084660791662
 20
-8.960948386120297
 30
0.0
  0
SPLINE
  5
D1
330
1F
100
AcDbEntity
  8
0
  6
Continuous
 62
     1
370
    25
100
AcDbSpline
210
0.0
220
0.0
230
1.0
 70
     8
 71
     3
 72
    19
 73
    15
 74
     0
 42
0.000000001
 43
0.00000001
 40
0.0
 40
0.0
 40
0.0
 40
0.0
 40
0.0135479509163836
 40
0.1155319640532899
 40
0.2174755722411609
 40
0.3193825676028704
 40
0.4131016817347626
 40
0.5068337204036668
 40
0.6005653701643953
 40
0.6942833191556134
 40
0.7879743112665288
 40
0.8816547226112474
 40
0.9753334414784337
 40
1.0
 40
1.0
 40
1.0
 40
1.0
 10
67.26705363973228
 20
7.591727868780952
 30
0.0
 10
67.4276322011984
 20
7.648473344824971
 30
0.0
 10
68.79698736830316
 20
8.132377983907796
 30
0.0
 10
71.37487646021334
 20
8.654786883169985
 30
0.0
 10
74.99964338655325
 20
9.068085076856221
 30
0.0
 10
78.52616748119357
 20
8.957349257929586
 30
0.0
 10
81.95548595930447
 20
8.42216054183287
 30
0.0
 10
85.2880290558661
 20
7.516437618968165
 30
0.0
 10
88.62054873120817
 20
6.269247045329099
 30
0.0
 10
91.95248935619382
 20
4.736741494661316
 30
0.0
 10
95.2836186986184
 20
2.988438382429493
 30
0.0
 10
98.61404292048107
 20
1.105108124999405
 30
0.0
 10
101.1270709955568
 20
-0.3558763066010188
 30
0.0
 10
102.5293989389933
 20
-1.157695941731982
 30
0.0
 10
102.8216844027349
 20
-1.324818207952455
 30
0.0
  0
SPLINE
  5
D2
330
1F
100
AcDbEntity
  8
0
  6
Continuous
 62
     1
370
    25
100
AcDbSpline
210
0.0
220
0.0
230
1.0
 70
     8
 71
     3
 72
     8
 73
     4
 74
     0
 42
0.000000001
 43
0.00000001
 40
0.0
 40
0.0
 40
0.0
 40
0.0
 40
1.0
 40
1.0
 40
1.0
 40
1.0
 10
103.9996468823468
 20
-6.567570641756577
 30
0.0
 10
102.4895371777777
 20
-5.718922115361506
 30
0.0
 10
101.0636688194901
 20
-4.678996385370537
 30
0.0
 10
99.69184661907167
 20
-3.51635421744697
 30
0.0
  0
LINE
  5
D3
330
1F
100
AcDbEntity
  8
0
  6
Continuous
 62
     1
370
    25
100
AcDbLine
 10
103.9996468823468
 20
-8.776491285197364
 30
0.0
 11
103.9996468823468
 21
-6.56757064175658
 31
0.0
  0
SPLINE
  5
D4
330
1F
100
AcDbEntity
  8
0
  6
Continuous
 62
     1
370
    25
100
AcDbSpline
210
0.0
220
0.0
230
1.0
 70
    24
 71
     3
 72
    20
 73
    16
 74
     0
 42
0.000000001
 43
0.00000001
 40
0.0
 40
0.0
 40
0.0
 40
0.0
 40
0.25
 40
0.25
 40
0.375
 40
0.375
 40
0.5
 40
0.5
 40
0.625
 40
0.625
 40
0.75
 40
0.75
 40
0.875
 40
0.875
 40
1.0
 40
1.0
 40
1.0
 40
1.0
 10
102.8216844027349
 20
-1.324818207952455
 30
0.0
 10
102.8235979218151
 20
-1.323478347467996
 30
0.0
 10
102.7697286241898
 20
-1.361198035743293
 30
0.0
 10
102.5783428990518
 20
-1.495207763190688
 30
0.0
 10
102.4945400485251
 20
-1.553887150852902
 30
0.0
 10
102.2899213406547
 20
-1.697162712562453
 30
0.0
 10
102.168969074987
 20
-1.781854400746582
 30
0.0
 10
101.8860401248222
 20
-1.979963384429721
 30
0.0
 10
101.725666085805
 20
-2.092258495482713
 30
0.0
 10
101.3779065456128
 20
-2.335762347009558
 30
0.0
 10
101.1875524921436
 20
-2.469049690177535
 30
0.0
 10
100.7842357267783
 20
-2.75145512957264
 30
0.0
 10
100.5746200218526
 20
-2.898229626288812
 30
0.0
 10
100.1411548764025
 20
-3.201745188684159
 30
0.0
 10
99.91618934978517
 20
-3.35926774625883
 30
0.0
 10
99.69184661907167
 20
-3.516354217446969
 30
0.0
  0
SPLINE
  5
D5
330
1F
100
AcDbEntity
  8
0
  6
Continuous
 62
     1
370
    25
100
AcDbSpline
210
0.0
220
0.0
230
1.0
 70
     8
 71
     3
 72
    24
 73
    20
 74
     0
 42
0.000000001
 43
0.00000001
 40
0.0
 40
0.0
 40
0.0
 40
0.0
 40
0.0380682387487112
 40
0.1009144495775967
 40
0.1637903354464165
 40
0.2266590540621981
 40
0.2894886068495141
 40
0.3523407328417995
 40
0.4152177700275623
 40
0.4780828632838082
 40
0.5409100083224317
 40
0.6037674348015574
 40
0.6666450039641841
 40
0.7295058547584986
 40
0.7923323639762221
 40
0.8551944752744944
 40
0.9180719569741681
 40
0.9809279489982178
 40
1.0
 40
1.0
 40
1.0
 40
1.0
 10
91.69518813989916
 20
-7.584356927523316
 30
0.0
 10
90.96341975344077
 20
-7.813057140898781
 30
0.0
 10
89.02358732711838
 20
-8.419314664484512
 30
0.0
 10
85.87504091265214
 20
-8.915755129392041
 30
0.0
 10
82.24925724396654
 20
-9.074102312034748
 30
0.0
 10
78.623844086835
 20
-8.726239357283482
 30
0.0
 10
74.99967866989793
 20
-7.913017735838219
 30
0.0
 10
71.3748468398152
 20
-6.672738503964583
 30
0.0
 10
67.74900610639206
 20
-5.073776013041551
 30
0.0
 10
64.12373304706806
 20
-3.201760128302002
 30
0.0
 10
60.4996381999871
 20
-1.156310046734007
 30
0.0
 10
56.87463484275493
 20
0.9504860288475866
 30
0.0
 10
53.24876336818011
 20
3.00591113629673
 30
0.0
 10
49.623643507069
 20
4.900202978358877
 30
0.0
 10
45.99956724085344
 20
6.528994752296944
 30
0.0
 10
42.37440260637032
 20
7.814897015391126
 30
0.0
 10
38.74853791152408
 20
8.644915267349383
 30
0.0
 10
35.9647477278977
 20
9.026306113726445
 30
0.0
 10
34.38992232463377
 20
8.963318944311101
 30
0.0
 10
34.02331829870236
 20
8.948656144332242
 30
0.0
  0
SPLINE
  5
D6
330
1F
100
AcDbEntity
  8
0
  6
Continuous
 62
     1
370
    25
100
AcDbSpline
210
0.0
220
0.0
230
1.0
 70
     8
 71
     3
 72
    13
 73
     9
 74
     0
 42
0.000000001
 43
0.00000001
 40
0.0
 40
0.0
 40
0.0
 40
0.0
 40
0.1725218239597599
 40
0.3451381821577596
 40
0.5177479808869282
 40
0.6902534694202016
 40
0.8627932175509244
 40
1.0
 40
1.0
 40
1.0
 40
1.0
 10
103.9996468823468
 20
1.993288920567014
 30
0.0
 10
102.7917148315387
 20
2.663206799945019
 30
0.0
 10
100.3751888372203
 20
4.003409643716461
 30
0.0
 10
96.74951718736679
 20
5.767655376181156
 30
0.0
 10
93.12397003687938
 20
7.233132839559091
 30
0.0
 10
89.49968152020368
 20
8.293002878062039
 30
0.0
 10
86.12300848942343
 20
8.91568418604014
 30
0.0
 10
83.95393293654122
 20
8.946672108237435
 30
0.0
 10
82.99310901078866
 20
8.960398664242799
 30
0.0
  0
SPLINE
  5
D7
330
1F
100
AcDbEntity
  8
0
  6
Continuous
 62
     1
370
    25
100
AcDbSpline
210
0.0
220
0.0
230
1.0
 70
     8
 71
     3
 72
    19
 73
    15
 74
     0
 42
0.000000001
 43
0.00000001
 40
0.0
 40
0.0
 40
0.0
 40
0.0
 40
0.0106279398057825
 40
0.1041180638622021
 40
0.1975762357413762
 40
0.2909922601603701
 40
0.3844655795169569
 40
0.4782568669020282
 40
0.5720069870721909
 40
0.6657306833966945
 40
0.7595132106016863
 40
0.8533010989528957
 40
0.9470079140877687
 40
1.0
 40
1.0
 40
1.0
 40
1.0
 10
42.78691687492289
 20
-7.594696939335646
 30
0.0
 10
42.64950368213985
 20
-7.643432603394899
 30
0.0
 10
41.30331657126544
 20
-8.120878192626348
 30
0.0
 10
38.74851345005804
 20
-8.64208326160777
 30
0.0
 10
35.12358709137032
 20
-9.065495645122938
 30
0.0
 10
31.49946792870413
 20
-8.960922466885979
 30
0.0
 10
27.87025537147269
 20
-8.384063026219623
 30
0.0
 10
24.23661338975394
 20
-7.350781961655395
 30
0.0
 10
20.60013751118716
 20
-5.918702498151166
 30
0.0
 10
16.96418387697011
 20
-4.165337105998292
 30
0.0
 10
13.32693102656264
 20
-2.186530420071275
 30
0.0
 10
9.689995751753852
 20
-0.0921083081867734
 30
0.0
 10
6.580624746682673
 20
1.712164026305732
 30
0.0
 10
4.684562124677177
 20
2.753129985442407
 30
0.0
 10
3.999646882346743
 20
3.129158416088703
 30
0.0
  0
SPLINE
  5
D8
330
1F
100
AcDbEntity
  8
0
  6
Continuous
 62
     4
370
    25
100
AcDbSpline
210
0.0
220
0.0
230
1.0
 70
    24
 71
     3
 72
    15
 73
    11
 74
     0
 42
0.000000001
 43
0.00000001
 40
0.0
 40
0.0
 40
0.0
 40
0.0
 40
0.0963498890995999
 40
0.2159505154835381
 40
0.3455214145210825
 40
0.4788498784084727
 40
0.6084207774460173
 40
0.7417492413334071
 40
0.8713201403709517
 40
1.0
 40
1.0
 40
1.0
 40
1.0
 10
3.999646882346743
 20
8.797936623921592
 30
0.0
 10
3.999646882346743
 20
8.539412251809381
 30
0.0
 10
3.999646882346743
 20
7.959977527551647
 30
0.0
 10
3.999646882346743
 20
7.063366610944036
 30
0.0
 10
3.999646882346743
 20
6.126403625790749
 30
0.0
 10
3.999646882346743
 20
5.254746708258568
 30
0.0
 10
3.999646882346743
 20
4.489039297951622
 30
0.0
 10
3.999646882346743
 20
3.869594248012275
 30
0.0
 10
3.999646882346743
 20
3.390972894367442
 30
0.0
 10
3.999646882346743
 20
3.216228936538988
 30
0.0
 10
3.999646882346743
 20
3.129158416086345
 30
0.0
  0
SPLINE
  5
D9
330
1F
100
AcDbEntity
  8
0
  6
Continuous
 62
     1
370
    25
100
AcDbSpline
210
0.0
220
0.0
230
1.0
 70
     8
 71
     3
 72
    21
 73
    17
 74
     0
 42
0.000000001
 43
0.00000001
 40
0.0
 40
0.0
 40
0.0
 40
0.0
 40
0.0717479864490135
 40
0.143498521301222
 40
0.2152354806892184
 40
0.2869434752636205
 40
0.3586595721832479
 40
0.4304013599586936
 40
0.5021527638999771
 40
0.5784055984002147
 40
0.6546116933449935
 40
0.7308521709706041
 40
0.8071187142596593
 40
0.8833666141909949
 40
0.9595713309740245
 40
1.0
 40
1.0
 40
1.0
 40
1.0
 10
3.999646882346745
 20
8.962304617432455
 30
0.0
 10
5.136759817534054
 20
8.860838175547144
 30
0.0
 10
7.411026076808492
 20
8.65790168780911
 30
0.0
 10
10.82229281285816
 20
7.826231579997649
 30
0.0
 10
14.23282177993491
 20
6.65227450537069
 30
0.0
 10
17.64238487130079
 20
5.152671909097045
 30
0.0
 10
21.05215789658543
 20
3.409740429141349
 30
0.0
 10
24.46296715614538
 20
1.50381536779883
 30
0.0
 10
27.94561469594127
 20
-0.5152310686963553
 30
0.0
 10
31.49949701794485
 20
-2.551040210525965
 30
0.0
 10
35.12357333664174
 20
-4.492022086029258
 30
0.0
 10
38.74853939134998
 20
-6.188562271411868
 30
0.0
 10
42.37439879259658
 20
-7.558407289353411
 30
0.0
 10
45.99958100869362
 20
-8.497442890698531
 30
0.0
 10
49.05601758535343
 20
-8.979339065318731
 30
0.0
 10
50.90462546744767
 20
-8.949718014423459
 30
0.0
 10
51.54540902788021
 20
-8.939450459773136
 30
0.0
  0
SPLINE
  5
DA
330
1F
100
AcDbEntity
  8
0
  6
Continuous
 62
     1
370
    25
100
AcDbSpline
210
0.0
220
0.0
230
1.0
 70
     8
 71
     3
 72
    12
 73
     8
 74
     0
 42
0.000000001
 43
0.00000001
 40
0.0
 40
0.0
 40
0.0
 40
0.0
 40
0.0231494072411208
 40
0.3225184208223614
 40
0.6218536258861779
 40
0.9211834230092955
 40
1.0
 40
1.0
 40
1.0
 40
1.0
 10
91.69518813989916
 20
7.584356927523327
 30
0.0
 10
91.78105051640605
 20
7.614833342039461
 30
0.0
 10
92.97728840667341
 20
8.039431906473155
 30
0.0
 10
95.28360756418414
 20
8.540298434306212
 30
0.0
 10
98.61404600955358
 20
9.005415614975155
 30
0.0
 10
101.1270708317387
 20
9.028451722307787
 30
0.0
 10
102.5293989107381
 20
8.923775550895233
 30
0.0
 10
102.8216844027349
 20
8.901958027079054
 30
0.0
  0
SPLINE
  5
DB
330
1F
100
AcDbEntity
  8
0
  6
Continuous
 62
     1
370
    25
100
AcDbSpline
210
0.0
220
0.0
230
1.0
 70
     8
 71
     3
 72
    20
 73
    16
 74
     0
 42
0.000000001
 43
0.00000001
 40
0.0
 40
0.0
 40
0.0
 40
0.0
 40
0.2499999999999997
 40
0.2499999999999997
 40
0.3749999999999997
 40
0.3749999999999997
 40
0.4999999999999998
 40
0.4999999999999998
 40
0.6249999999999998
 40
0.6249999999999998
 40
0.7499999999999999
 40
0.7499999999999999
 40
0.8749999999999999
 40
0.8749999999999999
 40
1.0
 40
1.0
 40
1.0
 40
1.0
 10
102.8216844027349
 20
8.901958027079072
 30
0.0
 10
102.8235979218151
 20
8.348161358984104
 30
0.0
 10
102.7697286241898
 20
7.806412835584634
 30
0.0
 10
102.5783428990517
 20
7.017673843903408
 30
0.0
 10
102.4945400485251
 20
6.756545815091518
 30
0.0
 10
102.2899213406548
 20
6.266013134418244
 30
0.0
 10
102.168969074987
 20
6.034414731260076
 30
0.0
 10
101.8860401248222
 20
5.60129472771961
 30
0.0
 10
101.725666085805
 20
5.403248424429191
 30
0.0
 10
101.3779065456129
 20
5.055955997420849
 30
0.0
 10
101.1875524921436
 20
4.903553740793236
 30
0.0
 10
100.7842357267784
 20
4.648474346462758
 30
0.0
 10
100.5746200218526
 20
4.547289387139269
 30
0.0
 10
100.1411548764024
 20
4.392061755651985
 30
0.0
 10
99.91618934978517
 20
4.338272105579486
 30
0.0
 10
99.69184661907177
 20
4.307800263275015
 30
0.0
  0
SPLINE
  5
DC
330
1F
100
AcDbEntity
  8
0
  6
Continuous
 62
     1
370
    25
100
AcDbSpline
210
0.0
220
0.0
230
1.0
 70
     8
 71
     3
 72
     8
 73
     4
 74
     0
 42
0.000000001
 43
0.00000001
 40
0.0
 40
0.0
 40
0.0
 40
0.0
 40
1.0
 40
1.0
 40
1.0
 40
1.0
 10
103.9996468823468
 20
2.208415107906845
 30
0.0
 10
102.4895371777777
 20
3.024783451196141
 30
0.0
 10
101.0636688194901
 20
3.708760542780128
 30
0.0
 10
99.69184661907167
 20
4.307800263275007
 30
0.0
  0
LINE
  5
DD
330
1F
100
AcDbEntity
  8
0
  6
Continuous
 62
     1
370
    25
100
AcDbLine
 10
103.9996468823468
 20
2.001073809197336
 30
0.0
 11
103.9996468823468
 21
2.208415107906848
 31
0.0
  0
LINE
  5
DE
330
1F
100
AcDbEntity
  8
0
  6
Continuous
 62
     4
370
    25
100
AcDbLine
 10
3.999646882346745
 20
-0.8228583987227303
 30
0.0
 11
3.999646882346743
 21
3.129158416088703
 31
0.0
  0
LINE
  5
DF
330
1F
100
AcDbEntity
  8
0
  6
Continuous
 62
     1
370
    25
100
AcDbLine
 10
103.9996468823468
 20
-0.5000000000000253
 30
0.0
 11
103.9996468823468
 21
1.993288920567014
 31
0.0
  0
LINE
  5
E0
330
1F
100
AcDbEntity
  8
0
  6
Continuous
 62
     1
370
    25
100
AcDbLine
 10
103.9996468823468
 20
-0.5000000000000283
 30
0.0
 11
102.8216844027349
 21
-1.32481820795247
 31
0.0
  0
LINE
  5
E1
330
1F
100
AcDbEntity
  8
0
  6
Continuous
 62
     1
370
    25
100
AcDbLine
 10
103.9996468823468
 20
8.98610037780573
 30
0.0
 11
103.9996468823468
 21
9.000000000000016
 31
0.0
  0
ELLIPSE
  5
E2
330
1F
100
AcDbEntity
  8
0
  6
Continuous
 62
     1
370
    25
100
AcDbEllipse
 10
104.7137208857178
 20
-0.0000000000000001
 30
0.0
 11
12.85333206067901
 21
-5.350968460038300E-17
 31
0.0
210
0.0
220
0.0
230
1.0
 40
0.7002075382097115
 41
1.626380500075815
 42
1.718535207603881
  0
LINE
  5
E3
330
1F
100
AcDbEntity
  8
0
  6
Continuous
 62
     1
370
    25
100
AcDbLine
 10
103.9996468823468
 20
-0.4999999999999941
 30
0.0
 11
103.9996468823468
 21
-6.567570641756569
 31
0.0
  0
LINE
  5
E4
330
1F
100
AcDbEntity
  8
0
  6
Continuous
 62
     1
370
    25
100
AcDbLine
 10
103.9996468823468
 20
2.208415107906848
 30
0.0
 11
103.9996468823468
 21
8.98610037780573
 31
0.0
  0
LINE
  5
E5
330
1F
100
AcDbEntity
  8
중심선
100
AcDbLine
 10
-99.00035311765326
 20
-0.0000000000000045
 30
0.0
 11
106.9996468823468
 21
0.0000000000000208
 31
0.0
  0
CIRCLE
  5
E6
330
1F
100
AcDbEntity
  8
해칭선
100
AcDbCircle
 10
0.0
 20
0.0
 30
0.0
 40
3.0
  0
INSERT
  5
E7
330
1F
100
AcDbEntity
  8
0
  6
Continuous
 62
     7
100
AcDbBlockReference
 66
     1
  2
블럭10
 10
-2.440099248941775
 20
-52.04717430164393
 30
0.0
  0
ATTRIB
  5
E8
330
E7
100
AcDbEntity
  8
FORMAT
 62
     2
100
AcDbText
 10
-20.13902121066623
 20
-49.97180738881174
 30
0.0
 40
4.233333333333333
  1
SEME72180100E [ 4 FLUTE ]
 41
0.75
  7
SLDTEXTSTYLE0
 11
-20.13902121066623
 21
-52.08847405547841
 31
0.0
100
AcDbAttribute
  2
AUTOATTR0
 70
     0
 74
     1
  0
SEQEND
  5
E9
330
E7
100
AcDbEntity
  8
0
  6
Continuous
 62
     7
  0
HATCH
  5
EA
330
1F
100
AcDbEntity
  8
중심선
100
AcDbHatch
 10
0.0
 20
0.0
 30
0.0
210
0.0
220
0.0
230
1.0
  2
SOLID
 70
     1
 71
     0
 91
        1
 92
        0
 93
        4
 72
     1
 10
3.274810055439059
 20
-35.8
 11
-0.1714651883982232
 21
-35.8
 72
     1
 10
-0.1714651883982232
 20
-35.8
 11
-2.299695047602246
 21
-38.33632558057257
 72
     1
 10
-2.299695047602246
 20
-38.33632558057257
 11
1.146613281348186
 21
-38.33628615127008
 72
     1
 10
1.146613281348186
 20
-38.33628615127008
 11
3.274810055439059
 21
-35.8
 97
        0
 75
     0
 76
     1
 98
        1
 10
0.0
 20
0.0
  0
HATCH
  5
EB
330
1F
100
AcDbEntity
  8
중심선
100
AcDbHatch
 10
0.0
 20
0.0
 30
0.0
210
0.0
220
0.0
230
1.0
  2
SOLID
 70
     1
 71
     0
 91
        1
 92
        0
 93
        4
 72
     1
 10
8.287574046475065
 20
-35.79999999999997
 11
4.841298802637755
 21
-35.79999999999997
 72
     1
 10
4.841298802637755
 20
-35.79999999999997
 11
0.3101607942803399
 21
-41.20000000000002
 72
     1
 10
0.3101607942803397
 20
-41.20000000000002
 11
3.756436038117622
 21
-41.20000000000002
 72
     1
 10
3.756436038117622
 20
-41.20000000000002
 11
8.287574046475065
 21
-35.79999999999997
 97
        0
 75
     0
 76
     1
 98
        1
 10
0.0
 20
0.0
  0
HATCH
  5
EC
330
1F
100
AcDbEntity
  8
중심선
100
AcDbHatch
 10
0.0
 20
0.0
 30
0.0
210
0.0
220
0.0
230
1.0
  2
SOLID
 70
     1
 71
     0
 91
        1
 92
        0
 93
        4
 72
     1
 10
13.30033803751093
 20
-35.79999999999997
 11
9.854062793673817
 21
-35.79999999999997
 72
     1
 10
9.854062793673817
 20
-35.79999999999997
 11
2.80562589178454
 21
-44.20000000000002
 72
     1
 10
2.805625891784541
 20
-44.20000000000002
 11
6.251901135621823
 21
-44.20000000000002
 72
     1
 10
6.251901135621823
 20
-44.20000000000002
 11
13.30033803751093
 21
-35.79999999999997
 97
        0
 75
     0
 76
     1
 98
        1
 10
0.0
 20
0.0
  0
HATCH
  5
ED
330
1F
100
AcDbEntity
  8
중심선
100
AcDbHatch
 10
0.0
 20
0.0
 30
0.0
210
0.0
220
0.0
230
1.0
  2
SOLID
 70
     1
 71
     0
 91
        1
 92
        0
 93
        6
 72
     3
 10
18.10022846852311
 20
-40.00000000005127
 11
3.960054785062284
 21
1.540850780301639E-10
 40
0.3939339440162633
 50
17.09539180608434
 51
320.0019657685081
 73
     0
 72
     1
 10
19.78322812422367
 20
-38.58789400463833
 11
22.08852999792474
 21
-36.65356729459038
 72
     3
 10
18.10022846847026
 20
-40.00000000000015
 11
6.600054785286829
 21
-1.249000902703301E-13
 40
0.6363583540795982
 50
39.99873849337411
 51
368.4976242363725
 73
     1
 72
     1
 10
24.52556096037087
 20
-39.03999999993002
 11
16.78029577530618
 21
-39.03999999993002
 72
     1
 10
16.78029577530618
 20
-39.03999999993002
 11
16.78027073086025
 21
-40.95999999992991
 72
     1
 10
16.78027073086025
 20
-40.95999999992991
 11
21.22165050033228
 21
-40.95999999992988
 97
        0
 75
     0
 76
     1
 98
        1
 10
0.0
 20
0.0
  0
DIMENSION
  5
EE
330
1F
100
AcDbEntity
  8
치수문자_일반주서
100
AcDbDimension
  2
_D
 10
117.8011444249317
 20
9.000000000000059
 30
0.0
 11
117.8011444249317
 21
19.54150000000006
 31
0.0
 70
   160
  1
%%c<>
 71
     2
 42
18.00000000000002
 52
-270.0
  3
SLDDIMSTYLE0
100
AcDbAlignedDimension
 13
103.9996468823468
 23
-9.00000000000001
 33
0.0
 14
103.9996468823468
 24
9.000000000000007
 34
0.0
 50
90.0000000000002
100
AcDbRotatedDimension
  0
DIMENSION
  5
FC
330
1F
100
AcDbEntity
  8
치수문자_일반주서
100
AcDbDimension
  2
_D_1
 10
103.9996468823468
 20
27.38913260158164
 30
0.0
 11
3.999646882346747
 21
27.38913260158164
 31
0.0
 70
   160
  1
<>
 71
     2
 42
200.0
  3
SLDDIMSTYLE1
100
AcDbAlignedDimension
 13
-96.00035311765326
 23
9.499999999999986
 33
0.0
 14
103.9996468823468
 24
9.000000000000005
 34
0.0
 50
-0.0000000000000031
100
AcDbRotatedDimension
  0
DIMENSION
  5
107
330
1F
100
AcDbEntity
  8
치수문자_일반주서
100
AcDbDimension
  2
_D_2
 10
-108.5130942959729
 20
-10.00000000000006
 30
0.0
 11
-108.513094295973
 21
20.76024999999993
 31
0.0
 70
   160
  1
%%c<>
 71
     2
 42
19.99999999999999
 52
-270.0
  3
SLDDIMSTYLE2
100
AcDbAlignedDimension
 13
-95.50035311765326
 23
9.999999999999979
 33
0.0
 14
-95.50035311765326
 24
-10.00000000000001
 34
0.0
 50
90.0000000000002
100
AcDbRotatedDimension
  0
DIMENSION
  5
115
330
1F
100
AcDbEntity
  8
치수문자_일반주서
100
AcDbDimension
  2
_D_3
 10
103.9996468823468
 20
19.80822292002016
 30
0.0
 11
53.99964688234675
 21
19.80822292002016
 31
0.0
 70
   160
  1
<>
 71
     2
 42
100.0
  3
SLDDIMSTYLE1
100
AcDbAlignedDimension
 13
3.999646882346745
 23
9.000000000000005
 33
0.0
 14
103.9996468823468
 24
9.000000000000005
 34
0.0
 50
0.0000000000000081
100
AcDbRotatedDimension
  0
INSERT
  5
125
330
1F
100
AcDbEntity
  8
해칭선
100
AcDbBlockReference
  2
SW_DOWELSYMBOL_0
 10
0.0
 20
0.0
 30
0.0
  0
ENDSEC
  0
SECTION
  2
OBJECTS
  0
DICTIONARY
  5
C
330
0
100
AcDbDictionary
281
     1
  3
ACAD_GROUP
350
D
  3
ACAD_IMAGE_VARS
350
149
  3
ACAD_LAYOUT
350
1A
  3
ACAD_MLINESTYLE
350
17
  3
ACAD_PLOTSETTINGS
350
19
  3
ACAD_PLOTSTYLENAME
350
E
  3
ACAD_SCALELIST
350
47
  3
APPDATA
350
147
  3
DWGPROPS
350
17D
  0
DICTIONARY
  5
17B
330
1F
100
AcDbDictionary
280
     1
281
     1
  3
DIM_BOUNDING_BOXES_V1
360
17C
  0
DICTIONARY
  5
D
102
{ACAD_REACTORS
330
C
102
}
330
C
100
AcDbDictionary
281
     1
  0
RASTERVARIABLES
  5
149
102
{ACAD_REACTORS
330
C
102
}
330
C
100
AcDbRasterVariables
 90
        0
 70
     1
 71
     1
 72
     1
  0
DICTIONARY
  5
1A
102
{ACAD_REACTORS
330
C
102
}
330
C
100
AcDbDictionary
281
     1
  3
Layout1
350
1E
  3
Layout2
350
26
  3
Model
350
22
  0
DICTIONARY
  5
17
102
{ACAD_REACTORS
330
C
102
}
330
C
100
AcDbDictionary
281
     1
  3
Standard
350
18
  0
DICTIONARY
  5
19
102
{ACAD_REACTORS
330
C
102
}
330
C
100
AcDbDictionary
281
     1
  0
ACDBDICTIONARYWDFLT
  5
E
102
{ACAD_REACTORS
330
C
102
}
330
C
100
AcDbDictionary
281
     1
  3
Normal
350
F
100
AcDbDictionaryWithDefault
340
F
  0
DICTIONARY
  5
47
102
{ACAD_REACTORS
330
C
102
}
330
C
100
AcDbDictionary
281
     1
  3
A0
350
48
  3
A1
350
49
  3
A2
350
4A
  3
A3
350
4B
  3
A4
350
4C
  3
A5
350
4D
  3
A6
350
4E
  3
A7
350
4F
  3
A8
350
50
  3
A9
350
51
  3
B0
350
52
  3
B1
350
53
  3
B2
350
54
  3
B3
350
55
  3
B4
350
56
  3
B5
350
57
  3
B6
350
58
  3
B7
350
59
  3
B8
350
5A
  3
B9
350
5B
  3
C0
350
5C
  3
C1
350
5D
  3
C2
350
5E
  3
C3
350
5F
  3
C4
350
60
  3
C5
350
61
  3
C6
350
62
  3
C7
350
63
  3
C8
350
64
  3
C9
350
65
  3
D0
350
66
  3
D1
350
67
  3
D2
350
68
  0
DICTIONARY
  5
147
102
{ACAD_REACTORS
330
C
102
}
330
C
100
AcDbDictionary
281
     1
  0
XRECORD
  5
17D
102
{ACAD_REACTORS
330
C
102
}
330
C
100
AcDbXrecord
280
     1
  1
DWGPROPS COOKIE
  2

  3

  4

  6

  7

  8
12016016
  9

300
=
301
=
302
=
303
=
304
=
305
=
306
=
307
=
308
=
309
=
 40
0.0
 41
2458260.209775301
 42
2459677.213316053
  1

 90
        0
  0
DICTIONARY
  5
17C
102
{ACAD_REACTORS
330
17B
102
}
330
17B
100
AcDbDictionary
281
     1
  0
LAYOUT
  5
1E
102
{ACAD_REACTORS
330
1A
102
}
330
1A
100
AcDbPlotSettings
  1

  2
none_device
  4

  6

 40
0.0
 41
0.0
 42
0.0
 43
0.0
 44
0.0
 45
0.0
 46
0.0
 47
0.0
 48
0.0
 49
0.0
140
0.0
141
0.0
142
1.0
143
1.0
 70
   688
 72
     1
 73
     0
 74
     5
  7

 75
    16
147
1.0
148
0.0
149
0.0
100
AcDbLayout
  1
Layout1
 70
     1
 71
     1
 10
0.0
 20
0.0
 11
420.0
 21
297.0
 12
0.0
 22
0.0
 32
0.0
 14
1.000000000000000E+20
 24
1.000000000000000E+20
 34
1.000000000000000E+20
 15
-1.000000000000000E+20
 25
-1.000000000000000E+20
 35
-1.000000000000000E+20
146
0.0
 13
0.0
 23
0.0
 33
0.0
 16
1.0
 26
0.0
 36
0.0
 17
0.0
 27
1.0
 37
0.0
 76
     0
330
1B
  0
LAYOUT
  5
26
102
{ACAD_REACTORS
330
1A
102
}
330
1A
100
AcDbPlotSettings
  1

  2
none_device
  4

  6

 40
0.0
 41
0.0
 42
0.0
 43
0.0
 44
0.0
 45
0.0
 46
0.0
 47
0.0
 48
0.0
 49
0.0
140
0.0
141
0.0
142
1.0
143
1.0
 70
   688
 72
     1
 73
     0
 74
     5
  7

 75
    16
147
1.0
148
0.0
149
0.0
100
AcDbLayout
  1
Layout2
 70
     1
 71
     2
 10
0.0
 20
0.0
 11
0.0
 21
0.0
 12
0.0
 22
0.0
 32
0.0
 14
0.0
 24
0.0
 34
0.0
 15
0.0
 25
0.0
 35
0.0
146
0.0
 13
0.0
 23
0.0
 33
0.0
 16
1.0
 26
0.0
 36
0.0
 17
0.0
 27
1.0
 37
0.0
 76
     0
330
23
  0
LAYOUT
  5
22
102
{ACAD_REACTORS
330
1A
102
}
330
1A
100
AcDbPlotSettings
  1

  2
none_device
  4
ANSI_A_(11.00_x_8.50_Inches)
  6

 40
6.35
 41
19.05
 42
6.35000508
 43
19.05000254
 44
279.4
 45
215.9
 46
120.543685678972
 47
99.97948262959993
 48
0.0
 49
0.0
140
0.0
141
0.0
142
0.0463675140258003
143
1.0
 70
  1696
 72
     0
 73
     0
 74
     0
  7

 75
     0
147
0.0235690232323232
148
0.0
149
0.0
100
AcDbLayout
  1
Model
 70
     1
 71
     0
 10
0.0
 20
0.0
 11
420.0
 21
297.0
 12
0.0
 22
0.0
 32
0.0
 14
-112.888094295973
 24
-49.97180738881174
 34
0.0
 15
118.3514777582651
 25
31.76413260158163
 35
0.0
146
0.0
 13
0.0
 23
0.0
 33
0.0
 16
1.0
 26
0.0
 36
0.0
 17
0.0
 27
1.0
 37
0.0
 76
     0
330
1F
331
29
  0
MLINESTYLE
  5
18
102
{ACAD_REACTORS
330
17
102
}
330
17
100
AcDbMlineStyle
  2
Standard
 70
     0
  3

 62
   256
 51
90.0
 52
90.0
 71
     2
 49
0.5
 62
   256
  6
BYLAYER
 49
-0.5
 62
   256
  6
BYLAYER
  0
ACDBPLACEHOLDER
  5
F
102
{ACAD_REACTORS
330
E
102
}
330
E
  0
SCALE
  5
48
102
{ACAD_REACTORS
330
47
102
}
330
47
100
AcDbScale
 70
     0
300
1:1
140
1.0
141
1.0
290
     1
  0
SCALE
  5
49
102
{ACAD_REACTORS
330
47
102
}
330
47
100
AcDbScale
 70
     0
300
1:2
140
1.0
141
2.0
290
     0
  0
SCALE
  5
4A
102
{ACAD_REACTORS
330
47
102
}
330
47
100
AcDbScale
 70
     0
300
1:4
140
1.0
141
4.0
290
     0
  0
SCALE
  5
4B
102
{ACAD_REACTORS
330
47
102
}
330
47
100
AcDbScale
 70
     0
300
1:5
140
1.0
141
5.0
290
     0
  0
SCALE
  5
4C
102
{ACAD_REACTORS
330
47
102
}
330
47
100
AcDbScale
 70
     0
300
1:8
140
1.0
141
8.0
290
     0
  0
SCALE
  5
4D
102
{ACAD_REACTORS
330
47
102
}
330
47
100
AcDbScale
 70
     0
300
1:10
140
1.0
141
10.0
290
     0
  0
SCALE
  5
4E
102
{ACAD_REACTORS
330
47
102
}
330
47
100
AcDbScale
 70
     0
300
1:16
140
1.0
141
16.0
290
     0
  0
SCALE
  5
4F
102
{ACAD_REACTORS
330
47
102
}
330
47
100
AcDbScale
 70
     0
300
1:20
140
1.0
141
20.0
290
     0
  0
SCALE
  5
50
102
{ACAD_REACTORS
330
47
102
}
330
47
100
AcDbScale
 70
     0
300
1:30
140
1.0
141
30.0
290
     0
  0
SCALE
  5
51
102
{ACAD_REACTORS
330
47
102
}
330
47
100
AcDbScale
 70
     0
300
1:40
140
1.0
141
40.0
290
     0
  0
SCALE
  5
52
102
{ACAD_REACTORS
330
47
102
}
330
47
100
AcDbScale
 70
     0
300
1:50
140
1.0
141
50.0
290
     0
  0
SCALE
  5
53
102
{ACAD_REACTORS
330
47
102
}
330
47
100
AcDbScale
 70
     0
300
1:100
140
1.0
141
100.0
290
     0
  0
SCALE
  5
54
102
{ACAD_REACTORS
330
47
102
}
330
47
100
AcDbScale
 70
     0
300
2:1
140
2.0
141
1.0
290
     0
  0
SCALE
  5
55
102
{ACAD_REACTORS
330
47
102
}
330
47
100
AcDbScale
 70
     0
300
4:1
140
4.0
141
1.0
290
     0
  0
SCALE
  5
56
102
{ACAD_REACTORS
330
47
102
}
330
47
100
AcDbScale
 70
     0
300
8:1
140
8.0
141
1.0
290
     0
  0
SCALE
  5
57
102
{ACAD_REACTORS
330
47
102
}
330
47
100
AcDbScale
 70
     0
300
10:1
140
10.0
141
1.0
290
     0
  0
SCALE
  5
58
102
{ACAD_REACTORS
330
47
102
}
330
47
100
AcDbScale
 70
     0
300
100:1
140
100.0
141
1.0
290
     0
  0
SCALE
  5
59
102
{ACAD_REACTORS
330
47
102
}
330
47
100
AcDbScale
 70
     0
300
1/128" = 1'-0"
140
0.0078125
141
12.0
290
     0
  0
SCALE
  5
5A
102
{ACAD_REACTORS
330
47
102
}
330
47
100
AcDbScale
 70
     0
300
1/64" = 1'-0"
140
0.015625
141
12.0
290
     0
  0
SCALE
  5
5B
102
{ACAD_REACTORS
330
47
102
}
330
47
100
AcDbScale
 70
     0
300
1/32" = 1'-0"
140
0.03125
141
12.0
290
     0
  0
SCALE
  5
5C
102
{ACAD_REACTORS
330
47
102
}
330
47
100
AcDbScale
 70
     0
300
1/16" = 1'-0"
140
0.0625
141
12.0
290
     0
  0
SCALE
  5
5D
102
{ACAD_REACTORS
330
47
102
}
330
47
100
AcDbScale
 70
     0
300
3/32" = 1'-0"
140
0.09375
141
12.0
290
     0
  0
SCALE
  5
5E
102
{ACAD_REACTORS
330
47
102
}
330
47
100
AcDbScale
 70
     0
300
1/8" = 1'-0"
140
0.125
141
12.0
290
     0
  0
SCALE
  5
5F
102
{ACAD_REACTORS
330
47
102
}
330
47
100
AcDbScale
 70
     0
300
3/16" = 1'-0"
140
0.1875
141
12.0
290
     0
  0
SCALE
  5
60
102
{ACAD_REACTORS
330
47
102
}
330
47
100
AcDbScale
 70
     0
300
1/4" = 1'-0"
140
0.25
141
12.0
290
     0
  0
SCALE
  5
61
102
{ACAD_REACTORS
330
47
102
}
330
47
100
AcDbScale
 70
     0
300
3/8" = 1'-0"
140
0.375
141
12.0
290
     0
  0
SCALE
  5
62
102
{ACAD_REACTORS
330
47
102
}
330
47
100
AcDbScale
 70
     0
300
1/2" = 1'-0"
140
0.5
141
12.0
290
     0
  0
SCALE
  5
63
102
{ACAD_REACTORS
330
47
102
}
330
47
100
AcDbScale
 70
     0
300
3/4" = 1'-0"
140
0.75
141
12.0
290
     0
  0
SCALE
  5
64
102
{ACAD_REACTORS
330
47
102
}
330
47
100
AcDbScale
 70
     0
300
1" = 1'-0"
140
1.0
141
12.0
290
     0
  0
SCALE
  5
65
102
{ACAD_REACTORS
330
47
102
}
330
47
100
AcDbScale
 70
     0
300
1-1/2" = 1'-0"
140
1.5
141
12.0
290
     0
  0
SCALE
  5
66
102
{ACAD_REACTORS
330
47
102
}
330
47
100
AcDbScale
 70
     0
300
3" = 1'-0"
140
3.0
141
12.0
290
     0
  0
SCALE
  5
67
102
{ACAD_REACTORS
330
47
102
}
330
47
100
AcDbScale
 70
     0
300
6" = 1'-0"
140
6.0
141
12.0
290
     0
  0
SCALE
  5
68
102
{ACAD_REACTORS
330
47
102
}
330
47
100
AcDbScale
 70
     0
300
1'-0" = 1'-0"
140
12.0
141
12.0
290
     0
  0
ENDSEC
  0
EOF
