  0
SECTION
  2
HEADER
  9
$ACADVER
  1
AC1015
  9
$ACADMAINTVER
 70
     6
  9
$DWGCODEPAGE
  3
ANSI_949
  9
$INSBASE
 10
0.0
 20
0.0
 30
0.0
  9
$EXTMIN
 10
-75.87514603996289
 20
-49.97180738881173
 30
0.0
  9
$EXTMAX
 10
106.3572103923395
 20
29.76413260158164
 30
0.0
  9
$LIMMIN
 10
0.0
 20
0.0
  9
$LIMMAX
 10
420.0
 20
297.0
  9
$ORTHOMODE
 70
     0
  9
$REGENMODE
 70
     1
  9
$FILLMODE
 70
     1
  9
$QTEXTMODE
 70
     0
  9
$MIRRTEXT
 70
     1
  9
$LTSCALE
 40
1.0
  9
$ATTMODE
 70
     1
  9
$TEXTSIZE
 40
3.5
  9
$TRACEWID
 40
1.0
  9
$TEXTSTYLE
  7
Standard
  9
$CLAYER
  8
0
  9
$CELTYPE
  6
ByLayer
  9
$CECOLOR
 62
   256
  9
$CELTSCALE
 40
1.0
  9
$DISPSILH
 70
     0
  9
$DIMSCALE
 40
1.0
  9
$DIMASZ
 40
3.302
  9
$DIMEXO
 40
1.0
  9
$DIMDLI
 40
3.75
  9
$DIMRND
 40
0.0
  9
$DIMDLE
 40
0.0
  9
$DIMEXE
 40
1.0
  9
$DIMTP
 40
0.0
  9
$DIMTM
 40
0.0
  9
$DIMTXT
 40
3.5
  9
$DIMCEN
 40
2.5
  9
$DIMTSZ
 40
0.0
  9
$DIMTOL
 70
     0
  9
$DIMLIM
 70
     0
  9
$DIMTIH
 70
     1
  9
$DIMTOH
 70
     1
  9
$DIMSE1
 70
     0
  9
$DIMSE2
 70
     0
  9
$DIMTAD
 70
     1
  9
$DIMZIN
 70
     0
  9
$DIMBLK
  1

  9
$DIMASO
 70
     1
  9
$DIMSHO
 70
     1
  9
$DIMPOST
  1

  9
$DIMAPOST
  1

  9
$DIMALT
 70
     0
  9
$DIMALTD
 70
     3
  9
$DIMALTF
 40
0.0393700787401575
  9
$DIMLFAC
 40
1.0
  9
$DIMTOFL
 70
     1
  9
$DIMTVP
 40
0.0
  9
$DIMTIX
 70
     0
  9
$DIMSOXD
 70
     0
  9
$DIMSAH
 70
     0
  9
$DIMBLK1
  1

  9
$DIMBLK2
  1

  9
$DIMSTYLE
  2
ISO-25
  9
$DIMCLRD
 70
     0
  9
$DIMCLRE
 70
     0
  9
$DIMCLRT
 70
     0
  9
$DIMTFAC
 40
1.0
  9
$DIMGAP
 40
1.524
  9
$DIMJUST
 70
     0
  9
$DIMSD1
 70
     0
  9
$DIMSD2
 70
     0
  9
$DIMTOLJ
 70
     0
  9
$DIMTZIN
 70
     0
  9
$DIMALTZ
 70
     0
  9
$DIMALTTZ
 70
     0
  9
$DIMUPT
 70
     0
  9
$DIMDEC
 70
     2
  9
$DIMTDEC
 70
     2
  9
$DIMALTU
 70
     2
  9
$DIMALTTD
 70
     3
  9
$DIMTXSTY
  7
Standard
  9
$DIMAUNIT
 70
     0
  9
$DIMADEC
 70
     2
  9
$DIMALTRND
 40
0.0
  9
$DIMAZIN
 70
     0
  9
$DIMDSEP
 70
    44
  9
$DIMATFIT
 70
     3
  9
$DIMFRAC
 70
     0
  9
$DIMLDRBLK
  1

  9
$DIMLUNIT
 70
     2
  9
$DIMLWD
 70
    -2
  9
$DIMLWE
 70
    -2
  9
$DIMTMOVE
 70
     0
  9
$LUNITS
 70
     2
  9
$LUPREC
 70
     2
  9
$SKETCHINC
 40
1.0
  9
$FILLETRAD
 40
10.0
  9
$AUNITS
 70
     0
  9
$AUPREC
 70
     2
  9
$MENU
  1
.
  9
$ELEVATION
 40
0.0
  9
$PELEVATION
 40
0.0
  9
$THICKNESS
 40
0.0
  9
$LIMCHECK
 70
     0
  9
$CHAMFERA
 40
0.0
  9
$CHAMFERB
 40
0.0
  9
$CHAMFERC
 40
0.0
  9
$CHAMFERD
 40
0.0
  9
$SKPOLY
 70
     0
  9
$TDCREATE
 40
2458260.584397234
  9
$TDUCREATE
 40
2458260.209397234
  9
$TDUPDATE
 40
2458268.596196447
  9
$TDUUPDATE
 40
2458268.221196447
  9
$TDINDWG
 40
0.0009166782
  9
$TDUSRTIMER
 40
2458268.220279803
  9
$USRTIMER
 70
     1
  9
$ANGBASE
 50
0.0
  9
$ANGDIR
 70
     0
  9
$PDMODE
 70
     0
  9
$PDSIZE
 40
-1.0
  9
$PLINEWID
 40
0.0
  9
$SPLFRAME
 70
     0
  9
$SPLINETYPE
 70
     6
  9
$SPLINESEGS
 70
     8
  9
$HANDSEED
  5
154
  9
$SURFTAB1
 70
     6
  9
$SURFTAB2
 70
     6
  9
$SURFTYPE
 70
     6
  9
$SURFU
 70
     6
  9
$SURFV
 70
     6
  9
$UCSBASE
  2

  9
$UCSNAME
  2

  9
$UCSORG
 10
0.0
 20
0.0
 30
0.0
  9
$UCSXDIR
 10
1.0
 20
0.0
 30
0.0
  9
$UCSYDIR
 10
0.0
 20
1.0
 30
0.0
  9
$UCSORTHOREF
  2

  9
$UCSORTHOVIEW
 70
     0
  9
$UCSORGTOP
 10
0.0
 20
0.0
 30
0.0
  9
$UCSORGBOTTOM
 10
0.0
 20
0.0
 30
0.0
  9
$UCSORGLEFT
 10
0.0
 20
0.0
 30
0.0
  9
$UCSORGRIGHT
 10
0.0
 20
0.0
 30
0.0
  9
$UCSORGFRONT
 10
0.0
 20
0.0
 30
0.0
  9
$UCSORGBACK
 10
0.0
 20
0.0
 30
0.0
  9
$PUCSBASE
  2

  9
$PUCSNAME
  2

  9
$PUCSORG
 10
0.0
 20
0.0
 30
0.0
  9
$PUCSXDIR
 10
1.0
 20
0.0
 30
0.0
  9
$PUCSYDIR
 10
0.0
 20
1.0
 30
0.0
  9
$PUCSORTHOREF
  2

  9
$PUCSORTHOVIEW
 70
     0
  9
$PUCSORGTOP
 10
0.0
 20
0.0
 30
0.0
  9
$PUCSORGBOTTOM
 10
0.0
 20
0.0
 30
0.0
  9
$PUCSORGLEFT
 10
0.0
 20
0.0
 30
0.0
  9
$PUCSORGRIGHT
 10
0.0
 20
0.0
 30
0.0
  9
$PUCSORGFRONT
 10
0.0
 20
0.0
 30
0.0
  9
$PUCSORGBACK
 10
0.0
 20
0.0
 30
0.0
  9
$USERI1
 70
     0
  9
$USERI2
 70
     0
  9
$USERI3
 70
     0
  9
$USERI4
 70
     0
  9
$USERI5
 70
     0
  9
$USERR1
 40
0.0
  9
$USERR2
 40
0.0
  9
$USERR3
 40
0.0
  9
$USERR4
 40
0.0
  9
$USERR5
 40
0.0
  9
$WORLDVIEW
 70
     1
  9
$SHADEDGE
 70
     3
  9
$SHADEDIF
 70
    70
  9
$TILEMODE
 70
     1
  9
$MAXACTVP
 70
    64
  9
$PINSBASE
 10
0.0
 20
0.0
 30
0.0
  9
$PLIMCHECK
 70
     0
  9
$PEXTMIN
 10
1.000000000000000E+20
 20
1.000000000000000E+20
 30
1.000000000000000E+20
  9
$PEXTMAX
 10
-1.000000000000000E+20
 20
-1.000000000000000E+20
 30
-1.000000000000000E+20
  9
$PLIMMIN
 10
0.0
 20
0.0
  9
$PLIMMAX
 10
0.0
 20
0.0
  9
$UNITMODE
 70
     0
  9
$VISRETAIN
 70
     1
  9
$PLINEGEN
 70
     0
  9
$PSLTSCALE
 70
     1
  9
$TREEDEPTH
 70
  3020
  9
$CMLSTYLE
  2
Standard
  9
$CMLJUST
 70
     0
  9
$CMLSCALE
 40
20.0
  9
$PROXYGRAPHICS
 70
     1
  9
$MEASUREMENT
 70
     1
  9
$CELWEIGHT
370
    -1
  9
$ENDCAPS
280
     0
  9
$JOINSTYLE
280
     0
  9
$LWDISPLAY
290
     1
  9
$INSUNITS
 70
     4
  9
$HYPERLINKBASE
  1

  9
$STYLESHEET
  1

  9
$XEDIT
290
     1
  9
$CEPSNTYPE
380
     0
  9
$PSTYLEMODE
290
     1
  9
$FINGERPRINTGUID
  2
{9ADDBDE9-30FD-4647-94CC-62BB905AB91C}
  9
$VERSIONGUID
  2
{FAEB1C32-E019-11D5-929B-00C0DF256EC4}
  9
$EXTNAMES
290
     1
  9
$PSVPSCALE
 40
0.0
  9
$OLESTARTUP
290
     0
  0
ENDSEC
  0
SECTION
  2
CLASSES
  0
CLASS
  1
ACDBDICTIONARYWDFLT
  2
AcDbDictionaryWithDefault
  3
ObjectDBX Classes
 90
        0
280
     0
281
     0
  0
CLASS
  1
VISUALSTYLE
  2
AcDbVisualStyle
  3
ObjectDBX Classes
 90
     4095
280
     0
281
     0
  0
CLASS
  1
MATERIAL
  2
AcDbMaterial
  3
ObjectDBX Classes
 90
     1153
280
     0
281
     0
  0
CLASS
  1
SCALE
  2
AcDbScale
  3
ObjectDBX Classes
 90
     1153
280
     0
281
     0
  0
CLASS
  1
TABLESTYLE
  2
AcDbTableStyle
  3
ObjectDBX Classes
 90
     4095
280
     0
281
     0
  0
CLASS
  1
MLEADERSTYLE
  2
AcDbMLeaderStyle
  3
ACDB_MLEADERSTYLE_CLASS
 90
     4095
280
     0
281
     0
  0
CLASS
  1
SUN
  2
AcDbSun
  3
SCENEOE
 90
     1153
280
     0
281
     0
  0
CLASS
  1
ACDBPLACEHOLDER
  2
AcDbPlaceHolder
  3
ObjectDBX Classes
 90
        0
280
     0
281
     0
  0
CLASS
  1
LAYOUT
  2
AcDbLayout
  3
ObjectDBX Classes
 90
        0
280
     0
281
     0
  0
CLASS
  1
RASTERVARIABLES
  2
AcDbRasterVariables
  3
ISM
 90
        0
280
     0
281
     0
  0
ENDSEC
  0
SECTION
  2
TABLES
  0
TABLE
  2
VPORT
  5
8
330
0
100
AcDbSymbolTable
 70
     1
  0
VPORT
  5
29
330
8
100
AcDbSymbolTableRecord
100
AcDbViewportTableRecord
  2
*Active
 70
     0
 10
0.0
 20
0.0
 11
1.0
 21
1.0
 12
15.2410321761883
 22
-10.10383739361504
 13
0.0
 23
0.0
 14
10.0
 24
10.0
 15
10.0
 25
10.0
 16
0.0
 26
0.0
 36
1.0
 17
0.0
 27
0.0
 37
0.0
 40
106.8861818396538
 41
1.739018087855297
 42
50.0
 43
0.0
 44
0.0
 50
0.0
 51
0.0
 71
    16
 72
  2000
 73
     1
 74
     3
 75
     0
 76
     0
 77
     0
 78
     0
281
     0
 65
     1
110
0.0
120
0.0
130
0.0
111
1.0
121
0.0
131
0.0
112
0.0
122
1.0
132
0.0
 79
     0
146
0.0
  0
ENDTAB
  0
TABLE
  2
LTYPE
  5
5
330
0
100
AcDbSymbolTable
 70
     6
  0
LTYPE
  5
14
330
5
100
AcDbSymbolTableRecord
100
AcDbLinetypeTableRecord
  2
ByBlock
 70
     0
  3

 72
    65
 73
     0
 40
0.0
  0
LTYPE
  5
15
330
5
100
AcDbSymbolTableRecord
100
AcDbLinetypeTableRecord
  2
ByLayer
 70
     0
  3

 72
    65
 73
     0
 40
0.0
  0
LTYPE
  5
16
330
5
100
AcDbSymbolTableRecord
100
AcDbLinetypeTableRecord
  2
Continuous
 70
     0
  3
Solid line
 72
    65
 73
     0
 40
0.0
  0
LTYPE
  5
6E
330
5
100
AcDbSymbolTableRecord
100
AcDbLinetypeTableRecord
  2
HIDDEN
 70
     0
  3
Hidden __ __ __ __ __ __ __ __ __ __ __ __ __ __
 72
    65
 73
     2
 40
1.905
 49
1.27
 74
     0
 49
-0.635
 74
     0
  0
LTYPE
  5
6F
330
5
100
AcDbSymbolTableRecord
100
AcDbLinetypeTableRecord
  2
PHANTOM
 70
     0
  3
Phantom ______  __  __  ______  __  __  ______
 72
    65
 73
     6
 40
12.7
 49
6.35
 74
     0
 49
-1.27
 74
     0
 49
1.27
 74
     0
 49
-1.27
 74
     0
 49
1.27
 74
     0
 49
-1.27
 74
     0
  0
LTYPE
  5
70
330
5
100
AcDbSymbolTableRecord
100
AcDbLinetypeTableRecord
  2
CENTER
 70
     0
  3
Center ____ _ ____ _ ____ _ ____ _ ____ _ ____
 72
    65
 73
     4
 40
10.16
 49
6.35
 74
     0
 49
-1.27
 74
     0
 49
1.27
 74
     0
 49
-1.27
 74
     0
  0
LTYPE
  5
71
330
5
100
AcDbSymbolTableRecord
100
AcDbLinetypeTableRecord
  2
CENTERX2
 70
     0
  3
Center (2x) ________  __  ________  __  _____
 72
    65
 73
     4
 40
20.32
 49
12.7
 74
     0
 49
-2.54
 74
     0
 49
2.54
 74
     0
 49
-2.54
 74
     0
  0
LTYPE
  5
72
330
5
100
AcDbSymbolTableRecord
100
AcDbLinetypeTableRecord
  2
DOT2
 70
     0
  3
Dot (.5x) ........................................
 72
    65
 73
     2
 40
0.635
 49
0.0
 74
     0
 49
-0.635
 74
     0
  0
ENDTAB
  0
TABLE
  2
LAYER
  5
2
330
0
100
AcDbSymbolTable
 70
    17
  0
LAYER
  5
10
330
2
100
AcDbSymbolTableRecord
100
AcDbLayerTableRecord
  2
0
 70
     0
 62
     7
  6
Continuous
370
    -3
390
F
  0
LAYER
  5
73
330
2
100
AcDbSymbolTableRecord
100
AcDbLayerTableRecord
  2
FORMAT
 70
     0
 62
     2
  6
Continuous
370
    -3
390
F
  0
LAYER
  5
74
330
2
100
AcDbSymbolTableRecord
100
AcDbLayerTableRecord
  2
외형선
 70
     0
 62
   100
  6
Continuous
370
    35
390
F
  0
LAYER
  5
75
330
2
100
AcDbSymbolTableRecord
100
AcDbLayerTableRecord
  2
숨은선
 70
     0
 62
     2
  6
HIDDEN
370
    25
390
F
  0
LAYER
  5
76
330
2
100
AcDbSymbolTableRecord
100
AcDbLayerTableRecord
  2
중심선
 70
     0
 62
     1
  6
CENTERX2
370
    -3
390
F
  0
LAYER
  5
77
330
2
100
AcDbSymbolTableRecord
100
AcDbLayerTableRecord
  2
파단선
 70
     0
 62
     4
  6
Continuous
370
    -3
390
F
  0
LAYER
  5
78
330
2
100
AcDbSymbolTableRecord
100
AcDbLayerTableRecord
  2
해칭선
 70
     0
 62
   100
  6
Continuous
370
    -3
390
F
  0
LAYER
  5
79
330
2
100
AcDbSymbolTableRecord
100
AcDbLayerTableRecord
  2
가는실선
 70
     0
 62
     4
  6
Continuous
370
    -3
390
F
  0
LAYER
  5
7A
330
2
100
AcDbSymbolTableRecord
100
AcDbLayerTableRecord
  2
치수_보조선
 70
     0
 62
     4
  6
Continuous
370
    -3
390
F
  0
LAYER
  5
7B
330
2
100
AcDbSymbolTableRecord
100
AcDbLayerTableRecord
  2
치수문자_일반주서
 70
     0
 62
     7
  6
Continuous
370
    25
390
F
  0
LAYER
  5
7C
330
2
100
AcDbSymbolTableRecord
100
AcDbLayerTableRecord
  2
개별주서
 70
     0
 62
   100
  6
Continuous
370
    35
390
F
  0
LAYER
  5
7D
330
2
100
AcDbSymbolTableRecord
100
AcDbLayerTableRecord
  2
중간선
 70
     0
 62
     2
  6
Continuous
370
    25
390
F
  0
LAYER
  5
7E
330
2
100
AcDbSymbolTableRecord
100
AcDbLayerTableRecord
  2
윤곽선
 70
     0
 62
     3
  6
Continuous
370
    50
390
F
  0
LAYER
  5
7F
330
2
100
AcDbSymbolTableRecord
100
AcDbLayerTableRecord
  2
중심마크
 70
     0
 62
   100
  6
Continuous
370
    35
390
F
  0
LAYER
  5
80
330
2
100
AcDbSymbolTableRecord
100
AcDbLayerTableRecord
  2
가상선
 70
     0
 62
     4
  6
PHANTOM
370
    -3
390
F
  0
LAYER
  5
81
330
2
100
AcDbSymbolTableRecord
100
AcDbLayerTableRecord
  2
특수지정선
 70
     0
 62
     5
  6
CENTERX2
370
    70
390
F
  0
LAYER
  5
13D
330
2
100
AcDbSymbolTableRecord
100
AcDbLayerTableRecord
  2
Defpoints
 70
     0
 62
     7
  6
Continuous
290
     0
370
    -3
390
F
  0
ENDTAB
  0
TABLE
  2
STYLE
  5
3
330
0
100
AcDbSymbolTable
 70
     2
  0
STYLE
  5
11
330
3
100
AcDbSymbolTableRecord
100
AcDbTextStyleTableRecord
  2
Standard
 70
     0
 40
0.0
 41
1.0
 50
0.0
 71
     0
 42
3.5
  3
txt
  4

  0
STYLE
  5
97
330
3
100
AcDbSymbolTableRecord
100
AcDbTextStyleTableRecord
  2
SLDTEXTSTYLE0
 70
     0
 40
0.0
 41
0.75
 50
0.0
 71
     0
 42
3.5
  3
TXT
  4

  0
ENDTAB
  0
TABLE
  2
VIEW
  5
6
330
0
100
AcDbSymbolTable
 70
     0
  0
ENDTAB
  0
TABLE
  2
UCS
  5
7
330
0
100
AcDbSymbolTable
 70
     0
  0
ENDTAB
  0
TABLE
  2
APPID
  5
9
330
0
100
AcDbSymbolTable
 70
     1
  0
APPID
  5
12
330
9
100
AcDbSymbolTableRecord
100
AcDbRegAppTableRecord
  2
ACAD
 70
     0
  0
ENDTAB
  0
TABLE
  2
DIMSTYLE
  5
A
330
0
100
AcDbSymbolTable
 70
     4
100
AcDbDimStyleTable
  0
DIMSTYLE
105
27
330
A
100
AcDbSymbolTableRecord
100
AcDbDimStyleTableRecord
  2
ISO-25
 70
     0
 41
2.5
 42
0.625
 43
3.75
 44
1.25
 73
     0
 74
     0
 77
     1
 78
     8
140
2.5
141
2.5
143
0.03937007874016
147
0.625
171
     3
172
     1
178
     0
271
     2
272
     2
274
     3
278
    44
283
     0
284
     8
340
11
  0
DIMSTYLE
105
E2
102
{ACAD_REACTORS
330
E1
102
}
330
A
100
AcDbSymbolTableRecord
100
AcDbDimStyleTableRecord
  2
SLDDIMSTYLE0
 70
     0
 41
3.302
 44
0.0
 45
0.000000001
 73
     0
 74
     0
 77
     1
 78
    12
 79
     3
140
3.5
147
0.875
172
     1
173
     1
178
     0
271
     1
272
     1
276
     2
284
    12
289
     0
340
97
  0
DIMSTYLE
105
F0
102
{ACAD_REACTORS
330
EF
330
108
102
}
330
A
100
AcDbSymbolTableRecord
100
AcDbDimStyleTableRecord
  2
SLDDIMSTYLE1
 70
     0
 41
3.302
 44
0.0
 45
0.000000001
 73
     0
 74
     0
 77
     1
 78
    12
 79
     3
140
3.5
147
0.875
173
     1
178
     0
271
     2
272
     2
276
     2
284
    12
340
97
  0
DIMSTYLE
105
FB
102
{ACAD_REACTORS
330
FA
102
}
330
A
100
AcDbSymbolTableRecord
100
AcDbDimStyleTableRecord
  2
SLDDIMSTYLE2
 70
     0
 41
3.302
 44
0.0
 45
0.000000001
 73
     0
 74
     0
 77
     1
 78
    12
 79
     3
140
3.5
147
0.875
172
     1
173
     1
178
     0
271
     2
272
     2
276
     2
284
    12
289
     0
340
97
  0
ENDTAB
  0
TABLE
  2
BLOCK_RECORD
  5
1
330
0
100
AcDbSymbolTable
 70
     7
  0
BLOCK_RECORD
  5
1F
330
1
100
AcDbSymbolTableRecord
100
AcDbBlockTableRecord
  2
*Model_Space
340
22
  0
BLOCK_RECORD
  5
1B
330
1
100
AcDbSymbolTableRecord
100
AcDbBlockTableRecord
  2
*Paper_Space
340
1E
  0
BLOCK_RECORD
  5
23
330
1
100
AcDbSymbolTableRecord
100
AcDbBlockTableRecord
  2
*Paper_Space0
340
26
  0
BLOCK_RECORD
  5
82
330
1
100
AcDbSymbolTableRecord
100
AcDbBlockTableRecord
  2
블럭10
340
0
102
{BLKREFS
331
DA
102
}
  0
BLOCK_RECORD
  5
E3
330
1
100
AcDbSymbolTableRecord
100
AcDbBlockTableRecord
  2
_D
340
0
  0
BLOCK_RECORD
  5
F1
330
1
100
AcDbSymbolTableRecord
100
AcDbBlockTableRecord
  2
_D_1
340
0
  0
BLOCK_RECORD
  5
FC
330
1
100
AcDbSymbolTableRecord
100
AcDbBlockTableRecord
  2
_D_2
340
0
  0
BLOCK_RECORD
  5
109
330
1
100
AcDbSymbolTableRecord
100
AcDbBlockTableRecord
  2
_D_3
340
0
  0
BLOCK_RECORD
  5
112
330
1
100
AcDbSymbolTableRecord
100
AcDbBlockTableRecord
  2
SW_DOWELSYMBOL_0
340
0
102
{BLKREFS
331
118
102
}
  0
ENDTAB
  0
ENDSEC
  0
SECTION
  2
BLOCKS
  0
BLOCK
  5
20
330
1F
100
AcDbEntity
  8
0
100
AcDbBlockBegin
  2
*Model_Space
 70
     0
 10
0.0
 20
0.0
 30
0.0
  3
*Model_Space
  1

  0
ENDBLK
  5
21
330
1F
100
AcDbEntity
  8
0
100
AcDbBlockEnd
  0
BLOCK
  5
1C
330
1B
100
AcDbEntity
 67
     1
  8
0
100
AcDbBlockBegin
  2
*Paper_Space
 70
     0
 10
0.0
 20
0.0
 30
0.0
  3
*Paper_Space
  1

  0
ENDBLK
  5
1D
330
1B
100
AcDbEntity
 67
     1
  8
0
100
AcDbBlockEnd
  0
BLOCK
  5
24
330
23
100
AcDbEntity
  8
0
100
AcDbBlockBegin
  2
*Paper_Space0
 70
     0
 10
0.0
 20
0.0
 30
0.0
  3
*Paper_Space0
  1

  0
ENDBLK
  5
25
330
23
100
AcDbEntity
  8
0
100
AcDbBlockEnd
  0
BLOCK
  5
83
330
82
100
AcDbEntity
  8
0
100
AcDbBlockBegin
  2
블럭10
 70
     2
 10
0.0
 20
0.0
 30
0.0
  3
블럭10
  1

  0
ELLIPSE
  5
85
330
82
100
AcDbEntity
  8
중심선
100
AcDbEllipse
 10
20.54032771741204
 20
12.0471743016438
 30
0.0
 11
6.600054785286829
 21
-1.261213355974178E-13
 31
0.0
210
0.0
220
0.0
230
1.0
 40
0.636358354079598
 41
0.9219305317359503
 42
6.513795318482858
  0
ELLIPSE
  5
86
330
82
100
AcDbEntity
  8
중심선
100
AcDbEllipse
 10
20.54032771746488
 20
12.04717430159265
 30
0.0
 11
3.960054785062283
 21
1.540847449632565E-10
 31
0.0
210
0.0
220
0.0
230
1.0
 40
0.3939339440162632
 41
1.131841032648279
 42
5.62031148352944
  0
LINE
  5
87
330
82
100
AcDbEntity
  8
중심선
100
AcDbLine
 10
2.268634060543552
 20
16.24717430164393
 30
0.0
 11
5.714909304380834
 21
16.24717430164393
 31
0.0
  0
LINE
  5
88
330
82
100
AcDbEntity
  8
중심선
100
AcDbLine
 10
5.245725140726316
 20
7.84717430164391
 30
0.0
 11
8.692000384563599
 21
7.84717430164391
 31
0.0
  0
LINE
  5
89
330
82
100
AcDbEntity
  8
중심선
100
AcDbLine
 10
15.74043728645272
 20
16.24717430164393
 30
0.0
 11
8.692000384563599
 21
7.84717430164391
 31
0.0
  0
LINE
  5
8A
330
82
100
AcDbEntity
  8
중심선
100
AcDbLine
 10
0.1404042013395286
 20
13.71084872107135
 30
0.0
 11
3.58671253028996
 21
13.71088815037384
 31
0.0
  0
LINE
  5
8B
330
82
100
AcDbEntity
  8
중심선
100
AcDbLine
 10
2.750260043222114
 20
10.84717430164391
 30
0.0
 11
6.196535287059397
 21
10.84717430164391
 31
0.0
  0
LINE
  5
8C
330
82
100
AcDbEntity
  8
중심선
100
AcDbLine
 10
12.29416204261559
 20
16.24717430164393
 30
0.0
 11
5.245725140726316
 21
7.84717430164391
 31
0.0
  0
LINE
  5
8D
330
82
100
AcDbEntity
  8
중심선
100
AcDbLine
 10
10.72767329541681
 20
16.24717430164393
 30
0.0
 11
6.196535287059397
 21
10.84717430164391
 31
0.0
  0
LINE
  5
8E
330
82
100
AcDbEntity
  8
중심선
100
AcDbLine
 10
7.28139805157953
 20
16.24717430164393
 30
0.0
 11
2.750260043222114
 21
10.84717430164391
 31
0.0
  0
LINE
  5
8F
330
82
100
AcDbEntity
  8
중심선
100
AcDbLine
 10
5.714909304380834
 20
16.24717430164393
 30
0.0
 11
3.58671253028996
 21
13.71088815037384
 31
0.0
  0
LINE
  5
90
330
82
100
AcDbEntity
  8
중심선
100
AcDbLine
 10
2.268634060543552
 20
16.24717430164393
 30
0.0
 11
0.1404042013395286
 21
13.71084872107135
 31
0.0
  0
LINE
  5
91
330
82
100
AcDbEntity
  8
중심선
100
AcDbLine
 10
7.28139805157953
 20
16.24717430164393
 30
0.0
 11
10.72767329541681
 21
16.24717430164393
 31
0.0
  0
LINE
  5
92
330
82
100
AcDbEntity
  8
중심선
100
AcDbLine
 10
12.29416204261559
 20
16.24717430164393
 30
0.0
 11
15.74043728645272
 21
16.24717430164393
 31
0.0
  0
LINE
  5
93
330
82
100
AcDbEntity
  8
중심선
100
AcDbLine
 10
19.22036997980202
 20
11.08717430171403
 30
0.0
 11
23.66174974927406
 21
11.08717430171406
 31
0.0
  0
LINE
  5
94
330
82
100
AcDbEntity
  8
중심선
100
AcDbLine
 10
19.22039502424796
 20
13.00717430171391
 30
0.0
 11
19.22036997980202
 21
11.08717430171403
 31
0.0
  0
LINE
  5
95
330
82
100
AcDbEntity
  8
중심선
100
AcDbLine
 10
19.22039502424796
 20
13.00717430171391
 30
0.0
 11
26.96566020931264
 21
13.00717430171391
 31
0.0
  0
LINE
  5
96
330
82
100
AcDbEntity
  8
중심선
100
AcDbLine
 10
22.22332737316547
 20
13.45928029700563
 30
0.0
 11
24.52862924686651
 21
15.39360700705356
 31
0.0
  0
ATTDEF
  5
98
330
82
100
AcDbEntity
  8
FORMAT
 62
     2
100
AcDbText
 10
-16.11926103943555
 20
2.075366912832191
 30
0.0
 40
4.233333333333333
  1
SEME7216080E [ 4 FLUTE ]
 41
0.75
  7
SLDTEXTSTYLE0
 11
-16.11926103943555
 21
-0.0412997538344756
 31
0.0
100
AcDbAttributeDefinition
  3

  2
AUTOATTR0
 70
     0
 74
     1
  0
ENDBLK
  5
84
330
82
100
AcDbEntity
  8
0
100
AcDbBlockEnd
  0
BLOCK
  5
E4
330
E3
100
AcDbEntity
  8
0
100
AcDbBlockBegin
  2
_D
 70
     0
 10
0.0
 20
0.0
 30
0.0
  3
_D
  1

  0
LINE
  5
E6
330
E3
100
AcDbEntity
  8
치수문자_일반주서
 62
     0
370
    -2
100
AcDbLine
 10
92.06250000000003
 20
-8.000000000000018
 30
0.0
 11
105.8068770590061
 21
-7.999999999999968
 31
0.0
  0
LINE
  5
E7
330
E3
100
AcDbEntity
  8
치수문자_일반주서
 62
     0
370
    -2
100
AcDbLine
 10
92.06250000000003
 20
8.000000000000007
 30
0.0
 11
105.8068770590061
 21
8.000000000000059
 31
0.0
  0
LINE
  5
E8
330
E3
100
AcDbEntity
  8
치수문자_일반주서
 62
     0
370
    -2
100
AcDbLine
 10
105.8068770590061
 20
-7.999999999999968
 30
0.0
 11
105.806877059006
 21
22.47900000000006
 31
0.0
  0
LINE
  5
E9
330
E3
100
AcDbEntity
  8
치수문자_일반주서
 62
     0
370
    -2
100
AcDbLine
 10
105.8068770590061
 20
-7.999999999999968
 30
0.0
 11
105.8068770590061
 21
8.000000000000059
 31
0.0
  0
LINE
  5
EA
330
E3
100
AcDbEntity
  8
치수문자_일반주서
 62
     0
370
    -2
100
AcDbLine
 10
105.8068770590061
 20
-11.30199999999997
 30
0.0
 11
105.8068770590062
 21
-14.60399999999997
 31
0.0
  0
LINE
  5
EB
330
E3
100
AcDbEntity
  8
치수문자_일반주서
 62
     0
370
    -2
100
AcDbLine
 10
105.8068770590061
 20
11.30200000000006
 30
0.0
 11
105.806877059006
 21
14.60400000000006
 31
0.0
  0
SOLID
  5
EC
330
E3
100
AcDbEntity
  8
치수문자_일반주서
 62
     0
100
AcDbTrace
 10
106.3572103923395
 20
-11.30199999999997
 30
0.0
 11
105.2565437256728
 21
-11.30199999999997
 31
0.0
 12
105.8068770590061
 22
-7.999999999999968
 32
0.0
 13
105.8068770590061
 23
-7.999999999999968
 33
0.0
  0
SOLID
  5
ED
330
E3
100
AcDbEntity
  8
치수문자_일반주서
 62
     0
100
AcDbTrace
 10
105.2565437256727
 20
11.30200000000006
 30
0.0
 11
106.3572103923394
 21
11.30200000000006
 31
0.0
 12
105.8068770590061
 22
8.000000000000059
 32
0.0
 13
105.8068770590061
 23
8.000000000000059
 33
0.0
  0
MTEXT
  5
EE
330
E3
100
AcDbEntity
  8
치수문자_일반주서
 62
     0
100
AcDbMText
 10
101.431877059006
 20
18.54150000000005
 30
0.0
 40
3.5
 41
0.0
 71
     2
 72
     1
  1
\A1;%%c16
  7
SLDTEXTSTYLE0
 11
-3.552713678800495E-15
 21
1.0
 31
0.0
 73
     1
 44
1.0
  0
POINT
  5
14D
330
E3
100
AcDbEntity
  8
Defpoints
 62
     0
100
AcDbPoint
 10
92.00000000000003
 20
-8.000000000000018
 30
0.0
  0
POINT
  5
14E
330
E3
100
AcDbEntity
  8
Defpoints
 62
     0
100
AcDbPoint
 10
92.00000000000003
 20
8.000000000000007
 30
0.0
  0
POINT
  5
14F
330
E3
100
AcDbEntity
  8
Defpoints
 62
     0
100
AcDbPoint
 10
105.8068770590061
 20
8.000000000000059
 30
0.0
  0
ENDBLK
  5
E5
330
E3
100
AcDbEntity
  8
0
100
AcDbBlockEnd
  0
BLOCK
  5
F2
330
F1
100
AcDbEntity
  8
0
100
AcDbBlockBegin
  2
_D_1
 70
     0
 10
0.0
 20
0.0
 30
0.0
  3
_D_1
  1

  0
LINE
  5
F4
330
F1
100
AcDbEntity
  8
치수문자_일반주서
 62
     0
370
    -2
100
AcDbLine
 10
-58.0
 20
7.56249999999999
 30
0.0
 11
-58.0
 21
25.38913260158164
 31
0.0
  0
LINE
  5
F5
330
F1
100
AcDbEntity
  8
치수문자_일반주서
 62
     0
370
    -2
100
AcDbLine
 10
92.0
 20
8.062500000000009
 30
0.0
 11
92.0
 21
25.38913260158164
 31
0.0
  0
LINE
  5
F6
330
F1
100
AcDbEntity
  8
치수문자_일반주서
 62
     0
370
    -2
100
AcDbLine
 10
-54.698
 20
25.38913260158164
 30
0.0
 11
88.69800000000001
 21
25.38913260158164
 31
0.0
  0
SOLID
  5
F7
330
F1
100
AcDbEntity
  8
치수문자_일반주서
 62
     0
100
AcDbTrace
 10
-54.698
 20
25.93946593491497
 30
0.0
 11
-54.698
 21
24.83879926824831
 31
0.0
 12
-58.0
 22
25.38913260158164
 32
0.0
 13
-58.0
 23
25.38913260158164
 33
0.0
  0
SOLID
  5
F8
330
F1
100
AcDbEntity
  8
치수문자_일반주서
 62
     0
100
AcDbTrace
 10
88.69800000000001
 20
24.83879926824831
 30
0.0
 11
88.69800000000001
 21
25.93946593491497
 31
0.0
 12
92.0
 22
25.38913260158164
 32
0.0
 13
92.0
 23
25.38913260158164
 33
0.0
  0
MTEXT
  5
F9
330
F1
100
AcDbEntity
  8
치수문자_일반주서
 62
     0
100
AcDbMText
 10
17.00000000000001
 20
29.76413260158164
 30
0.0
 40
3.5
 41
0.0
 71
     2
 72
     1
  1
\A1;150
  7
SLDTEXTSTYLE0
 73
     1
 44
1.0
  0
POINT
  5
144
330
F1
100
AcDbEntity
  8
Defpoints
 62
     0
100
AcDbPoint
 10
-58.0
 20
7.49999999999999
 30
0.0
  0
POINT
  5
145
330
F1
100
AcDbEntity
  8
Defpoints
 62
     0
100
AcDbPoint
 10
92.0
 20
8.000000000000009
 30
0.0
  0
POINT
  5
146
330
F1
100
AcDbEntity
  8
Defpoints
 62
     0
100
AcDbPoint
 10
92.0
 20
25.38913260158164
 30
0.0
  0
ENDBLK
  5
F3
330
F1
100
AcDbEntity
  8
0
100
AcDbBlockEnd
  0
BLOCK
  5
FD
330
FC
100
AcDbEntity
  8
0
100
AcDbBlockBegin
  2
_D_2
 70
     0
 10
0.0
 20
0.0
 30
0.0
  3
_D_2
  1

  0
LINE
  5
FF
330
FC
100
AcDbEntity
  8
치수문자_일반주서
 62
     0
370
    -2
100
AcDbLine
 10
-57.5625
 20
8.000000000000002
 30
0.0
 11
-71.50014603996283
 21
7.999999999999947
 31
0.0
  0
LINE
  5
100
330
FC
100
AcDbEntity
  8
치수문자_일반주서
 62
     0
370
    -2
100
AcDbLine
 10
-57.5625
 20
-8.000000000000012
 30
0.0
 11
-71.50014603996277
 21
-8.000000000000068
 31
0.0
  0
LINE
  5
101
330
FC
100
AcDbEntity
  8
치수문자_일반주서
 62
     0
370
    -2
100
AcDbLine
 10
-71.50014603996283
 20
7.999999999999947
 30
0.0
 11
-71.50014603996289
 21
22.47899999999995
 31
0.0
  0
LINE
  5
102
330
FC
100
AcDbEntity
  8
치수문자_일반주서
 62
     0
370
    -2
100
AcDbLine
 10
-71.50014603996283
 20
7.999999999999947
 30
0.0
 11
-71.50014603996277
 21
-8.000000000000068
 31
0.0
  0
LINE
  5
103
330
FC
100
AcDbEntity
  8
치수문자_일반주서
 62
     0
370
    -2
100
AcDbLine
 10
-71.50014603996284
 20
11.30199999999995
 30
0.0
 11
-71.50014603996286
 21
14.60399999999995
 31
0.0
  0
LINE
  5
104
330
FC
100
AcDbEntity
  8
치수문자_일반주서
 62
     0
370
    -2
100
AcDbLine
 10
-71.50014603996276
 20
-11.30200000000007
 30
0.0
 11
-71.50014603996274
 21
-14.60400000000007
 31
0.0
  0
SOLID
  5
105
330
FC
100
AcDbEntity
  8
치수문자_일반주서
 62
     0
100
AcDbTrace
 10
-72.05047937329617
 20
11.30199999999994
 30
0.0
 11
-70.94981270662952
 21
11.30199999999995
 31
0.0
 12
-71.50014603996283
 22
7.999999999999947
 32
0.0
 13
-71.50014603996283
 23
7.999999999999947
 33
0.0
  0
SOLID
  5
106
330
FC
100
AcDbEntity
  8
치수문자_일반주서
 62
     0
100
AcDbTrace
 10
-70.94981270662943
 20
-11.30200000000007
 30
0.0
 11
-72.05047937329608
 21
-11.30200000000007
 31
0.0
 12
-71.50014603996277
 22
-8.000000000000068
 32
0.0
 13
-71.50014603996277
 23
-8.000000000000068
 33
0.0
  0
MTEXT
  5
107
330
FC
100
AcDbEntity
  8
치수문자_일반주서
 62
     0
100
AcDbMText
 10
-75.87514603996287
 20
18.54149999999993
 30
0.0
 40
3.5
 41
0.0
 71
     2
 72
     1
  1
\A1;%%c16
  7
SLDTEXTSTYLE0
 11
-3.552713678800499E-15
 21
1.0
 31
0.0
 73
     1
 44
1.0
  0
POINT
  5
14A
330
FC
100
AcDbEntity
  8
Defpoints
 62
     0
100
AcDbPoint
 10
-57.5
 20
8.000000000000002
 30
0.0
  0
POINT
  5
14B
330
FC
100
AcDbEntity
  8
Defpoints
 62
     0
100
AcDbPoint
 10
-57.5
 20
-8.000000000000012
 30
0.0
  0
POINT
  5
14C
330
FC
100
AcDbEntity
  8
Defpoints
 62
     0
100
AcDbPoint
 10
-71.50014603996279
 20
-8.000000000000064
 30
0.0
  0
ENDBLK
  5
FE
330
FC
100
AcDbEntity
  8
0
100
AcDbBlockEnd
  0
BLOCK
  5
10A
330
109
100
AcDbEntity
  8
0
100
AcDbBlockBegin
  2
_D_3
 70
     0
 10
0.0
 20
0.0
 30
0.0
  3
_D_3
  1

  0
LINE
  5
10C
330
109
100
AcDbEntity
  8
치수문자_일반주서
 62
     0
370
    -2
100
AcDbLine
 10
12.0
 20
7.736805854115263
 30
0.0
 11
12.00000000000001
 21
18.52022415670291
 31
0.0
  0
LINE
  5
10D
330
109
100
AcDbEntity
  8
치수문자_일반주서
 62
     0
370
    -2
100
AcDbLine
 10
92.0
 20
8.062500000000009
 30
0.0
 11
92.0
 21
18.52022415670291
 31
0.0
  0
LINE
  5
10E
330
109
100
AcDbEntity
  8
치수문자_일반주서
 62
     0
370
    -2
100
AcDbLine
 10
15.30200000000001
 20
18.52022415670291
 30
0.0
 11
88.69800000000001
 21
18.52022415670291
 31
0.0
  0
SOLID
  5
10F
330
109
100
AcDbEntity
  8
치수문자_일반주서
 62
     0
100
AcDbTrace
 10
15.30200000000001
 20
19.07055749003625
 30
0.0
 11
15.30200000000001
 21
17.96989082336958
 31
0.0
 12
12.00000000000001
 22
18.52022415670291
 32
0.0
 13
12.00000000000001
 23
18.52022415670291
 33
0.0
  0
SOLID
  5
110
330
109
100
AcDbEntity
  8
치수문자_일반주서
 62
     0
100
AcDbTrace
 10
88.69800000000001
 20
17.96989082336958
 30
0.0
 11
88.69800000000001
 21
19.07055749003625
 31
0.0
 12
92.0
 22
18.52022415670291
 32
0.0
 13
92.0
 23
18.52022415670291
 33
0.0
  0
MTEXT
  5
111
330
109
100
AcDbEntity
  8
치수문자_일반주서
 62
     0
100
AcDbMText
 10
52.00000000000001
 20
22.89522415670291
 30
0.0
 40
3.5
 41
0.0
 71
     2
 72
     1
  1
\A1;80
  7
SLDTEXTSTYLE0
 73
     1
 44
1.0
  0
POINT
  5
147
330
109
100
AcDbEntity
  8
Defpoints
 62
     0
100
AcDbPoint
 10
12.0
 20
7.674305854115263
 30
0.0
  0
POINT
  5
148
330
109
100
AcDbEntity
  8
Defpoints
 62
     0
100
AcDbPoint
 10
92.0
 20
8.000000000000009
 30
0.0
  0
POINT
  5
149
330
109
100
AcDbEntity
  8
Defpoints
 62
     0
100
AcDbPoint
 10
92.0
 20
18.52022415670291
 30
0.0
  0
ENDBLK
  5
10B
330
109
100
AcDbEntity
  8
0
100
AcDbBlockEnd
  0
BLOCK
  5
113
330
112
100
AcDbEntity
  8
0
100
AcDbBlockBegin
  2
SW_DOWELSYMBOL_0
 70
     0
 10
0.0
 20
0.0
 30
0.0
  3
SW_DOWELSYMBOL_0
  1

  0
CIRCLE
  5
115
330
112
100
AcDbEntity
  8
해칭선
 62
     0
100
AcDbCircle
 10
0.0
 20
0.0
 30
0.0
 40
3.000000000000003
  0
HATCH
  5
116
330
112
100
AcDbEntity
  8
0
  6
Continuous
 62
     0
370
    18
100
AcDbHatch
 10
0.0
 20
0.0
 30
0.0
210
0.0
220
0.0
230
1.0
  2
SOLID
 70
     1
 71
     0
 91
        1
 92
        0
 93
        3
 72
     2
 10
0.0
 20
0.0
 40
3.000000000000003
 50
0.0
 51
90.0
 73
     1
 72
     1
 10
0.0
 20
3.000000000000003
 11
0.0
 21
0.0
 72
     1
 10
0.0
 20
0.0
 11
3.000000000000003
 21
0.0
 97
        0
 75
     0
 76
     1
 98
        1
 10
0.0
 20
0.0
  0
HATCH
  5
117
330
112
100
AcDbEntity
  8
0
  6
Continuous
 62
     0
370
    18
100
AcDbHatch
 10
0.0
 20
0.0
 30
0.0
210
0.0
220
0.0
230
1.0
  2
SOLID
 70
     1
 71
     0
 91
        1
 92
        0
 93
        3
 72
     2
 10
0.0
 20
0.0
 40
3.000000000000003
 50
180.0
 51
270.0000000000008
 73
     1
 72
     1
 10
0.0
 20
-3.000000000000003
 11
0.0
 21
0.0
 72
     1
 10
0.0
 20
0.0
 11
-3.000000000000003
 21
0.0
 97
        0
 75
     0
 76
     1
 98
        1
 10
0.0
 20
0.0
  0
ENDBLK
  5
114
330
112
100
AcDbEntity
  8
0
100
AcDbBlockEnd
  0
ENDSEC
  0
SECTION
  2
ENTITIES
  0
LINE
  5
99
330
1F
100
AcDbEntity
  8
0
  6
Continuous
 62
     4
370
    25
100
AcDbLine
 10
10.49992204008432
 20
7.999999999999996
 30
0.0
 11
-57.5
 21
7.999999999999992
 31
0.0
  0
LINE
  5
9A
330
1F
100
AcDbEntity
  8
0
  6
Continuous
 62
     4
370
    25
100
AcDbLine
 10
-57.5
 20
-8.000000000000009
 30
0.0
 11
10.49992204008432
 21
-8.000000000000005
 31
0.0
  0
LINE
  5
9B
330
1F
100
AcDbEntity
  8
0
  6
Continuous
 62
     4
370
    25
100
AcDbLine
 10
-57.5
 20
7.999999999999985
 30
0.0
 11
-58.0
 21
7.499999999999989
 31
0.0
  0
LINE
  5
9C
330
1F
100
AcDbEntity
  8
0
  6
Continuous
 62
     4
370
    25
100
AcDbLine
 10
-58.0
 20
-7.500000000000007
 30
0.0
 11
-57.5
 21
-8.000000000000002
 31
0.0
  0
LINE
  5
9D
330
1F
100
AcDbEntity
  8
0
  6
Continuous
 62
     1
370
    25
100
AcDbLine
 10
67.13926091004052
 20
-8.000000000000012
 30
0.0
 11
73.32960255756024
 21
-8.000000000000012
 31
0.0
  0
LINE
  5
9E
330
1F
100
AcDbEntity
  8
0
  6
Continuous
 62
     1
370
    25
100
AcDbLine
 10
29.79832284503875
 20
8.000000000000002
 30
0.0
 11
23.60823837861944
 21
8.000000000000002
 31
0.0
  0
LINE
  5
9F
330
1F
100
AcDbEntity
  8
0
  6
Continuous
 62
     1
370
    25
100
AcDbLine
 10
88.90508992524639
 20
-8.000000000000012
 30
0.0
 11
92.0
 21
-8.000000000000012
 31
0.0
  0
LINE
  5
A0
330
1F
100
AcDbEntity
  8
0
  6
Continuous
 62
     1
370
    25
100
AcDbLine
 10
51.5623100409175
 20
8.000000000000002
 30
0.0
 11
45.37517308604713
 21
8.000000000000002
 31
0.0
  0
LINE
  5
A1
330
1F
100
AcDbEntity
  8
0
  6
Continuous
 62
     1
370
    25
100
AcDbLine
 10
23.60823837861952
 20
-8.000000000000012
 30
0.0
 11
29.79832284503872
 21
-8.000000000000012
 31
0.0
  0
LINE
  5
A2
330
1F
100
AcDbEntity
  8
0
  6
Continuous
 62
     1
370
    25
100
AcDbLine
 10
73.32960255756024
 20
8.000000000000002
 30
0.0
 11
67.13926091004063
 21
8.000000000000002
 31
0.0
  0
LINE
  5
A3
330
1F
100
AcDbEntity
  8
0
  6
Continuous
 62
     1
370
    25
100
AcDbLine
 10
27.60219360676929
 20
1.257471877103619
 30
0.0
 11
27.81112910043739
 21
1.142827838917188
 31
0.0
  0
LINE
  5
A4
330
1F
100
AcDbEntity
  8
0
  6
Continuous
 62
     1
370
    25
100
AcDbLine
 10
47.56250371111426
 20
-1.253554045626365
 30
0.0
 11
47.3609108563743
 21
-1.142828872207222
 31
0.0
  0
LINE
  5
A5
330
1F
100
AcDbEntity
  8
0
  6
Continuous
 62
     1
370
    25
100
AcDbLine
 10
90.9334386975878
 20
-1.166073244090434
 30
0.0
 11
90.89228109947163
 21
-1.142934720331884
 31
0.0
  0
SPLINE
  5
A6
330
1F
100
AcDbEntity
  8
0
  6
Continuous
 62
     1
370
    25
100
AcDbSpline
210
0.0
220
0.0
230
1.0
 70
     8
 71
     3
 72
     9
 73
     5
 74
     0
 42
0.000000001
 43
0.00000001
 40
0.0
 40
0.0
 40
0.0
 40
0.0
 40
0.5042399034328138
 40
0.9999999999999999
 40
0.9999999999999999
 40
0.9999999999999999
 40
0.9999999999999999
 10
69.98152053399266
 20
1.903829508132666
 30
0.0
 10
70.24249875747284
 20
1.763671962984257
 30
0.0
 10
70.76006633136666
 20
1.485713903349882
 30
0.0
 10
71.14921781973567
 20
1.256540171728208
 30
0.0
 10
71.34214359918872
 20
1.142924980408785
 30
0.0
  0
LINE
  5
A7
330
1F
100
AcDbEntity
  8
0
  6
Continuous
 62
     1
370
    25
100
AcDbLine
 10
45.37517308604715
 20
-8.000000000000012
 30
0.0
 11
51.5623100409173
 21
-8.000000000000012
 31
0.0
  0
LINE
  5
A8
330
1F
100
AcDbEntity
  8
0
  6
Continuous
 62
     1
370
    25
100
AcDbLine
 10
92.0
 20
8.000000000000002
 30
0.0
 11
88.90508992524644
 21
8.000000000000002
 31
0.0
  0
SPLINE
  5
A9
330
1F
100
AcDbEntity
  8
0
  6
Continuous
 62
     4
370
    25
100
AcDbSpline
210
0.0
220
0.0
230
1.0
 70
    24
 71
     3
 72
    18
 73
    14
 74
     0
 42
0.000000001
 43
0.00000001
 40
0.0
 40
0.0
 40
0.0
 40
0.0
 40
0.2499999999999999
 40
0.2499999999999999
 40
0.3749999999999999
 40
0.3749999999999999
 40
0.5
 40
0.5
 40
0.625
 40
0.625
 40
0.7500000000000001
 40
0.7500000000000001
 40
1.0
 40
1.0
 40
1.0
 40
1.0
 10
12.00000000000001
 20
5.736045757526663
 30
0.0
 10
12.00000000000001
 20
5.392891573538564
 30
0.0
 10
12.00000000000001
 20
5.025045863264551
 30
0.0
 10
12.00000000000001
 20
4.435311784050781
 30
0.0
 10
12.00000000000001
 20
4.231151651676345
 30
0.0
 10
12.00000000000001
 20
3.81985563708116
 30
0.0
 10
12.00000000000001
 20
3.611797664891339
 30
0.0
 10
12.00000000000001
 20
3.190830642517319
 30
0.0
 10
12.00000000000001
 20
2.977922489998524
 30
0.0
 10
12.00000000000001
 20
2.546991619729311
 30
0.0
 10
12.00000000000001
 20
2.328717874077988
 30
0.0
 10
12.00000000000001
 20
1.686913263883772
 30
0.0
 10
12.00000000000001
 20
1.269273367726069
 30
0.0
 10
12.00000000000001
 20
0.8623127905266477
 30
0.0
  0
SPLINE
  5
AA
330
1F
100
AcDbEntity
  8
0
  6
Continuous
 62
     4
370
    25
100
AcDbSpline
210
0.0
220
0.0
230
1.0
 70
     8
 71
     3
 72
    14
 73
    10
 74
     0
 42
0.000000001
 43
0.00000001
 40
0.0
 40
0.0
 40
0.0
 40
0.0
 40
0.2500000000000001
 40
0.2500000000000001
 40
0.5000000000000001
 40
0.5000000000000001
 40
0.7500000000000002
 40
0.7500000000000002
 40
1.0
 40
1.0
 40
1.0
 40
1.0
 10
11.30677038311343
 20
-1.873399296408214
 30
0.0
 10
11.1804461442811
 20
-1.802573342476836
 30
0.0
 10
11.0669312102307
 20
-1.716503112891721
 30
0.0
 10
10.86476857678192
 20
-1.514114307598728
 30
0.0
 10
10.77768481468092
 20
-1.398406590899225
 30
0.0
 10
10.63886465675823
 20
-1.149518620921914
 30
0.0
 10
10.5857421194389
 20
-1.013403044981951
 30
0.0
 10
10.51681197765485
 20
-0.7355948275825003
 30
0.0
 10
10.49992204008431
 20
-0.5912490678228657
 30
0.0
 10
10.49992204008431
 20
-0.4458045170969896
 30
0.0
  0
SPLINE
  5
AB
330
1F
100
AcDbEntity
  8
0
  6
Continuous
 62
     4
370
    25
100
AcDbSpline
210
0.0
220
0.0
230
1.0
 70
     8
 71
     3
 72
    18
 73
    14
 74
     0
 42
0.000000001
 43
0.00000001
 40
0.0
 40
0.0
 40
0.0
 40
0.0
 40
0.25
 40
0.25
 40
0.375
 40
0.375
 40
0.5
 40
0.5
 40
0.625
 40
0.625
 40
0.75
 40
0.75
 40
1.0
 40
1.0
 40
1.0
 40
1.0
 10
10.49992204008432
 20
4.469250395615848
 30
0.0
 10
10.49992204008432
 20
4.640962441303397
 30
0.0
 10
10.5335108834448
 20
4.804853931397707
 30
0.0
 10
10.63952026605414
 20
5.033088050671516
 30
0.0
 10
10.68330253736074
 20
5.104430559351324
 30
0.0
 10
10.78779186766151
 20
5.23824429871078
 30
0.0
 10
10.84930833322448
 20
5.301340906948131
 30
0.0
 10
10.9865378704107
 20
5.415143147572971
 30
0.0
 10
11.0617428756275
 20
5.465759866268749
 30
0.0
 10
11.22524821795519
 20
5.555283105814629
 30
0.0
 10
11.31438355384456
 20
5.594338805778139
 30
0.0
 10
11.59086905290629
 20
5.689727561077366
 30
0.0
 10
11.79308002168296
 20
5.726963241871061
 30
0.0
 10
12.00000000000001
 20
5.736045757526661
 30
0.0
  0
SPLINE
  5
AC
330
1F
100
AcDbEntity
  8
0
  6
Continuous
 62
     4
370
    25
100
AcDbSpline
210
0.0
220
0.0
230
1.0
 70
     8
 71
     3
 72
    14
 73
    10
 74
     0
 42
0.000000001
 43
0.00000001
 40
0.0
 40
0.0
 40
0.0
 40
0.0
 40
0.25
 40
0.25
 40
0.5
 40
0.5
 40
0.75
 40
0.75
 40
1.0
 40
1.0
 40
1.0
 40
1.0
 10
11.30677038311342
 20
7.777555854906248
 30
0.0
 10
11.1804461442811
 20
7.794615879255515
 30
0.0
 10
11.06693121023069
 20
7.814364504082227
 30
0.0
 10
10.86476857678192
 20
7.856088938062762
 30
0.0
 10
10.77768481468092
 20
7.87783905956358
 30
0.0
 10
10.63886465675823
 20
7.917985613905206
 30
0.0
 10
10.5857421194389
 20
7.936784106929061
 30
0.0
 10
10.51681197765484
 20
7.967335058927441
 30
0.0
 10
10.49992204008432
 20
7.979451394203598
 30
0.0
 10
10.49992204008432
 20
7.987568987654242
 30
0.0
  0
SPLINE
  5
AD
330
1F
100
AcDbEntity
  8
0
  6
Continuous
 62
     4
370
    25
100
AcDbSpline
210
0.0
220
0.0
230
1.0
 70
     8
 71
     3
 72
     8
 73
     4
 74
     0
 42
0.000000001
 43
0.00000001
 40
0.0
 40
0.0
 40
0.0
 40
0.0
 40
1.0
 40
1.0
 40
1.0
 40
1.0
 10
12.0
 20
7.674305854115264
 30
0.0
 10
11.76894188408572
 20
7.711928424949747
 30
0.0
 10
11.53772119444644
 20
7.746366065035009
 30
0.0
 10
11.30677038311343
 20
7.777555854906248
 30
0.0
  0
LINE
  5
AE
330
1F
100
AcDbEntity
  8
0
  6
Continuous
 62
     4
370
    25
100
AcDbLine
 10
12.0
 20
7.674305854115263
 30
0.0
 11
12.00000000000001
 21
5.736045757526662
 31
0.0
  0
SPLINE
  5
AF
330
1F
100
AcDbEntity
  8
0
  6
Continuous
 62
     4
370
    25
100
AcDbSpline
210
0.0
220
0.0
230
1.0
 70
     8
 71
     3
 72
     8
 73
     4
 74
     0
 42
0.000000001
 43
0.00000001
 40
0.0
 40
0.0
 40
0.0
 40
0.0
 40
1.0
 40
1.0
 40
1.0
 40
1.0
 10
12.0
 20
-2.259431268585387
 30
0.0
 10
11.76894188408572
 20
-2.131643749833954
 30
0.0
 10
11.53772119444644
 20
-2.002886017840969
 30
0.0
 10
11.30677038311343
 20
-1.873399296408214
 30
0.0
  0
LINE
  5
B0
330
1F
100
AcDbEntity
  8
0
  6
Continuous
 62
     4
370
    25
100
AcDbLine
 10
12.00000000000001
 20
-2.259431268585391
 30
0.0
 11
12.00000000000001
 21
-5.576538269173863
 31
0.0
  0
SPLINE
  5
B1
330
1F
100
AcDbEntity
  8
0
  6
Continuous
 62
     4
370
    25
100
AcDbSpline
210
0.0
220
0.0
230
1.0
 70
     8
 71
     3
 72
    18
 73
    14
 74
     0
 42
0.000000001
 43
0.00000001
 40
0.0
 40
0.0
 40
0.0
 40
0.0
 40
0.25
 40
0.25
 40
0.3750000000000001
 40
0.3750000000000001
 40
0.5000000000000001
 40
0.5000000000000001
 40
0.6250000000000002
 40
0.6250000000000002
 40
0.7500000000000002
 40
0.7500000000000002
 40
1.0
 40
1.0
 40
1.0
 40
1.0
 10
10.49992204008432
 20
-6.635194111801689
 30
0.0
 10
10.49992204008432
 20
-6.519534476953009
 30
0.0
 10
10.53351088344481
 20
-6.39929358562602
 30
0.0
 10
10.63952026605414
 20
-6.219117268428325
 30
0.0
 10
10.68330253736074
 20
-6.160558284937635
 30
0.0
 10
10.78779186766151
 20
-6.047188304028364
 30
0.0
 10
10.84930833322448
 20
-5.991799103503273
 30
0.0
 10
10.9865378704107
 20
-5.889150753692571
 30
0.0
 10
11.0617428756275
 20
-5.84202718197604
 30
0.0
 10
11.22524821795518
 20
-5.756964662468555
 30
0.0
 10
11.31438355384456
 20
-5.718861220820087
 30
0.0
 10
11.59086905290629
 20
-5.624500122504744
 30
0.0
 10
11.79308002168296
 20
-5.58588057489818
 30
0.0
 10
12.00000000000001
 20
-5.576538269173861
 30
0.0
  0
LINE
  5
B2
330
1F
100
AcDbEntity
  8
0
  6
Continuous
 62
     4
370
    25
100
AcDbLine
 10
10.49992204008432
 20
-6.635194111801689
 30
0.0
 11
10.49992204008432
 21
-8.000000000000005
 31
0.0
  0
SPLINE
  5
B3
330
1F
100
AcDbEntity
  8
0
  6
Continuous
 62
     4
370
    25
100
AcDbSpline
210
0.0
220
0.0
230
1.0
 70
     8
 71
     3
 72
    14
 73
    10
 74
     0
 42
0.000000001
 43
0.00000001
 40
0.0
 40
0.0
 40
0.0
 40
0.0
 40
0.25
 40
0.25
 40
0.5
 40
0.5
 40
0.75
 40
0.75
 40
1.0
 40
1.0
 40
1.0
 40
1.0
 10
11.30677038311343
 20
-7.777555854906269
 30
0.0
 10
11.1804461442811
 20
-7.794615879255535
 30
0.0
 10
11.0669312102307
 20
-7.814364504082246
 30
0.0
 10
10.86476857678192
 20
-7.856088938062775
 30
0.0
 10
10.77768481468092
 20
-7.877839059563596
 30
0.0
 10
10.63886465675823
 20
-7.917985613905222
 30
0.0
 10
10.5857421194389
 20
-7.936784106929077
 30
0.0
 10
10.51681197765485
 20
-7.967335058927457
 30
0.0
 10
10.49992204008432
 20
-7.97945139420361
 30
0.0
 10
10.49992204008432
 20
-7.987568987654251
 30
0.0
  0
SPLINE
  5
B4
330
1F
100
AcDbEntity
  8
0
  6
Continuous
 62
     4
370
    25
100
AcDbSpline
210
0.0
220
0.0
230
1.0
 70
     8
 71
     3
 72
     8
 73
     4
 74
     0
 42
0.000000001
 43
0.00000001
 40
0.0
 40
0.0
 40
0.0
 40
0.0
 40
1.0
 40
1.0
 40
1.0
 40
1.0
 10
12.0
 20
-7.674305854115286
 30
0.0
 10
11.76894188408572
 20
-7.711928424949769
 30
0.0
 10
11.53772119444644
 20
-7.746366065035031
 30
0.0
 10
11.30677038311343
 20
-7.777555854906268
 30
0.0
  0
LINE
  5
B5
330
1F
100
AcDbEntity
  8
0
  6
Continuous
 62
     4
370
    25
100
AcDbLine
 10
10.49992204008432
 20
7.999999999999996
 30
0.0
 11
10.49992204008432
 21
7.987568987654242
 31
0.0
  0
LINE
  5
B6
330
1F
100
AcDbEntity
  8
0
  6
Continuous
 62
     4
370
    25
100
AcDbLine
 10
-57.5
 20
7.999999999999985
 30
0.0
 11
-57.5
 21
-8.000000000000002
 31
0.0
  0
LINE
  5
B7
330
1F
100
AcDbEntity
  8
0
  6
Continuous
 62
     4
370
    25
100
AcDbLine
 10
10.49992204008432
 20
4.469250395615848
 30
0.0
 11
10.49992204008432
 21
-0.4458045170969892
 31
0.0
  0
LINE
  5
B8
330
1F
100
AcDbEntity
  8
0
  6
Continuous
 62
     4
370
    25
100
AcDbLine
 10
-58.0
 20
7.49999999999999
 30
0.0
 11
-58.0
 21
-7.500000000000007
 31
0.0
  0
SPLINE
  5
B9
330
1F
100
AcDbEntity
  8
0
  6
Continuous
 62
     4
370
    25
100
AcDbSpline
210
0.0
220
0.0
230
1.0
 70
    24
 71
     3
 72
    12
 73
     8
 74
     0
 42
0.000000001
 43
0.00000001
 40
0.0
 40
0.0
 40
0.0
 40
0.0
 40
0.5000000000000003
 40
0.5000000000000003
 40
0.7500000000000002
 40
0.7500000000000002
 40
1.0
 40
1.0
 40
1.0
 40
1.0
 10
12.00000000000001
 20
0.8623127905267007
 30
0.0
 10
12.00000000000001
 20
0.2365780558213645
 30
0.0
 10
12.00000000000001
 20
-0.3896674193477015
 30
0.0
 10
12.00000000000001
 20
-1.209096296502539
 30
0.0
 10
12.00000000000001
 20
-1.461914715894617
 30
0.0
 10
12.00000000000001
 20
-1.908328444607156
 30
0.0
 10
12.00000000000001
 20
-2.101803945225349
 30
0.0
 10
12.00000000000001
 20
-2.259431268585391
 30
0.0
  0
SPLINE
  5
BA
330
1F
100
AcDbEntity
  8
0
  6
Continuous
 62
     4
370
    25
100
AcDbSpline
210
0.0
220
0.0
230
1.0
 70
    24
 71
     3
 72
    11
 73
     7
 74
     0
 42
0.000000001
 43
0.00000001
 40
0.0
 40
0.0
 40
0.0
 40
0.0
 40
0.2341361584871753
 40
0.6028884946446271
 40
0.9716408308020792
 40
1.0
 40
1.0
 40
1.0
 40
1.0
 10
12.0
 20
-5.68016288311158
 30
0.0
 10
12.0
 20
-5.805546047557054
 30
0.0
 10
12.0
 20
-6.128401209078173
 30
0.0
 10
12.00000000000001
 20
-6.781708811559032
 30
0.0
 10
11.99999999999999
 20
-7.345025724721943
 30
0.0
 10
12.0
 20
-7.652358134891667
 30
0.0
 10
12.00000000000001
 20
-7.674305854115286
 30
0.0
  0
SPLINE
  5
BB
330
1F
100
AcDbEntity
  8
0
  6
Continuous
 62
     1
370
    25
100
AcDbSpline
210
0.0
220
0.0
230
1.0
 70
     8
 71
     3
 72
    26
 73
    22
 74
     0
 42
0.000000001
 43
0.00000001
 40
0.0
 40
0.0
 40
0.0
 40
0.0
 40
0.0306252454363073
 40
0.0831729008928445
 40
0.1357205424280895
 40
0.1882681718327922
 40
0.2408157908978792
 40
0.2933634014144272
 40
0.3500882005920851
 40
0.4068117079287862
 40
0.4635330513975904
 40
0.5202513609376249
 40
0.5769657692417297
 40
0.6336754125387141
 40
0.690380064893809
 40
0.7470877764180859
 40
0.8038005637865252
 40
0.8605175646954704
 40
0.9172379130244875
 40
0.9739607396163026
 40
1.0
 40
1.0
 40
1.0
 40
1.0
 10
15.82146790004283
 20
6.738091161528896
 30
0.0
 10
16.34531737478888
 20
6.903111944757917
 30
0.0
 10
17.76800247739275
 20
7.351280018294244
 30
0.0
 10
20.08952231074235
 20
7.78508917488164
 30
0.0
 10
22.78602983935155
 20
8.038409156747651
 30
0.0
 10
25.48252847855661
 20
7.976648318491482
 30
0.0
 10
28.17905681366214
 20
7.616860563655058
 30
0.0
 10
30.94692061203529
 20
6.95152168072011
 30
0.0
 10
33.78667363538847
 20
5.981179208461062
 30
0.0
 10
36.69768198823322
 20
4.723353753928294
 30
0.0
 10
39.60859265604304
 20
3.257907577192019
 30
0.0
 10
42.51930741490792
 20
1.649253798771825
 30
0.0
 10
45.42978301923751
 20
-0.0318525718978814
 30
0.0
 10
48.33998125881726
 20
-1.711526770791973
 30
0.0
 10
51.24998582422621
 20
-3.315928127310933
 30
0.0
 10
54.16009745688712
 20
-4.774885270046878
 30
0.0
 10
57.07047443055967
 20
-6.022550549422853
 30
0.0
 10
59.98111005933166
 20
-7.0107748201561
 30
0.0
 10
62.89195259217038
 20
-7.671070304880658
 30
0.0
 10
65.27802551637751
 20
-7.996210938286699
 30
0.0
 10
66.69381428435733
 20
-7.965781175309083
 30
0.0
 10
67.13926091004052
 20
-7.956207123342233
 30
0.0
  0
SPLINE
  5
BC
330
1F
100
AcDbEntity
  8
0
  6
Continuous
 62
     1
370
    25
100
AcDbSpline
210
0.0
220
0.0
230
1.0
 70
     8
 71
     3
 72
    26
 73
    22
 74
     0
 42
0.000000001
 43
0.00000001
 40
0.0
 40
0.0
 40
0.0
 40
0.0
 40
0.0149523121655109
 40
0.0716650843373497
 40
0.1283797416468404
 40
0.185095411749542
 40
0.2418112213800242
 40
0.2985262971459466
 40
0.3552397663223876
 40
0.4119507576448631
 40
0.4686584020994818
 40
0.5253618337086913
 40
0.5820601903110869
 40
0.6387554882489634
 40
0.6954557763053869
 40
0.7521608285828604
 40
0.8088697814526873
 40
0.8655817677507842
 40
0.9222959175598106
 40
0.9790113589966826
 40
0.9999999999999999
 40
0.9999999999999999
 40
0.9999999999999999
 40
0.9999999999999999
 10
81.12583853382662
 20
-6.738480340264108
 30
0.0
 10
80.87001612802212
 20
-6.8256428343178
 30
0.0
 10
79.64388239803932
 20
-7.243404811078805
 30
0.0
 10
77.44737497679483
 20
-7.691503161048114
 30
0.0
 10
74.53630926228854
 20
-8.032330137971856
 30
0.0
 10
71.62517867901474
 20
-7.997182450814205
 30
0.0
 10
68.71404017608953
 20
-7.616528737520941
 30
0.0
 10
65.80294667903988
 20
-6.899358781798988
 30
0.0
 10
62.89195216671809
 20
-5.879293891372747
 30
0.0
 10
59.98111017327117
 20
-4.600644413996746
 30
0.0
 10
57.07047440022229
 20
-3.119797413354992
 30
0.0
 10
54.16009746430803
 20
-1.501836482731605
 30
0.0
 10
51.24998582487589
 20
0.1821059202511856
 30
0.0
 10
48.33998124879862
 20
1.858131651385923
 30
0.0
 10
45.42978305866807
 20
3.452299968289526
 30
0.0
 10
42.51930726718815
 20
4.895160284264605
 30
0.0
 10
39.60859320754007
 20
6.121364700935662
 30
0.0
 10
36.69767992982865
 20
7.084020209963816
 30
0.0
 10
33.78668131785466
 20
7.714515863960697
 30
0.0
 10
31.48673119477668
 20
8.005736213911286
 30
0.0
 10
30.15739082374275
 20
7.972632607853281
 30
0.0
 10
29.79832284503874
 20
7.963690996529298
 30
0.0
  0
SPLINE
  5
BD
330
1F
100
AcDbEntity
  8
0
  6
Continuous
 62
     1
370
    25
100
AcDbSpline
210
0.0
220
0.0
230
1.0
 70
     8
 71
     3
 72
    26
 73
    22
 74
     0
 42
0.000000001
 43
0.00000001
 40
0.0
 40
0.0
 40
0.0
 40
0.0
 40
0.0393650493334826
 40
0.0960850749695325
 40
0.1528011992516149
 40
0.2095125583824046
 40
0.2662189264202965
 40
0.3229283537199302
 40
0.3796428570173033
 40
0.4363615739826692
 40
0.4930836384693883
 40
0.5498081812938886
 40
0.6065343310215666
 40
0.6632612147570961
 40
0.7171897871208843
 40
0.77111833824645
 40
0.8250468552779354
 40
0.8789753253613359
 40
0.9329037356452017
 40
0.9868320732813333
 40
1.0
 40
1.0
 40
1.0
 40
1.0
 10
37.58850040932169
 20
6.737554396171825
 30
0.0
 10
38.26188072918209
 20
6.943599637854638
 30
0.0
 10
39.90551638091643
 20
7.44652984699753
 30
0.0
 10
42.51930725319825
 20
7.881541297173069
 30
0.0
 10
45.42978306205445
 20
8.06084323361613
 30
0.0
 10
48.33998124924116
 20
7.874711347961041
 30
0.0
 10
51.2499858197201
 20
7.345363276240738
 30
0.0
 10
54.16009748449081
 20
6.492339241740977
 30
0.0
 10
57.07047432463769
 20
5.35411617126721
 30
0.0
 10
59.98111045545377
 20
3.980421538789642
 30
0.0
 10
62.89195111349459
 20
2.431713137835235
 30
0.0
 10
65.80295060995815
 20
0.7760586851793289
 30
0.0
 10
68.71402550518232
 20
-0.9137289893384152
 30
0.0
 10
71.57736605291004
 20
-2.536248570512873
 30
0.0
 10
74.39253843060462
 20
-4.025263809841034
 30
0.0
 10
77.15992487669396
 20
-5.329433790644679
 30
0.0
 10
79.92728785753525
 20
-6.419901884180018
 30
0.0
 10
82.69465369232151
 20
-7.262045538181976
 30
0.0
 10
85.46201423136412
 20
-7.789811502494705
 30
0.0
 10
87.53215950540857
 20
-8.02469182870084
 30
0.0
 10
88.67985066329823
 20
-7.97947415950057
 30
0.0
 10
88.90508992524639
 20
-7.970599999960631
 30
0.0
  0
SPLINE
  5
BE
330
1F
100
AcDbEntity
  8
0
  6
Continuous
 62
     1
370
    25
100
AcDbSpline
210
0.0
220
0.0
230
1.0
 70
     8
 71
     3
 72
    21
 73
    17
 74
     0
 42
0.000000001
 43
0.00000001
 40
0.0
 40
0.0
 40
0.0
 40
0.0
 40
0.071964851441
 40
0.1439364930193241
 40
0.2159138321494364
 40
0.2878957710876472
 40
0.3598812079191125
 40
0.4318690375529778
 40
0.5038581527237497
 40
0.5758474449969248
 40
0.6478358057769122
 40
0.719822127315276
 40
0.7918053037173101
 40
0.863784231944983
 40
0.9357578128142836
 40
1.0
 40
1.0
 40
1.0
 40
1.0
 10
92.0
 20
-7.801325586840179
 30
0.0
 10
91.03001523099044
 20
-7.644029484125714
 30
0.0
 10
89.08995417149032
 20
-7.329422437255213
 30
0.0
 10
86.17966812434977
 20
-6.443440108569055
 30
0.0
 10
83.26911028388815
 20
-5.298791084237494
 30
0.0
 10
80.35832809331242
 20
-3.914558881448944
 30
0.0
 10
77.44737654942574
 20
-2.359960896583754
 30
0.0
 10
74.53630884117223
 20
-0.7011111680031844
 30
0.0
 10
71.62517879079704
 20
0.9884618115275227
 30
0.0
 10
68.71404015008162
 20
2.634565104188937
 30
0.0
 10
65.8029466712907
 20
4.164982510215937
 30
0.0
 10
62.891952223719
 20
5.511640042936282
 30
0.0
 10
59.98110995303244
 20
6.618281543735549
 30
0.0
 10
57.07047522410181
 20
7.425242035214865
 30
0.0
 10
54.26421901344772
 20
7.919843982777729
 30
0.0
 10
52.4282100335798
 20
7.962851239068674
 30
0.0
 10
51.56231004091748
 20
7.983134354954866
 30
0.0
  0
SPLINE
  5
BF
330
1F
100
AcDbEntity
  8
0
  6
Continuous
 62
     1
370
    25
100
AcDbSpline
210
0.0
220
0.0
230
1.0
 70
     8
 71
     3
 72
     9
 73
     5
 74
     0
 42
0.000000001
 43
0.00000001
 40
0.0
 40
0.0
 40
0.0
 40
0.0
 40
0.2943788378456285
 40
1.0
 40
1.0
 40
1.0
 40
1.0
 10
15.82146790004293
 20
-6.738091161528899
 30
0.0
 10
15.44648149491901
 20
-6.861713232690504
 30
0.0
 10
14.17265893393532
 20
-7.281655345602953
 30
0.0
 10
12.89883624567146
 20
-7.511865029455824
 30
0.0
 10
12.00000000000011
 20
-7.674305854115278
 30
0.0
  0
LINE
  5
C0
330
1F
100
AcDbEntity
  8
0
  6
Continuous
 62
     1
370
    25
100
AcDbLine
 10
92.0
 20
-8.00000000000002
 30
0.0
 11
92.0
 21
-7.801325586842101
 31
0.0
  0
SPLINE
  5
C1
330
1F
100
AcDbEntity
  8
0
  6
Continuous
 62
     1
370
    25
100
AcDbSpline
210
0.0
220
0.0
230
1.0
 70
     8
 71
     3
 72
    12
 73
     8
 74
     0
 42
0.000000001
 43
0.00000001
 40
0.0
 40
0.0
 40
0.0
 40
0.0
 40
0.2322926450447558
 40
0.464585212719367
 40
0.6968777109381245
 40
0.9291701476163295
 40
1.0
 40
1.0
 40
1.0
 40
1.0
 10
12.0
 20
-5.352709500886626
 30
0.0
 10
12.89883623735568
 20
-5.718507345787484
 30
0.0
 10
14.69650841268998
 20
-6.450102913752231
 30
0.0
 10
17.39301602669403
 20
-7.25531294549243
 30
0.0
 10
20.08952267892518
 20
-7.779252884027166
 30
0.0
 10
22.16126336328733
 20
-8.016195988911923
 30
0.0
 10
23.33416847667256
 20
-7.977072364042272
 30
0.0
 10
23.60823837861952
 20
-7.967930441213675
 30
0.0
  0
SPLINE
  5
C2
330
1F
100
AcDbEntity
  8
0
  6
Continuous
 62
     1
370
    25
100
AcDbSpline
210
0.0
220
0.0
230
1.0
 70
     8
 71
     3
 72
    19
 73
    15
 74
     0
 42
0.000000001
 43
0.00000001
 40
0.0
 40
0.0
 40
0.0
 40
0.0
 40
0.0199801087746869
 40
0.1119537459399672
 40
0.2039314016779483
 40
0.2959116629757085
 40
0.3878931144517954
 40
0.4753371627654805
 40
0.5627811766418337
 40
0.650225135235351
 40
0.737669017703534
 40
0.8251128032080264
 40
0.9125564709157425
 40
1.0
 40
1.0
 40
1.0
 40
1.0
 10
59.3487196298631
 20
6.743879640980603
 30
0.0
 10
59.55949910583256
 20
6.816330308707736
 30
0.0
 10
60.7405513297292
 20
7.222290243129131
 30
0.0
 10
62.89195306082072
 20
7.668028823583589
 30
0.0
 10
65.8029500880809
 20
8.025730148547243
 30
0.0
 10
68.71402564527233
 20
8.00598368865594
 30
0.0
 10
71.57736601737693
 20
7.646823630579916
 30
0.0
 10
74.39253844010236
 20
6.97510778564043
 30
0.0
 10
77.15992487347054
 20
6.037971805066197
 30
0.0
 10
79.92728786093124
 20
4.860754738732417
 30
0.0
 10
82.69465368196103
 20
3.490096760884423
 30
0.0
 10
85.46201426941002
 20
1.981609916226685
 30
0.0
 10
88.2293708644635
 20
0.3909202847664776
 30
0.0
 10
90.07427311212723
 20
-0.671361362321694
 30
0.0
 10
90.99672350478289
 20
-1.202501764859672
 30
0.0
  0
LINE
  5
C3
330
1F
100
AcDbEntity
  8
0
  6
Continuous
 62
     4
370
    25
100
AcDbLine
 10
12.0
 20
-5.352709500886643
 30
0.0
 11
12.0
 21
-2.259431268586188
 31
0.0
  0
SPLINE
  5
C4
330
1F
100
AcDbEntity
  8
0
  6
Continuous
 62
     1
370
    25
100
AcDbSpline
210
0.0
220
0.0
230
1.0
 70
     8
 71
     3
 72
    14
 73
    10
 74
     0
 42
0.000000001
 43
0.00000001
 40
0.0
 40
0.0
 40
0.0
 40
0.0
 40
0.155865970664443
 40
0.3117466478324609
 40
0.4676396651140493
 40
0.6235426449473527
 40
0.779453200736369
 40
0.9353689390062938
 40
1.0
 40
1.0
 40
1.0
 40
1.0
 10
92.0
 20
1.771812373837189
 30
0.0
 10
91.03001523061306
 20
2.31044877748253
 30
0.0
 10
89.08995417035817
 20
3.387772407015951
 30
0.0
 10
86.17966812887923
 20
4.834293864706773
 30
0.0
 10
83.26911026690064
 20
6.072420052229494
 30
0.0
 10
80.35832815673803
 20
7.047812033597714
 30
0.0
 10
77.44737631269678
 20
7.692477911430049
 30
0.0
 10
75.10444831189452
 20
8.002982545078709
 30
0.0
 10
73.73184333494487
 20
7.96757767201307
 30
0.0
 10
73.32960255756024
 20
7.957202302621087
 30
0.0
  0
SPLINE
  5
C5
330
1F
100
AcDbEntity
  8
0
  6
Continuous
 62
     1
370
    25
100
AcDbSpline
210
0.0
220
0.0
230
1.0
 70
     8
 71
     3
 72
    17
 73
    13
 74
     0
 42
0.000000001
 43
0.00000001
 40
0.0
 40
0.0
 40
0.0
 40
0.0
 40
0.0348097008930749
 40
0.1485662910495324
 40
0.2623254719382844
 40
0.3677074779864977
 40
0.4730895011784428
 40
0.5784715451060491
 40
0.6838536133609439
 40
0.7892357095344003
 40
0.8946178372172834
 40
1.0
 40
1.0
 40
1.0
 40
1.0
 10
37.58850040932169
 20
-6.73755439617183
 30
0.0
 10
37.29157399392177
 20
-6.837760956664927
 30
0.0
 10
36.02430495342917
 20
-7.265438203218109
 30
0.0
 10
33.78667321965
 20
-7.714099540192561
 30
0.0
 10
30.94692071439468
 20
-8.030440223485037
 30
0.0
 10
28.17905678693674
 20
-7.994907937111073
 30
0.0
 10
25.48252848643103
 20
-7.663614042523549
 30
0.0
 10
22.78602983457938
 20
-7.041513510550372
 30
0.0
 10
20.08952232195683
 20
-6.154387185100126
 30
0.0
 10
17.39301612188573
 20
-5.033179720014348
 30
0.0
 10
14.69650838889216
 20
-3.728108774994704
 30
0.0
 10
12.89883622942315
 20
-2.748990491741338
 30
0.0
 10
12.00000000000011
 20
-2.259431268585455
 30
0.0
  0
LINE
  5
C6
330
1F
100
AcDbEntity
  8
0
  6
Continuous
 62
     1
370
    25
100
AcDbLine
 10
92.0
 20
-0.5000000000000265
 30
0.0
 11
92.0
 21
1.771812373837345
 31
0.0
  0
LINE
  5
C7
330
1F
100
AcDbEntity
  8
0
  6
Continuous
 62
     1
370
    25
100
AcDbLine
 10
92.0
 20
-0.5000000000000301
 30
0.0
 11
90.99672350478289
 21
-1.202501764859687
 31
0.0
  0
SPLINE
  5
C8
330
1F
100
AcDbEntity
  8
0
  6
Continuous
 62
     1
370
    25
100
AcDbSpline
210
0.0
220
0.0
230
1.0
 70
     8
 71
     3
 72
    24
 73
    20
 74
     0
 42
0.000000001
 43
0.00000001
 40
0.0
 40
0.0
 40
0.0
 40
0.0
 40
0.0481162498321379
 40
0.109582472106631
 40
0.1710431931003726
 40
0.2325005985178278
 40
0.2939634131975989
 40
0.3554313922679846
 40
0.4169035995600104
 40
0.478379095072361
 40
0.5398569358192047
 40
0.6013361766838543
 40
0.6582881139430883
 40
0.7152400604673645
 40
0.7721920181978811
 40
0.8291439890756725
 40
0.8860959750415822
 40
0.943047978036233
 40
0.9999999999999999
 40
0.9999999999999999
 40
0.9999999999999999
 40
0.9999999999999999
 10
59.34871962986302
 20
-6.743879640980602
 30
0.0
 10
58.58928089809357
 20
-6.970261614499853
 30
0.0
 10
56.8596952813601
 20
-7.485835799627804
 30
0.0
 10
54.16009818303986
 20
-7.912010645955911
 30
0.0
 10
51.24998562967384
 20
-8.058556815269094
 30
0.0
 10
48.3399813109512
 20
-7.841493015208573
 30
0.0
 10
45.42978300526643
 20
-7.282239517381237
 30
0.0
 10
42.51930741865222
 20
-6.402167525070719
 30
0.0
 10
39.60859265503858
 20
-5.240791372088157
 30
0.0
 10
36.6976819885066
 20
-3.848930897465647
 30
0.0
 10
33.78667363529969
 20
-2.28783445621832
 30
0.0
 10
30.94692061211299
 20
-0.666934607803021
 30
0.0
 10
28.17905681345218
 20
0.9384359429823825
 30
0.0
 10
25.48252847932625
 20
2.467026244509043
 30
0.0
 10
22.78602983648306
 20
3.902085874253236
 30
0.0
 10
20.08952232144691
 20
5.191325399483484
 30
0.0
 10
17.3930161220217
 20
6.279007773469692
 30
0.0
 10
14.69650838885816
 20
7.150444807441603
 30
0.0
 10
12.89883622941182
 20
7.499685485836992
 30
0.0
 10
12.00000000000011
 20
7.674305854115255
 30
0.0
  0
SPLINE
  5
C9
330
1F
100
AcDbEntity
  8
0
  6
Continuous
 62
     4
370
    25
100
AcDbSpline
210
0.0
220
0.0
230
1.0
 70
    24
 71
     3
 72
    24
 73
    20
 74
     0
 42
0.000000001
 43
0.00000001
 40
0.0
 40
0.0
 40
0.0
 40
0.0
 40
0.0625000000000001
 40
0.0625000000000001
 40
0.1250000000000002
 40
0.1250000000000002
 40
0.2500000000000002
 40
0.2500000000000002
 40
0.3750000000000001
 40
0.3750000000000001
 40
0.5000000000000001
 40
0.5000000000000001
 40
0.6250000000000001
 40
0.6250000000000001
 40
0.75
 40
0.75
 40
0.875
 40
0.875
 40
1.0
 40
1.0
 40
1.0
 40
1.0
 10
12.00000000000001
 20
5.945460537176105
 30
0.0
 10
12.00000000000001
 20
5.8284995269753
 30
0.0
 10
12.00000000000001
 20
5.712675971618126
 30
0.0
 10
12.00000000000001
 20
5.484468296351109
 30
0.0
 10
12.00000000000001
 20
5.367196308895092
 30
0.0
 10
12.00000000000001
 20
4.991522555467821
 30
0.0
 10
12.00000000000001
 20
4.714560478228785
 30
0.0
 10
12.00000000000001
 20
4.103265781945659
 30
0.0
 10
12.00000000000001
 20
3.768756407653157
 30
0.0
 10
12.00000000000001
 20
3.045156405579462
 30
0.0
 10
12.0
 20
2.655868300891125
 30
0.0
 10
12.0
 20
1.838720253408023
 30
0.0
 10
12.00000000000001
 20
1.410779745599785
 30
0.0
 10
12.00000000000001
 20
0.5503699983439284
 30
0.0
 10
12.00000000000001
 20
0.1181399171625979
 30
0.0
 10
12.00000000000001
 20
-0.7003864326574355
 30
0.0
 10
12.00000000000001
 20
-1.086069082805786
 30
0.0
 10
12.00000000000001
 20
-1.757526145947521
 30
0.0
 10
12.00000000000001
 20
-2.042641018791241
 30
0.0
 10
12.00000000000001
 20
-2.259431268586189
 30
0.0
  0
SPLINE
  5
CA
330
1F
100
AcDbEntity
  8
0
  6
Continuous
 62
     1
370
    25
100
AcDbSpline
210
0.0
220
0.0
230
1.0
 70
     8
 71
     3
 72
    19
 73
    15
 74
     0
 42
0.000000001
 43
0.00000001
 40
0.0
 40
0.0
 40
0.0
 40
0.0
 40
0.0807965691657131
 40
0.1615931114203623
 40
0.2423896295167146
 40
0.3231861262078884
 40
0.4039826042473152
 40
0.4847790663886978
 40
0.5655755153859698
 40
0.6527947494973828
 40
0.7400119972927492
 40
0.8272259179560071
 40
0.9144351736940919
 40
1.0
 40
1.0
 40
1.0
 40
1.0
 10
12.0
 20
5.945460537176065
 30
0.0
 10
12.89883622941278
 20
5.576504815935873
 30
0.0
 10
14.69650838886129
 20
4.83859349634426
 30
0.0
 10
17.39301612200877
 20
3.488916572786433
 30
0.0
 10
20.08952232149506
 20
2.023639834027962
 30
0.0
 10
22.78602983630309
 20
0.4776511754854856
 30
0.0
 10
25.48252847999775
 20
-1.085223241056359
 30
0.0
 10
28.17905681094598
 20
-2.607398691800408
 30
0.0
 10
30.94692062178043
 20
-4.068930384967143
 30
0.0
 10
33.78667359601337
 20
-5.400982999816548
 30
0.0
 10
36.69768213474647
 20
-6.530987409514692
 30
0.0
 10
39.60859210939871
 20
-7.366744334846681
 30
0.0
 10
42.50108113852435
 20
-7.901689082223985
 30
0.0
 10
44.42324068125462
 20
-7.965269733492043
 30
0.0
 10
45.37517308604715
 20
-7.996757485114322
 30
0.0
  0
SPLINE
  5
CB
330
1F
100
AcDbEntity
  8
0
  6
Continuous
 62
     1
370
    25
100
AcDbSpline
210
0.0
220
0.0
230
1.0
 70
     8
 71
     3
 72
    11
 73
     7
 74
     0
 42
0.000000001
 43
0.00000001
 40
0.0
 40
0.0
 40
0.0
 40
0.0
 40
0.1589335855738238
 40
0.439289456978291
 40
0.7196449507113433
 40
1.0
 40
1.0
 40
1.0
 40
1.0
 10
81.12583853382662
 20
6.738480340264111
 30
0.0
 10
81.64877715490576
 20
6.903965071787146
 30
0.0
 10
83.09416971971464
 20
7.361361773601223
 30
0.0
 10
85.46201432160854
 20
7.794224507091638
 30
0.0
 10
88.22937085141393
 20
8.059864956154938
 30
0.0
 10
90.0742731077774
 20
7.959360298478771
 30
0.0
 10
90.99672350478289
 20
7.90910800947294
 30
0.0
  0
SPLINE
  5
CC
330
1F
100
AcDbEntity
  8
0
  6
Continuous
 62
     1
370
    25
100
AcDbSpline
210
0.0
220
0.0
230
1.0
 70
     8
 71
     3
 72
    20
 73
    16
 74
     0
 42
0.000000001
 43
0.00000001
 40
0.0
 40
0.0
 40
0.0
 40
0.0
 40
0.2499999999999991
 40
0.2499999999999991
 40
0.3749999999999993
 40
0.3749999999999993
 40
0.4999999999999994
 40
0.4999999999999994
 40
0.6249999999999996
 40
0.6249999999999996
 40
0.7499999999999997
 40
0.7499999999999997
 40
0.8749999999999998
 40
0.8749999999999998
 40
1.0
 40
1.0
 40
1.0
 40
1.0
 10
90.99672350478289
 20
7.909108009472951
 30
0.0
 10
90.99966505198196
 20
7.413100832431165
 30
0.0
 10
90.95239375729005
 20
6.927723577167954
 30
0.0
 10
90.78145342910503
 20
6.220834489490263
 30
0.0
 10
90.70640116497745
 20
5.986906706860469
 30
0.0
 10
90.522870889773
 20
5.547875627028888
 30
0.0
 10
90.41421349725766
 20
5.340637516351544
 30
0.0
 10
90.15958373356872
 20
4.9532821271396
 30
0.0
 10
90.01561625912308
 20
4.777003447864915
 30
0.0
 10
89.70285223432518
 20
4.467865028908149
 30
0.0
 10
89.53121629518984
 20
4.332295677425324
 30
0.0
 10
89.1691840905797
 20
4.107026517678904
 30
0.0
 10
88.98095212259636
 20
4.018045592823287
 30
0.0
 10
88.59152745728682
 20
3.882569098898113
 30
0.0
 10
88.38983040537715
 20
3.836445033137182
 30
0.0
 10
88.18880970275947
 20
3.811190297240512
 30
0.0
  0
SPLINE
  5
CD
330
1F
100
AcDbEntity
  8
0
  6
Continuous
 62
     1
370
    25
100
AcDbSpline
210
0.0
220
0.0
230
1.0
 70
     8
 71
     3
 72
     8
 73
     4
 74
     0
 42
0.000000001
 43
0.00000001
 40
0.0
 40
0.0
 40
0.0
 40
0.0
 40
1.0
 40
1.0
 40
1.0
 40
1.0
 10
92.0
 20
1.954277833643307
 30
0.0
 10
90.6637391539341
 20
2.67662901308665
 30
0.0
 10
89.40235313831812
 20
3.281456547503827
 30
0.0
 10
88.18880970275947
 20
3.81119029724051
 30
0.0
  0
LINE
  5
CE
330
1F
100
AcDbEntity
  8
0
  6
Continuous
 62
     1
370
    25
100
AcDbLine
 10
92.0
 20
1.778444218558062
 30
0.0
 11
92.0
 21
1.954277833643306
 31
0.0
  0
SPLINE
  5
CF
330
1F
100
AcDbEntity
  8
0
  6
Continuous
 62
     4
370
    25
100
AcDbSpline
210
0.0
220
0.0
230
1.0
 70
    24
 71
     3
 72
    11
 73
     7
 74
     0
 42
0.000000001
 43
0.00000001
 40
0.0
 40
0.0
 40
0.0
 40
0.0
 40
0.2342565969975368
 40
0.5976819391877718
 40
0.9716466409217083
 40
1.0
 40
1.0
 40
1.0
 40
1.0
 10
12.0
 20
-5.68016288311158
 30
0.0
 10
12.0
 20
-5.805538267891861
 30
0.0
 10
12.0
 20
-6.125420841370382
 30
0.0
 10
12.00000000000001
 20
-6.777395600884416
 30
0.0
 10
11.99999999999999
 20
-7.340940484960929
 30
0.0
 10
12.0
 20
-7.652358662872358
 30
0.0
 10
12.0
 20
-7.674305854117026
 30
0.0
  0
SPLINE
  5
D0
330
1F
100
AcDbEntity
  8
0
  6
Continuous
 62
     1
370
    25
100
AcDbSpline
210
0.0
220
0.0
230
1.0
 70
     8
 71
     3
 72
     8
 73
     4
 74
     0
 42
0.000000001
 43
0.00000001
 40
0.0
 40
0.0
 40
0.0
 40
0.0
 40
1.0
 40
1.0
 40
1.0
 40
1.0
 10
92.0
 20
-5.869334219275751
 30
0.0
 10
90.6637391539341
 20
-5.118291190075179
 30
0.0
 10
89.40235313831809
 20
-4.197643585156657
 30
0.0
 10
88.18880970275947
 20
-3.168624175679514
 30
0.0
  0
LINE
  5
D1
330
1F
100
AcDbEntity
  8
0
  6
Continuous
 62
     1
370
    25
100
AcDbLine
 10
92.0
 20
-7.801325586842101
 30
0.0
 11
92.0
 21
-5.869334219275751
 31
0.0
  0
SPLINE
  5
D2
330
1F
100
AcDbEntity
  8
0
  6
Continuous
 62
     1
370
    25
100
AcDbSpline
210
0.0
220
0.0
230
1.0
 70
    24
 71
     3
 72
    20
 73
    16
 74
     0
 42
0.000000001
 43
0.00000001
 40
0.0
 40
0.0
 40
0.0
 40
0.0
 40
0.2499999999999987
 40
0.2499999999999987
 40
0.3749999999999989
 40
0.3749999999999989
 40
0.4999999999999991
 40
0.4999999999999991
 40
0.6249999999999992
 40
0.6249999999999992
 40
0.7499999999999994
 40
0.7499999999999994
 40
0.8749999999999998
 40
0.8749999999999998
 40
1.0
 40
1.0
 40
1.0
 40
1.0
 10
90.99672350478289
 20
-1.20250176485968
 30
0.0
 10
90.99966505198194
 20
-1.200442071336915
 30
0.0
 10
90.95239375729003
 20
-1.233541788221091
 30
0.0
 10
90.781453429105
 20
-1.353235494600295
 30
0.0
 10
90.70640116497745
 20
-1.405787655702131
 30
0.0
 10
90.52287088977303
 20
-1.534296937889955
 30
0.0
 10
90.41421349725769
 20
-1.610379663211432
 30
0.0
 10
90.15958373356875
 20
-1.788673343198962
 30
0.0
 10
90.015616259123
 20
-1.889480454062828
 30
0.0
 10
89.70285223432518
 20
-2.108480181907117
 30
0.0
 10
89.53121629518981
 20
-2.228660960317379
 30
0.0
 10
89.16918409057968
 20
-2.482158639060073
 30
0.0
 10
88.9809521225963
 20
-2.613960081974101
 30
0.0
 10
88.59152745728679
 20
-2.886638168188622
 30
0.0
 10
88.38983040537715
 20
-3.027867964370447
 30
0.0
 10
88.18880970275947
 20
-3.168624175679549
 30
0.0
  0
LINE
  5
D3
330
1F
100
AcDbEntity
  8
0
  6
Continuous
 62
     4
370
    25
100
AcDbLine
 10
12.0
 20
5.94546053717608
 30
0.0
 11
12.0
 21
7.674305854117003
 31
0.0
  0
LINE
  5
D4
330
1F
100
AcDbEntity
  8
0
  6
Continuous
 62
     1
370
    25
100
AcDbLine
 10
92.0
 20
7.984359711335666
 30
0.0
 11
92.0
 21
8.000000000000009
 31
0.0
  0
ELLIPSE
  5
D5
330
1F
100
AcDbEntity
  8
0
  6
Continuous
 62
     1
370
    25
100
AcDbEllipse
 10
92.71407400337105
 20
-0.0000000000000037
 30
0.0
 11
11.42518405393689
 21
-5.350968460038310E-17
 31
0.0
210
0.0
220
0.0
230
1.0
 40
0.7002075382097124
 41
1.633337088591388
 42
1.721680906384341
  0
LINE
  5
D6
330
1F
100
AcDbEntity
  8
0
  6
Continuous
 62
     1
370
    25
100
AcDbLine
 10
92.0
 20
-0.4999999999999988
 30
0.0
 11
92.0
 21
-5.869334219275755
 31
0.0
  0
LINE
  5
D7
330
1F
100
AcDbEntity
  8
0
  6
Continuous
 62
     1
370
    25
100
AcDbLine
 10
92.0
 20
1.954277833643306
 30
0.0
 11
92.0
 21
7.984359711335666
 31
0.0
  0
LINE
  5
D8
330
1F
100
AcDbEntity
  8
중심선
100
AcDbLine
 10
-60.99999999999999
 20
-0.0000000000000089
 30
0.0
 11
95.00000000000003
 21
0.0000000000000102
 31
0.0
  0
CIRCLE
  5
D9
330
1F
100
AcDbEntity
  8
해칭선
100
AcDbCircle
 10
0.0000957232677342
 20
-0.0000000000000043
 30
0.0
 40
3.000000000000003
  0
INSERT
  5
DA
330
1F
100
AcDbEntity
  8
0
  6
Continuous
 62
     7
100
AcDbBlockReference
 66
     1
  2
블럭10
 10
2.559900751058212
 20
-52.04717430164393
 30
0.0
  0
ATTRIB
  5
DB
330
DA
100
AcDbEntity
  8
FORMAT
 62
     2
100
AcDbText
 10
-13.55936028837734
 20
-49.97180738881173
 30
0.0
 40
4.233333333333333
  1
SEME7216080E [ 4 FLUTE ]
 41
0.75
  7
SLDTEXTSTYLE0
 11
-13.55936028837734
 21
-52.0884740554784
 31
0.0
100
AcDbAttribute
  2
AUTOATTR0
 70
     0
 74
     1
  0
SEQEND
  5
DC
330
DA
100
AcDbEntity
  8
0
  6
Continuous
 62
     7
  0
HATCH
  5
DD
330
1F
100
AcDbEntity
  8
중심선
100
AcDbHatch
 10
0.0
 20
0.0
 30
0.0
210
0.0
220
0.0
230
1.0
  2
SOLID
 70
     1
 71
     0
 91
        1
 92
        0
 93
        4
 72
     1
 10
8.274810055439064
 20
-35.8
 11
4.828534811601781
 21
-35.8
 72
     1
 10
4.828534811601781
 20
-35.8
 11
2.70030495239773
 21
-38.33632558057257
 72
     1
 10
2.70030495239773
 20
-38.33632558057257
 11
6.14661328134819
 21
-38.33628615127008
 72
     1
 10
6.14661328134819
 20
-38.33628615127008
 11
8.274810055439064
 21
-35.8
 97
        0
 75
     0
 76
     1
 98
        1
 10
0.0
 20
0.0
  0
HATCH
  5
DE
330
1F
100
AcDbEntity
  8
중심선
100
AcDbHatch
 10
0.0
 20
0.0
 30
0.0
210
0.0
220
0.0
230
1.0
  2
SOLID
 70
     1
 71
     0
 91
        1
 92
        0
 93
        4
 72
     1
 10
13.28757404647504
 20
-35.79999999999997
 11
9.84129880263776
 21
-35.8
 72
     1
 10
9.84129880263776
 20
-35.8
 11
5.310160794280344
 21
-41.20000000000002
 72
     1
 10
5.310160794280344
 20
-41.20000000000002
 11
8.756436038117627
 21
-41.20000000000002
 72
     1
 10
8.756436038117627
 20
-41.20000000000002
 11
13.28757404647504
 21
-35.79999999999997
 97
        0
 75
     0
 76
     1
 98
        1
 10
0.0
 20
0.0
  0
HATCH
  5
DF
330
1F
100
AcDbEntity
  8
중심선
100
AcDbHatch
 10
0.0
 20
0.0
 30
0.0
210
0.0
220
0.0
230
1.0
  2
SOLID
 70
     1
 71
     0
 91
        1
 92
        0
 93
        4
 72
     1
 10
18.30033803751094
 20
-35.79999999999997
 11
14.85406279367382
 21
-35.79999999999997
 72
     1
 10
14.85406279367382
 20
-35.79999999999997
 11
7.805625891784546
 21
-44.20000000000002
 72
     1
 10
7.805625891784546
 20
-44.20000000000002
 11
11.25190113562183
 21
-44.20000000000002
 72
     1
 10
11.25190113562183
 20
-44.20000000000002
 11
18.30033803751094
 21
-35.79999999999997
 97
        0
 75
     0
 76
     1
 98
        1
 10
0.0
 20
0.0
  0
HATCH
  5
E0
330
1F
100
AcDbEntity
  8
중심선
100
AcDbHatch
 10
0.0
 20
0.0
 30
0.0
210
0.0
220
0.0
230
1.0
  2
SOLID
 70
     1
 71
     0
 91
        1
 92
        0
 93
        6
 72
     3
 10
23.10022846852311
 20
-40.00000000005127
 11
3.960054785062284
 21
1.540850780301639E-10
 40
0.3939339440162633
 50
17.09539180608434
 51
320.0019657685081
 73
     0
 72
     1
 10
24.78322812422368
 20
-38.58789400463833
 11
27.08852999792474
 21
-36.65356729459038
 72
     3
 10
23.10022846847026
 20
-40.00000000000015
 11
6.600054785286829
 21
-1.249000902703301E-13
 40
0.6363583540795982
 50
39.9987384933741
 51
368.4976242363725
 73
     1
 72
     1
 10
29.52556096037087
 20
-39.03999999993002
 11
21.78029577530619
 21
-39.03999999993002
 72
     1
 10
21.78029577530619
 20
-39.03999999993002
 11
21.78027073086025
 21
-40.95999999992991
 72
     1
 10
21.78027073086025
 20
-40.95999999992991
 11
26.22165050033229
 21
-40.95999999992988
 97
        0
 75
     0
 76
     1
 98
        1
 10
0.0
 20
0.0
  0
DIMENSION
  5
E1
330
1F
100
AcDbEntity
  8
치수문자_일반주서
100
AcDbDimension
  2
_D
 10
105.8068770590061
 20
8.000000000000059
 30
0.0
 11
105.806877059006
 21
18.54150000000006
 31
0.0
 70
   160
  1
%%c<>
 71
     2
 42
16.00000000000002
 52
-270.0
  3
SLDDIMSTYLE0
100
AcDbAlignedDimension
 13
92.00000000000003
 23
-8.000000000000018
 33
0.0
 14
92.00000000000003
 24
8.000000000000007
 34
0.0
 50
90.0000000000002
100
AcDbRotatedDimension
  0
DIMENSION
  5
EF
330
1F
100
AcDbEntity
  8
치수문자_일반주서
100
AcDbDimension
  2
_D_1
 10
92.0
 20
25.38913260158164
 30
0.0
 11
17.00000000000001
 21
25.38913260158164
 31
0.0
 70
   160
  1
<>
 71
     2
 42
150.0
  3
SLDDIMSTYLE1
100
AcDbAlignedDimension
 13
-58.0
 23
7.49999999999999
 33
0.0
 14
92.0
 24
8.000000000000009
 34
0.0
 50
-0.0000000000000041
100
AcDbRotatedDimension
  0
DIMENSION
  5
FA
330
1F
100
AcDbEntity
  8
치수문자_일반주서
100
AcDbDimension
  2
_D_2
 10
-71.50014603996277
 20
-8.000000000000068
 30
0.0
 11
-71.50014603996287
 21
18.54149999999995
 31
0.0
 70
   160
  1
%%c<>
 71
     2
 42
16.00000000000001
 52
-270.0
  3
SLDDIMSTYLE2
100
AcDbAlignedDimension
 13
-57.5
 23
8.000000000000002
 33
0.0
 14
-57.5
 24
-8.000000000000012
 34
0.0
 50
90.0000000000002
100
AcDbRotatedDimension
  0
DIMENSION
  5
108
330
1F
100
AcDbEntity
  8
치수문자_일반주서
100
AcDbDimension
  2
_D_3
 10
92.0
 20
18.52022415670291
 30
0.0
 11
52.00000000000001
 21
18.52022415670291
 31
0.0
 70
   160
  1
<>
 71
     2
 42
80.0
  3
SLDDIMSTYLE1
100
AcDbAlignedDimension
 13
12.0
 23
7.674305854115263
 33
0.0
 14
92.0
 24
8.000000000000009
 34
0.0
 50
-0.0000000000000025
100
AcDbRotatedDimension
  0
INSERT
  5
118
330
1F
100
AcDbEntity
  8
해칭선
100
AcDbBlockReference
  2
SW_DOWELSYMBOL_0
 10
0.0000957232677342
 20
-0.0000000000000043
 30
0.0
  0
ENDSEC
  0
SECTION
  2
OBJECTS
  0
DICTIONARY
  5
C
330
0
100
AcDbDictionary
281
     1
  3
ACAD_GROUP
350
D
  3
ACAD_IMAGE_VARS
350
13C
  3
ACAD_LAYOUT
350
1A
  3
ACAD_MLINESTYLE
350
17
  3
ACAD_PLOTSETTINGS
350
19
  3
ACAD_PLOTSTYLENAME
350
E
  3
ACAD_SCALELIST
350
47
  3
APPDATA
350
13A
  3
DWGPROPS
350
153
  0
DICTIONARY
  5
D
102
{ACAD_REACTORS
330
C
102
}
330
C
100
AcDbDictionary
281
     1
  0
RASTERVARIABLES
  5
13C
102
{ACAD_REACTORS
330
C
102
}
330
C
100
AcDbRasterVariables
 90
        0
 70
     1
 71
     1
 72
     1
  0
DICTIONARY
  5
1A
102
{ACAD_REACTORS
330
C
102
}
330
C
100
AcDbDictionary
281
     1
  3
Layout1
350
1E
  3
Layout2
350
26
  3
Model
350
22
  0
DICTIONARY
  5
17
102
{ACAD_REACTORS
330
C
102
}
330
C
100
AcDbDictionary
281
     1
  3
Standard
350
18
  0
DICTIONARY
  5
19
102
{ACAD_REACTORS
330
C
102
}
330
C
100
AcDbDictionary
281
     1
  0
ACDBDICTIONARYWDFLT
  5
E
102
{ACAD_REACTORS
330
C
102
}
330
C
100
AcDbDictionary
281
     1
  3
Normal
350
F
100
AcDbDictionaryWithDefault
340
F
  0
DICTIONARY
  5
47
102
{ACAD_REACTORS
330
C
102
}
330
C
100
AcDbDictionary
281
     1
  3
A0
350
48
  3
A1
350
49
  3
A2
350
4A
  3
A3
350
4B
  3
A4
350
4C
  3
A5
350
4D
  3
A6
350
4E
  3
A7
350
4F
  3
A8
350
50
  3
A9
350
51
  3
B0
350
52
  3
B1
350
53
  3
B2
350
54
  3
B3
350
55
  3
B4
350
56
  3
B5
350
57
  3
B6
350
58
  3
B7
350
59
  3
B8
350
5A
  3
B9
350
5B
  3
C0
350
5C
  3
C1
350
5D
  3
C2
350
5E
  3
C3
350
5F
  3
C4
350
60
  3
C5
350
61
  3
C6
350
62
  3
C7
350
63
  3
C8
350
64
  3
C9
350
65
  3
D0
350
66
  3
D1
350
67
  3
D2
350
68
  0
DICTIONARY
  5
13A
102
{ACAD_REACTORS
330
C
102
}
330
C
100
AcDbDictionary
281
     1
  0
XRECORD
  5
153
102
{ACAD_REACTORS
330
C
102
}
330
C
100
AcDbXrecord
280
     1
  1
DWGPROPS COOKIE
  2

  3

  4

  6

  7

  8
12014102
  9

300
=
301
=
302
=
303
=
304
=
305
=
306
=
307
=
308
=
309
=
 40
0.0
 41
2458260.209397234
 42
2458268.221196447
  1

 90
        0
  0
LAYOUT
  5
1E
102
{ACAD_REACTORS
330
1A
102
}
330
1A
100
AcDbPlotSettings
  1

  2
none_device
  4

  6

 40
0.0
 41
0.0
 42
0.0
 43
0.0
 44
0.0
 45
0.0
 46
0.0
 47
0.0
 48
0.0
 49
0.0
140
0.0
141
0.0
142
1.0
143
1.0
 70
   688
 72
     1
 73
     0
 74
     5
  7

 75
    16
147
1.0
148
0.0
149
0.0
100
AcDbLayout
  1
Layout1
 70
     1
 71
     1
 10
0.0
 20
0.0
 11
420.0
 21
297.0
 12
0.0
 22
0.0
 32
0.0
 14
1.000000000000000E+20
 24
1.000000000000000E+20
 34
1.000000000000000E+20
 15
-1.000000000000000E+20
 25
-1.000000000000000E+20
 35
-1.000000000000000E+20
146
0.0
 13
0.0
 23
0.0
 33
0.0
 16
1.0
 26
0.0
 36
0.0
 17
0.0
 27
1.0
 37
0.0
 76
     0
330
1B
  0
LAYOUT
  5
26
102
{ACAD_REACTORS
330
1A
102
}
330
1A
100
AcDbPlotSettings
  1

  2
none_device
  4

  6

 40
0.0
 41
0.0
 42
0.0
 43
0.0
 44
0.0
 45
0.0
 46
0.0
 47
0.0
 48
0.0
 49
0.0
140
0.0
141
0.0
142
1.0
143
1.0
 70
   688
 72
     1
 73
     0
 74
     5
  7

 75
    16
147
1.0
148
0.0
149
0.0
100
AcDbLayout
  1
Layout2
 70
     1
 71
     2
 10
0.0
 20
0.0
 11
0.0
 21
0.0
 12
0.0
 22
0.0
 32
0.0
 14
0.0
 24
0.0
 34
0.0
 15
0.0
 25
0.0
 35
0.0
146
0.0
 13
0.0
 23
0.0
 33
0.0
 16
1.0
 26
0.0
 36
0.0
 17
0.0
 27
1.0
 37
0.0
 76
     0
330
23
  0
LAYOUT
  5
22
102
{ACAD_REACTORS
330
1A
102
}
330
1A
100
AcDbPlotSettings
  1

  2
none_device
  4
ANSI_A_(11.00_x_8.50_Inches)
  6

 40
6.35
 41
19.05
 42
6.35000508
 43
19.05000254
 44
279.4
 45
215.9
 46
109.5985600283411
 47
104.4724395649713
 48
0.0
 49
0.0
140
0.0
141
0.0
142
0.0589085814011888
143
1.0
 70
  1696
 72
     0
 73
     0
 74
     0
  7

 75
     0
147
0.0235690232323232
148
0.0
149
0.0
100
AcDbLayout
  1
Model
 70
     1
 71
     0
 10
0.0
 20
0.0
 11
420.0
 21
297.0
 12
0.0
 22
0.0
 32
0.0
 14
-75.87514603996289
 24
-49.97180738881173
 34
0.0
 15
106.3572103923395
 25
29.76413260158164
 35
0.0
146
0.0
 13
0.0
 23
0.0
 33
0.0
 16
1.0
 26
0.0
 36
0.0
 17
0.0
 27
1.0
 37
0.0
 76
     0
330
1F
331
29
  0
MLINESTYLE
  5
18
102
{ACAD_REACTORS
330
17
102
}
330
17
100
AcDbMlineStyle
  2
Standard
 70
     0
  3

 62
   256
 51
90.0
 52
90.0
 71
     2
 49
0.5
 62
   256
  6
BYLAYER
 49
-0.5
 62
   256
  6
BYLAYER
  0
ACDBPLACEHOLDER
  5
F
102
{ACAD_REACTORS
330
E
102
}
330
E
  0
SCALE
  5
48
102
{ACAD_REACTORS
330
47
102
}
330
47
100
AcDbScale
 70
     0
300
1:1
140
1.0
141
1.0
290
     1
  0
SCALE
  5
49
102
{ACAD_REACTORS
330
47
102
}
330
47
100
AcDbScale
 70
     0
300
1:2
140
1.0
141
2.0
290
     0
  0
SCALE
  5
4A
102
{ACAD_REACTORS
330
47
102
}
330
47
100
AcDbScale
 70
     0
300
1:4
140
1.0
141
4.0
290
     0
  0
SCALE
  5
4B
102
{ACAD_REACTORS
330
47
102
}
330
47
100
AcDbScale
 70
     0
300
1:5
140
1.0
141
5.0
290
     0
  0
SCALE
  5
4C
102
{ACAD_REACTORS
330
47
102
}
330
47
100
AcDbScale
 70
     0
300
1:8
140
1.0
141
8.0
290
     0
  0
SCALE
  5
4D
102
{ACAD_REACTORS
330
47
102
}
330
47
100
AcDbScale
 70
     0
300
1:10
140
1.0
141
10.0
290
     0
  0
SCALE
  5
4E
102
{ACAD_REACTORS
330
47
102
}
330
47
100
AcDbScale
 70
     0
300
1:16
140
1.0
141
16.0
290
     0
  0
SCALE
  5
4F
102
{ACAD_REACTORS
330
47
102
}
330
47
100
AcDbScale
 70
     0
300
1:20
140
1.0
141
20.0
290
     0
  0
SCALE
  5
50
102
{ACAD_REACTORS
330
47
102
}
330
47
100
AcDbScale
 70
     0
300
1:30
140
1.0
141
30.0
290
     0
  0
SCALE
  5
51
102
{ACAD_REACTORS
330
47
102
}
330
47
100
AcDbScale
 70
     0
300
1:40
140
1.0
141
40.0
290
     0
  0
SCALE
  5
52
102
{ACAD_REACTORS
330
47
102
}
330
47
100
AcDbScale
 70
     0
300
1:50
140
1.0
141
50.0
290
     0
  0
SCALE
  5
53
102
{ACAD_REACTORS
330
47
102
}
330
47
100
AcDbScale
 70
     0
300
1:100
140
1.0
141
100.0
290
     0
  0
SCALE
  5
54
102
{ACAD_REACTORS
330
47
102
}
330
47
100
AcDbScale
 70
     0
300
2:1
140
2.0
141
1.0
290
     0
  0
SCALE
  5
55
102
{ACAD_REACTORS
330
47
102
}
330
47
100
AcDbScale
 70
     0
300
4:1
140
4.0
141
1.0
290
     0
  0
SCALE
  5
56
102
{ACAD_REACTORS
330
47
102
}
330
47
100
AcDbScale
 70
     0
300
8:1
140
8.0
141
1.0
290
     0
  0
SCALE
  5
57
102
{ACAD_REACTORS
330
47
102
}
330
47
100
AcDbScale
 70
     0
300
10:1
140
10.0
141
1.0
290
     0
  0
SCALE
  5
58
102
{ACAD_REACTORS
330
47
102
}
330
47
100
AcDbScale
 70
     0
300
100:1
140
100.0
141
1.0
290
     0
  0
SCALE
  5
59
102
{ACAD_REACTORS
330
47
102
}
330
47
100
AcDbScale
 70
     0
300
1/128" = 1'-0"
140
0.0078125
141
12.0
290
     0
  0
SCALE
  5
5A
102
{ACAD_REACTORS
330
47
102
}
330
47
100
AcDbScale
 70
     0
300
1/64" = 1'-0"
140
0.015625
141
12.0
290
     0
  0
SCALE
  5
5B
102
{ACAD_REACTORS
330
47
102
}
330
47
100
AcDbScale
 70
     0
300
1/32" = 1'-0"
140
0.03125
141
12.0
290
     0
  0
SCALE
  5
5C
102
{ACAD_REACTORS
330
47
102
}
330
47
100
AcDbScale
 70
     0
300
1/16" = 1'-0"
140
0.0625
141
12.0
290
     0
  0
SCALE
  5
5D
102
{ACAD_REACTORS
330
47
102
}
330
47
100
AcDbScale
 70
     0
300
3/32" = 1'-0"
140
0.09375
141
12.0
290
     0
  0
SCALE
  5
5E
102
{ACAD_REACTORS
330
47
102
}
330
47
100
AcDbScale
 70
     0
300
1/8" = 1'-0"
140
0.125
141
12.0
290
     0
  0
SCALE
  5
5F
102
{ACAD_REACTORS
330
47
102
}
330
47
100
AcDbScale
 70
     0
300
3/16" = 1'-0"
140
0.1875
141
12.0
290
     0
  0
SCALE
  5
60
102
{ACAD_REACTORS
330
47
102
}
330
47
100
AcDbScale
 70
     0
300
1/4" = 1'-0"
140
0.25
141
12.0
290
     0
  0
SCALE
  5
61
102
{ACAD_REACTORS
330
47
102
}
330
47
100
AcDbScale
 70
     0
300
3/8" = 1'-0"
140
0.375
141
12.0
290
     0
  0
SCALE
  5
62
102
{ACAD_REACTORS
330
47
102
}
330
47
100
AcDbScale
 70
     0
300
1/2" = 1'-0"
140
0.5
141
12.0
290
     0
  0
SCALE
  5
63
102
{ACAD_REACTORS
330
47
102
}
330
47
100
AcDbScale
 70
     0
300
3/4" = 1'-0"
140
0.75
141
12.0
290
     0
  0
SCALE
  5
64
102
{ACAD_REACTORS
330
47
102
}
330
47
100
AcDbScale
 70
     0
300
1" = 1'-0"
140
1.0
141
12.0
290
     0
  0
SCALE
  5
65
102
{ACAD_REACTORS
330
47
102
}
330
47
100
AcDbScale
 70
     0
300
1-1/2" = 1'-0"
140
1.5
141
12.0
290
     0
  0
SCALE
  5
66
102
{ACAD_REACTORS
330
47
102
}
330
47
100
AcDbScale
 70
     0
300
3" = 1'-0"
140
3.0
141
12.0
290
     0
  0
SCALE
  5
67
102
{ACAD_REACTORS
330
47
102
}
330
47
100
AcDbScale
 70
     0
300
6" = 1'-0"
140
6.0
141
12.0
290
     0
  0
SCALE
  5
68
102
{ACAD_REACTORS
330
47
102
}
330
47
100
AcDbScale
 70
     0
300
1'-0" = 1'-0"
140
12.0
141
12.0
290
     0
  0
ENDSEC
  0
EOF
