  0
SECTION
  2
HEADER
  9
$ACADVER
  1
AC1015
  9
$ACADMAINTVER
 70
     6
  9
$DWGCODEPAGE
  3
ANSI_949
  9
$INSBASE
 10
0.0
 20
0.0
 30
0.0
  9
$EXTMIN
 10
-65.18253323025054
 20
-49.97180738881173
 30
0.0
  9
$EXTMAX
 10
95.90832367066567
 20
29.76413260158164
 30
0.0
  9
$LIMMIN
 10
0.0
 20
0.0
  9
$LIMMAX
 10
420.0
 20
297.0
  9
$ORTHOMODE
 70
     0
  9
$REGENMODE
 70
     1
  9
$FILLMODE
 70
     1
  9
$QTEXTMODE
 70
     0
  9
$MIRRTEXT
 70
     1
  9
$LTSCALE
 40
1.0
  9
$ATTMODE
 70
     1
  9
$TEXTSIZE
 40
3.5
  9
$TRACEWID
 40
1.0
  9
$TEXTSTYLE
  7
Standard
  9
$CLAYER
  8
0
  9
$CELTYPE
  6
ByLayer
  9
$CECOLOR
 62
   256
  9
$CELTSCALE
 40
1.0
  9
$DISPSILH
 70
     0
  9
$DIMSCALE
 40
1.0
  9
$DIMASZ
 40
3.302
  9
$DIMEXO
 40
1.0
  9
$DIMDLI
 40
3.75
  9
$DIMRND
 40
0.0
  9
$DIMDLE
 40
0.0
  9
$DIMEXE
 40
1.0
  9
$DIMTP
 40
0.0
  9
$DIMTM
 40
0.0
  9
$DIMTXT
 40
3.5
  9
$DIMCEN
 40
2.5
  9
$DIMTSZ
 40
0.0
  9
$DIMTOL
 70
     0
  9
$DIMLIM
 70
     0
  9
$DIMTIH
 70
     1
  9
$DIMTOH
 70
     1
  9
$DIMSE1
 70
     0
  9
$DIMSE2
 70
     0
  9
$DIMTAD
 70
     1
  9
$DIMZIN
 70
     0
  9
$DIMBLK
  1

  9
$DIMASO
 70
     1
  9
$DIMSHO
 70
     1
  9
$DIMPOST
  1

  9
$DIMAPOST
  1

  9
$DIMALT
 70
     0
  9
$DIMALTD
 70
     3
  9
$DIMALTF
 40
0.0393700787401575
  9
$DIMLFAC
 40
1.0
  9
$DIMTOFL
 70
     1
  9
$DIMTVP
 40
0.0
  9
$DIMTIX
 70
     0
  9
$DIMSOXD
 70
     0
  9
$DIMSAH
 70
     0
  9
$DIMBLK1
  1

  9
$DIMBLK2
  1

  9
$DIMSTYLE
  2
ISO-25
  9
$DIMCLRD
 70
     0
  9
$DIMCLRE
 70
     0
  9
$DIMCLRT
 70
     0
  9
$DIMTFAC
 40
1.0
  9
$DIMGAP
 40
1.524
  9
$DIMJUST
 70
     0
  9
$DIMSD1
 70
     0
  9
$DIMSD2
 70
     0
  9
$DIMTOLJ
 70
     0
  9
$DIMTZIN
 70
     0
  9
$DIMALTZ
 70
     0
  9
$DIMALTTZ
 70
     0
  9
$DIMUPT
 70
     0
  9
$DIMDEC
 70
     2
  9
$DIMTDEC
 70
     2
  9
$DIMALTU
 70
     2
  9
$DIMALTTD
 70
     3
  9
$DIMTXSTY
  7
Standard
  9
$DIMAUNIT
 70
     0
  9
$DIMADEC
 70
     2
  9
$DIMALTRND
 40
0.0
  9
$DIMAZIN
 70
     0
  9
$DIMDSEP
 70
    44
  9
$DIMATFIT
 70
     3
  9
$DIMFRAC
 70
     0
  9
$DIMLDRBLK
  1

  9
$DIMLUNIT
 70
     2
  9
$DIMLWD
 70
    -2
  9
$DIMLWE
 70
    -2
  9
$DIMTMOVE
 70
     0
  9
$LUNITS
 70
     2
  9
$LUPREC
 70
     2
  9
$SKETCHINC
 40
1.0
  9
$FILLETRAD
 40
10.0
  9
$AUNITS
 70
     0
  9
$AUPREC
 70
     2
  9
$MENU
  1
.
  9
$ELEVATION
 40
0.0
  9
$PELEVATION
 40
0.0
  9
$THICKNESS
 40
0.0
  9
$LIMCHECK
 70
     0
  9
$CHAMFERA
 40
0.0
  9
$CHAMFERB
 40
0.0
  9
$CHAMFERC
 40
0.0
  9
$CHAMFERD
 40
0.0
  9
$SKPOLY
 70
     0
  9
$TDCREATE
 40
2458260.584208009
  9
$TDUCREATE
 40
2458260.209208009
  9
$TDUPDATE
 40
2458268.595177002
  9
$TDUUPDATE
 40
2458268.220177002
  9
$TDINDWG
 40
0.0004629282
  9
$TDUSRTIMER
 40
2458268.21971412
  9
$USRTIMER
 70
     1
  9
$ANGBASE
 50
0.0
  9
$ANGDIR
 70
     0
  9
$PDMODE
 70
     0
  9
$PDSIZE
 40
-1.0
  9
$PLINEWID
 40
0.0
  9
$SPLFRAME
 70
     0
  9
$SPLINETYPE
 70
     6
  9
$SPLINESEGS
 70
     8
  9
$HANDSEED
  5
149
  9
$SURFTAB1
 70
     6
  9
$SURFTAB2
 70
     6
  9
$SURFTYPE
 70
     6
  9
$SURFU
 70
     6
  9
$SURFV
 70
     6
  9
$UCSBASE
  2

  9
$UCSNAME
  2

  9
$UCSORG
 10
0.0
 20
0.0
 30
0.0
  9
$UCSXDIR
 10
1.0
 20
0.0
 30
0.0
  9
$UCSYDIR
 10
0.0
 20
1.0
 30
0.0
  9
$UCSORTHOREF
  2

  9
$UCSORTHOVIEW
 70
     0
  9
$UCSORGTOP
 10
0.0
 20
0.0
 30
0.0
  9
$UCSORGBOTTOM
 10
0.0
 20
0.0
 30
0.0
  9
$UCSORGLEFT
 10
0.0
 20
0.0
 30
0.0
  9
$UCSORGRIGHT
 10
0.0
 20
0.0
 30
0.0
  9
$UCSORGFRONT
 10
0.0
 20
0.0
 30
0.0
  9
$UCSORGBACK
 10
0.0
 20
0.0
 30
0.0
  9
$PUCSBASE
  2

  9
$PUCSNAME
  2

  9
$PUCSORG
 10
0.0
 20
0.0
 30
0.0
  9
$PUCSXDIR
 10
1.0
 20
0.0
 30
0.0
  9
$PUCSYDIR
 10
0.0
 20
1.0
 30
0.0
  9
$PUCSORTHOREF
  2

  9
$PUCSORTHOVIEW
 70
     0
  9
$PUCSORGTOP
 10
0.0
 20
0.0
 30
0.0
  9
$PUCSORGBOTTOM
 10
0.0
 20
0.0
 30
0.0
  9
$PUCSORGLEFT
 10
0.0
 20
0.0
 30
0.0
  9
$PUCSORGRIGHT
 10
0.0
 20
0.0
 30
0.0
  9
$PUCSORGFRONT
 10
0.0
 20
0.0
 30
0.0
  9
$PUCSORGBACK
 10
0.0
 20
0.0
 30
0.0
  9
$USERI1
 70
     0
  9
$USERI2
 70
     0
  9
$USERI3
 70
     0
  9
$USERI4
 70
     0
  9
$USERI5
 70
     0
  9
$USERR1
 40
0.0
  9
$USERR2
 40
0.0
  9
$USERR3
 40
0.0
  9
$USERR4
 40
0.0
  9
$USERR5
 40
0.0
  9
$WORLDVIEW
 70
     1
  9
$SHADEDGE
 70
     3
  9
$SHADEDIF
 70
    70
  9
$TILEMODE
 70
     1
  9
$MAXACTVP
 70
    64
  9
$PINSBASE
 10
0.0
 20
0.0
 30
0.0
  9
$PLIMCHECK
 70
     0
  9
$PEXTMIN
 10
1.000000000000000E+20
 20
1.000000000000000E+20
 30
1.000000000000000E+20
  9
$PEXTMAX
 10
-1.000000000000000E+20
 20
-1.000000000000000E+20
 30
-1.000000000000000E+20
  9
$PLIMMIN
 10
0.0
 20
0.0
  9
$PLIMMAX
 10
0.0
 20
0.0
  9
$UNITMODE
 70
     0
  9
$VISRETAIN
 70
     1
  9
$PLINEGEN
 70
     0
  9
$PSLTSCALE
 70
     1
  9
$TREEDEPTH
 70
  3020
  9
$CMLSTYLE
  2
Standard
  9
$CMLJUST
 70
     0
  9
$CMLSCALE
 40
20.0
  9
$PROXYGRAPHICS
 70
     1
  9
$MEASUREMENT
 70
     1
  9
$CELWEIGHT
370
    -1
  9
$ENDCAPS
280
     0
  9
$JOINSTYLE
280
     0
  9
$LWDISPLAY
290
     1
  9
$INSUNITS
 70
     4
  9
$HYPERLINKBASE
  1

  9
$STYLESHEET
  1

  9
$XEDIT
290
     1
  9
$CEPSNTYPE
380
     0
  9
$PSTYLEMODE
290
     1
  9
$FINGERPRINTGUID
  2
{E1CE73B2-06AC-44AF-B261-CCABBE751B8C}
  9
$VERSIONGUID
  2
{FAEB1C32-E019-11D5-929B-00C0DF256EC4}
  9
$EXTNAMES
290
     1
  9
$PSVPSCALE
 40
0.0
  9
$OLESTARTUP
290
     0
  0
ENDSEC
  0
SECTION
  2
CLASSES
  0
CLASS
  1
ACDBDICTIONARYWDFLT
  2
AcDbDictionaryWithDefault
  3
ObjectDBX Classes
 90
        0
280
     0
281
     0
  0
CLASS
  1
VISUALSTYLE
  2
AcDbVisualStyle
  3
ObjectDBX Classes
 90
     4095
280
     0
281
     0
  0
CLASS
  1
MATERIAL
  2
AcDbMaterial
  3
ObjectDBX Classes
 90
     1153
280
     0
281
     0
  0
CLASS
  1
SCALE
  2
AcDbScale
  3
ObjectDBX Classes
 90
     1153
280
     0
281
     0
  0
CLASS
  1
TABLESTYLE
  2
AcDbTableStyle
  3
ObjectDBX Classes
 90
     4095
280
     0
281
     0
  0
CLASS
  1
MLEADERSTYLE
  2
AcDbMLeaderStyle
  3
ACDB_MLEADERSTYLE_CLASS
 90
     4095
280
     0
281
     0
  0
CLASS
  1
SUN
  2
AcDbSun
  3
SCENEOE
 90
     1153
280
     0
281
     0
  0
CLASS
  1
ACDBPLACEHOLDER
  2
AcDbPlaceHolder
  3
ObjectDBX Classes
 90
        0
280
     0
281
     0
  0
CLASS
  1
LAYOUT
  2
AcDbLayout
  3
ObjectDBX Classes
 90
        0
280
     0
281
     0
  0
CLASS
  1
RASTERVARIABLES
  2
AcDbRasterVariables
  3
ISM
 90
        0
280
     0
281
     0
  0
ENDSEC
  0
SECTION
  2
TABLES
  0
TABLE
  2
VPORT
  5
8
330
0
100
AcDbSymbolTable
 70
     1
  0
VPORT
  5
29
330
8
100
AcDbSymbolTableRecord
100
AcDbViewportTableRecord
  2
*Active
 70
     0
 10
0.0
 20
0.0
 11
1.0
 21
1.0
 12
15.36289522020756
 22
-10.10383739361504
 13
0.0
 23
0.0
 14
10.0
 24
10.0
 15
10.0
 25
10.0
 16
0.0
 26
0.0
 36
1.0
 17
0.0
 27
0.0
 37
0.0
 40
94.4858913121362
 41
1.739018087855297
 42
50.0
 43
0.0
 44
0.0
 50
0.0
 51
0.0
 71
    16
 72
  2000
 73
     1
 74
     3
 75
     0
 76
     0
 77
     0
 78
     0
281
     0
 65
     1
110
0.0
120
0.0
130
0.0
111
1.0
121
0.0
131
0.0
112
0.0
122
1.0
132
0.0
 79
     0
146
0.0
  0
ENDTAB
  0
TABLE
  2
LTYPE
  5
5
330
0
100
AcDbSymbolTable
 70
     6
  0
LTYPE
  5
14
330
5
100
AcDbSymbolTableRecord
100
AcDbLinetypeTableRecord
  2
ByBlock
 70
     0
  3

 72
    65
 73
     0
 40
0.0
  0
LTYPE
  5
15
330
5
100
AcDbSymbolTableRecord
100
AcDbLinetypeTableRecord
  2
ByLayer
 70
     0
  3

 72
    65
 73
     0
 40
0.0
  0
LTYPE
  5
16
330
5
100
AcDbSymbolTableRecord
100
AcDbLinetypeTableRecord
  2
Continuous
 70
     0
  3
Solid line
 72
    65
 73
     0
 40
0.0
  0
LTYPE
  5
6E
330
5
100
AcDbSymbolTableRecord
100
AcDbLinetypeTableRecord
  2
HIDDEN
 70
     0
  3
Hidden __ __ __ __ __ __ __ __ __ __ __ __ __ __
 72
    65
 73
     2
 40
1.905
 49
1.27
 74
     0
 49
-0.635
 74
     0
  0
LTYPE
  5
6F
330
5
100
AcDbSymbolTableRecord
100
AcDbLinetypeTableRecord
  2
PHANTOM
 70
     0
  3
Phantom ______  __  __  ______  __  __  ______
 72
    65
 73
     6
 40
12.7
 49
6.35
 74
     0
 49
-1.27
 74
     0
 49
1.27
 74
     0
 49
-1.27
 74
     0
 49
1.27
 74
     0
 49
-1.27
 74
     0
  0
LTYPE
  5
70
330
5
100
AcDbSymbolTableRecord
100
AcDbLinetypeTableRecord
  2
CENTER
 70
     0
  3
Center ____ _ ____ _ ____ _ ____ _ ____ _ ____
 72
    65
 73
     4
 40
10.16
 49
6.35
 74
     0
 49
-1.27
 74
     0
 49
1.27
 74
     0
 49
-1.27
 74
     0
  0
LTYPE
  5
71
330
5
100
AcDbSymbolTableRecord
100
AcDbLinetypeTableRecord
  2
CENTERX2
 70
     0
  3
Center (2x) ________  __  ________  __  _____
 72
    65
 73
     4
 40
20.32
 49
12.7
 74
     0
 49
-2.54
 74
     0
 49
2.54
 74
     0
 49
-2.54
 74
     0
  0
LTYPE
  5
72
330
5
100
AcDbSymbolTableRecord
100
AcDbLinetypeTableRecord
  2
DOT2
 70
     0
  3
Dot (.5x) ........................................
 72
    65
 73
     2
 40
0.635
 49
0.0
 74
     0
 49
-0.635
 74
     0
  0
ENDTAB
  0
TABLE
  2
LAYER
  5
2
330
0
100
AcDbSymbolTable
 70
    17
  0
LAYER
  5
10
330
2
100
AcDbSymbolTableRecord
100
AcDbLayerTableRecord
  2
0
 70
     0
 62
     7
  6
Continuous
370
    -3
390
F
  0
LAYER
  5
73
330
2
100
AcDbSymbolTableRecord
100
AcDbLayerTableRecord
  2
FORMAT
 70
     0
 62
     2
  6
Continuous
370
    -3
390
F
  0
LAYER
  5
74
330
2
100
AcDbSymbolTableRecord
100
AcDbLayerTableRecord
  2
외형선
 70
     0
 62
   100
  6
Continuous
370
    35
390
F
  0
LAYER
  5
75
330
2
100
AcDbSymbolTableRecord
100
AcDbLayerTableRecord
  2
숨은선
 70
     0
 62
     2
  6
HIDDEN
370
    25
390
F
  0
LAYER
  5
76
330
2
100
AcDbSymbolTableRecord
100
AcDbLayerTableRecord
  2
중심선
 70
     0
 62
     1
  6
CENTERX2
370
    -3
390
F
  0
LAYER
  5
77
330
2
100
AcDbSymbolTableRecord
100
AcDbLayerTableRecord
  2
파단선
 70
     0
 62
     4
  6
Continuous
370
    -3
390
F
  0
LAYER
  5
78
330
2
100
AcDbSymbolTableRecord
100
AcDbLayerTableRecord
  2
해칭선
 70
     0
 62
   100
  6
Continuous
370
    -3
390
F
  0
LAYER
  5
79
330
2
100
AcDbSymbolTableRecord
100
AcDbLayerTableRecord
  2
가는실선
 70
     0
 62
     4
  6
Continuous
370
    -3
390
F
  0
LAYER
  5
7A
330
2
100
AcDbSymbolTableRecord
100
AcDbLayerTableRecord
  2
치수_보조선
 70
     0
 62
     4
  6
Continuous
370
    -3
390
F
  0
LAYER
  5
7B
330
2
100
AcDbSymbolTableRecord
100
AcDbLayerTableRecord
  2
치수문자_일반주서
 70
     0
 62
     7
  6
Continuous
370
    25
390
F
  0
LAYER
  5
7C
330
2
100
AcDbSymbolTableRecord
100
AcDbLayerTableRecord
  2
개별주서
 70
     0
 62
   100
  6
Continuous
370
    35
390
F
  0
LAYER
  5
7D
330
2
100
AcDbSymbolTableRecord
100
AcDbLayerTableRecord
  2
중간선
 70
     0
 62
     2
  6
Continuous
370
    25
390
F
  0
LAYER
  5
7E
330
2
100
AcDbSymbolTableRecord
100
AcDbLayerTableRecord
  2
윤곽선
 70
     0
 62
     3
  6
Continuous
370
    50
390
F
  0
LAYER
  5
7F
330
2
100
AcDbSymbolTableRecord
100
AcDbLayerTableRecord
  2
중심마크
 70
     0
 62
   100
  6
Continuous
370
    35
390
F
  0
LAYER
  5
80
330
2
100
AcDbSymbolTableRecord
100
AcDbLayerTableRecord
  2
가상선
 70
     0
 62
     4
  6
PHANTOM
370
    -3
390
F
  0
LAYER
  5
81
330
2
100
AcDbSymbolTableRecord
100
AcDbLayerTableRecord
  2
특수지정선
 70
     0
 62
     5
  6
CENTERX2
370
    70
390
F
  0
LAYER
  5
139
330
2
100
AcDbSymbolTableRecord
100
AcDbLayerTableRecord
  2
Defpoints
 70
     0
 62
     7
  6
Continuous
290
     0
370
    -3
390
F
  0
ENDTAB
  0
TABLE
  2
STYLE
  5
3
330
0
100
AcDbSymbolTable
 70
     2
  0
STYLE
  5
11
330
3
100
AcDbSymbolTableRecord
100
AcDbTextStyleTableRecord
  2
Standard
 70
     0
 40
0.0
 41
1.0
 50
0.0
 71
     0
 42
3.5
  3
txt
  4

  0
STYLE
  5
97
330
3
100
AcDbSymbolTableRecord
100
AcDbTextStyleTableRecord
  2
SLDTEXTSTYLE0
 70
     0
 40
0.0
 41
0.75
 50
0.0
 71
     0
 42
3.5
  3
TXT
  4

  0
ENDTAB
  0
TABLE
  2
VIEW
  5
6
330
0
100
AcDbSymbolTable
 70
     0
  0
ENDTAB
  0
TABLE
  2
UCS
  5
7
330
0
100
AcDbSymbolTable
 70
     0
  0
ENDTAB
  0
TABLE
  2
APPID
  5
9
330
0
100
AcDbSymbolTable
 70
     1
  0
APPID
  5
12
330
9
100
AcDbSymbolTableRecord
100
AcDbRegAppTableRecord
  2
ACAD
 70
     0
  0
ENDTAB
  0
TABLE
  2
DIMSTYLE
  5
A
330
0
100
AcDbSymbolTable
 70
     4
100
AcDbDimStyleTable
  0
DIMSTYLE
105
27
330
A
100
AcDbSymbolTableRecord
100
AcDbDimStyleTableRecord
  2
ISO-25
 70
     0
 41
2.5
 42
0.625
 43
3.75
 44
1.25
 73
     0
 74
     0
 77
     1
 78
     8
140
2.5
141
2.5
143
0.03937007874016
147
0.625
171
     3
172
     1
178
     0
271
     2
272
     2
274
     3
278
    44
283
     0
284
     8
340
11
  0
DIMSTYLE
105
DE
102
{ACAD_REACTORS
330
DD
102
}
330
A
100
AcDbSymbolTableRecord
100
AcDbDimStyleTableRecord
  2
SLDDIMSTYLE0
 70
     0
 41
3.302
 44
0.0
 45
0.000000001
 73
     0
 74
     0
 77
     1
 78
    12
 79
     3
140
3.5
147
0.875
172
     1
173
     1
178
     0
271
     1
272
     1
276
     2
284
    12
289
     0
340
97
  0
DIMSTYLE
105
EC
102
{ACAD_REACTORS
330
EB
330
104
102
}
330
A
100
AcDbSymbolTableRecord
100
AcDbDimStyleTableRecord
  2
SLDDIMSTYLE1
 70
     0
 41
3.302
 44
0.0
 45
0.000000001
 73
     0
 74
     0
 77
     1
 78
    12
 79
     3
140
3.5
147
0.875
173
     1
178
     0
271
     2
272
     2
276
     2
284
    12
340
97
  0
DIMSTYLE
105
F7
102
{ACAD_REACTORS
330
F6
102
}
330
A
100
AcDbSymbolTableRecord
100
AcDbDimStyleTableRecord
  2
SLDDIMSTYLE2
 70
     0
 41
3.302
 44
0.0
 45
0.000000001
 73
     0
 74
     0
 77
     1
 78
    12
 79
     3
140
3.5
147
0.875
172
     1
173
     1
178
     0
271
     2
272
     2
276
     2
284
    12
289
     0
340
97
  0
ENDTAB
  0
TABLE
  2
BLOCK_RECORD
  5
1
330
0
100
AcDbSymbolTable
 70
     7
  0
BLOCK_RECORD
  5
1F
330
1
100
AcDbSymbolTableRecord
100
AcDbBlockTableRecord
  2
*Model_Space
340
22
  0
BLOCK_RECORD
  5
1B
330
1
100
AcDbSymbolTableRecord
100
AcDbBlockTableRecord
  2
*Paper_Space
340
1E
  0
BLOCK_RECORD
  5
23
330
1
100
AcDbSymbolTableRecord
100
AcDbBlockTableRecord
  2
*Paper_Space0
340
26
  0
BLOCK_RECORD
  5
82
330
1
100
AcDbSymbolTableRecord
100
AcDbBlockTableRecord
  2
블럭10
340
0
102
{BLKREFS
331
D6
102
}
  0
BLOCK_RECORD
  5
DF
330
1
100
AcDbSymbolTableRecord
100
AcDbBlockTableRecord
  2
_D
340
0
  0
BLOCK_RECORD
  5
ED
330
1
100
AcDbSymbolTableRecord
100
AcDbBlockTableRecord
  2
_D_1
340
0
  0
BLOCK_RECORD
  5
F8
330
1
100
AcDbSymbolTableRecord
100
AcDbBlockTableRecord
  2
_D_2
340
0
  0
BLOCK_RECORD
  5
105
330
1
100
AcDbSymbolTableRecord
100
AcDbBlockTableRecord
  2
_D_3
340
0
  0
BLOCK_RECORD
  5
10E
330
1
100
AcDbSymbolTableRecord
100
AcDbBlockTableRecord
  2
SW_DOWELSYMBOL_0
340
0
102
{BLKREFS
331
114
102
}
  0
ENDTAB
  0
ENDSEC
  0
SECTION
  2
BLOCKS
  0
BLOCK
  5
20
330
1F
100
AcDbEntity
  8
0
100
AcDbBlockBegin
  2
*Model_Space
 70
     0
 10
0.0
 20
0.0
 30
0.0
  3
*Model_Space
  1

  0
ENDBLK
  5
21
330
1F
100
AcDbEntity
  8
0
100
AcDbBlockEnd
  0
BLOCK
  5
1C
330
1B
100
AcDbEntity
 67
     1
  8
0
100
AcDbBlockBegin
  2
*Paper_Space
 70
     0
 10
0.0
 20
0.0
 30
0.0
  3
*Paper_Space
  1

  0
ENDBLK
  5
1D
330
1B
100
AcDbEntity
 67
     1
  8
0
100
AcDbBlockEnd
  0
BLOCK
  5
24
330
23
100
AcDbEntity
  8
0
100
AcDbBlockBegin
  2
*Paper_Space0
 70
     0
 10
0.0
 20
0.0
 30
0.0
  3
*Paper_Space0
  1

  0
ENDBLK
  5
25
330
23
100
AcDbEntity
  8
0
100
AcDbBlockEnd
  0
BLOCK
  5
83
330
82
100
AcDbEntity
  8
0
100
AcDbBlockBegin
  2
블럭10
 70
     2
 10
0.0
 20
0.0
 30
0.0
  3
블럭10
  1

  0
ELLIPSE
  5
85
330
82
100
AcDbEntity
  8
중심선
100
AcDbEllipse
 10
20.54032771741204
 20
12.0471743016438
 30
0.0
 11
6.600054785286829
 21
-1.261213355974178E-13
 31
0.0
210
0.0
220
0.0
230
1.0
 40
0.636358354079598
 41
0.9219305317359503
 42
6.513795318482858
  0
ELLIPSE
  5
86
330
82
100
AcDbEntity
  8
중심선
100
AcDbEllipse
 10
20.54032771746488
 20
12.04717430159265
 30
0.0
 11
3.960054785062283
 21
1.540847449632565E-10
 31
0.0
210
0.0
220
0.0
230
1.0
 40
0.3939339440162632
 41
1.131841032648279
 42
5.62031148352944
  0
LINE
  5
87
330
82
100
AcDbEntity
  8
중심선
100
AcDbLine
 10
2.268634060543552
 20
16.24717430164393
 30
0.0
 11
5.714909304380834
 21
16.24717430164393
 31
0.0
  0
LINE
  5
88
330
82
100
AcDbEntity
  8
중심선
100
AcDbLine
 10
5.245725140726316
 20
7.84717430164391
 30
0.0
 11
8.692000384563599
 21
7.84717430164391
 31
0.0
  0
LINE
  5
89
330
82
100
AcDbEntity
  8
중심선
100
AcDbLine
 10
15.74043728645272
 20
16.24717430164393
 30
0.0
 11
8.692000384563599
 21
7.84717430164391
 31
0.0
  0
LINE
  5
8A
330
82
100
AcDbEntity
  8
중심선
100
AcDbLine
 10
0.1404042013395286
 20
13.71084872107135
 30
0.0
 11
3.58671253028996
 21
13.71088815037384
 31
0.0
  0
LINE
  5
8B
330
82
100
AcDbEntity
  8
중심선
100
AcDbLine
 10
2.750260043222114
 20
10.84717430164391
 30
0.0
 11
6.196535287059397
 21
10.84717430164391
 31
0.0
  0
LINE
  5
8C
330
82
100
AcDbEntity
  8
중심선
100
AcDbLine
 10
12.29416204261559
 20
16.24717430164393
 30
0.0
 11
5.245725140726316
 21
7.84717430164391
 31
0.0
  0
LINE
  5
8D
330
82
100
AcDbEntity
  8
중심선
100
AcDbLine
 10
10.72767329541681
 20
16.24717430164393
 30
0.0
 11
6.196535287059397
 21
10.84717430164391
 31
0.0
  0
LINE
  5
8E
330
82
100
AcDbEntity
  8
중심선
100
AcDbLine
 10
7.28139805157953
 20
16.24717430164393
 30
0.0
 11
2.750260043222114
 21
10.84717430164391
 31
0.0
  0
LINE
  5
8F
330
82
100
AcDbEntity
  8
중심선
100
AcDbLine
 10
5.714909304380834
 20
16.24717430164393
 30
0.0
 11
3.58671253028996
 21
13.71088815037384
 31
0.0
  0
LINE
  5
90
330
82
100
AcDbEntity
  8
중심선
100
AcDbLine
 10
2.268634060543552
 20
16.24717430164393
 30
0.0
 11
0.1404042013395286
 21
13.71084872107135
 31
0.0
  0
LINE
  5
91
330
82
100
AcDbEntity
  8
중심선
100
AcDbLine
 10
7.28139805157953
 20
16.24717430164393
 30
0.0
 11
10.72767329541681
 21
16.24717430164393
 31
0.0
  0
LINE
  5
92
330
82
100
AcDbEntity
  8
중심선
100
AcDbLine
 10
12.29416204261559
 20
16.24717430164393
 30
0.0
 11
15.74043728645272
 21
16.24717430164393
 31
0.0
  0
LINE
  5
93
330
82
100
AcDbEntity
  8
중심선
100
AcDbLine
 10
19.22036997980202
 20
11.08717430171403
 30
0.0
 11
23.66174974927406
 21
11.08717430171406
 31
0.0
  0
LINE
  5
94
330
82
100
AcDbEntity
  8
중심선
100
AcDbLine
 10
19.22039502424796
 20
13.00717430171391
 30
0.0
 11
19.22036997980202
 21
11.08717430171403
 31
0.0
  0
LINE
  5
95
330
82
100
AcDbEntity
  8
중심선
100
AcDbLine
 10
19.22039502424796
 20
13.00717430171391
 30
0.0
 11
26.96566020931264
 21
13.00717430171391
 31
0.0
  0
LINE
  5
96
330
82
100
AcDbEntity
  8
중심선
100
AcDbLine
 10
22.22332737316547
 20
13.45928029700563
 30
0.0
 11
24.52862924686651
 21
15.39360700705356
 31
0.0
  0
ATTDEF
  5
98
330
82
100
AcDbEntity
  8
FORMAT
 62
     2
100
AcDbText
 10
-16.11926103943555
 20
2.075366912832191
 30
0.0
 40
4.233333333333333
  1
SEME7216070E [ 4 FLUTE ]
 41
0.75
  7
SLDTEXTSTYLE0
 11
-16.11926103943555
 21
-0.0412997538344756
 31
0.0
100
AcDbAttributeDefinition
  3

  2
AUTOATTR0
 70
     0
 74
     1
  0
ENDBLK
  5
84
330
82
100
AcDbEntity
  8
0
100
AcDbBlockEnd
  0
BLOCK
  5
E0
330
DF
100
AcDbEntity
  8
0
100
AcDbBlockBegin
  2
_D
 70
     0
 10
0.0
 20
0.0
 30
0.0
  3
_D
  1

  0
LINE
  5
E2
330
DF
100
AcDbEntity
  8
치수문자_일반주서
 62
     0
370
    -2
100
AcDbLine
 10
82.06250000000001
 20
-8.000000000000018
 30
0.0
 11
95.35799033733232
 21
-7.999999999999968
 31
0.0
  0
LINE
  5
E3
330
DF
100
AcDbEntity
  8
치수문자_일반주서
 62
     0
370
    -2
100
AcDbLine
 10
82.06250000000001
 20
8.000000000000007
 30
0.0
 11
95.35799033733227
 21
8.000000000000057
 31
0.0
  0
LINE
  5
E4
330
DF
100
AcDbEntity
  8
치수문자_일반주서
 62
     0
370
    -2
100
AcDbLine
 10
95.35799033733232
 20
-7.999999999999968
 30
0.0
 11
95.35799033733221
 21
22.47900000000006
 31
0.0
  0
LINE
  5
E5
330
DF
100
AcDbEntity
  8
치수문자_일반주서
 62
     0
370
    -2
100
AcDbLine
 10
95.35799033733232
 20
-7.999999999999968
 30
0.0
 11
95.35799033733227
 21
8.000000000000057
 31
0.0
  0
LINE
  5
E6
330
DF
100
AcDbEntity
  8
치수문자_일반주서
 62
     0
370
    -2
100
AcDbLine
 10
95.35799033733234
 20
-11.30199999999997
 30
0.0
 11
95.35799033733235
 21
-14.60399999999997
 31
0.0
  0
LINE
  5
E7
330
DF
100
AcDbEntity
  8
치수문자_일반주서
 62
     0
370
    -2
100
AcDbLine
 10
95.35799033733225
 20
11.30200000000006
 30
0.0
 11
95.35799033733224
 21
14.60400000000006
 31
0.0
  0
SOLID
  5
E8
330
DF
100
AcDbEntity
  8
치수문자_일반주서
 62
     0
100
AcDbTrace
 10
95.90832367066567
 20
-11.30199999999997
 30
0.0
 11
94.80765700399901
 21
-11.30199999999997
 31
0.0
 12
95.35799033733232
 22
-7.999999999999968
 32
0.0
 13
95.35799033733232
 23
-7.999999999999968
 33
0.0
  0
SOLID
  5
E9
330
DF
100
AcDbEntity
  8
치수문자_일반주서
 62
     0
100
AcDbTrace
 10
94.80765700399893
 20
11.30200000000005
 30
0.0
 11
95.90832367066558
 21
11.30200000000006
 31
0.0
 12
95.35799033733227
 22
8.000000000000057
 32
0.0
 13
95.35799033733227
 23
8.000000000000057
 33
0.0
  0
MTEXT
  5
EA
330
DF
100
AcDbEntity
  8
치수문자_일반주서
 62
     0
100
AcDbMText
 10
90.98299033733223
 20
18.54150000000004
 30
0.0
 40
3.5
 41
0.0
 71
     2
 72
     1
  1
\A1;%%c16
  7
SLDTEXTSTYLE0
 11
-3.552713678800495E-15
 21
1.0
 31
0.0
 73
     1
 44
1.0
  0
POINT
  5
143
330
DF
100
AcDbEntity
  8
Defpoints
 62
     0
100
AcDbPoint
 10
82.00000000000001
 20
-8.000000000000018
 30
0.0
  0
POINT
  5
144
330
DF
100
AcDbEntity
  8
Defpoints
 62
     0
100
AcDbPoint
 10
82.00000000000001
 20
8.000000000000007
 30
0.0
  0
POINT
  5
145
330
DF
100
AcDbEntity
  8
Defpoints
 62
     0
100
AcDbPoint
 10
95.35799033733225
 20
8.000000000000057
 30
0.0
  0
ENDBLK
  5
E1
330
DF
100
AcDbEntity
  8
0
100
AcDbBlockEnd
  0
BLOCK
  5
EE
330
ED
100
AcDbEntity
  8
0
100
AcDbBlockBegin
  2
_D_1
 70
     0
 10
0.0
 20
0.0
 30
0.0
  3
_D_1
  1

  0
LINE
  5
F0
330
ED
100
AcDbEntity
  8
치수문자_일반주서
 62
     0
370
    -2
100
AcDbLine
 10
-48.0
 20
7.56249999999999
 30
0.0
 11
-47.99999999999999
 21
25.38913260158164
 31
0.0
  0
LINE
  5
F1
330
ED
100
AcDbEntity
  8
치수문자_일반주서
 62
     0
370
    -2
100
AcDbLine
 10
82.00000000000001
 20
8.062500000000002
 30
0.0
 11
82.00000000000003
 21
25.38913260158164
 31
0.0
  0
LINE
  5
F2
330
ED
100
AcDbEntity
  8
치수문자_일반주서
 62
     0
370
    -2
100
AcDbLine
 10
-44.69799999999999
 20
25.38913260158164
 30
0.0
 11
78.69800000000004
 21
25.38913260158164
 31
0.0
  0
SOLID
  5
F3
330
ED
100
AcDbEntity
  8
치수문자_일반주서
 62
     0
100
AcDbTrace
 10
-44.69799999999999
 20
25.93946593491497
 30
0.0
 11
-44.69799999999999
 21
24.83879926824831
 31
0.0
 12
-47.99999999999999
 22
25.38913260158164
 32
0.0
 13
-47.99999999999999
 23
25.38913260158164
 33
0.0
  0
SOLID
  5
F4
330
ED
100
AcDbEntity
  8
치수문자_일반주서
 62
     0
100
AcDbTrace
 10
78.69800000000004
 20
24.83879926824831
 30
0.0
 11
78.69800000000004
 21
25.93946593491497
 31
0.0
 12
82.00000000000003
 22
25.38913260158164
 32
0.0
 13
82.00000000000003
 23
25.38913260158164
 33
0.0
  0
MTEXT
  5
F5
330
ED
100
AcDbEntity
  8
치수문자_일반주서
 62
     0
100
AcDbMText
 10
17.0
 20
29.76413260158164
 30
0.0
 40
3.5
 41
0.0
 71
     2
 72
     1
  1
\A1;130
  7
SLDTEXTSTYLE0
 73
     1
 44
1.0
  0
POINT
  5
13A
330
ED
100
AcDbEntity
  8
Defpoints
 62
     0
100
AcDbPoint
 10
-48.0
 20
7.49999999999999
 30
0.0
  0
POINT
  5
13B
330
ED
100
AcDbEntity
  8
Defpoints
 62
     0
100
AcDbPoint
 10
82.00000000000001
 20
8.000000000000002
 30
0.0
  0
POINT
  5
13C
330
ED
100
AcDbEntity
  8
Defpoints
 62
     0
100
AcDbPoint
 10
82.00000000000001
 20
25.38913260158164
 30
0.0
  0
ENDBLK
  5
EF
330
ED
100
AcDbEntity
  8
0
100
AcDbBlockEnd
  0
BLOCK
  5
F9
330
F8
100
AcDbEntity
  8
0
100
AcDbBlockBegin
  2
_D_2
 70
     0
 10
0.0
 20
0.0
 30
0.0
  3
_D_2
  1

  0
LINE
  5
FB
330
F8
100
AcDbEntity
  8
치수문자_일반주서
 62
     0
370
    -2
100
AcDbLine
 10
-47.56249999999999
 20
8.000000000000002
 30
0.0
 11
-60.8075332302505
 21
7.999999999999952
 31
0.0
  0
LINE
  5
FC
330
F8
100
AcDbEntity
  8
치수문자_일반주서
 62
     0
370
    -2
100
AcDbLine
 10
-47.56249999999999
 20
-8.000000000000012
 30
0.0
 11
-60.80753323025044
 21
-8.000000000000064
 31
0.0
  0
LINE
  5
FD
330
F8
100
AcDbEntity
  8
치수문자_일반주서
 62
     0
370
    -2
100
AcDbLine
 10
-60.8075332302505
 20
7.999999999999952
 30
0.0
 11
-60.80753323025055
 21
22.47899999999995
 31
0.0
  0
LINE
  5
FE
330
F8
100
AcDbEntity
  8
치수문자_일반주서
 62
     0
370
    -2
100
AcDbLine
 10
-60.8075332302505
 20
7.999999999999952
 30
0.0
 11
-60.80753323025044
 21
-8.000000000000064
 31
0.0
  0
LINE
  5
FF
330
F8
100
AcDbEntity
  8
치수문자_일반주서
 62
     0
370
    -2
100
AcDbLine
 10
-60.80753323025051
 20
11.30199999999995
 30
0.0
 11
-60.80753323025053
 21
14.60399999999995
 31
0.0
  0
LINE
  5
100
330
F8
100
AcDbEntity
  8
치수문자_일반주서
 62
     0
370
    -2
100
AcDbLine
 10
-60.80753323025043
 20
-11.30200000000006
 30
0.0
 11
-60.80753323025041
 21
-14.60400000000006
 31
0.0
  0
SOLID
  5
101
330
F8
100
AcDbEntity
  8
치수문자_일반주서
 62
     0
100
AcDbTrace
 10
-61.35786656358385
 20
11.30199999999995
 30
0.0
 11
-60.25719989691718
 21
11.30199999999995
 31
0.0
 12
-60.8075332302505
 22
7.999999999999952
 32
0.0
 13
-60.8075332302505
 23
7.999999999999952
 33
0.0
  0
SOLID
  5
102
330
F8
100
AcDbEntity
  8
치수문자_일반주서
 62
     0
100
AcDbTrace
 10
-60.25719989691709
 20
-11.30200000000006
 30
0.0
 11
-61.35786656358376
 21
-11.30200000000007
 31
0.0
 12
-60.80753323025044
 22
-8.000000000000064
 32
0.0
 13
-60.80753323025044
 23
-8.000000000000064
 33
0.0
  0
MTEXT
  5
103
330
F8
100
AcDbEntity
  8
치수문자_일반주서
 62
     0
100
AcDbMText
 10
-65.18253323025053
 20
18.54149999999993
 30
0.0
 40
3.5
 41
0.0
 71
     2
 72
     1
  1
\A1;%%c16
  7
SLDTEXTSTYLE0
 11
-3.552713678800498E-15
 21
1.0
 31
0.0
 73
     1
 44
1.0
  0
POINT
  5
140
330
F8
100
AcDbEntity
  8
Defpoints
 62
     0
100
AcDbPoint
 10
-47.49999999999999
 20
8.000000000000002
 30
0.0
  0
POINT
  5
141
330
F8
100
AcDbEntity
  8
Defpoints
 62
     0
100
AcDbPoint
 10
-47.49999999999999
 20
-8.000000000000012
 30
0.0
  0
POINT
  5
142
330
F8
100
AcDbEntity
  8
Defpoints
 62
     0
100
AcDbPoint
 10
-60.80753323025043
 20
-8.000000000000062
 30
0.0
  0
ENDBLK
  5
FA
330
F8
100
AcDbEntity
  8
0
100
AcDbBlockEnd
  0
BLOCK
  5
106
330
105
100
AcDbEntity
  8
0
100
AcDbBlockBegin
  2
_D_3
 70
     0
 10
0.0
 20
0.0
 30
0.0
  3
_D_3
  1

  0
LINE
  5
108
330
105
100
AcDbEntity
  8
치수문자_일반주서
 62
     0
370
    -2
100
AcDbLine
 10
12.0
 20
8.038311912321179
 30
0.0
 11
12.0
 21
18.82173021490883
 31
0.0
  0
LINE
  5
109
330
105
100
AcDbEntity
  8
치수문자_일반주서
 62
     0
370
    -2
100
AcDbLine
 10
82.00000000000001
 20
8.062500000000002
 30
0.0
 11
82.00000000000001
 21
18.82173021490883
 31
0.0
  0
LINE
  5
10A
330
105
100
AcDbEntity
  8
치수문자_일반주서
 62
     0
370
    -2
100
AcDbLine
 10
15.302
 20
18.82173021490883
 30
0.0
 11
78.69800000000001
 21
18.82173021490883
 31
0.0
  0
SOLID
  5
10B
330
105
100
AcDbEntity
  8
치수문자_일반주서
 62
     0
100
AcDbTrace
 10
15.302
 20
19.37206354824217
 30
0.0
 11
15.302
 21
18.2713968815755
 31
0.0
 12
12.0
 22
18.82173021490883
 32
0.0
 13
12.0
 23
18.82173021490883
 33
0.0
  0
SOLID
  5
10C
330
105
100
AcDbEntity
  8
치수문자_일반주서
 62
     0
100
AcDbTrace
 10
78.69800000000001
 20
18.2713968815755
 30
0.0
 11
78.69800000000001
 21
19.37206354824217
 31
0.0
 12
82.00000000000001
 22
18.82173021490883
 32
0.0
 13
82.00000000000001
 23
18.82173021490883
 33
0.0
  0
MTEXT
  5
10D
330
105
100
AcDbEntity
  8
치수문자_일반주서
 62
     0
100
AcDbMText
 10
47.00000000000001
 20
23.19673021490883
 30
0.0
 40
3.5
 41
0.0
 71
     2
 72
     1
  1
\A1;70
  7
SLDTEXTSTYLE0
 73
     1
 44
1.0
  0
POINT
  5
13D
330
105
100
AcDbEntity
  8
Defpoints
 62
     0
100
AcDbPoint
 10
12.0
 20
7.975811912321179
 30
0.0
  0
POINT
  5
13E
330
105
100
AcDbEntity
  8
Defpoints
 62
     0
100
AcDbPoint
 10
82.00000000000001
 20
8.000000000000002
 30
0.0
  0
POINT
  5
13F
330
105
100
AcDbEntity
  8
Defpoints
 62
     0
100
AcDbPoint
 10
82.00000000000001
 20
18.82173021490883
 30
0.0
  0
ENDBLK
  5
107
330
105
100
AcDbEntity
  8
0
100
AcDbBlockEnd
  0
BLOCK
  5
10F
330
10E
100
AcDbEntity
  8
0
100
AcDbBlockBegin
  2
SW_DOWELSYMBOL_0
 70
     0
 10
0.0
 20
0.0
 30
0.0
  3
SW_DOWELSYMBOL_0
  1

  0
CIRCLE
  5
111
330
10E
100
AcDbEntity
  8
해칭선
 62
     0
100
AcDbCircle
 10
0.0
 20
0.0
 30
0.0
 40
3.0
  0
HATCH
  5
112
330
10E
100
AcDbEntity
  8
0
  6
Continuous
 62
     0
370
    18
100
AcDbHatch
 10
0.0
 20
0.0
 30
0.0
210
0.0
220
0.0
230
1.0
  2
SOLID
 70
     1
 71
     0
 91
        1
 92
        0
 93
        3
 72
     2
 10
0.0
 20
0.0
 40
3.0
 50
0.0
 51
90.0
 73
     1
 72
     1
 10
0.0
 20
3.0
 11
0.0
 21
0.0
 72
     1
 10
0.0
 20
0.0
 11
3.0
 21
0.0
 97
        0
 75
     0
 76
     1
 98
        1
 10
0.0
 20
0.0
  0
HATCH
  5
113
330
10E
100
AcDbEntity
  8
0
  6
Continuous
 62
     0
370
    18
100
AcDbHatch
 10
0.0
 20
0.0
 30
0.0
210
0.0
220
0.0
230
1.0
  2
SOLID
 70
     1
 71
     0
 91
        1
 92
        0
 93
        3
 72
     2
 10
0.0
 20
0.0
 40
3.0
 50
180.0
 51
270.0000000000008
 73
     1
 72
     1
 10
0.0
 20
-3.0
 11
0.0
 21
0.0
 72
     1
 10
0.0
 20
0.0
 11
-3.0
 21
0.0
 97
        0
 75
     0
 76
     1
 98
        1
 10
0.0
 20
0.0
  0
ENDBLK
  5
110
330
10E
100
AcDbEntity
  8
0
100
AcDbBlockEnd
  0
ENDSEC
  0
SECTION
  2
ENTITIES
  0
LINE
  5
99
330
1F
100
AcDbEntity
  8
0
  6
Continuous
 62
     4
370
    25
100
AcDbLine
 10
10.84531232144134
 20
7.999999999999996
 30
0.0
 11
-47.5
 21
7.999999999999992
 31
0.0
  0
LINE
  5
9A
330
1F
100
AcDbEntity
  8
0
  6
Continuous
 62
     4
370
    25
100
AcDbLine
 10
-47.5
 20
-8.000000000000009
 30
0.0
 11
10.84531232144132
 21
-8.000000000000005
 31
0.0
  0
LINE
  5
9B
330
1F
100
AcDbEntity
  8
0
  6
Continuous
 62
     4
370
    25
100
AcDbLine
 10
-47.5
 20
7.999999999999988
 30
0.0
 11
-48.0
 21
7.499999999999989
 31
0.0
  0
LINE
  5
9C
330
1F
100
AcDbEntity
  8
0
  6
Continuous
 62
     4
370
    25
100
AcDbLine
 10
-48.0
 20
-7.500000000000005
 30
0.0
 11
-47.5
 21
-8.000000000000005
 31
0.0
  0
LINE
  5
9D
330
1F
100
AcDbEntity
  8
0
  6
Continuous
 62
     1
370
    25
100
AcDbLine
 10
57.13962538118217
 20
-8.000000000000012
 30
0.0
 11
63.32930174589954
 21
-8.000000000000012
 31
0.0
  0
LINE
  5
9E
330
1F
100
AcDbEntity
  8
0
  6
Continuous
 62
     1
370
    25
100
AcDbLine
 10
19.79774745905152
 20
8.000000000000002
 30
0.0
 11
13.60828794756813
 21
8.000000000000002
 31
0.0
  0
LINE
  5
9F
330
1F
100
AcDbEntity
  8
0
  6
Continuous
 62
     1
370
    25
100
AcDbLine
 10
78.90501631264138
 20
-8.000000000000012
 30
0.0
 11
82.00000000000001
 21
-8.000000000000012
 31
0.0
  0
LINE
  5
A0
330
1F
100
AcDbEntity
  8
0
  6
Continuous
 62
     1
370
    25
100
AcDbLine
 10
41.56288421256865
 20
8.000000000000002
 30
0.0
 11
35.37426435246168
 21
8.000000000000002
 31
0.0
  0
LINE
  5
A1
330
1F
100
AcDbEntity
  8
0
  6
Continuous
 62
     1
370
    25
100
AcDbLine
 10
13.6082879475683
 20
-8.000000000000012
 30
0.0
 11
19.79774745905151
 21
-8.000000000000012
 31
0.0
  0
LINE
  5
A2
330
1F
100
AcDbEntity
  8
0
  6
Continuous
 62
     1
370
    25
100
AcDbLine
 10
63.32930174589957
 20
8.000000000000002
 30
0.0
 11
57.13962538118223
 21
8.000000000000002
 31
0.0
  0
LINE
  5
A3
330
1F
100
AcDbEntity
  8
0
  6
Continuous
 62
     4
370
    25
100
AcDbLine
 10
15.66658740097234
 20
-1.181984351439118
 30
0.0
 11
15.59540028951339
 21
-1.142875549996095
 31
0.0
  0
LINE
  5
A4
330
1F
100
AcDbEntity
  8
0
  6
Continuous
 62
     4
370
    25
100
AcDbLine
 10
15.87224827524767
 20
-1.294970398095472
 30
0.0
 11
15.74560111590774
 21
-1.225392935175032
 31
0.0
  0
LINE
  5
A5
330
1F
100
AcDbEntity
  8
0
  6
Continuous
 62
     1
370
    25
100
AcDbLine
 10
81.88948902882096
 20
1.832370729477745
 30
0.0
 11
82.00000000000001
 21
1.777666294451275
 31
0.0
  0
LINE
  5
A6
330
1F
100
AcDbEntity
  8
0
  6
Continuous
 62
     1
370
    25
100
AcDbLine
 10
35.37426435246174
 20
-8.000000000000012
 30
0.0
 11
41.56288421256858
 21
-8.000000000000012
 31
0.0
  0
LINE
  5
A7
330
1F
100
AcDbEntity
  8
0
  6
Continuous
 62
     1
370
    25
100
AcDbLine
 10
82.00000000000001
 20
8.000000000000002
 30
0.0
 11
78.90501631264138
 21
8.000000000000002
 31
0.0
  0
SPLINE
  5
A8
330
1F
100
AcDbEntity
  8
0
  6
Continuous
 62
     4
370
    25
100
AcDbSpline
210
0.0
220
0.0
230
1.0
 70
    24
 71
     3
 72
    18
 73
    14
 74
     0
 42
0.000000001
 43
0.00000001
 40
0.0
 40
0.0
 40
0.0
 40
0.0
 40
0.25
 40
0.25
 40
0.375
 40
0.375
 40
0.5
 40
0.5
 40
0.625
 40
0.625
 40
0.75
 40
0.75
 40
1.0
 40
1.0
 40
1.0
 40
1.0
 10
12.00000000000001
 20
0.621630387992433
 30
0.0
 10
12.00000000000001
 20
0.5395745385780311
 30
0.0
 10
12.00000000000001
 20
0.4098549844537515
 30
0.0
 10
12.00000000000001
 20
0.1420063840385071
 30
0.0
 10
12.00000000000001
 20
0.0396428672554605
 30
0.0
 10
12.00000000000001
 20
-0.1855538200509413
 30
0.0
 10
12.00000000000001
 20
-0.308704568424575
 30
0.0
 10
12.00000000000001
 20
-0.576246798932654
 30
0.0
 10
12.00000000000001
 20
-0.7206343145932421
 30
0.0
 10
12.00000000000001
 20
-1.031804915126451
 30
0.0
 10
12.00000000000001
 20
-1.198979236433836
 30
0.0
 10
12.00000000000001
 20
-1.719068339775403
 30
0.0
 10
12.00000000000001
 20
-2.095069070786987
 30
0.0
 10
12.00000000000001
 20
-2.501650426871003
 30
0.0
  0
SPLINE
  5
A9
330
1F
100
AcDbEntity
  8
0
  6
Continuous
 62
     4
370
    25
100
AcDbSpline
210
0.0
220
0.0
230
1.0
 70
     8
 71
     3
 72
    14
 73
    10
 74
     0
 42
0.000000001
 43
0.00000001
 40
0.0
 40
0.0
 40
0.0
 40
0.0
 40
0.25
 40
0.25
 40
0.5
 40
0.5
 40
0.75
 40
0.75
 40
1.0
 40
1.0
 40
1.0
 40
1.0
 10
11.30460762022062
 20
-6.543726313530346
 30
0.0
 10
11.17861966022894
 20
-6.501759515387744
 30
0.0
 10
11.06542647512115
 20
-6.450162076455258
 30
0.0
 10
10.86387447512547
 20
-6.325817432416926
 30
0.0
 10
10.77705054677141
 20
-6.253363138527998
 30
0.0
 10
10.63867399335037
 20
-6.093213283858701
 30
0.0
 10
10.58572026968243
 20
-6.003565022583192
 30
0.0
 10
10.51701034725208
 20
-5.815468159985431
 30
0.0
 10
10.50017786030173
 20
-5.715295990132261
 30
0.0
 10
10.50017786030173
 20
-5.611646376765833
 30
0.0
  0
SPLINE
  5
AA
330
1F
100
AcDbEntity
  8
0
  6
Continuous
 62
     4
370
    25
100
AcDbSpline
210
0.0
220
0.0
230
1.0
 70
     8
 71
     3
 72
    18
 73
    14
 74
     0
 42
0.000000001
 43
0.00000001
 40
0.0
 40
0.0
 40
0.0
 40
0.0
 40
0.2499999999999999
 40
0.2499999999999999
 40
0.3749999999999999
 40
0.3749999999999999
 40
0.4999999999999999
 40
0.4999999999999999
 40
0.6249999999999999
 40
0.6249999999999999
 40
0.7499999999999998
 40
0.7499999999999998
 40
1.0
 40
1.0
 40
1.0
 40
1.0
 10
10.50017786030172
 20
-1.028815313147108
 30
0.0
 10
10.50017786030172
 20
-0.8235176909998021
 30
0.0
 10
10.53375394070739
 20
-0.6210657884134195
 30
0.0
 10
10.63973492141798
 20
-0.330709150554097
 30
0.0
 10
10.68350606652987
 20
-0.2384684656926294
 30
0.0
 10
10.78796977437979
 20
-0.0631209929176161
 30
0.0
 10
10.8494707605661
 20
0.0208367672294325
 30
0.0
 10
10.98667460194093
 20
0.174089849539744
 30
0.0
 10
11.06186590186815
 20
0.243224170277594
 30
0.0
 10
11.22534121853369
 20
0.3666363513314833
 30
0.0
 10
11.31446276411288
 20
0.4211369381961372
 30
0.0
 10
11.59091285618198
 20
0.5551157064231159
 30
0.0
 10
11.79309689810919
 20
0.6086075994039144
 30
0.0
 10
12.00000000000001
 20
0.6216303879924351
 30
0.0
  0
SPLINE
  5
AB
330
1F
100
AcDbEntity
  8
0
  6
Continuous
 62
     4
370
    25
100
AcDbSpline
210
0.0
220
0.0
230
1.0
 70
     8
 71
     3
 72
    14
 73
    10
 74
     0
 42
0.000000001
 43
0.00000001
 40
0.0
 40
0.0
 40
0.0
 40
0.0
 40
0.25
 40
0.25
 40
0.5
 40
0.5
 40
0.75
 40
0.75
 40
1.0
 40
1.0
 40
1.0
 40
1.0
 10
11.30460762022062
 20
4.602134932138568
 30
0.0
 10
11.17861966022894
 20
4.661807072427758
 30
0.0
 10
11.06542647512116
 20
4.733505603854683
 30
0.0
 10
10.86387447512548
 20
4.898438519160512
 30
0.0
 10
10.77705054677141
 20
4.991122075562425
 30
0.0
 10
10.63867399335037
 20
5.185422065066176
 30
0.0
 10
10.58572026968243
 20
5.289298172110554
 30
0.0
 10
10.51701034725208
 20
5.495434306228403
 30
0.0
 10
10.50017786030172
 20
5.599691199983702
 30
0.0
 10
10.50017786030172
 20
5.701703687682325
 30
0.0
  0
SPLINE
  5
AC
330
1F
100
AcDbEntity
  8
0
  6
Continuous
 62
     4
370
    25
100
AcDbSpline
210
0.0
220
0.0
230
1.0
 70
     8
 71
     3
 72
     8
 73
     4
 74
     0
 42
0.000000001
 43
0.00000001
 40
0.0
 40
0.0
 40
0.0
 40
0.0
 40
1.0
 40
1.0
 40
1.0
 40
1.0
 10
12.00000000000001
 20
4.267755634439847
 30
0.0
 10
11.76766358295189
 20
4.381145237848263
 30
0.0
 10
11.53572079897274
 20
4.492671948325763
 30
0.0
 10
11.30460762022062
 20
4.602134932138567
 30
0.0
  0
LINE
  5
AD
330
1F
100
AcDbEntity
  8
0
  6
Continuous
 62
     4
370
    25
100
AcDbLine
 10
12.00000000000001
 20
4.267755634439847
 30
0.0
 11
12.0
 21
0.6216303879924329
 31
0.0
  0
SPLINE
  5
AE
330
1F
100
AcDbEntity
  8
0
  6
Continuous
 62
     4
370
    25
100
AcDbSpline
210
0.0
220
0.0
230
1.0
 70
     8
 71
     3
 72
     8
 73
     4
 74
     0
 42
0.000000001
 43
0.00000001
 40
0.0
 40
0.0
 40
0.0
 40
0.0
 40
1.0
 40
1.0
 40
1.0
 40
1.0
 10
12.00000000000001
 20
-6.766554650980546
 30
0.0
 10
11.76766358295189
 20
-6.695038326382023
 30
0.0
 10
11.53572079897274
 20
-6.620710496157207
 30
0.0
 10
11.30460762022062
 20
-6.543726313530345
 30
0.0
  0
LINE
  5
AF
330
1F
100
AcDbEntity
  8
0
  6
Continuous
 62
     4
370
    25
100
AcDbLine
 10
12.00000000000001
 20
-6.766554650980546
 30
0.0
 11
12.0
 21
-7.975811912321181
 31
0.0
  0
SPLINE
  5
B0
330
1F
100
AcDbEntity
  8
0
  6
Continuous
 62
     4
370
    25
100
AcDbSpline
210
0.0
220
0.0
230
1.0
 70
     8
 71
     3
 72
    11
 73
     7
 74
     0
 42
0.000000001
 43
0.00000001
 40
0.0
 40
0.0
 40
0.0
 40
0.0
 40
0.0274773057129766
 40
0.4270035087882241
 40
0.8198715229672987
 40
1.0
 40
1.0
 40
1.0
 40
1.0
 10
10.84531232144131
 20
-7.999044897547972
 30
0.0
 10
10.85112134067756
 20
-7.999358831971116
 30
0.0
 10
10.94139480571116
 20
-8.004237443491965
 30
0.0
 10
11.2598967601034
 20
-7.98898144574779
 30
0.0
 10
11.66147738815403
 20
-7.978879307247185
 30
0.0
 10
11.91903393847759
 20
-7.97654555573997
 30
0.0
 10
12.0
 20
-7.975811912321181
 30
0.0
  0
SPLINE
  5
B1
330
1F
100
AcDbEntity
  8
0
  6
Continuous
 62
     4
370
    25
100
AcDbSpline
210
0.0
220
0.0
230
1.0
 70
     8
 71
     3
 72
    18
 73
    14
 74
     0
 42
0.000000001
 43
0.00000001
 40
0.0
 40
0.0
 40
0.0
 40
0.0
 40
0.2500000000000001
 40
0.2500000000000001
 40
0.3750000000000002
 40
0.3750000000000002
 40
0.5000000000000001
 40
0.5000000000000001
 40
0.6250000000000001
 40
0.6250000000000001
 40
0.7500000000000001
 40
0.7500000000000001
 40
1.0
 40
1.0
 40
1.0
 40
1.0
 10
10.50017786030172
 20
7.933570384854086
 30
0.0
 10
10.50017786030172
 20
7.960193119281588
 30
0.0
 10
10.5337539407074
 20
7.978211225283335
 30
0.0
 10
10.63973492141799
 20
7.993749165750286
 30
0.0
 10
10.68350606652987
 20
7.996925797264457
 30
0.0
 10
10.78796977437979
 20
8.000231568919535
 30
0.0
 10
10.8494707605661
 20
8.000339888252142
 30
0.0
 10
10.98667460194093
 20
7.99847268062561
 30
0.0
 10
11.06186590186815
 20
7.996540200898484
 30
0.0
 10
11.22534121853369
 20
7.991832766485743
 30
0.0
 10
11.31446276411288
 20
7.989032791439538
 30
0.0
 10
11.59091285618198
 20
7.981218679256954
 30
0.0
 10
11.79309689810919
 20
7.976826901291835
 30
0.0
 10
12.0
 20
7.975811912321179
 30
0.0
  0
LINE
  5
B2
330
1F
100
AcDbEntity
  8
0
  6
Continuous
 62
     4
370
    25
100
AcDbLine
 10
10.50017786030172
 20
7.933570384854086
 30
0.0
 11
10.50017786030172
 21
5.701703687682325
 31
0.0
  0
LINE
  5
B3
330
1F
100
AcDbEntity
  8
0
  6
Continuous
 62
     4
370
    25
100
AcDbLine
 10
-47.5
 20
7.999999999999988
 30
0.0
 11
-47.5
 21
-8.000000000000005
 31
0.0
  0
LINE
  5
B4
330
1F
100
AcDbEntity
  8
0
  6
Continuous
 62
     4
370
    25
100
AcDbLine
 10
10.50017786030172
 20
-1.028815313147108
 30
0.0
 11
10.50017786030172
 21
-5.611646376765833
 31
0.0
  0
LINE
  5
B5
330
1F
100
AcDbEntity
  8
0
  6
Continuous
 62
     4
370
    25
100
AcDbLine
 10
-48.0
 20
7.49999999999999
 30
0.0
 11
-48.0
 21
-7.500000000000005
 31
0.0
  0
SPLINE
  5
B6
330
1F
100
AcDbEntity
  8
0
  6
Continuous
 62
     4
370
    25
100
AcDbSpline
210
0.0
220
0.0
230
1.0
 70
    24
 71
     3
 72
    13
 73
     9
 74
     0
 42
0.000000001
 43
0.00000001
 40
0.0
 40
0.0
 40
0.0
 40
0.0
 40
0.1643983614075409
 40
0.3325052652782588
 40
0.5169908066622262
 40
0.7076003871589819
 40
0.8795138890518663
 40
1.0
 40
1.0
 40
1.0
 40
1.0
 10
12.0
 20
7.975811912321182
 30
0.0
 10
12.0
 20
7.715111073458764
 30
0.0
 10
12.00000000000001
 20
7.187828436076976
 30
0.0
 10
12.0
 20
6.415858216921302
 30
0.0
 10
12.00000000000001
 20
5.669405928686051
 30
0.0
 10
12.00000000000001
 20
5.023605086935166
 30
0.0
 10
12.0
 20
4.543136784399231
 30
0.0
 10
12.00000000000001
 20
4.348115893647422
 30
0.0
 10
12.00000000000001
 20
4.267755634439069
 30
0.0
  0
SPLINE
  5
B7
330
1F
100
AcDbEntity
  8
0
  6
Continuous
 62
     4
370
    25
100
AcDbSpline
210
0.0
220
0.0
230
1.0
 70
    24
 71
     3
 72
    12
 73
     8
 74
     0
 42
0.000000001
 43
0.00000001
 40
0.0
 40
0.0
 40
0.0
 40
0.0
 40
0.4999999999999998
 40
0.4999999999999998
 40
0.7499999999999998
 40
0.7499999999999998
 40
1.0
 40
1.0
 40
1.0
 40
1.0
 10
12.00000000000001
 20
-2.501650426871007
 30
0.0
 10
12.00000000000001
 20
-3.126591249593011
 30
0.0
 10
12.00000000000001
 20
-3.839278934725861
 30
0.0
 10
12.00000000000001
 20
-4.9464758921565
 30
0.0
 10
12.00000000000001
 20
-5.320996201832369
 30
0.0
 10
12.00000000000001
 20
-6.058346460238692
 30
0.0
 10
12.00000000000001
 20
-6.421020621427848
 30
0.0
 10
12.00000000000001
 20
-6.766554650980551
 30
0.0
  0
SPLINE
  5
B8
330
1F
100
AcDbEntity
  8
0
  6
Continuous
 62
     1
370
    25
100
AcDbSpline
210
0.0
220
0.0
230
1.0
 70
     8
 71
     3
 72
    25
 73
    21
 74
     0
 42
0.000000001
 43
0.00000001
 40
0.0
 40
0.0
 40
0.0
 40
0.0
 40
0.0604520530989269
 40
0.1209041120785324
 40
0.1813561768608818
 40
0.2418082473680314
 40
0.3022603235220273
 40
0.3627124052449067
 40
0.4192828734772078
 40
0.4758563233689661
 40
0.5324334247450331
 40
0.589014844902728
 40
0.6456008122758381
 40
0.7021843176490732
 40
0.7587632150038987
 40
0.8153381703957923
 40
0.8719098526070719
 40
0.928478932687459
 40
0.9850460834912936
 40
1.0
 40
1.0
 40
1.0
 40
1.0
 10
12.00000000000001
 20
7.946198868111316
 30
0.0
 10
12.90961776103129
 20
7.977250853907827
 30
0.0
 10
14.72885337158003
 20
8.039354828521537
 30
0.0
 10
17.45770736613114
 20
7.739402790910367
 30
0.0
 10
20.18656015235702
 20
7.162307103841234
 30
0.0
 10
22.91541894509986
 20
6.302410675648328
 30
0.0
 10
25.64425678061442
 20
5.200456570517217
 30
0.0
 10
28.31476648117509
 20
3.924910118758462
 30
0.0
 10
30.92663908074674
 20
2.537835977477378
 30
0.0
 10
33.48031157666692
 20
1.095795769369959
 30
0.0
 10
36.03416293038742
 20
-0.3833901316952046
 30
0.0
 10
38.58824229144601
 20
-1.849632919273329
 30
0.0
 10
41.14247892096766
 20
-3.253206652108418
 30
0.0
 10
43.69664014393821
 20
-4.546523540357025
 30
0.0
 10
46.25059145279526
 20
-5.686235696782081
 30
0.0
 10
48.80432998069803
 20
-6.631808229837729
 30
0.0
 10
51.35789125295994
 20
-7.358430608433294
 30
0.0
 10
53.91131096403984
 20
-7.814670067588286
 30
0.0
 10
55.83853993471988
 20
-8.018910536898476
 30
0.0
 10
56.9146317208502
 20
-7.981446810664165
 30
0.0
 10
57.13962538118217
 20
-7.973613741957782
 30
0.0
  0
SPLINE
  5
B9
330
1F
100
AcDbEntity
  8
0
  6
Continuous
 62
     1
370
    25
100
AcDbSpline
210
0.0
220
0.0
230
1.0
 70
     8
 71
     3
 72
    28
 73
    24
 74
     0
 42
0.000000001
 43
0.00000001
 40
0.0
 40
0.0
 40
0.0
 40
0.0
 40
0.0371388694135786
 40
0.0868741395308224
 40
0.1366081385463453
 40
0.1863414598147172
 40
0.2360746971613753
 40
0.2858084444700709
 40
0.3355432952702326
 40
0.3852798423248481
 40
0.4350186772194887
 40
0.4847603899530721
 40
0.5345055685309748
 40
0.5842547985610866
 40
0.6340061932255261
 40
0.683753589896837
 40
0.7334971894180905
 40
0.7832375784890261
 40
0.8329753460316341
 40
0.8861258975853595
 40
0.9392764442428231
 40
0.9924269859354782
 40
1.0
 40
1.0
 40
1.0
 40
1.0
 10
71.1375559440298
 20
-6.740606230168998
 30
0.0
 10
70.50199939326346
 20
-6.933122315197599
 30
0.0
 10
69.01532439903721
 20
-7.383450219541063
 30
0.0
 10
66.67757666546925
 20
-7.806705252487965
 30
0.0
 10
64.12431275484282
 20
-8.033441537819945
 30
0.0
 10
61.57109136904079
 20
-7.980409895418102
 30
0.0
 10
59.01787494490071
 20
-7.659200283337189
 30
0.0
 10
56.46462716249937
 20
-7.078063534264513
 30
0.0
 10
53.91131139619544
 20
-6.257374745856672
 30
0.0
 10
51.35789113715678
 20
-5.224726453893899
 30
0.0
 10
48.80433001173023
 20
-4.015126164053207
 30
0.0
 10
46.25059144447829
 20
-2.669510494284747
 30
0.0
 10
43.69664014617115
 20
-1.233441233688162
 30
0.0
 10
41.14247892035382
 20
0.2444279229540927
 30
0.0
 10
38.58824229166821
 20
1.713965659655769
 30
0.0
 10
36.03416293011242
 20
3.125537366642683
 30
0.0
 10
33.48031157754467
 20
4.431061282180927
 30
0.0
 10
30.92663907751101
 20
5.586996184908913
 30
0.0
 10
28.31476649358959
 20
6.573852177719527
 30
0.0
 10
25.64425673073315
 20
7.350532049287109
 30
0.0
 10
22.91541913084804
 20
7.83021531758661
 30
0.0
 10
20.9665744847001
 20
8.035847182544417
 30
0.0
 10
19.9273519696051
 20
7.987156192731876
 30
0.0
 10
19.79774745905152
 20
7.981083795520152
 30
0.0
  0
SPLINE
  5
BA
330
1F
100
AcDbEntity
  8
0
  6
Continuous
 62
     1
370
    25
100
AcDbSpline
210
0.0
220
0.0
230
1.0
 70
     8
 71
     3
 72
    28
 73
    24
 74
     0
 42
0.000000001
 43
0.00000001
 40
0.0
 40
0.0
 40
0.0
 40
0.0
 40
0.0153811432876913
 40
0.0651378520005563
 40
0.1148971832400811
 40
0.1646597261525298
 40
0.2144260676610689
 40
0.2641964086852552
 40
0.3139645842507763
 40
0.3637287068212114
 40
0.4134893622274621
 40
0.4632471386988291
 40
0.5130026264589145
 40
0.5627564173185774
 40
0.6125091042665424
 40
0.6622612810582647
 40
0.7120135418036607
 40
0.7668038013966956
 40
0.8215941663433054
 40
0.8763845401571764
 40
0.931174826350143
 40
0.9859649284523329
 40
1.0
 40
1.0
 40
1.0
 40
1.0
 10
27.58372700499217
 20
6.742275497564081
 30
0.0
 10
27.84686171487019
 20
6.83096395920572
 30
0.0
 10
28.96121514540874
 20
7.206552157073496
 30
0.0
 10
30.92663300823542
 20
7.623549385906021
 30
0.0
 10
33.48031320394087
 20
7.973418107041708
 30
0.0
 10
36.03416249431011
 20
8.035479406022263
 30
0.0
 10
38.58824240831726
 20
7.830130311631932
 30
0.0
 10
41.14247888961415
 20
7.358306274889801
 30
0.0
 10
43.69664015248139
 20
6.637579454209117
 30
0.0
 10
46.25059144997299
 20
5.691948897776976
 30
0.0
 10
48.80432998344465
 20
4.55359058136504
 30
0.0
 10
51.35789124479612
 20
3.26103439009428
 30
0.0
 10
53.91131099394688
 20
1.858066554690917
 30
0.0
 10
56.46462866379245
 20
0.3921926324080053
 30
0.0
 10
59.0178693421141
 20
-1.086943222098989
 30
0.0
 10
61.57111227872942
 20
-2.529287694518323
 30
0.0
 10
64.21040062300263
 20
-3.93168103053265
 30
0.0
 10
66.93640351951838
 20
-5.232625948844987
 30
0.0
 10
69.74844970015178
 20
-6.358098473577956
 30
0.0
 10
72.56053779915285
 20
-7.229589005862451
 30
0.0
 10
75.37260914565702
 20
-7.778382755008233
 30
0.0
 10
77.48743635507473
 20
-8.023965686354563
 30
0.0
 10
78.66490314279065
 20
-7.978026464523701
 30
0.0
 10
78.90501631264138
 20
-7.968658376787075
 30
0.0
  0
SPLINE
  5
BB
330
1F
100
AcDbEntity
  8
0
  6
Continuous
 62
     1
370
    25
100
AcDbSpline
210
0.0
220
0.0
230
1.0
 70
     8
 71
     3
 72
    23
 73
    19
 74
     0
 42
0.000000001
 43
0.00000001
 40
0.0
 40
0.0
 40
0.0
 40
0.0
 40
0.0631636481780878
 40
0.1263219431076794
 40
0.1894756273291636
 40
0.252625446570951
 40
0.3157721492378134
 40
0.3789164858952736
 40
0.442059208750802
 40
0.5052010711325827
 40
0.5683428269666171
 40
0.6314852302529425
 40
0.6946290345417448
 40
0.7577749924101305
 40
0.8209238549403469
 40
0.8840763712002129
 40
0.9472332877265291
 40
1.0
 40
1.0
 40
1.0
 40
1.0
 10
82.00000000000001
 20
-7.801325586840179
 30
0.0
 10
81.14857372836943
 20
-7.666904559552789
 30
0.0
 10
79.4457933452278
 20
-7.398073897435269
 30
0.0
 10
76.8917773995481
 20
-6.673434645680576
 30
0.0
 10
74.33798158101737
 20
-5.741761388807398
 30
0.0
 10
71.78437420208952
 20
-4.610568688680305
 30
0.0
 10
69.23091776581322
 20
-3.324617487050337
 30
0.0
 10
66.67757618539592
 20
-1.925732361563601
 30
0.0
 10
64.12431288353754
 20
-0.461744898724357
 30
0.0
 10
61.5710913343231
 20
1.017894411728748
 30
0.0
 10
59.01787495507791
 20
2.463066350734262
 30
0.0
 10
56.46462715650839
 20
3.824797781933736
 30
0.0
 10
53.91131140998246
 20
5.057161515750642
 30
0.0
 10
51.35789108799722
 20
6.117736034406477
 30
0.0
 10
48.80433019459436
 20
6.973172484532117
 30
0.0
 10
46.25059076212206
 20
7.584888874250089
 30
0.0
 10
43.83676498027582
 20
7.946968615952079
 30
0.0
 10
42.27415915249944
 20
7.970594848446865
 30
0.0
 10
41.56288421256865
 20
7.981349158202917
 30
0.0
  0
LINE
  5
BC
330
1F
100
AcDbEntity
  8
0
  6
Continuous
 62
     1
370
    25
100
AcDbLine
 10
82.00000000000001
 20
-8.000000000000016
 30
0.0
 11
82.00000000000001
 21
-7.801325586842099
 31
0.0
  0
LINE
  5
BD
330
1F
100
AcDbEntity
  8
0
  6
Continuous
 62
     1
370
    25
100
AcDbLine
 10
12.00000000000001
 20
-7.946198868111314
 30
0.0
 11
13.6082879475683
 21
-7.962487690628244
 31
0.0
  0
SPLINE
  5
BE
330
1F
100
AcDbEntity
  8
0
  6
Continuous
 62
     1
370
    25
100
AcDbSpline
210
0.0
220
0.0
230
1.0
 70
     8
 71
     3
 72
    19
 73
    15
 74
     0
 42
0.000000001
 43
0.00000001
 40
0.0
 40
0.0
 40
0.0
 40
0.0
 40
0.0633372054201061
 40
0.1440359066951207
 40
0.2247318557579383
 40
0.3054260143802566
 40
0.3861193455773383
 40
0.4668128129393489
 40
0.5556774385460503
 40
0.6445422350262994
 40
0.7334070458884081
 40
0.8222717146376864
 40
0.9111360848091145
 40
1.0
 40
1.0
 40
1.0
 40
1.0
 10
49.35383696657198
 20
6.749845647754787
 30
0.0
 10
50.02186800985501
 20
6.949652606192271
 30
0.0
 10
51.54104550405522
 20
7.404036032673563
 30
0.0
 10
53.91131045401929
 20
7.823424875307679
 30
0.0
 10
56.46462880844666
 20
8.037045859714048
 30
0.0
 10
59.01786930340475
 20
7.971324185799983
 30
0.0
 10
61.57111228891557
 20
7.637581555476401
 30
0.0
 10
64.21040062055475
 20
7.02468834731039
 30
0.0
 10
66.93640351772049
 20
6.124337361570063
 30
0.0
 10
69.74844970981181
 20
4.944160591898697
 30
0.0
 10
72.56053776231047
 20
3.560836891301871
 30
0.0
 10
75.37260928336592
 20
2.032317765641297
 30
0.0
 10
78.18467269471823
 20
0.4168513285314054
 30
0.0
 10
80.05937483449354
 20
-0.6627183216209129
 30
0.0
 10
80.99672350478285
 20
-1.202501764859667
 30
0.0
  0
LINE
  5
BF
330
1F
100
AcDbEntity
  8
0
  6
Continuous
 62
     4
370
    25
100
AcDbLine
 10
12.00000000000001
 20
-7.946198868111377
 30
0.0
 11
12.00000000000001
 21
-6.766554650980031
 31
0.0
  0
SPLINE
  5
C0
330
1F
100
AcDbEntity
  8
0
  6
Continuous
 62
     1
370
    25
100
AcDbSpline
210
0.0
220
0.0
230
1.0
 70
     8
 71
     3
 72
    15
 73
    11
 74
     0
 42
0.000000001
 43
0.00000001
 40
0.0
 40
0.0
 40
0.0
 40
0.0
 40
0.1368008035151835
 40
0.2735900128822009
 40
0.4103692363064796
 40
0.5471400888981142
 40
0.6839041915637033
 40
0.820663169889634
 40
0.9574186530184481
 40
1.0
 40
1.0
 40
1.0
 40
1.0
 10
82.00000000000001
 20
1.77181237383719
 30
0.0
 10
81.14857372828463
 20
2.245280500647035
 30
0.0
 10
79.44579334497345
 20
3.19217662687366
 30
0.0
 10
76.89177740056549
 20
4.48826331455749
 30
0.0
 10
74.33798157720267
 20
5.636973282726942
 30
0.0
 10
71.78437421632981
 20
6.592187657723153
 30
0.0
 10
69.23091771267015
 20
7.32967821407052
 30
0.0
 10
66.6775763837188
 20
7.799302000541885
 30
0.0
 10
64.7103842923658
 20
8.01386714075137
 30
0.0
 10
63.59430191799851
 20
7.979146858782835
 30
0.0
 10
63.32930174589956
 20
7.97090295052991
 30
0.0
  0
SPLINE
  5
C1
330
1F
100
AcDbEntity
  8
0
  6
Continuous
 62
     1
370
    25
100
AcDbSpline
210
0.0
220
0.0
230
1.0
 70
     8
 71
     3
 72
    13
 73
     9
 74
     0
 42
0.000000001
 43
0.00000001
 40
0.0
 40
0.0
 40
0.0
 40
0.0
 40
0.1244539882925006
 40
0.2995632237995949
 40
0.4746724429496839
 40
0.6497816455169613
 40
0.8248908312756507
 40
1.0
 40
1.0
 40
1.0
 40
1.0
 10
27.58372700499216
 20
-6.742275497564084
 30
0.0
 10
26.93724131161132
 20
-6.939282582785697
 30
0.0
 10
25.381137396369
 20
-7.413482553152604
 30
0.0
 10
22.91541540241144
 20
-7.842684170491111
 30
0.0
 10
20.18656110129134
 20
-8.051127160355986
 30
0.0
 10
17.45770711308208
 20
-7.933836398663467
 30
0.0
 10
14.72885343484236
 20
-7.531130922169178
 30
0.0
 10
12.90961778211879
 20
-7.021413399778191
 30
0.0
 10
12.00000000000009
 20
-6.766554650978823
 30
0.0
  0
LINE
  5
C2
330
1F
100
AcDbEntity
  8
0
  6
Continuous
 62
     1
370
    25
100
AcDbLine
 10
82.00000000000001
 20
-0.5000000000000272
 30
0.0
 11
82.00000000000001
 21
1.771812373837344
 31
0.0
  0
LINE
  5
C3
330
1F
100
AcDbEntity
  8
0
  6
Continuous
 62
     1
370
    25
100
AcDbLine
 10
82.00000000000001
 20
-0.5000000000000305
 30
0.0
 11
80.99672350478288
 21
-1.202501764859687
 31
0.0
  0
SPLINE
  5
C4
330
1F
100
AcDbEntity
  8
0
  6
Continuous
 62
     1
370
    25
100
AcDbSpline
210
0.0
220
0.0
230
1.0
 70
     8
 71
     3
 72
    22
 73
    18
 74
     0
 42
0.000000001
 43
0.00000001
 40
0.0
 40
0.0
 40
0.0
 40
0.0
 40
0.0147102064646562
 40
0.0830778214510746
 40
0.1514502000754339
 40
0.2198281472278867
 40
0.2882090695671227
 40
0.3565844968552251
 40
0.4249547051414296
 40
0.493320500816584
 40
0.5616826933259137
 40
0.6347355949098092
 40
0.7077884897640262
 40
0.7808413777943507
 40
0.8538942589065798
 40
0.9269471330065229
 40
1.0
 40
1.0
 40
1.0
 40
1.0
 10
49.35383696657189
 20
-6.749845647754793
 30
0.0
 10
49.17068290616513
 20
-6.812035668268063
 30
0.0
 10
48.13629631444239
 20
-7.163261970404188
 30
0.0
 10
46.25058999654857
 20
-7.577689782194578
 30
0.0
 10
43.69664053418472
 20
-7.953505442817241
 30
0.0
 10
41.14247881639245
 20
-8.040846938430821
 30
0.0
 10
38.58824231946491
 20
-7.860958204722515
 30
0.0
 10
36.03416292288074
 20
-7.413432793999304
 30
0.0
 10
33.4803115786778
 20
-6.715195827305401
 30
0.0
 10
30.92663908020917
 20
-5.789441095488656
 30
0.0
 10
28.31476648133018
 20
-4.642016753313134
 30
0.0
 10
25.64425678057173
 20
-3.297832762914676
 30
0.0
 10
22.91541894511132
 20
-1.796988740374711
 30
0.0
 10
20.18656015235401
 20
-0.2258232287439357
 30
0.0
 10
17.45770736613201
 20
1.350898140478719
 30
0.0
 10
14.72885337157989
 20
2.887240407410398
 30
0.0
 10
12.9096177610313
 20
3.807583907017738
 30
0.0
 10
12.00000000000009
 20
4.267755634439024
 30
0.0
  0
SPLINE
  5
C5
330
1F
100
AcDbEntity
  8
0
  6
Continuous
 62
     4
370
    25
100
AcDbSpline
210
0.0
220
0.0
230
1.0
 70
    24
 71
     3
 72
    13
 73
     9
 74
     0
 42
0.000000001
 43
0.00000001
 40
0.0
 40
0.0
 40
0.0
 40
0.0
 40
0.1716742590237121
 40
0.3472405377251032
 40
0.5403547760023898
 40
0.7390693402722056
 40
0.9321835785494924
 40
0.9999999999999999
 40
0.9999999999999999
 40
0.9999999999999999
 40
0.9999999999999999
 10
12.00000000000001
 20
7.946198868111378
 30
0.0
 10
12.00000000000001
 20
7.682584551155028
 30
0.0
 10
12.00000000000001
 20
7.149379528500379
 30
0.0
 10
12.00000000000001
 20
6.380509735191693
 30
0.0
 10
12.00000000000001
 20
5.644664650485118
 30
0.0
 10
12.00000000000001
 20
5.002259964312596
 30
0.0
 10
12.00000000000001
 20
4.56565262788438
 30
0.0
 10
12.00000000000001
 20
4.400771164520631
 30
0.0
 10
12.00000000000001
 20
4.357918129080037
 30
0.0
  0
SPLINE
  5
C6
330
1F
100
AcDbEntity
  8
0
  6
Continuous
 62
     1
370
    25
100
AcDbSpline
210
0.0
220
0.0
230
1.0
 70
     8
 71
     3
 72
     8
 73
     4
 74
     0
 42
0.000000001
 43
0.00000001
 40
0.0
 40
0.0
 40
0.0
 40
0.0
 40
1.0
 40
1.0
 40
1.0
 40
1.0
 10
82.00000000000001
 20
-5.869334219275755
 30
0.0
 10
80.6637391539341
 20
-5.118291190075195
 30
0.0
 10
79.40235313831809
 20
-4.197643585156672
 30
0.0
 10
78.18880970275946
 20
-3.168624175679538
 30
0.0
  0
LINE
  5
C7
330
1F
100
AcDbEntity
  8
0
  6
Continuous
 62
     1
370
    25
100
AcDbLine
 10
82.00000000000001
 20
-7.801325586842099
 30
0.0
 11
82.00000000000001
 21
-5.869334219275752
 31
0.0
  0
SPLINE
  5
C8
330
1F
100
AcDbEntity
  8
0
  6
Continuous
 62
     1
370
    25
100
AcDbSpline
210
0.0
220
0.0
230
1.0
 70
    24
 71
     3
 72
    16
 73
    12
 74
     0
 42
0.000000001
 43
0.00000001
 40
0.0
 40
0.0
 40
0.0
 40
0.0
 40
0.146891588776745
 40
0.303284970502116
 40
0.407661783841256
 40
0.5119705871910549
 40
0.6166106981350575
 40
0.7212696337168321
 40
0.8214399615388557
 40
0.9216695829705533
 40
1.0
 40
1.0
 40
1.0
 40
1.0
 10
80.99308029522975
 20
-1.205052767652056
 30
0.0
 10
80.98367144731405
 20
-1.211640913888492
 30
0.0
 10
80.96424513307556
 20
-1.225243365557918
 30
0.0
 10
80.78892988464887
 20
-1.348000424069421
 30
0.0
 10
80.53350942792578
 20
-1.526847753279894
 30
0.0
 10
80.24221684157054
 20
-1.730813018070397
 30
0.0
 10
79.88143708017923
 20
-1.983433726630086
 30
0.0
 10
79.47118114134388
 20
-2.270698027597909
 30
0.0
 10
79.02577837946542
 20
-2.582572399004649
 30
0.0
 10
78.59625330010178
 20
-2.883329097425178
 30
0.0
 10
78.3130464200593
 20
-3.081632689703793
 30
0.0
 10
78.18880970275951
 20
-3.168624175679538
 30
0.0
  0
SPLINE
  5
C9
330
1F
100
AcDbEntity
  8
0
  6
Continuous
 62
     4
370
    25
100
AcDbSpline
210
0.0
220
0.0
230
1.0
 70
    24
 71
     3
 72
    24
 73
    20
 74
     0
 42
0.000000001
 43
0.00000001
 40
0.0
 40
0.0
 40
0.0
 40
0.0
 40
0.0625
 40
0.0625
 40
0.125
 40
0.125
 40
0.25
 40
0.25
 40
0.375
 40
0.375
 40
0.5
 40
0.5
 40
0.625
 40
0.625
 40
0.75
 40
0.75
 40
0.875
 40
0.875
 40
1.0
 40
1.0
 40
1.0
 40
1.0
 10
12.00000000000001
 20
0.926241625293444
 30
0.0
 10
12.00000000000001
 20
0.8901477350202984
 30
0.0
 10
12.00000000000001
 20
0.8501976432203687
 30
0.0
 10
12.00000000000001
 20
0.7645916233118722
 30
0.0
 10
12.00000000000001
 20
0.7171905265411824
 30
0.0
 10
12.00000000000001
 20
0.5535628313528864
 30
0.0
 10
12.00000000000001
 20
0.4179589175031121
 30
0.0
 10
12.00000000000001
 20
0.0776665996123777
 30
0.0
 10
12.00000000000001
 20
-0.1271764423258369
 30
0.0
 10
12.00000000000001
 20
-0.6209487640598753
 30
0.0
 10
12.00000000000001
 20
-0.9101443067582596
 30
0.0
 10
12.00000000000001
 20
-1.580161166460163
 30
0.0
 10
12.00000000000001
 20
-1.961289030214315
 30
0.0
 10
12.00000000000001
 20
-2.806234354834256
 30
0.0
 10
12.00000000000001
 20
-3.27017477397123
 30
0.0
 10
12.00000000000001
 20
-4.247881759284623
 30
0.0
 10
12.00000000000001
 20
-4.761327191720735
 30
0.0
 10
12.00000000000001
 20
-5.783361925467455
 30
0.0
 10
12.00000000000001
 20
-6.291233185901272
 30
0.0
 10
12.00000000000001
 20
-6.766554650980039
 30
0.0
  0
SPLINE
  5
CA
330
1F
100
AcDbEntity
  8
0
  6
Continuous
 62
     1
370
    25
100
AcDbSpline
210
0.0
220
0.0
230
1.0
 70
     8
 71
     3
 72
    16
 73
    12
 74
     0
 42
0.000000001
 43
0.00000001
 40
0.0
 40
0.0
 40
0.0
 40
0.0
 40
0.1167443802154031
 40
0.233488771787512
 40
0.3502331745658199
 40
0.4669775883998028
 40
0.5837220131389169
 40
0.7004664486326014
 40
0.8097147522670131
 40
0.9189688140513552
 40
1.0
 40
1.0
 40
1.0
 40
1.0
 10
12.00000000000001
 20
0.9262416252934244
 30
0.0
 10
12.90961776111369
 20
0.4011434788841522
 30
0.0
 10
14.72885337182721
 20
-0.6490528650150968
 30
0.0
 10
17.45770736514242
 20
-2.208862998716272
 30
0.0
 10
20.18656015606475
 20
-3.680657770929101
 30
0.0
 10
22.91541893125771
 20
-5.011043215899561
 30
0.0
 10
25.64425683227527
 20
-6.146799368632974
 30
0.0
 10
28.31476629360608
 20
-7.028385537426201
 30
0.0
 10
30.92663973093399
 20
-7.628955672798419
 30
0.0
 10
33.2603642539281
 20
-7.960525903334519
 30
0.0
 10
34.74292835251219
 20
-7.969974602815491
 30
0.0
 10
35.37426435246174
 20
-7.97399824276518
 30
0.0
  0
SPLINE
  5
CB
330
1F
100
AcDbEntity
  8
0
  6
Continuous
 62
     1
370
    25
100
AcDbSpline
210
0.0
220
0.0
230
1.0
 70
     8
 71
     3
 72
    11
 73
     7
 74
     0
 42
0.000000001
 43
0.00000001
 40
0.0
 40
0.0
 40
0.0
 40
0.0
 40
0.1443306397387602
 40
0.4295548854879314
 40
0.7147781729075038
 40
1.0
 40
1.0
 40
1.0
 40
1.0
 10
71.13755594402981
 20
6.740606230168999
 30
0.0
 10
71.61188306613468
 20
6.892874654639642
 30
0.0
 10
73.02356899081681
 20
7.346053867004413
 30
0.0
 10
75.37260976118674
 20
7.781706760221788
 30
0.0
 10
78.18467257526396
 20
8.06104542955227
 30
0.0
 10
80.05937479467553
 20
7.959753729731202
 30
0.0
 10
80.99672350478288
 20
7.90910800947294
 30
0.0
  0
SPLINE
  5
CC
330
1F
100
AcDbEntity
  8
0
  6
Continuous
 62
     1
370
    25
100
AcDbSpline
210
0.0
220
0.0
230
1.0
 70
     8
 71
     3
 72
    20
 73
    16
 74
     0
 42
0.000000001
 43
0.00000001
 40
0.0
 40
0.0
 40
0.0
 40
0.0
 40
0.2499999999999992
 40
0.2499999999999992
 40
0.3749999999999994
 40
0.3749999999999994
 40
0.4999999999999997
 40
0.4999999999999997
 40
0.6249999999999998
 40
0.6249999999999998
 40
0.7499999999999999
 40
0.7499999999999999
 40
0.8749999999999999
 40
0.8749999999999999
 40
1.0
 40
1.0
 40
1.0
 40
1.0
 10
80.9967235047829
 20
7.909108009472954
 30
0.0
 10
80.99966505198198
 20
7.413100832431164
 30
0.0
 10
80.95239375729005
 20
6.927723577167954
 30
0.0
 10
80.781453429105
 20
6.22083448949026
 30
0.0
 10
80.70640116497744
 20
5.986906706860471
 30
0.0
 10
80.52287088977303
 20
5.547875627028889
 30
0.0
 10
80.41421349725763
 20
5.34063751635155
 30
0.0
 10
80.15958373356874
 20
4.953282127139604
 30
0.0
 10
80.01561625912309
 20
4.777003447864916
 30
0.0
 10
79.70285223432519
 20
4.467865028908151
 30
0.0
 10
79.53121629518986
 20
4.332295677425328
 30
0.0
 10
79.16918409057972
 20
4.107026517678911
 30
0.0
 10
78.98095212259634
 20
4.018045592823293
 30
0.0
 10
78.59152745728682
 20
3.882569098898116
 30
0.0
 10
78.38983040537711
 20
3.836445033137184
 30
0.0
 10
78.18880970275949
 20
3.811190297240514
 30
0.0
  0
SPLINE
  5
CD
330
1F
100
AcDbEntity
  8
0
  6
Continuous
 62
     1
370
    25
100
AcDbSpline
210
0.0
220
0.0
230
1.0
 70
     8
 71
     3
 72
     8
 73
     4
 74
     0
 42
0.000000001
 43
0.00000001
 40
0.0
 40
0.0
 40
0.0
 40
0.0
 40
1.0
 40
1.0
 40
1.0
 40
1.0
 10
82.00000000000001
 20
1.954277833643306
 30
0.0
 10
80.6637391539341
 20
2.676629013086653
 30
0.0
 10
79.40235313831806
 20
3.281456547503825
 30
0.0
 10
78.18880970275943
 20
3.811190297240506
 30
0.0
  0
LINE
  5
CE
330
1F
100
AcDbEntity
  8
0
  6
Continuous
 62
     1
370
    25
100
AcDbLine
 10
82.00000000000001
 20
1.778294315478167
 30
0.0
 11
82.00000000000001
 21
1.954277833643306
 31
0.0
  0
LINE
  5
CF
330
1F
100
AcDbEntity
  8
0
  6
Continuous
 62
     4
370
    25
100
AcDbLine
 10
12.00000000000001
 20
0.9262416252934412
 30
0.0
 11
12.00000000000001
 21
4.267755634439616
 31
0.0
  0
LINE
  5
D0
330
1F
100
AcDbEntity
  8
0
  6
Continuous
 62
     1
370
    25
100
AcDbLine
 10
82.00000000000001
 20
7.984359711335663
 30
0.0
 11
82.00000000000001
 21
8.000000000000009
 31
0.0
  0
ELLIPSE
  5
D1
330
1F
100
AcDbEntity
  8
0
  6
Continuous
 62
     1
370
    25
100
AcDbEllipse
 10
82.71407400337108
 20
-0.0000000000000036
 30
0.0
 11
11.42518405393689
 21
-5.350968460038310E-17
 31
0.0
210
0.0
220
0.0
230
1.0
 40
0.7002075382097124
 41
1.633337088591389
 42
1.721680906384341
  0
LINE
  5
D2
330
1F
100
AcDbEntity
  8
0
  6
Continuous
 62
     1
370
    25
100
AcDbLine
 10
82.00000000000001
 20
-0.4999999999999993
 30
0.0
 11
82.00000000000001
 21
-5.869334219275756
 31
0.0
  0
LINE
  5
D3
330
1F
100
AcDbEntity
  8
0
  6
Continuous
 62
     1
370
    25
100
AcDbLine
 10
82.00000000000001
 20
1.954277833643306
 30
0.0
 11
82.00000000000001
 21
7.984359711335663
 31
0.0
  0
LINE
  5
D4
330
1F
100
AcDbEntity
  8
중심선
100
AcDbLine
 10
-51.0
 20
-0.0000000000000088
 30
0.0
 11
85.00000000000001
 21
0.0000000000000103
 31
0.0
  0
CIRCLE
  5
D5
330
1F
100
AcDbEntity
  8
해칭선
100
AcDbCircle
 10
0.0003515434851432
 20
-0.0000000000000043
 30
0.0
 40
2.999999999999999
  0
INSERT
  5
D6
330
1F
100
AcDbEntity
  8
0
  6
Continuous
 62
     7
100
AcDbBlockReference
 66
     1
  2
블럭10
 10
2.559900751058212
 20
-52.04717430164393
 30
0.0
  0
ATTRIB
  5
D7
330
D6
100
AcDbEntity
  8
FORMAT
 62
     2
100
AcDbText
 10
-13.55936028837734
 20
-49.97180738881173
 30
0.0
 40
4.233333333333333
  1
SEME7216070E [ 4 FLUTE ]
 41
0.75
  7
SLDTEXTSTYLE0
 11
-13.55936028837734
 21
-52.0884740554784
 31
0.0
100
AcDbAttribute
  2
AUTOATTR0
 70
     0
 74
     1
  0
SEQEND
  5
D8
330
D6
100
AcDbEntity
  8
0
  6
Continuous
 62
     7
  0
HATCH
  5
D9
330
1F
100
AcDbEntity
  8
중심선
100
AcDbHatch
 10
0.0
 20
0.0
 30
0.0
210
0.0
220
0.0
230
1.0
  2
SOLID
 70
     1
 71
     0
 91
        1
 92
        0
 93
        4
 72
     1
 10
8.274810055439064
 20
-35.8
 11
4.828534811601781
 21
-35.8
 72
     1
 10
4.828534811601781
 20
-35.8
 11
2.70030495239773
 21
-38.33632558057257
 72
     1
 10
2.70030495239773
 20
-38.33632558057257
 11
6.14661328134819
 21
-38.33628615127008
 72
     1
 10
6.14661328134819
 20
-38.33628615127008
 11
8.274810055439064
 21
-35.8
 97
        0
 75
     0
 76
     1
 98
        1
 10
0.0
 20
0.0
  0
HATCH
  5
DA
330
1F
100
AcDbEntity
  8
중심선
100
AcDbHatch
 10
0.0
 20
0.0
 30
0.0
210
0.0
220
0.0
230
1.0
  2
SOLID
 70
     1
 71
     0
 91
        1
 92
        0
 93
        4
 72
     1
 10
13.28757404647504
 20
-35.79999999999997
 11
9.84129880263776
 21
-35.8
 72
     1
 10
9.84129880263776
 20
-35.8
 11
5.310160794280344
 21
-41.20000000000002
 72
     1
 10
5.310160794280344
 20
-41.20000000000002
 11
8.756436038117627
 21
-41.20000000000002
 72
     1
 10
8.756436038117627
 20
-41.20000000000002
 11
13.28757404647504
 21
-35.79999999999997
 97
        0
 75
     0
 76
     1
 98
        1
 10
0.0
 20
0.0
  0
HATCH
  5
DB
330
1F
100
AcDbEntity
  8
중심선
100
AcDbHatch
 10
0.0
 20
0.0
 30
0.0
210
0.0
220
0.0
230
1.0
  2
SOLID
 70
     1
 71
     0
 91
        1
 92
        0
 93
        4
 72
     1
 10
18.30033803751094
 20
-35.79999999999997
 11
14.85406279367382
 21
-35.79999999999997
 72
     1
 10
14.85406279367382
 20
-35.79999999999997
 11
7.805625891784546
 21
-44.20000000000002
 72
     1
 10
7.805625891784546
 20
-44.20000000000002
 11
11.25190113562183
 21
-44.20000000000002
 72
     1
 10
11.25190113562183
 20
-44.20000000000002
 11
18.30033803751094
 21
-35.79999999999997
 97
        0
 75
     0
 76
     1
 98
        1
 10
0.0
 20
0.0
  0
HATCH
  5
DC
330
1F
100
AcDbEntity
  8
중심선
100
AcDbHatch
 10
0.0
 20
0.0
 30
0.0
210
0.0
220
0.0
230
1.0
  2
SOLID
 70
     1
 71
     0
 91
        1
 92
        0
 93
        6
 72
     3
 10
23.10022846852311
 20
-40.00000000005127
 11
3.960054785062284
 21
1.540850780301639E-10
 40
0.3939339440162633
 50
17.09539180608434
 51
320.0019657685081
 73
     0
 72
     1
 10
24.78322812422368
 20
-38.58789400463833
 11
27.08852999792474
 21
-36.65356729459038
 72
     3
 10
23.10022846847026
 20
-40.00000000000015
 11
6.600054785286829
 21
-1.249000902703301E-13
 40
0.6363583540795982
 50
39.9987384933741
 51
368.4976242363725
 73
     1
 72
     1
 10
29.52556096037087
 20
-39.03999999993002
 11
21.78029577530619
 21
-39.03999999993002
 72
     1
 10
21.78029577530619
 20
-39.03999999993002
 11
21.78027073086025
 21
-40.95999999992991
 72
     1
 10
21.78027073086025
 20
-40.95999999992991
 11
26.22165050033229
 21
-40.95999999992988
 97
        0
 75
     0
 76
     1
 98
        1
 10
0.0
 20
0.0
  0
DIMENSION
  5
DD
330
1F
100
AcDbEntity
  8
치수문자_일반주서
100
AcDbDimension
  2
_D
 10
95.35799033733227
 20
8.000000000000057
 30
0.0
 11
95.35799033733223
 21
18.54150000000006
 31
0.0
 70
   160
  1
%%c<>
 71
     2
 42
16.00000000000002
 52
-270.0
  3
SLDDIMSTYLE0
100
AcDbAlignedDimension
 13
82.00000000000001
 23
-8.000000000000018
 33
0.0
 14
82.00000000000001
 24
8.000000000000007
 34
0.0
 50
90.0000000000002
100
AcDbRotatedDimension
  0
DIMENSION
  5
EB
330
1F
100
AcDbEntity
  8
치수문자_일반주서
100
AcDbDimension
  2
_D_1
 10
82.00000000000003
 20
25.38913260158164
 30
0.0
 11
17.0
 21
25.38913260158164
 31
0.0
 70
   160
  1
<>
 71
     2
 42
130.0
  3
SLDDIMSTYLE1
100
AcDbAlignedDimension
 13
-48.0
 23
7.49999999999999
 33
0.0
 14
82.00000000000001
 24
8.000000000000002
 34
0.0
 50
-0.0000000000000047
100
AcDbRotatedDimension
  0
DIMENSION
  5
F6
330
1F
100
AcDbEntity
  8
치수문자_일반주서
100
AcDbDimension
  2
_D_2
 10
-60.80753323025044
 20
-8.000000000000064
 30
0.0
 11
-60.80753323025053
 21
18.54149999999995
 31
0.0
 70
   160
  1
%%c<>
 71
     2
 42
16.00000000000001
 52
-270.0
  3
SLDDIMSTYLE2
100
AcDbAlignedDimension
 13
-47.49999999999999
 23
8.000000000000002
 33
0.0
 14
-47.49999999999999
 24
-8.000000000000012
 34
0.0
 50
90.0000000000002
100
AcDbRotatedDimension
  0
DIMENSION
  5
104
330
1F
100
AcDbEntity
  8
치수문자_일반주서
100
AcDbDimension
  2
_D_3
 10
82.00000000000001
 20
18.82173021490883
 30
0.0
 11
47.00000000000001
 21
18.82173021490883
 31
0.0
 70
   160
  1
<>
 71
     2
 42
70.00000000000001
  3
SLDDIMSTYLE1
100
AcDbAlignedDimension
 13
12.0
 23
7.975811912321179
 33
0.0
 14
82.00000000000001
 24
8.000000000000002
 34
0.0
 50
-0.0000000000000029
100
AcDbRotatedDimension
  0
INSERT
  5
114
330
1F
100
AcDbEntity
  8
해칭선
100
AcDbBlockReference
  2
SW_DOWELSYMBOL_0
 10
0.0003515434851432
 20
-0.0000000000000043
 30
0.0
  0
ENDSEC
  0
SECTION
  2
OBJECTS
  0
DICTIONARY
  5
C
330
0
100
AcDbDictionary
281
     1
  3
ACAD_GROUP
350
D
  3
ACAD_IMAGE_VARS
350
138
  3
ACAD_LAYOUT
350
1A
  3
ACAD_MLINESTYLE
350
17
  3
ACAD_PLOTSETTINGS
350
19
  3
ACAD_PLOTSTYLENAME
350
E
  3
ACAD_SCALELIST
350
47
  3
APPDATA
350
136
  3
DWGPROPS
350
148
  0
DICTIONARY
  5
D
102
{ACAD_REACTORS
330
C
102
}
330
C
100
AcDbDictionary
281
     1
  0
RASTERVARIABLES
  5
138
102
{ACAD_REACTORS
330
C
102
}
330
C
100
AcDbRasterVariables
 90
        0
 70
     1
 71
     1
 72
     1
  0
DICTIONARY
  5
1A
102
{ACAD_REACTORS
330
C
102
}
330
C
100
AcDbDictionary
281
     1
  3
Layout1
350
1E
  3
Layout2
350
26
  3
Model
350
22
  0
DICTIONARY
  5
17
102
{ACAD_REACTORS
330
C
102
}
330
C
100
AcDbDictionary
281
     1
  3
Standard
350
18
  0
DICTIONARY
  5
19
102
{ACAD_REACTORS
330
C
102
}
330
C
100
AcDbDictionary
281
     1
  0
ACDBDICTIONARYWDFLT
  5
E
102
{ACAD_REACTORS
330
C
102
}
330
C
100
AcDbDictionary
281
     1
  3
Normal
350
F
100
AcDbDictionaryWithDefault
340
F
  0
DICTIONARY
  5
47
102
{ACAD_REACTORS
330
C
102
}
330
C
100
AcDbDictionary
281
     1
  3
A0
350
48
  3
A1
350
49
  3
A2
350
4A
  3
A3
350
4B
  3
A4
350
4C
  3
A5
350
4D
  3
A6
350
4E
  3
A7
350
4F
  3
A8
350
50
  3
A9
350
51
  3
B0
350
52
  3
B1
350
53
  3
B2
350
54
  3
B3
350
55
  3
B4
350
56
  3
B5
350
57
  3
B6
350
58
  3
B7
350
59
  3
B8
350
5A
  3
B9
350
5B
  3
C0
350
5C
  3
C1
350
5D
  3
C2
350
5E
  3
C3
350
5F
  3
C4
350
60
  3
C5
350
61
  3
C6
350
62
  3
C7
350
63
  3
C8
350
64
  3
C9
350
65
  3
D0
350
66
  3
D1
350
67
  3
D2
350
68
  0
DICTIONARY
  5
136
102
{ACAD_REACTORS
330
C
102
}
330
C
100
AcDbDictionary
281
     1
  0
XRECORD
  5
148
102
{ACAD_REACTORS
330
C
102
}
330
C
100
AcDbXrecord
280
     1
  1
DWGPROPS COOKIE
  2

  3

  4

  6

  7

  8
12014102
  9

300
=
301
=
302
=
303
=
304
=
305
=
306
=
307
=
308
=
309
=
 40
0.0
 41
2458260.209208009
 42
2458268.220177002
  1

 90
        0
  0
LAYOUT
  5
1E
102
{ACAD_REACTORS
330
1A
102
}
330
1A
100
AcDbPlotSettings
  1

  2
none_device
  4

  6

 40
0.0
 41
0.0
 42
0.0
 43
0.0
 44
0.0
 45
0.0
 46
0.0
 47
0.0
 48
0.0
 49
0.0
140
0.0
141
0.0
142
1.0
143
1.0
 70
   688
 72
     1
 73
     0
 74
     5
  7

 75
    16
147
1.0
148
0.0
149
0.0
100
AcDbLayout
  1
Layout1
 70
     1
 71
     1
 10
0.0
 20
0.0
 11
420.0
 21
297.0
 12
0.0
 22
0.0
 32
0.0
 14
1.000000000000000E+20
 24
1.000000000000000E+20
 34
1.000000000000000E+20
 15
-1.000000000000000E+20
 25
-1.000000000000000E+20
 35
-1.000000000000000E+20
146
0.0
 13
0.0
 23
0.0
 33
0.0
 16
1.0
 26
0.0
 36
0.0
 17
0.0
 27
1.0
 37
0.0
 76
     0
330
1B
  0
LAYOUT
  5
26
102
{ACAD_REACTORS
330
1A
102
}
330
1A
100
AcDbPlotSettings
  1

  2
none_device
  4

  6

 40
0.0
 41
0.0
 42
0.0
 43
0.0
 44
0.0
 45
0.0
 46
0.0
 47
0.0
 48
0.0
 49
0.0
140
0.0
141
0.0
142
1.0
143
1.0
 70
   688
 72
     1
 73
     0
 74
     5
  7

 75
    16
147
1.0
148
0.0
149
0.0
100
AcDbLayout
  1
Layout2
 70
     1
 71
     2
 10
0.0
 20
0.0
 11
0.0
 21
0.0
 12
0.0
 22
0.0
 32
0.0
 14
0.0
 24
0.0
 34
0.0
 15
0.0
 25
0.0
 35
0.0
146
0.0
 13
0.0
 23
0.0
 33
0.0
 16
1.0
 26
0.0
 36
0.0
 17
0.0
 27
1.0
 37
0.0
 76
     0
330
23
  0
LAYOUT
  5
22
102
{ACAD_REACTORS
330
1A
102
}
330
1A
100
AcDbPlotSettings
  1

  2
none_device
  4
ANSI_A_(11.00_x_8.50_Inches)
  6

 40
6.35
 41
19.05
 42
6.35000508
 43
19.05000254
 44
279.4
 45
215.9
 46
106.7172004495918
 47
106.3615800304045
 48
0.0
 49
0.0
140
0.0
141
0.0
142
0.0660549617320314
143
1.0
 70
  1696
 72
     0
 73
     0
 74
     0
  7

 75
     0
147
0.0235690232323232
148
0.0
149
0.0
100
AcDbLayout
  1
Model
 70
     1
 71
     0
 10
0.0
 20
0.0
 11
420.0
 21
297.0
 12
0.0
 22
0.0
 32
0.0
 14
-65.18253323025054
 24
-49.97180738881173
 34
0.0
 15
95.90832367066567
 25
29.76413260158164
 35
0.0
146
0.0
 13
0.0
 23
0.0
 33
0.0
 16
1.0
 26
0.0
 36
0.0
 17
0.0
 27
1.0
 37
0.0
 76
     0
330
1F
331
29
  0
MLINESTYLE
  5
18
102
{ACAD_REACTORS
330
17
102
}
330
17
100
AcDbMlineStyle
  2
Standard
 70
     0
  3

 62
   256
 51
90.0
 52
90.0
 71
     2
 49
0.5
 62
   256
  6
BYLAYER
 49
-0.5
 62
   256
  6
BYLAYER
  0
ACDBPLACEHOLDER
  5
F
102
{ACAD_REACTORS
330
E
102
}
330
E
  0
SCALE
  5
48
102
{ACAD_REACTORS
330
47
102
}
330
47
100
AcDbScale
 70
     0
300
1:1
140
1.0
141
1.0
290
     1
  0
SCALE
  5
49
102
{ACAD_REACTORS
330
47
102
}
330
47
100
AcDbScale
 70
     0
300
1:2
140
1.0
141
2.0
290
     0
  0
SCALE
  5
4A
102
{ACAD_REACTORS
330
47
102
}
330
47
100
AcDbScale
 70
     0
300
1:4
140
1.0
141
4.0
290
     0
  0
SCALE
  5
4B
102
{ACAD_REACTORS
330
47
102
}
330
47
100
AcDbScale
 70
     0
300
1:5
140
1.0
141
5.0
290
     0
  0
SCALE
  5
4C
102
{ACAD_REACTORS
330
47
102
}
330
47
100
AcDbScale
 70
     0
300
1:8
140
1.0
141
8.0
290
     0
  0
SCALE
  5
4D
102
{ACAD_REACTORS
330
47
102
}
330
47
100
AcDbScale
 70
     0
300
1:10
140
1.0
141
10.0
290
     0
  0
SCALE
  5
4E
102
{ACAD_REACTORS
330
47
102
}
330
47
100
AcDbScale
 70
     0
300
1:16
140
1.0
141
16.0
290
     0
  0
SCALE
  5
4F
102
{ACAD_REACTORS
330
47
102
}
330
47
100
AcDbScale
 70
     0
300
1:20
140
1.0
141
20.0
290
     0
  0
SCALE
  5
50
102
{ACAD_REACTORS
330
47
102
}
330
47
100
AcDbScale
 70
     0
300
1:30
140
1.0
141
30.0
290
     0
  0
SCALE
  5
51
102
{ACAD_REACTORS
330
47
102
}
330
47
100
AcDbScale
 70
     0
300
1:40
140
1.0
141
40.0
290
     0
  0
SCALE
  5
52
102
{ACAD_REACTORS
330
47
102
}
330
47
100
AcDbScale
 70
     0
300
1:50
140
1.0
141
50.0
290
     0
  0
SCALE
  5
53
102
{ACAD_REACTORS
330
47
102
}
330
47
100
AcDbScale
 70
     0
300
1:100
140
1.0
141
100.0
290
     0
  0
SCALE
  5
54
102
{ACAD_REACTORS
330
47
102
}
330
47
100
AcDbScale
 70
     0
300
2:1
140
2.0
141
1.0
290
     0
  0
SCALE
  5
55
102
{ACAD_REACTORS
330
47
102
}
330
47
100
AcDbScale
 70
     0
300
4:1
140
4.0
141
1.0
290
     0
  0
SCALE
  5
56
102
{ACAD_REACTORS
330
47
102
}
330
47
100
AcDbScale
 70
     0
300
8:1
140
8.0
141
1.0
290
     0
  0
SCALE
  5
57
102
{ACAD_REACTORS
330
47
102
}
330
47
100
AcDbScale
 70
     0
300
10:1
140
10.0
141
1.0
290
     0
  0
SCALE
  5
58
102
{ACAD_REACTORS
330
47
102
}
330
47
100
AcDbScale
 70
     0
300
100:1
140
100.0
141
1.0
290
     0
  0
SCALE
  5
59
102
{ACAD_REACTORS
330
47
102
}
330
47
100
AcDbScale
 70
     0
300
1/128" = 1'-0"
140
0.0078125
141
12.0
290
     0
  0
SCALE
  5
5A
102
{ACAD_REACTORS
330
47
102
}
330
47
100
AcDbScale
 70
     0
300
1/64" = 1'-0"
140
0.015625
141
12.0
290
     0
  0
SCALE
  5
5B
102
{ACAD_REACTORS
330
47
102
}
330
47
100
AcDbScale
 70
     0
300
1/32" = 1'-0"
140
0.03125
141
12.0
290
     0
  0
SCALE
  5
5C
102
{ACAD_REACTORS
330
47
102
}
330
47
100
AcDbScale
 70
     0
300
1/16" = 1'-0"
140
0.0625
141
12.0
290
     0
  0
SCALE
  5
5D
102
{ACAD_REACTORS
330
47
102
}
330
47
100
AcDbScale
 70
     0
300
3/32" = 1'-0"
140
0.09375
141
12.0
290
     0
  0
SCALE
  5
5E
102
{ACAD_REACTORS
330
47
102
}
330
47
100
AcDbScale
 70
     0
300
1/8" = 1'-0"
140
0.125
141
12.0
290
     0
  0
SCALE
  5
5F
102
{ACAD_REACTORS
330
47
102
}
330
47
100
AcDbScale
 70
     0
300
3/16" = 1'-0"
140
0.1875
141
12.0
290
     0
  0
SCALE
  5
60
102
{ACAD_REACTORS
330
47
102
}
330
47
100
AcDbScale
 70
     0
300
1/4" = 1'-0"
140
0.25
141
12.0
290
     0
  0
SCALE
  5
61
102
{ACAD_REACTORS
330
47
102
}
330
47
100
AcDbScale
 70
     0
300
3/8" = 1'-0"
140
0.375
141
12.0
290
     0
  0
SCALE
  5
62
102
{ACAD_REACTORS
330
47
102
}
330
47
100
AcDbScale
 70
     0
300
1/2" = 1'-0"
140
0.5
141
12.0
290
     0
  0
SCALE
  5
63
102
{ACAD_REACTORS
330
47
102
}
330
47
100
AcDbScale
 70
     0
300
3/4" = 1'-0"
140
0.75
141
12.0
290
     0
  0
SCALE
  5
64
102
{ACAD_REACTORS
330
47
102
}
330
47
100
AcDbScale
 70
     0
300
1" = 1'-0"
140
1.0
141
12.0
290
     0
  0
SCALE
  5
65
102
{ACAD_REACTORS
330
47
102
}
330
47
100
AcDbScale
 70
     0
300
1-1/2" = 1'-0"
140
1.5
141
12.0
290
     0
  0
SCALE
  5
66
102
{ACAD_REACTORS
330
47
102
}
330
47
100
AcDbScale
 70
     0
300
3" = 1'-0"
140
3.0
141
12.0
290
     0
  0
SCALE
  5
67
102
{ACAD_REACTORS
330
47
102
}
330
47
100
AcDbScale
 70
     0
300
6" = 1'-0"
140
6.0
141
12.0
290
     0
  0
SCALE
  5
68
102
{ACAD_REACTORS
330
47
102
}
330
47
100
AcDbScale
 70
     0
300
1'-0" = 1'-0"
140
12.0
141
12.0
290
     0
  0
ENDSEC
  0
EOF
