  0
SECTION
  2
HEADER
  9
$ACADVER
  1
AC1015
  9
$ACADMAINTVER
 70
     6
  9
$DWGCODEPAGE
  3
ANSI_949
  9
$INSBASE
 10
0.0
 20
0.0
 30
0.0
  9
$EXTMIN
 10
-136.289948828992
 20
-49.97180738881174
 30
0.0
  9
$EXTMAX
 10
97.52055571240663
 20
29.76413260158163
 30
0.0
  9
$LIMMIN
 10
0.0
 20
0.0
  9
$LIMMAX
 10
420.0
 20
297.0
  9
$ORTHOMODE
 70
     0
  9
$REGENMODE
 70
     1
  9
$FILLMODE
 70
     1
  9
$QTEXTMODE
 70
     0
  9
$MIRRTEXT
 70
     1
  9
$LTSCALE
 40
1.0
  9
$ATTMODE
 70
     1
  9
$TEXTSIZE
 40
3.5
  9
$TRACEWID
 40
1.0
  9
$TEXTSTYLE
  7
Standard
  9
$CLAYER
  8
0
  9
$CELTYPE
  6
ByLayer
  9
$CECOLOR
 62
   256
  9
$CELTSCALE
 40
1.0
  9
$DISPSILH
 70
     0
  9
$DIMSCALE
 40
1.0
  9
$DIMASZ
 40
3.302
  9
$DIMEXO
 40
1.0
  9
$DIMDLI
 40
3.75
  9
$DIMRND
 40
0.0
  9
$DIMDLE
 40
0.0
  9
$DIMEXE
 40
1.0
  9
$DIMTP
 40
0.0
  9
$DIMTM
 40
0.0
  9
$DIMTXT
 40
3.5
  9
$DIMCEN
 40
2.5
  9
$DIMTSZ
 40
0.0
  9
$DIMTOL
 70
     0
  9
$DIMLIM
 70
     0
  9
$DIMTIH
 70
     1
  9
$DIMTOH
 70
     1
  9
$DIMSE1
 70
     0
  9
$DIMSE2
 70
     0
  9
$DIMTAD
 70
     1
  9
$DIMZIN
 70
     0
  9
$DIMBLK
  1

  9
$DIMASO
 70
     1
  9
$DIMSHO
 70
     1
  9
$DIMPOST
  1

  9
$DIMAPOST
  1

  9
$DIMALT
 70
     0
  9
$DIMALTD
 70
     3
  9
$DIMALTF
 40
0.0393700787401575
  9
$DIMLFAC
 40
1.0
  9
$DIMTOFL
 70
     1
  9
$DIMTVP
 40
0.0
  9
$DIMTIX
 70
     0
  9
$DIMSOXD
 70
     0
  9
$DIMSAH
 70
     0
  9
$DIMBLK1
  1

  9
$DIMBLK2
  1

  9
$DIMSTYLE
  2
ISO-25
  9
$DIMCLRD
 70
     0
  9
$DIMCLRE
 70
     0
  9
$DIMCLRT
 70
     0
  9
$DIMTFAC
 40
1.0
  9
$DIMGAP
 40
1.524
  9
$DIMJUST
 70
     0
  9
$DIMSD1
 70
     0
  9
$DIMSD2
 70
     0
  9
$DIMTOLJ
 70
     0
  9
$DIMTZIN
 70
     0
  9
$DIMALTZ
 70
     0
  9
$DIMALTTZ
 70
     0
  9
$DIMUPT
 70
     0
  9
$DIMDEC
 70
     2
  9
$DIMTDEC
 70
     2
  9
$DIMALTU
 70
     2
  9
$DIMALTTD
 70
     3
  9
$DIMTXSTY
  7
Standard
  9
$DIMAUNIT
 70
     0
  9
$DIMADEC
 70
     2
  9
$DIMALTRND
 40
0.0
  9
$DIMAZIN
 70
     0
  9
$DIMDSEP
 70
    44
  9
$DIMATFIT
 70
     3
  9
$DIMFRAC
 70
     0
  9
$DIMLDRBLK
  1

  9
$DIMLUNIT
 70
     2
  9
$DIMLWD
 70
    -2
  9
$DIMLWE
 70
    -2
  9
$DIMTMOVE
 70
     0
  9
$LUNITS
 70
     2
  9
$LUPREC
 70
     2
  9
$SKETCHINC
 40
1.0
  9
$FILLETRAD
 40
10.0
  9
$AUNITS
 70
     0
  9
$AUPREC
 70
     2
  9
$MENU
  1
.
  9
$ELEVATION
 40
0.0
  9
$PELEVATION
 40
0.0
  9
$THICKNESS
 40
0.0
  9
$LIMCHECK
 70
     0
  9
$CHAMFERA
 40
0.0
  9
$CHAMFERB
 40
0.0
  9
$CHAMFERC
 40
0.0
  9
$CHAMFERD
 40
0.0
  9
$SKPOLY
 70
     0
  9
$TDCREATE
 40
2458260.58401897
  9
$TDUCREATE
 40
2458260.20901897
  9
$TDUPDATE
 40
2458268.66193316
  9
$TDUUPDATE
 40
2458268.28693316
  9
$TDINDWG
 40
0.0006559838
  9
$TDUSRTIMER
 40
2458268.286277211
  9
$USRTIMER
 70
     1
  9
$ANGBASE
 50
0.0
  9
$ANGDIR
 70
     0
  9
$PDMODE
 70
     0
  9
$PDSIZE
 40
-1.0
  9
$PLINEWID
 40
0.0
  9
$SPLFRAME
 70
     0
  9
$SPLINETYPE
 70
     6
  9
$SPLINESEGS
 70
     8
  9
$HANDSEED
  5
148
  9
$SURFTAB1
 70
     6
  9
$SURFTAB2
 70
     6
  9
$SURFTYPE
 70
     6
  9
$SURFU
 70
     6
  9
$SURFV
 70
     6
  9
$UCSBASE
  2

  9
$UCSNAME
  2

  9
$UCSORG
 10
0.0
 20
0.0
 30
0.0
  9
$UCSXDIR
 10
1.0
 20
0.0
 30
0.0
  9
$UCSYDIR
 10
0.0
 20
1.0
 30
0.0
  9
$UCSORTHOREF
  2

  9
$UCSORTHOVIEW
 70
     0
  9
$UCSORGTOP
 10
0.0
 20
0.0
 30
0.0
  9
$UCSORGBOTTOM
 10
0.0
 20
0.0
 30
0.0
  9
$UCSORGLEFT
 10
0.0
 20
0.0
 30
0.0
  9
$UCSORGRIGHT
 10
0.0
 20
0.0
 30
0.0
  9
$UCSORGFRONT
 10
0.0
 20
0.0
 30
0.0
  9
$UCSORGBACK
 10
0.0
 20
0.0
 30
0.0
  9
$PUCSBASE
  2

  9
$PUCSNAME
  2

  9
$PUCSORG
 10
0.0
 20
0.0
 30
0.0
  9
$PUCSXDIR
 10
1.0
 20
0.0
 30
0.0
  9
$PUCSYDIR
 10
0.0
 20
1.0
 30
0.0
  9
$PUCSORTHOREF
  2

  9
$PUCSORTHOVIEW
 70
     0
  9
$PUCSORGTOP
 10
0.0
 20
0.0
 30
0.0
  9
$PUCSORGBOTTOM
 10
0.0
 20
0.0
 30
0.0
  9
$PUCSORGLEFT
 10
0.0
 20
0.0
 30
0.0
  9
$PUCSORGRIGHT
 10
0.0
 20
0.0
 30
0.0
  9
$PUCSORGFRONT
 10
0.0
 20
0.0
 30
0.0
  9
$PUCSORGBACK
 10
0.0
 20
0.0
 30
0.0
  9
$USERI1
 70
     0
  9
$USERI2
 70
     0
  9
$USERI3
 70
     0
  9
$USERI4
 70
     0
  9
$USERI5
 70
     0
  9
$USERR1
 40
0.0
  9
$USERR2
 40
0.0
  9
$USERR3
 40
0.0
  9
$USERR4
 40
0.0
  9
$USERR5
 40
0.0
  9
$WORLDVIEW
 70
     1
  9
$SHADEDGE
 70
     3
  9
$SHADEDIF
 70
    70
  9
$TILEMODE
 70
     1
  9
$MAXACTVP
 70
    64
  9
$PINSBASE
 10
0.0
 20
0.0
 30
0.0
  9
$PLIMCHECK
 70
     0
  9
$PEXTMIN
 10
1.000000000000000E+20
 20
1.000000000000000E+20
 30
1.000000000000000E+20
  9
$PEXTMAX
 10
-1.000000000000000E+20
 20
-1.000000000000000E+20
 30
-1.000000000000000E+20
  9
$PLIMMIN
 10
0.0
 20
0.0
  9
$PLIMMAX
 10
0.0
 20
0.0
  9
$UNITMODE
 70
     0
  9
$VISRETAIN
 70
     1
  9
$PLINEGEN
 70
     0
  9
$PSLTSCALE
 70
     1
  9
$TREEDEPTH
 70
  3020
  9
$CMLSTYLE
  2
Standard
  9
$CMLJUST
 70
     0
  9
$CMLSCALE
 40
20.0
  9
$PROXYGRAPHICS
 70
     1
  9
$MEASUREMENT
 70
     1
  9
$CELWEIGHT
370
    -1
  9
$ENDCAPS
280
     0
  9
$JOINSTYLE
280
     0
  9
$LWDISPLAY
290
     1
  9
$INSUNITS
 70
     4
  9
$HYPERLINKBASE
  1

  9
$STYLESHEET
  1

  9
$XEDIT
290
     1
  9
$CEPSNTYPE
380
     0
  9
$PSTYLEMODE
290
     1
  9
$FINGERPRINTGUID
  2
{FCFC6B4D-A41F-47D3-B8A0-DFBC0352F5A1}
  9
$VERSIONGUID
  2
{FAEB1C32-E019-11D5-929B-00C0DF256EC4}
  9
$EXTNAMES
290
     1
  9
$PSVPSCALE
 40
0.0
  9
$OLESTARTUP
290
     0
  0
ENDSEC
  0
SECTION
  2
CLASSES
  0
CLASS
  1
ACDBDICTIONARYWDFLT
  2
AcDbDictionaryWithDefault
  3
ObjectDBX Classes
 90
        0
280
     0
281
     0
  0
CLASS
  1
VISUALSTYLE
  2
AcDbVisualStyle
  3
ObjectDBX Classes
 90
     4095
280
     0
281
     0
  0
CLASS
  1
MATERIAL
  2
AcDbMaterial
  3
ObjectDBX Classes
 90
     1153
280
     0
281
     0
  0
CLASS
  1
SCALE
  2
AcDbScale
  3
ObjectDBX Classes
 90
     1153
280
     0
281
     0
  0
CLASS
  1
TABLESTYLE
  2
AcDbTableStyle
  3
ObjectDBX Classes
 90
     4095
280
     0
281
     0
  0
CLASS
  1
MLEADERSTYLE
  2
AcDbMLeaderStyle
  3
ACDB_MLEADERSTYLE_CLASS
 90
     4095
280
     0
281
     0
  0
CLASS
  1
SUN
  2
AcDbSun
  3
SCENEOE
 90
     1153
280
     0
281
     0
  0
CLASS
  1
ACDBPLACEHOLDER
  2
AcDbPlaceHolder
  3
ObjectDBX Classes
 90
        0
280
     0
281
     0
  0
CLASS
  1
LAYOUT
  2
AcDbLayout
  3
ObjectDBX Classes
 90
        0
280
     0
281
     0
  0
CLASS
  1
RASTERVARIABLES
  2
AcDbRasterVariables
  3
ISM
 90
        0
280
     0
281
     0
  0
ENDSEC
  0
SECTION
  2
TABLES
  0
TABLE
  2
VPORT
  5
8
330
0
100
AcDbSymbolTable
 70
     1
  0
VPORT
  5
29
330
8
100
AcDbSymbolTableRecord
100
AcDbViewportTableRecord
  2
*Active
 70
     0
 10
0.0
 20
0.0
 11
1.0
 21
1.0
 12
-19.38469655829272
 22
-10.10383739361505
 13
0.0
 23
0.0
 14
10.0
 24
10.0
 15
10.0
 25
10.0
 16
0.0
 26
0.0
 36
1.0
 17
0.0
 27
0.0
 37
0.0
 40
137.6500500561845
 41
1.732558139534884
 42
50.0
 43
0.0
 44
0.0
 50
0.0
 51
0.0
 71
    16
 72
  2000
 73
     1
 74
     3
 75
     0
 76
     0
 77
     0
 78
     0
281
     0
 65
     1
110
0.0
120
0.0
130
0.0
111
1.0
121
0.0
131
0.0
112
0.0
122
1.0
132
0.0
 79
     0
146
0.0
  0
ENDTAB
  0
TABLE
  2
LTYPE
  5
5
330
0
100
AcDbSymbolTable
 70
     6
  0
LTYPE
  5
14
330
5
100
AcDbSymbolTableRecord
100
AcDbLinetypeTableRecord
  2
ByBlock
 70
     0
  3

 72
    65
 73
     0
 40
0.0
  0
LTYPE
  5
15
330
5
100
AcDbSymbolTableRecord
100
AcDbLinetypeTableRecord
  2
ByLayer
 70
     0
  3

 72
    65
 73
     0
 40
0.0
  0
LTYPE
  5
16
330
5
100
AcDbSymbolTableRecord
100
AcDbLinetypeTableRecord
  2
Continuous
 70
     0
  3
Solid line
 72
    65
 73
     0
 40
0.0
  0
LTYPE
  5
6E
330
5
100
AcDbSymbolTableRecord
100
AcDbLinetypeTableRecord
  2
HIDDEN
 70
     0
  3
Hidden __ __ __ __ __ __ __ __ __ __ __ __ __ __
 72
    65
 73
     2
 40
1.905
 49
1.27
 74
     0
 49
-0.635
 74
     0
  0
LTYPE
  5
6F
330
5
100
AcDbSymbolTableRecord
100
AcDbLinetypeTableRecord
  2
PHANTOM
 70
     0
  3
Phantom ______  __  __  ______  __  __  ______
 72
    65
 73
     6
 40
12.7
 49
6.35
 74
     0
 49
-1.27
 74
     0
 49
1.27
 74
     0
 49
-1.27
 74
     0
 49
1.27
 74
     0
 49
-1.27
 74
     0
  0
LTYPE
  5
70
330
5
100
AcDbSymbolTableRecord
100
AcDbLinetypeTableRecord
  2
CENTER
 70
     0
  3
Center ____ _ ____ _ ____ _ ____ _ ____ _ ____
 72
    65
 73
     4
 40
10.16
 49
6.35
 74
     0
 49
-1.27
 74
     0
 49
1.27
 74
     0
 49
-1.27
 74
     0
  0
LTYPE
  5
71
330
5
100
AcDbSymbolTableRecord
100
AcDbLinetypeTableRecord
  2
CENTERX2
 70
     0
  3
Center (2x) ________  __  ________  __  _____
 72
    65
 73
     4
 40
20.32
 49
12.7
 74
     0
 49
-2.54
 74
     0
 49
2.54
 74
     0
 49
-2.54
 74
     0
  0
LTYPE
  5
72
330
5
100
AcDbSymbolTableRecord
100
AcDbLinetypeTableRecord
  2
DOT2
 70
     0
  3
Dot (.5x) ........................................
 72
    65
 73
     2
 40
0.635
 49
0.0
 74
     0
 49
-0.635
 74
     0
  0
ENDTAB
  0
TABLE
  2
LAYER
  5
2
330
0
100
AcDbSymbolTable
 70
    17
  0
LAYER
  5
10
330
2
100
AcDbSymbolTableRecord
100
AcDbLayerTableRecord
  2
0
 70
     0
 62
     7
  6
Continuous
370
    -3
390
F
  0
LAYER
  5
73
330
2
100
AcDbSymbolTableRecord
100
AcDbLayerTableRecord
  2
FORMAT
 70
     0
 62
     2
  6
Continuous
370
    -3
390
F
  0
LAYER
  5
74
330
2
100
AcDbSymbolTableRecord
100
AcDbLayerTableRecord
  2
외형선
 70
     0
 62
   100
  6
Continuous
370
    35
390
F
  0
LAYER
  5
75
330
2
100
AcDbSymbolTableRecord
100
AcDbLayerTableRecord
  2
숨은선
 70
     0
 62
     2
  6
HIDDEN
370
    25
390
F
  0
LAYER
  5
76
330
2
100
AcDbSymbolTableRecord
100
AcDbLayerTableRecord
  2
중심선
 70
     0
 62
     1
  6
CENTERX2
370
    -3
390
F
  0
LAYER
  5
77
330
2
100
AcDbSymbolTableRecord
100
AcDbLayerTableRecord
  2
파단선
 70
     0
 62
     4
  6
Continuous
370
    -3
390
F
  0
LAYER
  5
78
330
2
100
AcDbSymbolTableRecord
100
AcDbLayerTableRecord
  2
해칭선
 70
     0
 62
   100
  6
Continuous
370
    -3
390
F
  0
LAYER
  5
79
330
2
100
AcDbSymbolTableRecord
100
AcDbLayerTableRecord
  2
가는실선
 70
     0
 62
     4
  6
Continuous
370
    -3
390
F
  0
LAYER
  5
7A
330
2
100
AcDbSymbolTableRecord
100
AcDbLayerTableRecord
  2
치수_보조선
 70
     0
 62
     4
  6
Continuous
370
    -3
390
F
  0
LAYER
  5
7B
330
2
100
AcDbSymbolTableRecord
100
AcDbLayerTableRecord
  2
치수문자_일반주서
 70
     0
 62
     7
  6
Continuous
370
    25
390
F
  0
LAYER
  5
7C
330
2
100
AcDbSymbolTableRecord
100
AcDbLayerTableRecord
  2
개별주서
 70
     0
 62
   100
  6
Continuous
370
    35
390
F
  0
LAYER
  5
7D
330
2
100
AcDbSymbolTableRecord
100
AcDbLayerTableRecord
  2
중간선
 70
     0
 62
     2
  6
Continuous
370
    25
390
F
  0
LAYER
  5
7E
330
2
100
AcDbSymbolTableRecord
100
AcDbLayerTableRecord
  2
윤곽선
 70
     0
 62
     3
  6
Continuous
370
    50
390
F
  0
LAYER
  5
7F
330
2
100
AcDbSymbolTableRecord
100
AcDbLayerTableRecord
  2
중심마크
 70
     0
 62
   100
  6
Continuous
370
    35
390
F
  0
LAYER
  5
80
330
2
100
AcDbSymbolTableRecord
100
AcDbLayerTableRecord
  2
가상선
 70
     0
 62
     4
  6
PHANTOM
370
    -3
390
F
  0
LAYER
  5
81
330
2
100
AcDbSymbolTableRecord
100
AcDbLayerTableRecord
  2
특수지정선
 70
     0
 62
     5
  6
CENTERX2
370
    70
390
F
  0
LAYER
  5
138
330
2
100
AcDbSymbolTableRecord
100
AcDbLayerTableRecord
  2
Defpoints
 70
     0
 62
     7
  6
Continuous
290
     0
370
    -3
390
F
  0
ENDTAB
  0
TABLE
  2
STYLE
  5
3
330
0
100
AcDbSymbolTable
 70
     2
  0
STYLE
  5
11
330
3
100
AcDbSymbolTableRecord
100
AcDbTextStyleTableRecord
  2
Standard
 70
     0
 40
0.0
 41
1.0
 50
0.0
 71
     0
 42
3.5
  3
txt
  4

  0
STYLE
  5
97
330
3
100
AcDbSymbolTableRecord
100
AcDbTextStyleTableRecord
  2
SLDTEXTSTYLE0
 70
     0
 40
0.0
 41
0.75
 50
0.0
 71
     0
 42
3.5
  3
TXT
  4

  0
ENDTAB
  0
TABLE
  2
VIEW
  5
6
330
0
100
AcDbSymbolTable
 70
     0
  0
ENDTAB
  0
TABLE
  2
UCS
  5
7
330
0
100
AcDbSymbolTable
 70
     0
  0
ENDTAB
  0
TABLE
  2
APPID
  5
9
330
0
100
AcDbSymbolTable
 70
     1
  0
APPID
  5
12
330
9
100
AcDbSymbolTableRecord
100
AcDbRegAppTableRecord
  2
ACAD
 70
     0
  0
ENDTAB
  0
TABLE
  2
DIMSTYLE
  5
A
330
0
100
AcDbSymbolTable
 70
     4
100
AcDbDimStyleTable
  0
DIMSTYLE
105
27
330
A
100
AcDbSymbolTableRecord
100
AcDbDimStyleTableRecord
  2
ISO-25
 70
     0
 41
2.5
 42
0.625
 43
3.75
 44
1.25
 73
     0
 74
     0
 77
     1
 78
     8
140
2.5
141
2.5
143
0.03937007874016
147
0.625
171
     3
172
     1
178
     0
271
     2
272
     2
274
     3
278
    44
283
     0
284
     8
340
11
  0
DIMSTYLE
105
DD
102
{ACAD_REACTORS
330
DC
102
}
330
A
100
AcDbSymbolTableRecord
100
AcDbDimStyleTableRecord
  2
SLDDIMSTYLE0
 70
     0
 41
3.302
 44
0.0
 45
0.000000001
 73
     0
 74
     0
 77
     1
 78
    12
 79
     3
140
3.5
147
0.875
172
     1
173
     1
178
     0
271
     1
272
     1
276
     2
284
    12
289
     0
340
97
  0
DIMSTYLE
105
EB
102
{ACAD_REACTORS
330
EA
330
103
102
}
330
A
100
AcDbSymbolTableRecord
100
AcDbDimStyleTableRecord
  2
SLDDIMSTYLE1
 70
     0
 41
3.302
 44
0.0
 45
0.000000001
 73
     0
 74
     0
 77
     1
 78
    12
 79
     3
140
3.5
147
0.875
173
     1
178
     0
271
     2
272
     2
276
     2
284
    12
340
97
  0
DIMSTYLE
105
F6
102
{ACAD_REACTORS
330
F5
102
}
330
A
100
AcDbSymbolTableRecord
100
AcDbDimStyleTableRecord
  2
SLDDIMSTYLE2
 70
     0
 41
3.302
 44
0.0
 45
0.000000001
 73
     0
 74
     0
 77
     1
 78
    12
 79
     3
140
3.5
147
0.875
172
     1
173
     1
178
     0
271
     2
272
     2
276
     2
284
    12
289
     0
340
97
  0
ENDTAB
  0
TABLE
  2
BLOCK_RECORD
  5
1
330
0
100
AcDbSymbolTable
 70
     7
  0
BLOCK_RECORD
  5
1F
330
1
100
AcDbSymbolTableRecord
100
AcDbBlockTableRecord
  2
*Model_Space
340
22
  0
BLOCK_RECORD
  5
1B
330
1
100
AcDbSymbolTableRecord
100
AcDbBlockTableRecord
  2
*Paper_Space
340
1E
  0
BLOCK_RECORD
  5
23
330
1
100
AcDbSymbolTableRecord
100
AcDbBlockTableRecord
  2
*Paper_Space0
340
26
  0
BLOCK_RECORD
  5
82
330
1
100
AcDbSymbolTableRecord
100
AcDbBlockTableRecord
  2
블럭10
340
0
102
{BLKREFS
331
D5
102
}
  0
BLOCK_RECORD
  5
DE
330
1
100
AcDbSymbolTableRecord
100
AcDbBlockTableRecord
  2
_D
340
0
  0
BLOCK_RECORD
  5
EC
330
1
100
AcDbSymbolTableRecord
100
AcDbBlockTableRecord
  2
_D_1
340
0
  0
BLOCK_RECORD
  5
F7
330
1
100
AcDbSymbolTableRecord
100
AcDbBlockTableRecord
  2
_D_2
340
0
  0
BLOCK_RECORD
  5
104
330
1
100
AcDbSymbolTableRecord
100
AcDbBlockTableRecord
  2
_D_3
340
0
  0
BLOCK_RECORD
  5
10D
330
1
100
AcDbSymbolTableRecord
100
AcDbBlockTableRecord
  2
SW_DOWELSYMBOL_0
340
0
102
{BLKREFS
331
113
102
}
  0
ENDTAB
  0
ENDSEC
  0
SECTION
  2
BLOCKS
  0
BLOCK
  5
20
330
1F
100
AcDbEntity
  8
0
100
AcDbBlockBegin
  2
*Model_Space
 70
     0
 10
0.0
 20
0.0
 30
0.0
  3
*Model_Space
  1

  0
ENDBLK
  5
21
330
1F
100
AcDbEntity
  8
0
100
AcDbBlockEnd
  0
BLOCK
  5
1C
330
1B
100
AcDbEntity
 67
     1
  8
0
100
AcDbBlockBegin
  2
*Paper_Space
 70
     0
 10
0.0
 20
0.0
 30
0.0
  3
*Paper_Space
  1

  0
ENDBLK
  5
1D
330
1B
100
AcDbEntity
 67
     1
  8
0
100
AcDbBlockEnd
  0
BLOCK
  5
24
330
23
100
AcDbEntity
  8
0
100
AcDbBlockBegin
  2
*Paper_Space0
 70
     0
 10
0.0
 20
0.0
 30
0.0
  3
*Paper_Space0
  1

  0
ENDBLK
  5
25
330
23
100
AcDbEntity
  8
0
100
AcDbBlockEnd
  0
BLOCK
  5
83
330
82
100
AcDbEntity
  8
0
100
AcDbBlockBegin
  2
블럭10
 70
     2
 10
0.0
 20
0.0
 30
0.0
  3
블럭10
  1

  0
ELLIPSE
  5
85
330
82
100
AcDbEntity
  8
중심선
100
AcDbEllipse
 10
20.54032771741204
 20
12.0471743016438
 30
0.0
 11
6.600054785286829
 21
-1.261213355974178E-13
 31
0.0
210
0.0
220
0.0
230
1.0
 40
0.636358354079598
 41
0.9219305317359503
 42
6.513795318482858
  0
ELLIPSE
  5
86
330
82
100
AcDbEntity
  8
중심선
100
AcDbEllipse
 10
20.54032771746488
 20
12.04717430159265
 30
0.0
 11
3.960054785062283
 21
1.540847449632565E-10
 31
0.0
210
0.0
220
0.0
230
1.0
 40
0.3939339440162632
 41
1.131841032648279
 42
5.62031148352944
  0
LINE
  5
87
330
82
100
AcDbEntity
  8
중심선
100
AcDbLine
 10
2.268634060543552
 20
16.24717430164393
 30
0.0
 11
5.714909304380834
 21
16.24717430164393
 31
0.0
  0
LINE
  5
88
330
82
100
AcDbEntity
  8
중심선
100
AcDbLine
 10
5.245725140726316
 20
7.84717430164391
 30
0.0
 11
8.692000384563599
 21
7.84717430164391
 31
0.0
  0
LINE
  5
89
330
82
100
AcDbEntity
  8
중심선
100
AcDbLine
 10
15.74043728645272
 20
16.24717430164393
 30
0.0
 11
8.692000384563599
 21
7.84717430164391
 31
0.0
  0
LINE
  5
8A
330
82
100
AcDbEntity
  8
중심선
100
AcDbLine
 10
0.1404042013395286
 20
13.71084872107135
 30
0.0
 11
3.58671253028996
 21
13.71088815037384
 31
0.0
  0
LINE
  5
8B
330
82
100
AcDbEntity
  8
중심선
100
AcDbLine
 10
2.750260043222114
 20
10.84717430164391
 30
0.0
 11
6.196535287059397
 21
10.84717430164391
 31
0.0
  0
LINE
  5
8C
330
82
100
AcDbEntity
  8
중심선
100
AcDbLine
 10
12.29416204261559
 20
16.24717430164393
 30
0.0
 11
5.245725140726316
 21
7.84717430164391
 31
0.0
  0
LINE
  5
8D
330
82
100
AcDbEntity
  8
중심선
100
AcDbLine
 10
10.72767329541681
 20
16.24717430164393
 30
0.0
 11
6.196535287059397
 21
10.84717430164391
 31
0.0
  0
LINE
  5
8E
330
82
100
AcDbEntity
  8
중심선
100
AcDbLine
 10
7.28139805157953
 20
16.24717430164393
 30
0.0
 11
2.750260043222114
 21
10.84717430164391
 31
0.0
  0
LINE
  5
8F
330
82
100
AcDbEntity
  8
중심선
100
AcDbLine
 10
5.714909304380834
 20
16.24717430164393
 30
0.0
 11
3.58671253028996
 21
13.71088815037384
 31
0.0
  0
LINE
  5
90
330
82
100
AcDbEntity
  8
중심선
100
AcDbLine
 10
2.268634060543552
 20
16.24717430164393
 30
0.0
 11
0.1404042013395286
 21
13.71084872107135
 31
0.0
  0
LINE
  5
91
330
82
100
AcDbEntity
  8
중심선
100
AcDbLine
 10
7.28139805157953
 20
16.24717430164393
 30
0.0
 11
10.72767329541681
 21
16.24717430164393
 31
0.0
  0
LINE
  5
92
330
82
100
AcDbEntity
  8
중심선
100
AcDbLine
 10
12.29416204261559
 20
16.24717430164393
 30
0.0
 11
15.74043728645272
 21
16.24717430164393
 31
0.0
  0
LINE
  5
93
330
82
100
AcDbEntity
  8
중심선
100
AcDbLine
 10
19.22036997980202
 20
11.08717430171403
 30
0.0
 11
23.66174974927406
 21
11.08717430171406
 31
0.0
  0
LINE
  5
94
330
82
100
AcDbEntity
  8
중심선
100
AcDbLine
 10
19.22039502424796
 20
13.00717430171391
 30
0.0
 11
19.22036997980202
 21
11.08717430171403
 31
0.0
  0
LINE
  5
95
330
82
100
AcDbEntity
  8
중심선
100
AcDbLine
 10
19.22039502424796
 20
13.00717430171391
 30
0.0
 11
26.96566020931264
 21
13.00717430171391
 31
0.0
  0
LINE
  5
96
330
82
100
AcDbEntity
  8
중심선
100
AcDbLine
 10
22.22332737316547
 20
13.45928029700563
 30
0.0
 11
24.52862924686651
 21
15.39360700705356
 31
0.0
  0
ATTDEF
  5
98
330
82
100
AcDbEntity
  8
FORMAT
 62
     2
100
AcDbText
 10
-20.85824753159254
 20
2.075366912832191
 30
0.0
 40
4.233333333333333
  1
SEME7216070200E [ 4 FLUTE ]
 41
0.75
  7
SLDTEXTSTYLE0
 11
-20.85824753159254
 21
-0.0412997538344756
 31
0.0
100
AcDbAttributeDefinition
  3

  2
AUTOATTR0
 70
     0
 74
     1
  0
ENDBLK
  5
84
330
82
100
AcDbEntity
  8
0
100
AcDbBlockEnd
  0
BLOCK
  5
DF
330
DE
100
AcDbEntity
  8
0
100
AcDbBlockBegin
  2
_D
 70
     0
 10
0.0
 20
0.0
 30
0.0
  3
_D
  1

  0
LINE
  5
E1
330
DE
100
AcDbEntity
  8
치수문자_일반주서
 62
     0
370
    -2
100
AcDbLine
 10
82.06250000000003
 20
-8.000000000000021
 30
0.0
 11
96.97022237907329
 21
-7.999999999999964
 31
0.0
  0
LINE
  5
E2
330
DE
100
AcDbEntity
  8
치수문자_일반주서
 62
     0
370
    -2
100
AcDbLine
 10
82.06250000000003
 20
8.000000000000004
 30
0.0
 11
96.97022237907323
 21
8.000000000000062
 31
0.0
  0
LINE
  5
E3
330
DE
100
AcDbEntity
  8
치수문자_일반주서
 62
     0
370
    -2
100
AcDbLine
 10
96.97022237907329
 20
-7.999999999999964
 30
0.0
 11
96.97022237907318
 21
23.06559252259745
 31
0.0
  0
LINE
  5
E4
330
DE
100
AcDbEntity
  8
치수문자_일반주서
 62
     0
370
    -2
100
AcDbLine
 10
96.97022237907329
 20
-7.999999999999964
 30
0.0
 11
96.97022237907323
 21
8.000000000000062
 31
0.0
  0
LINE
  5
E5
330
DE
100
AcDbEntity
  8
치수문자_일반주서
 62
     0
370
    -2
100
AcDbLine
 10
96.9702223790733
 20
-11.30199999999996
 30
0.0
 11
96.97022237907332
 21
-14.60399999999996
 31
0.0
  0
LINE
  5
E6
330
DE
100
AcDbEntity
  8
치수문자_일반주서
 62
     0
370
    -2
100
AcDbLine
 10
96.97022237907322
 20
11.30200000000006
 30
0.0
 11
96.9702223790732
 21
14.60400000000006
 31
0.0
  0
SOLID
  5
E7
330
DE
100
AcDbEntity
  8
치수문자_일반주서
 62
     0
100
AcDbTrace
 10
97.52055571240663
 20
-11.30199999999996
 30
0.0
 11
96.41988904573998
 21
-11.30199999999997
 31
0.0
 12
96.97022237907329
 22
-7.999999999999964
 32
0.0
 13
96.97022237907329
 23
-7.999999999999964
 33
0.0
  0
SOLID
  5
E8
330
DE
100
AcDbEntity
  8
치수문자_일반주서
 62
     0
100
AcDbTrace
 10
96.4198890457399
 20
11.30200000000006
 30
0.0
 11
97.52055571240655
 21
11.30200000000006
 31
0.0
 12
96.97022237907323
 22
8.000000000000062
 32
0.0
 13
96.97022237907323
 23
8.000000000000062
 33
0.0
  0
MTEXT
  5
E9
330
DE
100
AcDbEntity
  8
치수문자_일반주서
 62
     0
100
AcDbMText
 10
92.59522237907319
 20
19.12809252259743
 30
0.0
 40
3.5
 41
0.0
 71
     2
 72
     1
  1
\A1;%%c16
  7
SLDTEXTSTYLE0
 11
-3.552713678800496E-15
 21
1.0
 31
0.0
 73
     1
 44
1.0
  0
POINT
  5
142
330
DE
100
AcDbEntity
  8
Defpoints
 62
     0
100
AcDbPoint
 10
82.00000000000003
 20
-8.000000000000021
 30
0.0
  0
POINT
  5
143
330
DE
100
AcDbEntity
  8
Defpoints
 62
     0
100
AcDbPoint
 10
82.00000000000003
 20
8.000000000000004
 30
0.0
  0
POINT
  5
144
330
DE
100
AcDbEntity
  8
Defpoints
 62
     0
100
AcDbPoint
 10
96.97022237907323
 20
8.000000000000059
 30
0.0
  0
ENDBLK
  5
E0
330
DE
100
AcDbEntity
  8
0
100
AcDbBlockEnd
  0
BLOCK
  5
ED
330
EC
100
AcDbEntity
  8
0
100
AcDbBlockBegin
  2
_D_1
 70
     0
 10
0.0
 20
0.0
 30
0.0
  3
_D_1
  1

  0
LINE
  5
EF
330
EC
100
AcDbEntity
  8
치수문자_일반주서
 62
     0
370
    -2
100
AcDbLine
 10
-118.0
 20
7.56249999999998
 30
0.0
 11
-118.0
 21
25.38913260158163
 31
0.0
  0
LINE
  5
F0
330
EC
100
AcDbEntity
  8
치수문자_일반주서
 62
     0
370
    -2
100
AcDbLine
 10
82.00000000000003
 20
8.062500000000005
 30
0.0
 11
82.00000000000003
 21
25.38913260158163
 31
0.0
  0
LINE
  5
F1
330
EC
100
AcDbEntity
  8
치수문자_일반주서
 62
     0
370
    -2
100
AcDbLine
 10
-114.698
 20
25.38913260158163
 30
0.0
 11
78.69800000000004
 21
25.38913260158163
 31
0.0
  0
SOLID
  5
F2
330
EC
100
AcDbEntity
  8
치수문자_일반주서
 62
     0
100
AcDbTrace
 10
-114.698
 20
25.93946593491496
 30
0.0
 11
-114.698
 21
24.83879926824829
 31
0.0
 12
-118.0
 22
25.38913260158163
 32
0.0
 13
-118.0
 23
25.38913260158163
 33
0.0
  0
SOLID
  5
F3
330
EC
100
AcDbEntity
  8
치수문자_일반주서
 62
     0
100
AcDbTrace
 10
78.69800000000004
 20
24.83879926824829
 30
0.0
 11
78.69800000000004
 21
25.93946593491496
 31
0.0
 12
82.00000000000003
 22
25.38913260158163
 32
0.0
 13
82.00000000000003
 23
25.38913260158163
 33
0.0
  0
MTEXT
  5
F4
330
EC
100
AcDbEntity
  8
치수문자_일반주서
 62
     0
100
AcDbMText
 10
-17.99999999999999
 20
29.76413260158163
 30
0.0
 40
3.5
 41
0.0
 71
     2
 72
     1
  1
\A1;200
  7
SLDTEXTSTYLE0
 73
     1
 44
1.0
  0
POINT
  5
139
330
EC
100
AcDbEntity
  8
Defpoints
 62
     0
100
AcDbPoint
 10
-118.0
 20
7.49999999999998
 30
0.0
  0
POINT
  5
13A
330
EC
100
AcDbEntity
  8
Defpoints
 62
     0
100
AcDbPoint
 10
82.00000000000003
 20
8.000000000000005
 30
0.0
  0
POINT
  5
13B
330
EC
100
AcDbEntity
  8
Defpoints
 62
     0
100
AcDbPoint
 10
82.00000000000003
 20
25.38913260158163
 30
0.0
  0
ENDBLK
  5
EE
330
EC
100
AcDbEntity
  8
0
100
AcDbBlockEnd
  0
BLOCK
  5
F8
330
F7
100
AcDbEntity
  8
0
100
AcDbBlockBegin
  2
_D_2
 70
     0
 10
0.0
 20
0.0
 30
0.0
  3
_D_2
  1

  0
LINE
  5
FA
330
F7
100
AcDbEntity
  8
치수문자_일반주서
 62
     0
370
    -2
100
AcDbLine
 10
-117.5625
 20
7.999999999999972
 30
0.0
 11
-131.914948828992
 21
7.99999999999992
 31
0.0
  0
LINE
  5
FB
330
F7
100
AcDbEntity
  8
치수문자_일반주서
 62
     0
370
    -2
100
AcDbLine
 10
-117.5625
 20
-8.000000000000016
 30
0.0
 11
-131.9149488289919
 21
-8.000000000000068
 31
0.0
  0
LINE
  5
FC
330
F7
100
AcDbEntity
  8
치수문자_일반주서
 62
     0
370
    -2
100
AcDbLine
 10
-131.914948828992
 20
7.99999999999992
 30
0.0
 11
-131.914948828992
 21
22.61606559240837
 31
0.0
  0
LINE
  5
FD
330
F7
100
AcDbEntity
  8
치수문자_일반주서
 62
     0
370
    -2
100
AcDbLine
 10
-131.914948828992
 20
7.99999999999992
 30
0.0
 11
-131.9149488289919
 21
-8.000000000000068
 31
0.0
  0
LINE
  5
FE
330
F7
100
AcDbEntity
  8
치수문자_일반주서
 62
     0
370
    -2
100
AcDbLine
 10
-131.914948828992
 20
11.30199999999992
 30
0.0
 11
-131.914948828992
 21
14.60399999999992
 31
0.0
  0
LINE
  5
FF
330
F7
100
AcDbEntity
  8
치수문자_일반주서
 62
     0
370
    -2
100
AcDbLine
 10
-131.9149488289919
 20
-11.30200000000007
 30
0.0
 11
-131.9149488289919
 21
-14.60400000000007
 31
0.0
  0
SOLID
  5
100
330
F7
100
AcDbEntity
  8
치수문자_일반주서
 62
     0
100
AcDbTrace
 10
-132.4652821623253
 20
11.30199999999992
 30
0.0
 11
-131.3646154956587
 21
11.30199999999992
 31
0.0
 12
-131.914948828992
 22
7.99999999999992
 32
0.0
 13
-131.914948828992
 23
7.99999999999992
 33
0.0
  0
SOLID
  5
101
330
F7
100
AcDbEntity
  8
치수문자_일반주서
 62
     0
100
AcDbTrace
 10
-131.3646154956586
 20
-11.30200000000007
 30
0.0
 11
-132.4652821623253
 21
-11.30200000000007
 31
0.0
 12
-131.9149488289919
 22
-8.000000000000068
 32
0.0
 13
-131.9149488289919
 23
-8.000000000000068
 33
0.0
  0
MTEXT
  5
102
330
F7
100
AcDbEntity
  8
치수문자_일반주서
 62
     0
100
AcDbMText
 10
-136.289948828992
 20
18.67856559240835
 30
0.0
 40
3.5
 41
0.0
 71
     2
 72
     1
  1
\A1;%%c16
  7
SLDTEXTSTYLE0
 11
-3.552713678800503E-15
 21
1.0
 31
0.0
 73
     1
 44
1.0
  0
POINT
  5
13F
330
F7
100
AcDbEntity
  8
Defpoints
 62
     0
100
AcDbPoint
 10
-117.5
 20
7.999999999999972
 30
0.0
  0
POINT
  5
140
330
F7
100
AcDbEntity
  8
Defpoints
 62
     0
100
AcDbPoint
 10
-117.5
 20
-8.000000000000016
 30
0.0
  0
POINT
  5
141
330
F7
100
AcDbEntity
  8
Defpoints
 62
     0
100
AcDbPoint
 10
-131.9149488289919
 20
-8.00000000000007
 30
0.0
  0
ENDBLK
  5
F9
330
F7
100
AcDbEntity
  8
0
100
AcDbBlockEnd
  0
BLOCK
  5
105
330
104
100
AcDbEntity
  8
0
100
AcDbBlockBegin
  2
_D_3
 70
     0
 10
0.0
 20
0.0
 30
0.0
  3
_D_3
  1

  0
LINE
  5
107
330
104
100
AcDbEntity
  8
치수문자_일반주서
 62
     0
370
    -2
100
AcDbLine
 10
12.00000000000001
 20
8.038311912321175
 30
0.0
 11
12.0
 21
18.82173021490883
 31
0.0
  0
LINE
  5
108
330
104
100
AcDbEntity
  8
치수문자_일반주서
 62
     0
370
    -2
100
AcDbLine
 10
82.00000000000003
 20
8.062500000000005
 30
0.0
 11
82.00000000000003
 21
18.82173021490883
 31
0.0
  0
LINE
  5
109
330
104
100
AcDbEntity
  8
치수문자_일반주서
 62
     0
370
    -2
100
AcDbLine
 10
15.302
 20
18.82173021490883
 30
0.0
 11
78.69800000000004
 21
18.82173021490883
 31
0.0
  0
SOLID
  5
10A
330
104
100
AcDbEntity
  8
치수문자_일반주서
 62
     0
100
AcDbTrace
 10
15.302
 20
19.37206354824216
 30
0.0
 11
15.302
 21
18.27139688157549
 31
0.0
 12
12.0
 22
18.82173021490883
 32
0.0
 13
12.0
 23
18.82173021490883
 33
0.0
  0
SOLID
  5
10B
330
104
100
AcDbEntity
  8
치수문자_일반주서
 62
     0
100
AcDbTrace
 10
78.69800000000004
 20
18.27139688157549
 30
0.0
 11
78.69800000000004
 21
19.37206354824216
 31
0.0
 12
82.00000000000003
 22
18.82173021490883
 32
0.0
 13
82.00000000000003
 23
18.82173021490883
 33
0.0
  0
MTEXT
  5
10C
330
104
100
AcDbEntity
  8
치수문자_일반주서
 62
     0
100
AcDbMText
 10
47.00000000000001
 20
23.19673021490883
 30
0.0
 40
3.5
 41
0.0
 71
     2
 72
     1
  1
\A1;70
  7
SLDTEXTSTYLE0
 73
     1
 44
1.0
  0
POINT
  5
13C
330
104
100
AcDbEntity
  8
Defpoints
 62
     0
100
AcDbPoint
 10
12.00000000000001
 20
7.975811912321175
 30
0.0
  0
POINT
  5
13D
330
104
100
AcDbEntity
  8
Defpoints
 62
     0
100
AcDbPoint
 10
82.00000000000003
 20
8.000000000000005
 30
0.0
  0
POINT
  5
13E
330
104
100
AcDbEntity
  8
Defpoints
 62
     0
100
AcDbPoint
 10
82.00000000000003
 20
18.82173021490883
 30
0.0
  0
ENDBLK
  5
106
330
104
100
AcDbEntity
  8
0
100
AcDbBlockEnd
  0
BLOCK
  5
10E
330
10D
100
AcDbEntity
  8
0
100
AcDbBlockBegin
  2
SW_DOWELSYMBOL_0
 70
     0
 10
0.0
 20
0.0
 30
0.0
  3
SW_DOWELSYMBOL_0
  1

  0
CIRCLE
  5
110
330
10D
100
AcDbEntity
  8
해칭선
 62
     0
100
AcDbCircle
 10
0.0
 20
0.0
 30
0.0
 40
3.0
  0
HATCH
  5
111
330
10D
100
AcDbEntity
  8
0
  6
Continuous
 62
     0
370
    18
100
AcDbHatch
 10
0.0
 20
0.0
 30
0.0
210
0.0
220
0.0
230
1.0
  2
SOLID
 70
     1
 71
     0
 91
        1
 92
        0
 93
        3
 72
     2
 10
0.0
 20
0.0
 40
3.0
 50
0.0
 51
90.0
 73
     1
 72
     1
 10
0.0
 20
3.0
 11
0.0
 21
0.0
 72
     1
 10
0.0
 20
0.0
 11
3.0
 21
0.0
 97
        0
 75
     0
 76
     1
 98
        1
 10
0.0
 20
0.0
  0
HATCH
  5
112
330
10D
100
AcDbEntity
  8
0
  6
Continuous
 62
     0
370
    18
100
AcDbHatch
 10
0.0
 20
0.0
 30
0.0
210
0.0
220
0.0
230
1.0
  2
SOLID
 70
     1
 71
     0
 91
        1
 92
        0
 93
        3
 72
     2
 10
0.0
 20
0.0
 40
3.0
 50
180.0
 51
270.0000000000008
 73
     1
 72
     1
 10
0.0
 20
-3.0
 11
0.0
 21
0.0
 72
     1
 10
0.0
 20
0.0
 11
-3.0
 21
0.0
 97
        0
 75
     0
 76
     1
 98
        1
 10
0.0
 20
0.0
  0
ENDBLK
  5
10F
330
10D
100
AcDbEntity
  8
0
100
AcDbBlockEnd
  0
ENDSEC
  0
SECTION
  2
ENTITIES
  0
LINE
  5
99
330
1F
100
AcDbEntity
  8
0
  6
Continuous
 62
     4
370
    25
100
AcDbLine
 10
10.84531232144134
 20
7.999999999999992
 30
0.0
 11
-117.5
 21
7.999999999999985
 31
0.0
  0
LINE
  5
9A
330
1F
100
AcDbEntity
  8
0
  6
Continuous
 62
     4
370
    25
100
AcDbLine
 10
-117.5
 20
-8.000000000000016
 30
0.0
 11
10.84531232144134
 21
-8.000000000000009
 31
0.0
  0
LINE
  5
9B
330
1F
100
AcDbEntity
  8
0
  6
Continuous
 62
     4
370
    25
100
AcDbLine
 10
-117.5
 20
7.999999999999979
 30
0.0
 11
-118.0
 21
7.499999999999979
 31
0.0
  0
LINE
  5
9C
330
1F
100
AcDbEntity
  8
0
  6
Continuous
 62
     4
370
    25
100
AcDbLine
 10
-118.0
 20
-7.500000000000011
 30
0.0
 11
-117.5
 21
-8.000000000000009
 31
0.0
  0
LINE
  5
9D
330
1F
100
AcDbEntity
  8
0
  6
Continuous
 62
     1
370
    25
100
AcDbLine
 10
57.1398772750951
 20
-8.000000000000016
 30
0.0
 11
63.32959182542211
 21
-8.000000000000016
 31
0.0
  0
LINE
  5
9E
330
1F
100
AcDbEntity
  8
0
  6
Continuous
 62
     1
370
    25
100
AcDbLine
 10
19.79758032696174
 20
7.999999999999999
 30
0.0
 11
13.60817003984116
 21
7.999999999999999
 31
0.0
  0
LINE
  5
9F
330
1F
100
AcDbEntity
  8
0
  6
Continuous
 62
     1
370
    25
100
AcDbLine
 10
78.90445062030719
 20
-8.000000000000016
 30
0.0
 11
82.00000000000003
 21
-8.000000000000016
 31
0.0
  0
LINE
  5
A0
330
1F
100
AcDbEntity
  8
0
  6
Continuous
 62
     1
370
    25
100
AcDbLine
 10
41.56366549338527
 20
7.999999999999999
 30
0.0
 11
35.37355486895709
 21
7.999999999999999
 31
0.0
  0
LINE
  5
A1
330
1F
100
AcDbEntity
  8
0
  6
Continuous
 62
     1
370
    25
100
AcDbLine
 10
13.60817003984127
 20
-8.000000000000016
 30
0.0
 11
19.79758032696174
 21
-8.000000000000016
 31
0.0
  0
LINE
  5
A2
330
1F
100
AcDbEntity
  8
0
  6
Continuous
 62
     1
370
    25
100
AcDbLine
 10
63.32959182542211
 20
7.999999999999999
 30
0.0
 11
57.13987727509521
 21
7.999999999999999
 31
0.0
  0
LINE
  5
A3
330
1F
100
AcDbEntity
  8
0
  6
Continuous
 62
     1
370
    25
100
AcDbLine
 10
35.3735548689571
 20
-8.000000000000016
 30
0.0
 11
41.5636654933852
 21
-8.000000000000016
 31
0.0
  0
LINE
  5
A4
330
1F
100
AcDbEntity
  8
0
  6
Continuous
 62
     1
370
    25
100
AcDbLine
 10
82.00000000000003
 20
7.999999999999999
 30
0.0
 11
78.90445062030722
 21
7.999999999999999
 31
0.0
  0
SPLINE
  5
A5
330
1F
100
AcDbEntity
  8
0
  6
Continuous
 62
     4
370
    25
100
AcDbSpline
210
0.0
220
0.0
230
1.0
 70
    24
 71
     3
 72
    18
 73
    14
 74
     0
 42
0.000000001
 43
0.00000001
 40
0.0
 40
0.0
 40
0.0
 40
0.0
 40
0.25
 40
0.25
 40
0.375
 40
0.375
 40
0.5
 40
0.5
 40
0.625
 40
0.625
 40
0.75
 40
0.75
 40
1.0
 40
1.0
 40
1.0
 40
1.0
 10
12.00000000000001
 20
0.6216303879924295
 30
0.0
 10
12.00000000000001
 20
0.5395745385780276
 30
0.0
 10
12.00000000000001
 20
0.409854984453748
 30
0.0
 10
12.00000000000001
 20
0.1420063840385036
 30
0.0
 10
12.00000000000001
 20
0.039642867255457
 30
0.0
 10
12.00000000000001
 20
-0.1855538200509447
 30
0.0
 10
12.00000000000001
 20
-0.3087045684245785
 30
0.0
 10
12.00000000000001
 20
-0.5762467989326574
 30
0.0
 10
12.00000000000001
 20
-0.7206343145932456
 30
0.0
 10
12.00000000000001
 20
-1.031804915126454
 30
0.0
 10
12.00000000000001
 20
-1.19897923643384
 30
0.0
 10
12.00000000000001
 20
-1.719068339775406
 30
0.0
 10
12.00000000000001
 20
-2.09506907078699
 30
0.0
 10
12.00000000000001
 20
-2.501650426871006
 30
0.0
  0
SPLINE
  5
A6
330
1F
100
AcDbEntity
  8
0
  6
Continuous
 62
     4
370
    25
100
AcDbSpline
210
0.0
220
0.0
230
1.0
 70
     8
 71
     3
 72
    14
 73
    10
 74
     0
 42
0.000000001
 43
0.00000001
 40
0.0
 40
0.0
 40
0.0
 40
0.0
 40
0.25
 40
0.25
 40
0.5
 40
0.5
 40
0.75
 40
0.75
 40
1.0
 40
1.0
 40
1.0
 40
1.0
 10
11.30460762022062
 20
-6.54372631353035
 30
0.0
 10
11.17861966022894
 20
-6.501759515387747
 30
0.0
 10
11.06542647512116
 20
-6.450162076455261
 30
0.0
 10
10.86387447512548
 20
-6.32581743241693
 30
0.0
 10
10.77705054677142
 20
-6.253363138528002
 30
0.0
 10
10.63867399335038
 20
-6.093213283858704
 30
0.0
 10
10.58572026968243
 20
-6.003565022583196
 30
0.0
 10
10.51701034725209
 20
-5.815468159985435
 30
0.0
 10
10.50017786030173
 20
-5.715295990132264
 30
0.0
 10
10.50017786030173
 20
-5.611646376765837
 30
0.0
  0
SPLINE
  5
A7
330
1F
100
AcDbEntity
  8
0
  6
Continuous
 62
     4
370
    25
100
AcDbSpline
210
0.0
220
0.0
230
1.0
 70
     8
 71
     3
 72
    18
 73
    14
 74
     0
 42
0.000000001
 43
0.00000001
 40
0.0
 40
0.0
 40
0.0
 40
0.0
 40
0.2499999999999999
 40
0.2499999999999999
 40
0.3749999999999999
 40
0.3749999999999999
 40
0.4999999999999999
 40
0.4999999999999999
 40
0.6249999999999999
 40
0.6249999999999999
 40
0.7499999999999998
 40
0.7499999999999998
 40
1.0
 40
1.0
 40
1.0
 40
1.0
 10
10.50017786030172
 20
-1.028815313147112
 30
0.0
 10
10.50017786030172
 20
-0.8235176909998055
 30
0.0
 10
10.53375394070739
 20
-0.621065788413423
 30
0.0
 10
10.63973492141799
 20
-0.3307091505541005
 30
0.0
 10
10.68350606652988
 20
-0.2384684656926328
 30
0.0
 10
10.7879697743798
 20
-0.0631209929176195
 30
0.0
 10
10.8494707605661
 20
0.0208367672294291
 30
0.0
 10
10.98667460194093
 20
0.1740898495397405
 30
0.0
 10
11.06186590186815
 20
0.2432241702775906
 30
0.0
 10
11.22534121853369
 20
0.3666363513314798
 30
0.0
 10
11.31446276411289
 20
0.4211369381961337
 30
0.0
 10
11.59091285618198
 20
0.5551157064231125
 30
0.0
 10
11.79309689810919
 20
0.608607599403911
 30
0.0
 10
12.00000000000001
 20
0.6216303879924316
 30
0.0
  0
SPLINE
  5
A8
330
1F
100
AcDbEntity
  8
0
  6
Continuous
 62
     4
370
    25
100
AcDbSpline
210
0.0
220
0.0
230
1.0
 70
     8
 71
     3
 72
    14
 73
    10
 74
     0
 42
0.000000001
 43
0.00000001
 40
0.0
 40
0.0
 40
0.0
 40
0.0
 40
0.25
 40
0.25
 40
0.5
 40
0.5
 40
0.75
 40
0.75
 40
1.0
 40
1.0
 40
1.0
 40
1.0
 10
11.30460762022062
 20
4.602134932138564
 30
0.0
 10
11.17861966022894
 20
4.661807072427754
 30
0.0
 10
11.06542647512116
 20
4.733505603854679
 30
0.0
 10
10.86387447512548
 20
4.898438519160508
 30
0.0
 10
10.77705054677142
 20
4.991122075562422
 30
0.0
 10
10.63867399335038
 20
5.185422065066172
 30
0.0
 10
10.58572026968244
 20
5.28929817211055
 30
0.0
 10
10.51701034725209
 20
5.495434306228399
 30
0.0
 10
10.50017786030173
 20
5.599691199983699
 30
0.0
 10
10.50017786030173
 20
5.701703687682322
 30
0.0
  0
SPLINE
  5
A9
330
1F
100
AcDbEntity
  8
0
  6
Continuous
 62
     4
370
    25
100
AcDbSpline
210
0.0
220
0.0
230
1.0
 70
     8
 71
     3
 72
     8
 73
     4
 74
     0
 42
0.000000001
 43
0.00000001
 40
0.0
 40
0.0
 40
0.0
 40
0.0
 40
1.0
 40
1.0
 40
1.0
 40
1.0
 10
12.00000000000001
 20
4.267755634439843
 30
0.0
 10
11.7676635829519
 20
4.381145237848259
 30
0.0
 10
11.53572079897274
 20
4.49267194832576
 30
0.0
 10
11.30460762022063
 20
4.602134932138563
 30
0.0
  0
LINE
  5
AA
330
1F
100
AcDbEntity
  8
0
  6
Continuous
 62
     4
370
    25
100
AcDbLine
 10
12.00000000000001
 20
4.267755634439843
 30
0.0
 11
12.00000000000001
 21
0.6216303879924294
 31
0.0
  0
SPLINE
  5
AB
330
1F
100
AcDbEntity
  8
0
  6
Continuous
 62
     4
370
    25
100
AcDbSpline
210
0.0
220
0.0
230
1.0
 70
     8
 71
     3
 72
     8
 73
     4
 74
     0
 42
0.000000001
 43
0.00000001
 40
0.0
 40
0.0
 40
0.0
 40
0.0
 40
1.0
 40
1.0
 40
1.0
 40
1.0
 10
12.00000000000001
 20
-6.76655465098055
 30
0.0
 10
11.7676635829519
 20
-6.695038326382027
 30
0.0
 10
11.53572079897274
 20
-6.62071049615721
 30
0.0
 10
11.30460762022063
 20
-6.543726313530349
 30
0.0
  0
LINE
  5
AC
330
1F
100
AcDbEntity
  8
0
  6
Continuous
 62
     4
370
    25
100
AcDbLine
 10
12.00000000000001
 20
-6.76655465098055
 30
0.0
 11
12.00000000000001
 21
-7.975811912321184
 31
0.0
  0
SPLINE
  5
AD
330
1F
100
AcDbEntity
  8
0
  6
Continuous
 62
     4
370
    25
100
AcDbSpline
210
0.0
220
0.0
230
1.0
 70
     8
 71
     3
 72
    11
 73
     7
 74
     0
 42
0.000000001
 43
0.00000001
 40
0.0
 40
0.0
 40
0.0
 40
0.0
 40
0.0274773057129694
 40
0.4270035087882199
 40
0.8198715229672974
 40
1.0
 40
1.0
 40
1.0
 40
1.0
 10
10.84531232144132
 20
-7.999044897547975
 30
0.0
 10
10.85112134067757
 20
-7.99935883197112
 30
0.0
 10
10.94139480571117
 20
-8.004237443491961
 30
0.0
 10
11.25989676010341
 20
-7.9889814457478
 30
0.0
 10
11.66147738815404
 20
-7.978879307247189
 30
0.0
 10
11.91903393847759
 20
-7.976545555739974
 30
0.0
 10
12.00000000000001
 20
-7.975811912321184
 30
0.0
  0
SPLINE
  5
AE
330
1F
100
AcDbEntity
  8
0
  6
Continuous
 62
     4
370
    25
100
AcDbSpline
210
0.0
220
0.0
230
1.0
 70
     8
 71
     3
 72
    18
 73
    14
 74
     0
 42
0.000000001
 43
0.00000001
 40
0.0
 40
0.0
 40
0.0
 40
0.0
 40
0.2500000000000001
 40
0.2500000000000001
 40
0.3750000000000002
 40
0.3750000000000002
 40
0.5000000000000001
 40
0.5000000000000001
 40
0.6250000000000001
 40
0.6250000000000001
 40
0.7500000000000001
 40
0.7500000000000001
 40
1.0
 40
1.0
 40
1.0
 40
1.0
 10
10.50017786030172
 20
7.933570384854082
 30
0.0
 10
10.50017786030172
 20
7.960193119281584
 30
0.0
 10
10.5337539407074
 20
7.978211225283331
 30
0.0
 10
10.639734921418
 20
7.993749165750282
 30
0.0
 10
10.68350606652988
 20
7.996925797264454
 30
0.0
 10
10.7879697743798
 20
8.000231568919531
 30
0.0
 10
10.8494707605661
 20
8.000339888252139
 30
0.0
 10
10.98667460194093
 20
7.998472680625606
 30
0.0
 10
11.06186590186815
 20
7.99654020089848
 30
0.0
 10
11.22534121853369
 20
7.991832766485739
 30
0.0
 10
11.31446276411288
 20
7.989032791439534
 30
0.0
 10
11.59091285618198
 20
7.98121867925695
 30
0.0
 10
11.79309689810919
 20
7.976826901291831
 30
0.0
 10
12.00000000000001
 20
7.975811912321175
 30
0.0
  0
LINE
  5
AF
330
1F
100
AcDbEntity
  8
0
  6
Continuous
 62
     4
370
    25
100
AcDbLine
 10
10.50017786030172
 20
7.933570384854082
 30
0.0
 11
10.50017786030172
 21
5.701703687682321
 31
0.0
  0
LINE
  5
B0
330
1F
100
AcDbEntity
  8
0
  6
Continuous
 62
     4
370
    25
100
AcDbLine
 10
-117.5
 20
7.999999999999979
 30
0.0
 11
-117.5
 21
-8.000000000000009
 31
0.0
  0
LINE
  5
B1
330
1F
100
AcDbEntity
  8
0
  6
Continuous
 62
     4
370
    25
100
AcDbLine
 10
10.50017786030172
 20
-1.028815313147112
 30
0.0
 11
10.50017786030172
 21
-5.611646376765837
 31
0.0
  0
LINE
  5
B2
330
1F
100
AcDbEntity
  8
0
  6
Continuous
 62
     4
370
    25
100
AcDbLine
 10
-118.0
 20
7.49999999999998
 30
0.0
 11
-118.0
 21
-7.500000000000018
 31
0.0
  0
SPLINE
  5
B3
330
1F
100
AcDbEntity
  8
0
  6
Continuous
 62
     4
370
    25
100
AcDbSpline
210
0.0
220
0.0
230
1.0
 70
    24
 71
     3
 72
    13
 73
     9
 74
     0
 42
0.000000001
 43
0.00000001
 40
0.0
 40
0.0
 40
0.0
 40
0.0
 40
0.1643983614076007
 40
0.3325052652783798
 40
0.5169908066624144
 40
0.7076003871592393
 40
0.8795138890521863
 40
1.0
 40
1.0
 40
1.0
 40
1.0
 10
12.00000000000001
 20
7.975811912321175
 30
0.0
 10
12.00000000000001
 20
7.715111073458761
 30
0.0
 10
12.00000000000001
 20
7.187828436076973
 30
0.0
 10
12.00000000000001
 20
6.415858216921296
 30
0.0
 10
12.00000000000001
 20
5.669405928686044
 30
0.0
 10
12.00000000000001
 20
5.023605086935176
 30
0.0
 10
12.00000000000001
 20
4.54313678439955
 30
0.0
 10
12.00000000000001
 20
4.348115893647964
 30
0.0
 10
12.00000000000001
 20
4.267755634439843
 30
0.0
  0
SPLINE
  5
B4
330
1F
100
AcDbEntity
  8
0
  6
Continuous
 62
     4
370
    25
100
AcDbSpline
210
0.0
220
0.0
230
1.0
 70
    24
 71
     3
 72
    12
 73
     8
 74
     0
 42
0.000000001
 43
0.00000001
 40
0.0
 40
0.0
 40
0.0
 40
0.0
 40
0.4999999999999998
 40
0.4999999999999998
 40
0.7499999999999998
 40
0.7499999999999998
 40
1.0
 40
1.0
 40
1.0
 40
1.0
 10
12.00000000000001
 20
-2.50165042687101
 30
0.0
 10
12.00000000000001
 20
-3.126591249593015
 30
0.0
 10
12.00000000000001
 20
-3.839278934725865
 30
0.0
 10
12.00000000000001
 20
-4.946475892156504
 30
0.0
 10
12.00000000000001
 20
-5.320996201832372
 30
0.0
 10
12.00000000000001
 20
-6.058346460238695
 30
0.0
 10
12.00000000000001
 20
-6.421020621427852
 30
0.0
 10
12.00000000000001
 20
-6.766554650980555
 30
0.0
  0
SPLINE
  5
B5
330
1F
100
AcDbEntity
  8
0
  6
Continuous
 62
     1
370
    25
100
AcDbSpline
210
0.0
220
0.0
230
1.0
 70
     8
 71
     3
 72
    22
 73
    18
 74
     0
 42
0.000000001
 43
0.00000001
 40
0.0
 40
0.0
 40
0.0
 40
0.0
 40
0.0725580115085476
 40
0.1451190012500552
 40
0.2176583948898538
 40
0.2901625176156746
 40
0.3626964126199644
 40
0.4287060102500244
 40
0.494718641191891
 40
0.560731805213261
 40
0.6267430011826484
 40
0.6927497312875964
 40
0.7587495052408023
 40
0.8247398444588658
 40
0.890721881098455
 40
0.9567127421377913
 40
1.0
 40
1.0
 40
1.0
 40
1.0
 10
12.00000000000001
 20
7.946198868111309
 30
0.0
 10
13.09187532886255
 20
7.976255829933792
 30
0.0
 10
15.27567080395549
 20
8.03637098730378
 30
0.0
 10
18.5511416128624
 20
7.561381607828774
 30
0.0
 10
21.82564198451663
 20
6.697929904018495
 30
0.0
 10
25.09912429330451
 20
5.453188550402986
 30
0.0
 10
28.27503643283847
 20
3.954487602700889
 30
0.0
 10
31.35277066606992
 20
2.306766975067688
 30
0.0
 10
34.33255685240395
 20
0.6054826146955782
 30
0.0
 10
37.31233575882197
 20
-1.123738986337252
 30
0.0
 10
40.29201772813903
 20
-2.801104911731487
 30
0.0
 10
43.2714556153827
 20
-4.349711807498232
 30
0.0
 10
46.25051654496064
 20
-5.696907888458109
 30
0.0
 10
49.22912465913667
 20
-6.785650603585939
 30
0.0
 10
52.20747645519722
 20
-7.547425418686233
 30
0.0
 10
54.84436809833267
 20
-7.962281863202869
 30
0.0
 10
56.4885742090433
 20
-7.959442229984329
 30
0.0
 10
57.1398772750951
 20
-7.958317394229462
 30
0.0
  0
SPLINE
  5
B6
330
1F
100
AcDbEntity
  8
0
  6
Continuous
 62
     1
370
    25
100
AcDbSpline
210
0.0
220
0.0
230
1.0
 70
     8
 71
     3
 72
    25
 73
    21
 74
     0
 42
0.000000001
 43
0.00000001
 40
0.0
 40
0.0
 40
0.0
 40
0.0
 40
0.0194519802930134
 40
0.0775547750611165
 40
0.1356581473307071
 40
0.1937598956126065
 40
0.2518578211564828
 40
0.3099497316538297
 40
0.3680334449175078
 40
0.4261093911374377
 40
0.4841926451054383
 40
0.542284203321059
 40
0.6003818841893752
 40
0.6584834958139432
 40
0.7165868396748423
 40
0.7746897143308165
 40
0.8327899191320493
 40
0.8966326678547171
 40
0.9604492116687271
 40
1.0
 40
1.0
 40
1.0
 40
1.0
 10
71.0814913938737
 20
-6.746031599744645
 30
0.0
 10
70.7489650744138
 20
-6.857328243591894
 30
0.0
 10
69.42318726057982
 20
-7.301066415675632
 30
0.0
 10
67.10411406543261
 20
-7.75114586075151
 30
0.0
 10
64.1243278544082
 20
-8.052179459745375
 30
0.0
 10
61.14463900645229
 20
-7.961018416045113
 30
0.0
 10
58.16518551864112
 20
-7.508962952245406
 30
0.0
 10
55.18610360012943
 20
-6.709614243219064
 30
0.0
 10
52.20747474644032
 20
-5.601782877459552
 30
0.0
 10
49.22912511683209
 20
-4.235798676333724
 30
0.0
 10
46.25051642304455
 20
-2.674911700675755
 30
0.0
 10
43.27145564526123
 20
-0.9907890882387179
 30
0.0
 10
40.29201773056295
 20
0.7390510942131365
 30
0.0
 10
37.31233571924094
 20
2.434819966353514
 30
0.0
 10
34.33255700830801
 20
4.018788157719165
 30
0.0
 10
31.35277008205311
 20
5.416498829033829
 30
0.0
 10
28.27503870395944
 20
6.607106586484709
 30
0.0
 10
25.09911488098292
 20
7.478972465207318
 30
0.0
 10
22.24098356493718
 20
7.962377157410025
 30
0.0
 10
20.47376137349996
 20
7.951551838707808
 30
0.0
 10
19.79758032696174
 20
7.947409815500627
 30
0.0
  0
SPLINE
  5
B7
330
1F
100
AcDbEntity
  8
0
  6
Continuous
 62
     1
370
    25
100
AcDbSpline
210
0.0
220
0.0
230
1.0
 70
     8
 71
     3
 72
    25
 73
    21
 74
     0
 42
0.000000001
 43
0.00000001
 40
0.0
 40
0.0
 40
0.0
 40
0.0
 40
0.0154062630712587
 40
0.0734649003873697
 40
0.1315262056480885
 40
0.1895879797780423
 40
0.2476480229109838
 40
0.3057041380999127
 40
0.3637541350165659
 40
0.4217958336268292
 40
0.4798302297173114
 40
0.5378723872946509
 40
0.5959227362409923
 40
0.6539790959304294
 40
0.7120392756229318
 40
0.7778028752276099
 40
0.8435413419230816
 40
0.9092482775768538
 40
0.9749964604367002
 40
0.9999999999999999
 40
0.9999999999999999
 40
0.9999999999999999
 40
0.9999999999999999
 10
27.58241085026311
 20
6.734680609137337
 30
0.0
 10
27.84598417298546
 20
6.826045171539383
 30
0.0
 10
29.10283587083093
 20
7.261717887548216
 30
0.0
 10
31.35276817660054
 20
7.708138317247093
 30
0.0
 10
34.33255751862453
 20
8.043579900864973
 30
0.0
 10
37.31233558348756
 20
7.981983735049004
 30
0.0
 10
40.29201776327103
 20
7.559912885266813
 30
0.0
 10
43.27145565017039
 20
6.787797933596113
 30
0.0
 10
46.25051637071351
 20
5.703658732703295
 30
0.0
 10
49.22912532120505
 20
4.356815773187947
 30
0.0
 10
52.2074739813287
 20
2.809275301688586
 30
0.0
 10
55.18610645682782
 20
1.132505957985091
 30
0.0
 10
58.16517485502449
 20
-0.5965243032879944
 30
0.0
 10
61.1446788091537
 20
-2.298016105305342
 30
0.0
 10
64.25592649275887
 20
-3.964825223559553
 30
0.0
 10
67.49963534640241
 20
-5.491622239451577
 30
0.0
 10
70.87364952460123
 20
-6.76451299402785
 30
0.0
 10
74.24686411670737
 20
-7.608393662932118
 30
0.0
 10
76.92385456994896
 20
-8.01082486606044
 30
0.0
 10
78.47663497845889
 20
-7.958567323345275
 30
0.0
 10
78.90445062030719
 20
-7.944169541111821
 30
0.0
  0
SPLINE
  5
B8
330
1F
100
AcDbEntity
  8
0
  6
Continuous
 62
     1
370
    25
100
AcDbSpline
210
0.0
220
0.0
230
1.0
 70
     8
 71
     3
 72
    21
 73
    17
 74
     0
 42
0.000000001
 43
0.00000001
 40
0.0
 40
0.0
 40
0.0
 40
0.0
 40
0.0736573467375978
 40
0.1473265346491378
 40
0.2210048047895887
 40
0.2946893829471733
 40
0.3683774842875387
 40
0.4420663180365311
 40
0.5157530921846033
 40
0.5894350181957146
 40
0.6631093157035848
 40
0.7367732171782224
 40
0.8104272682023076
 40
0.8840905871812742
 40
0.957764437912502
 40
0.9999999999999999
 40
0.9999999999999999
 40
0.9999999999999999
 40
0.9999999999999999
 10
82.00000000000003
 20
-7.801325586840182
 30
0.0
 10
81.00724222467417
 20
-7.639521200068029
 30
0.0
 10
79.02156707802806
 20
-7.315886414809028
 30
0.0
 10
76.04272489984209
 20
-6.397353106677986
 30
0.0
 10
73.06345073191898
 20
-5.209980798463316
 30
0.0
 10
70.08386836697457
 20
-3.775725818326396
 30
0.0
 10
67.10411574556687
 20
-2.169406895154596
 30
0.0
 10
64.12432740371327
 20
-0.4626801751757472
 30
0.0
 10
61.14463912912899
 20
1.265225913815339
 30
0.0
 10
58.1651854785981
 20
2.934768099700463
 30
0.0
 10
55.18610363763492
 20
4.469415718441012
 30
0.0
 10
52.20747463647666
 20
5.796991913786331
 30
0.0
 10
49.2291255191528
 20
6.862265798529377
 30
0.0
 10
46.25051492340799
 20
7.59455406560351
 30
0.0
 10
43.69531427203535
 20
7.976942914927401
 30
0.0
 10
42.13296201635606
 20
7.960719118219924
 30
0.0
 10
41.56366549338527
 20
7.954807422556299
 30
0.0
  0
LINE
  5
B9
330
1F
100
AcDbEntity
  8
0
  6
Continuous
 62
     1
370
    25
100
AcDbLine
 10
82.00000000000003
 20
-8.00000000000002
 30
0.0
 11
82.00000000000003
 21
-7.801325586842102
 31
0.0
  0
LINE
  5
BA
330
1F
100
AcDbEntity
  8
0
  6
Continuous
 62
     1
370
    25
100
AcDbLine
 10
12.00000000000001
 20
-7.946198868111318
 30
0.0
 11
13.60817003984127
 21
-7.944222188353748
 31
0.0
  0
SPLINE
  5
BB
330
1F
100
AcDbEntity
  8
0
  6
Continuous
 62
     1
370
    25
100
AcDbSpline
210
0.0
220
0.0
230
1.0
 70
     8
 71
     3
 72
    17
 73
    13
 74
     0
 42
0.000000001
 43
0.00000001
 40
0.0
 40
0.0
 40
0.0
 40
0.0
 40
0.0902221592622267
 40
0.1843612063300935
 40
0.2785135390459137
 40
0.3726756206348084
 40
0.4668438979177191
 40
0.5735064145598322
 40
0.6801281679322551
 40
0.7866987808519014
 40
0.8933362929502843
 40
1.0
 40
1.0
 40
1.0
 40
1.0
 10
49.3527601379546
 20
6.763032593954214
 30
0.0
 10
50.30428938498559
 20
7.030731748042247
 30
0.0
 10
52.24865739031268
 20
7.577751896803838
 30
0.0
 10
55.1861050497463
 20
7.977750944816025
 30
0.0
 10
58.16517523341267
 20
8.040896869522996
 30
0.0
 10
61.14467870291298
 20
7.727091655149892
 30
0.0
 10
64.25592654604823
 20
7.029688008655921
 30
0.0
 10
67.4996352419517
 20
5.9249520159784
 30
0.0
 10
70.87364988249755
 20
4.425606651473638
 30
0.0
 10
74.24686278984575
 20
2.66562797547234
 30
0.0
 10
77.62127223148892
 20
0.7442354723226153
 30
0.0
 10
79.87148096631591
 20
-0.5535362271769262
 30
0.0
 10
80.99672350478286
 20
-1.202501764859671
 30
0.0
  0
LINE
  5
BC
330
1F
100
AcDbEntity
  8
0
  6
Continuous
 62
     4
370
    25
100
AcDbLine
 10
12.00000000000001
 20
-7.946198868111381
 30
0.0
 11
12.00000000000001
 21
-6.766554650980035
 31
0.0
  0
SPLINE
  5
BD
330
1F
100
AcDbEntity
  8
0
  6
Continuous
 62
     1
370
    25
100
AcDbSpline
210
0.0
220
0.0
230
1.0
 70
     8
 71
     3
 72
    14
 73
    10
 74
     0
 42
0.000000001
 43
0.00000001
 40
0.0
 40
0.0
 40
0.0
 40
0.0
 40
0.1595285007406493
 40
0.3190826473239695
 40
0.478656464373655
 40
0.6382439434483869
 40
0.7978390531002677
 40
0.9574357490168641
 40
1.0
 40
1.0
 40
1.0
 40
1.0
 10
82.00000000000003
 20
1.771812373837186
 30
0.0
 10
81.00724222666534
 20
2.322930444758811
 30
0.0
 10
79.02156708400179
 20
3.425255184484409
 30
0.0
 10
76.04272487594133
 20
4.899580952610027
 30
0.0
 10
73.06345082156179
 20
6.152192035598175
 30
0.0
 10
70.08386803227094
 20
7.127619982280253
 30
0.0
 10
67.10411699479653
 20
7.746607273067337
 30
0.0
 10
64.85266638946217
 20
8.025375619311008
 30
0.0
 10
63.59449518874826
 20
7.974583724669785
 30
0.0
 10
63.32959182542211
 20
7.963889676266408
 30
0.0
  0
SPLINE
  5
BE
330
1F
100
AcDbEntity
  8
0
  6
Continuous
 62
     1
370
    25
100
AcDbSpline
210
0.0
220
0.0
230
1.0
 70
     8
 71
     3
 72
    12
 73
     8
 74
     0
 42
0.000000001
 43
0.00000001
 40
0.0
 40
0.0
 40
0.0
 40
0.0
 40
0.159388552087387
 40
0.3694356528811311
 40
0.579584934805338
 40
0.7897967814276878
 40
1.0
 40
1.0
 40
1.0
 40
1.0
 10
27.58241085026312
 20
-6.73468060913735
 30
0.0
 10
26.75451776131054
 20
-6.982446892089524
 30
0.0
 10
24.8356018804179
 20
-7.556727148140682
 30
0.0
 10
21.82563905273427
 20
-7.982030211195105
 30
0.0
 10
18.55114239509265
 20
-8.039634330769193
 30
0.0
 10
15.27567060838311
 20
-7.665093660696221
 30
0.0
 10
13.09187526367271
 20
-7.066063556313973
 30
0.0
 10
12.0000000000001
 20
-6.766554650978827
 30
0.0
  0
LINE
  5
BF
330
1F
100
AcDbEntity
  8
0
  6
Continuous
 62
     1
370
    25
100
AcDbLine
 10
82.00000000000003
 20
-0.5000000000000306
 30
0.0
 11
82.00000000000003
 21
1.77181237383734
 31
0.0
  0
LINE
  5
C0
330
1F
100
AcDbEntity
  8
0
  6
Continuous
 62
     1
370
    25
100
AcDbLine
 10
82.00000000000003
 20
-0.500000000000034
 30
0.0
 11
80.99672350478289
 21
-1.202501764859691
 31
0.0
  0
SPLINE
  5
C1
330
1F
100
AcDbEntity
  8
0
  6
Continuous
 62
     1
370
    25
100
AcDbSpline
210
0.0
220
0.0
230
1.0
 70
     8
 71
     3
 72
    20
 73
    16
 74
     0
 42
0.000000001
 43
0.00000001
 40
0.0
 40
0.0
 40
0.0
 40
0.0
 40
0.0033075111632566
 40
0.0830563869770442
 40
0.1628166646040385
 40
0.2425853486930697
 40
0.3223594297488815
 40
0.4021358891821192
 40
0.4819117043924055
 40
0.5616838538660179
 40
0.6493405723119204
 40
0.7369613111619243
 40
0.8246246746714158
 40
0.9123141369228392
 40
1.0
 40
1.0
 40
1.0
 40
1.0
 10
49.35276013795451
 20
-6.763032593954231
 30
0.0
 10
49.31158317780993
 20
-6.777673301656641
 30
0.0
 10
48.27757017906351
 20
-7.145322638129926
 30
0.0
 10
46.25051375685742
 20
-7.583695152859422
 30
0.0
 10
43.27145636258371
 20
-8.006514830193405
 30
0.0
 10
40.29201752790357
 20
-8.02639133593267
 30
0.0
 10
37.31233581247736
 20
-7.685810110579313
 30
0.0
 10
34.33255683803019
 20
-6.988799095354
 30
0.0
 10
31.35277066990905
 20
-5.9705834315832
 30
0.0
 10
28.27503643169603
 20
-4.634601590892252
 30
0.0
 10
25.09912429362258
 20
-3.015265873170057
 30
0.0
 10
21.82564198443145
 20
-1.176154331556045
 30
0.0
 10
18.55114161288518
 20
0.7230781854178696
 30
0.0
 10
15.27567080394987
 20
2.599321744963474
 30
0.0
 10
13.09187532886073
 20
3.711618613723529
 30
0.0
 10
12.0000000000001
 20
4.267755634439021
 30
0.0
  0
SPLINE
  5
C2
330
1F
100
AcDbEntity
  8
0
  6
Continuous
 62
     4
370
    25
100
AcDbSpline
210
0.0
220
0.0
230
1.0
 70
    24
 71
     3
 72
    13
 73
     9
 74
     0
 42
0.000000001
 43
0.00000001
 40
0.0
 40
0.0
 40
0.0
 40
0.0
 40
0.1641912596902086
 40
0.3321048923048806
 40
0.5168015977235028
 40
0.7068545201115086
 40
0.891551225530131
 40
1.0
 40
1.0
 40
1.0
 40
1.0
 10
12.00000000000001
 20
7.946198868111375
 30
0.0
 10
12.00000000000001
 20
7.682594411710109
 30
0.0
 10
12.00000000000001
 20
7.149409333713843
 30
0.0
 10
12.00000000000001
 20
6.38038224614124
 30
0.0
 10
12.00000000000001
 20
5.645202548831214
 30
0.0
 10
12.00000000000001
 20
5.000218353772619
 30
0.0
 10
12.00000000000001
 20
4.528451312038676
 30
0.0
 10
12.00000000000001
 20
4.338155363614575
 30
0.0
 10
12.00000000000001
 20
4.267755634439066
 30
0.0
  0
SPLINE
  5
C3
330
1F
100
AcDbEntity
  8
0
  6
Continuous
 62
     1
370
    25
100
AcDbSpline
210
0.0
220
0.0
230
1.0
 70
     8
 71
     3
 72
     8
 73
     4
 74
     0
 42
0.000000001
 43
0.00000001
 40
0.0
 40
0.0
 40
0.0
 40
0.0
 40
1.0
 40
1.0
 40
1.0
 40
1.0
 10
82.00000000000003
 20
-5.869334219275759
 30
0.0
 10
80.6637391539341
 20
-5.118291190075198
 30
0.0
 10
79.40235313831809
 20
-4.197643585156675
 30
0.0
 10
78.18880970275947
 20
-3.168624175679541
 30
0.0
  0
LINE
  5
C4
330
1F
100
AcDbEntity
  8
0
  6
Continuous
 62
     1
370
    25
100
AcDbLine
 10
82.00000000000003
 20
-7.801325586842102
 30
0.0
 11
82.00000000000003
 21
-5.869334219275756
 31
0.0
  0
LINE
  5
C5
330
1F
100
AcDbEntity
  8
0
  6
Continuous
 62
     1
370
    25
100
AcDbLine
 10
80.99672350478292
 20
-1.202501764859681
 30
0.0
 11
80.99081461588386
 21
-1.206639213409237
 31
0.0
  0
SPLINE
  5
C6
330
1F
100
AcDbEntity
  8
0
  6
Continuous
 62
     1
370
    25
100
AcDbSpline
210
0.0
220
0.0
230
1.0
 70
    24
 71
     3
 72
    12
 73
     8
 74
     0
 42
0.000000001
 43
0.00000001
 40
0.0
 40
0.0
 40
0.0
 40
0.0
 40
0.1350160277584275
 40
0.3939955279364267
 40
0.6536307098141199
 40
0.9024608859021055
 40
1.0
 40
1.0
 40
1.0
 40
1.0
 10
80.87822858560486
 20
-1.285472800507685
 30
0.0
 10
80.83873190584475
 20
-1.313128673409968
 30
0.0
 10
80.72347510669152
 20
-1.393832353006984
 30
0.0
 10
80.2714289176354
 20
-1.71035850220302
 30
0.0
 10
79.49824814923454
 20
-2.251745504636106
 30
0.0
 10
78.75370307600141
 20
-2.773081577450817
 30
0.0
 10
78.31293260436283
 20
-3.081712384312452
 30
0.0
 10
78.18880970275953
 20
-3.168624175679541
 30
0.0
  0
LINE
  5
C7
330
1F
100
AcDbEntity
  8
0
  6
Continuous
 62
     4
370
    25
100
AcDbLine
 10
12.00000000000001
 20
0.9262416252934378
 30
0.0
 11
12.00000000000001
 21
0.7590625528065419
 31
0.0
  0
SPLINE
  5
C8
330
1F
100
AcDbEntity
  8
0
  6
Continuous
 62
     4
370
    25
100
AcDbSpline
210
0.0
220
0.0
230
1.0
 70
    24
 71
     3
 72
    13
 73
     9
 74
     0
 42
0.000000001
 43
0.00000001
 40
0.0
 40
0.0
 40
0.0
 40
0.0
 40
0.0645401645880411
 40
0.272937254454636
 40
0.4813343443212311
 40
0.6897314341878253
 40
0.8981285240544199
 40
1.0
 40
1.0
 40
1.0
 40
1.0
 10
12.00000000000001
 20
-2.364208262056894
 30
0.0
 10
12.00000000000001
 20
-2.452403868375051
 30
0.0
 10
12.00000000000001
 20
-2.825378849103566
 30
0.0
 10
12.00000000000001
 20
-3.542580970279865
 30
0.0
 10
12.00000000000001
 20
-4.4835598135598
 30
0.0
 10
12.00000000000001
 20
-5.428289866722452
 30
0.0
 10
12.00000000000001
 20
-6.192098926811434
 30
0.0
 10
12.00000000000001
 20
-6.624562496476301
 30
0.0
 10
12.00000000000001
 20
-6.766554650980035
 30
0.0
  0
SPLINE
  5
C9
330
1F
100
AcDbEntity
  8
0
  6
Continuous
 62
     1
370
    25
100
AcDbSpline
210
0.0
220
0.0
230
1.0
 70
     8
 71
     3
 72
    15
 73
    11
 74
     0
 42
0.000000001
 43
0.00000001
 40
0.0
 40
0.0
 40
0.0
 40
0.0
 40
0.1401327392028553
 40
0.2802712303266081
 40
0.4203680124670842
 40
0.5603966751857745
 40
0.7004828377014884
 40
0.8279684941749837
 40
0.9554600089442546
 40
1.0
 40
1.0
 40
1.0
 40
1.0
 10
12.00000000000001
 20
0.9262416252934209
 30
0.0
 10
13.09187532930462
 20
0.2952077062968098
 30
0.0
 10
15.2756708052817
 20
-0.966886033260931
 30
0.0
 10
18.55114160755793
 20
-2.819611907579963
 30
0.0
 10
21.82564200439761
 20
-4.512331512980226
 30
0.0
 10
25.09912421910876
 20
-5.953700989280493
 30
0.0
 10
28.27503669934642
 20
-7.03732318987937
 30
0.0
 10
31.35276977048968
 20
-7.709248355549699
 30
0.0
 10
33.68628361229003
 20
-8.013168752272778
 30
0.0
 10
35.02655146470976
 20
-7.969357556256885
 30
0.0
 10
35.3735548689571
 20
-7.958014574229661
 30
0.0
  0
SPLINE
  5
CA
330
1F
100
AcDbEntity
  8
0
  6
Continuous
 62
     1
370
    25
100
AcDbSpline
210
0.0
220
0.0
230
1.0
 70
     8
 71
     3
 72
    10
 73
     6
 74
     0
 42
0.000000001
 43
0.00000001
 40
0.0
 40
0.0
 40
0.0
 40
0.0
 40
0.3192173766239157
 40
0.6595668857668086
 40
0.9999999999999999
 40
0.9999999999999999
 40
0.9999999999999999
 40
0.9999999999999999
 10
71.08149139387373
 20
6.746031599744639
 30
0.0
 10
72.13639099111373
 20
7.041296152223997
 30
0.0
 10
74.31602434787789
 20
7.651371717081424
 30
0.0
 10
77.62126711342714
 20
8.060576545489086
 30
0.0
 10
79.87147926015567
 20
7.959601654963593
 30
0.0
 10
80.99672350478289
 20
7.909108009472937
 30
0.0
  0
SPLINE
  5
CB
330
1F
100
AcDbEntity
  8
0
  6
Continuous
 62
     1
370
    25
100
AcDbSpline
210
0.0
220
0.0
230
1.0
 70
     8
 71
     3
 72
    20
 73
    16
 74
     0
 42
0.000000001
 43
0.00000001
 40
0.0
 40
0.0
 40
0.0
 40
0.0
 40
0.2499999999999992
 40
0.2499999999999992
 40
0.3749999999999994
 40
0.3749999999999994
 40
0.4999999999999997
 40
0.4999999999999997
 40
0.6249999999999998
 40
0.6249999999999998
 40
0.7499999999999999
 40
0.7499999999999999
 40
0.8749999999999999
 40
0.8749999999999999
 40
1.0
 40
1.0
 40
1.0
 40
1.0
 10
80.99672350478292
 20
7.90910800947295
 30
0.0
 10
80.99966505198199
 20
7.41310083243116
 30
0.0
 10
80.95239375729005
 20
6.92772357716795
 30
0.0
 10
80.781453429105
 20
6.220834489490256
 30
0.0
 10
80.70640116497745
 20
5.986906706860467
 30
0.0
 10
80.52287088977303
 20
5.547875627028885
 30
0.0
 10
80.41421349725763
 20
5.340637516351546
 30
0.0
 10
80.15958373356875
 20
4.953282127139601
 30
0.0
 10
80.0156162591231
 20
4.777003447864913
 30
0.0
 10
79.7028522343252
 20
4.467865028908148
 30
0.0
 10
79.53121629518986
 20
4.332295677425324
 30
0.0
 10
79.16918409057973
 20
4.107026517678907
 30
0.0
 10
78.98095212259634
 20
4.018045592823289
 30
0.0
 10
78.59152745728682
 20
3.882569098898113
 30
0.0
 10
78.38983040537713
 20
3.83644503313718
 30
0.0
 10
78.1888097027595
 20
3.81119029724051
 30
0.0
  0
SPLINE
  5
CC
330
1F
100
AcDbEntity
  8
0
  6
Continuous
 62
     1
370
    25
100
AcDbSpline
210
0.0
220
0.0
230
1.0
 70
     8
 71
     3
 72
     8
 73
     4
 74
     0
 42
0.000000001
 43
0.00000001
 40
0.0
 40
0.0
 40
0.0
 40
0.0
 40
1.0
 40
1.0
 40
1.0
 40
1.0
 10
82.00000000000003
 20
1.954277833643303
 30
0.0
 10
80.6637391539341
 20
2.67662901308665
 30
0.0
 10
79.40235313831806
 20
3.281456547503821
 30
0.0
 10
78.18880970275944
 20
3.811190297240503
 30
0.0
  0
LINE
  5
CD
330
1F
100
AcDbEntity
  8
0
  6
Continuous
 62
     1
370
    25
100
AcDbLine
 10
82.00000000000003
 20
1.778870908343524
 30
0.0
 11
82.00000000000003
 21
1.954277833643303
 31
0.0
  0
LINE
  5
CE
330
1F
100
AcDbEntity
  8
0
  6
Continuous
 62
     4
370
    25
100
AcDbLine
 10
12.00000000000001
 20
0.9262416252934378
 30
0.0
 11
12.00000000000001
 21
4.267755634439612
 31
0.0
  0
LINE
  5
CF
330
1F
100
AcDbEntity
  8
0
  6
Continuous
 62
     1
370
    25
100
AcDbLine
 10
82.00000000000003
 20
7.984359711335659
 30
0.0
 11
82.00000000000003
 21
8.000000000000005
 31
0.0
  0
ELLIPSE
  5
D0
330
1F
100
AcDbEntity
  8
0
  6
Continuous
 62
     1
370
    25
100
AcDbEllipse
 10
82.71407400337108
 20
-0.0000000000000071
 30
0.0
 11
11.42518405393689
 21
-5.350968460038310E-17
 31
0.0
210
0.0
220
0.0
230
1.0
 40
0.7002075382097124
 41
1.633337088591389
 42
1.721680906384341
  0
LINE
  5
D1
330
1F
100
AcDbEntity
  8
0
  6
Continuous
 62
     1
370
    25
100
AcDbLine
 10
82.00000000000003
 20
-0.5000000000000028
 30
0.0
 11
82.00000000000003
 21
-5.86933421927576
 31
0.0
  0
LINE
  5
D2
330
1F
100
AcDbEntity
  8
0
  6
Continuous
 62
     1
370
    25
100
AcDbLine
 10
82.00000000000003
 20
1.954277833643303
 30
0.0
 11
82.00000000000003
 21
7.984359711335659
 31
0.0
  0
LINE
  5
D3
330
1F
100
AcDbEntity
  8
중심선
100
AcDbLine
 10
-121.0
 20
-0.0000000000000123
 30
0.0
 11
89.00000000000006
 21
0.0000000000000071
 31
0.0
  0
CIRCLE
  5
D4
330
1F
100
AcDbEntity
  8
해칭선
100
AcDbCircle
 10
0.0003515434851432
 20
-0.0000000000000043
 30
0.0
 40
2.999999999999999
  0
INSERT
  5
D5
330
1F
100
AcDbEntity
  8
0
  6
Continuous
 62
     7
100
AcDbBlockReference
 66
     1
  2
블럭10
 10
-32.44009924894178
 20
-52.04717430164393
 30
0.0
  0
ATTRIB
  5
D6
330
D5
100
AcDbEntity
  8
FORMAT
 62
     2
100
AcDbText
 10
-53.29834678053432
 20
-49.97180738881174
 30
0.0
 40
4.233333333333333
  1
SEME7216070200E [ 4 FLUTE ]
 41
0.75
  7
SLDTEXTSTYLE0
 11
-53.29834678053432
 21
-52.08847405547841
 31
0.0
100
AcDbAttribute
  2
AUTOATTR0
 70
     0
 74
     1
  0
SEQEND
  5
D7
330
D5
100
AcDbEntity
  8
0
  6
Continuous
 62
     7
  0
HATCH
  5
D8
330
1F
100
AcDbEntity
  8
중심선
100
AcDbHatch
 10
0.0
 20
0.0
 30
0.0
210
0.0
220
0.0
230
1.0
  2
SOLID
 70
     1
 71
     0
 91
        1
 92
        0
 93
        4
 72
     1
 10
-26.72518994456094
 20
-35.8
 11
-30.17146518839822
 21
-35.8
 72
     1
 10
-30.17146518839822
 20
-35.8
 11
-32.29969504760224
 21
-38.33632558057259
 72
     1
 10
-32.29969504760224
 20
-38.33632558057259
 11
-28.85338671865181
 21
-38.3362861512701
 72
     1
 10
-28.85338671865181
 20
-38.3362861512701
 11
-26.72518994456094
 21
-35.8
 97
        0
 75
     0
 76
     1
 98
        1
 10
0.0
 20
0.0
  0
HATCH
  5
D9
330
1F
100
AcDbEntity
  8
중심선
100
AcDbHatch
 10
0.0
 20
0.0
 30
0.0
210
0.0
220
0.0
230
1.0
  2
SOLID
 70
     1
 71
     0
 91
        1
 92
        0
 93
        4
 72
     1
 10
-21.71242595352496
 20
-35.8
 11
-25.15870119736224
 21
-35.8
 72
     1
 10
-25.15870119736224
 20
-35.8
 11
-29.68983920571966
 21
-41.20000000000002
 72
     1
 10
-29.68983920571966
 20
-41.20000000000002
 11
-26.24356396188238
 21
-41.20000000000002
 72
     1
 10
-26.24356396188238
 20
-41.20000000000002
 11
-21.71242595352496
 21
-35.8
 97
        0
 75
     0
 76
     1
 98
        1
 10
0.0
 20
0.0
  0
HATCH
  5
DA
330
1F
100
AcDbEntity
  8
중심선
100
AcDbHatch
 10
0.0
 20
0.0
 30
0.0
210
0.0
220
0.0
230
1.0
  2
SOLID
 70
     1
 71
     0
 91
        1
 92
        0
 93
        4
 72
     1
 10
-16.69966196248909
 20
-35.8
 11
-20.14593720632621
 21
-35.80000000000003
 72
     1
 10
-20.14593720632621
 20
-35.80000000000003
 11
-27.19437410821546
 21
-44.20000000000002
 72
     1
 10
-27.19437410821546
 20
-44.20000000000002
 11
-23.74809886437817
 21
-44.20000000000002
 72
     1
 10
-23.74809886437817
 20
-44.20000000000002
 11
-16.69966196248909
 21
-35.8
 97
        0
 75
     0
 76
     1
 98
        1
 10
0.0
 20
0.0
  0
HATCH
  5
DB
330
1F
100
AcDbEntity
  8
중심선
100
AcDbHatch
 10
0.0
 20
0.0
 30
0.0
210
0.0
220
0.0
230
1.0
  2
SOLID
 70
     1
 71
     0
 91
        1
 92
        0
 93
        6
 72
     3
 10
-11.89977153147689
 20
-40.00000000005127
 11
3.960054785062284
 21
1.540850780301639E-10
 40
0.3939339440162633
 50
17.09539180608434
 51
320.0019657685086
 73
     0
 72
     1
 10
-10.2167718757763
 20
-38.58789400463833
 11
-7.91147000207526
 21
-36.65356729459038
 72
     3
 10
-11.89977153152974
 20
-40.00000000000015
 11
6.600054785286829
 21
-1.249000902703301E-13
 40
0.6363583540795982
 50
39.99873849337408
 51
368.4976242363725
 73
     1
 72
     1
 10
-5.47443903962913
 20
-39.03999999993002
 11
-13.21970422469382
 21
-39.03999999993002
 72
     1
 10
-13.21970422469382
 20
-39.03999999993002
 11
-13.21972926913975
 21
-40.95999999992991
 72
     1
 10
-13.21972926913975
 20
-40.95999999992991
 11
-8.778349499667716
 21
-40.95999999992988
 97
        0
 75
     0
 76
     1
 98
        1
 10
0.0
 20
0.0
  0
DIMENSION
  5
DC
330
1F
100
AcDbEntity
  8
치수문자_일반주서
100
AcDbDimension
  2
_D
 10
96.97022237907323
 20
8.000000000000062
 30
0.0
 11
96.97022237907319
 21
19.12809252259745
 31
0.0
 70
   160
  1
%%c<>
 71
     2
 42
16.00000000000002
 52
-270.0
  3
SLDDIMSTYLE0
100
AcDbAlignedDimension
 13
82.00000000000003
 23
-8.000000000000021
 33
0.0
 14
82.00000000000003
 24
8.000000000000004
 34
0.0
 50
90.0000000000002
100
AcDbRotatedDimension
  0
DIMENSION
  5
EA
330
1F
100
AcDbEntity
  8
치수문자_일반주서
100
AcDbDimension
  2
_D_1
 10
82.00000000000003
 20
25.38913260158163
 30
0.0
 11
-17.99999999999999
 21
25.38913260158163
 31
0.0
 70
   160
  1
<>
 71
     2
 42
200.0
  3
SLDDIMSTYLE1
100
AcDbAlignedDimension
 13
-118.0
 23
7.49999999999998
 33
0.0
 14
82.00000000000003
 24
8.000000000000005
 34
0.0
 50
-0.0000000000000041
100
AcDbRotatedDimension
  0
DIMENSION
  5
F5
330
1F
100
AcDbEntity
  8
치수문자_일반주서
100
AcDbDimension
  2
_D_2
 10
-131.9149488289919
 20
-8.000000000000068
 30
0.0
 11
-131.914948828992
 21
18.67856559240837
 31
0.0
 70
   160
  1
%%c<>
 71
     2
 42
15.99999999999999
 52
-270.0
  3
SLDDIMSTYLE2
100
AcDbAlignedDimension
 13
-117.5
 23
7.999999999999972
 33
0.0
 14
-117.5
 24
-8.000000000000016
 34
0.0
 50
90.0000000000002
100
AcDbRotatedDimension
  0
DIMENSION
  5
103
330
1F
100
AcDbEntity
  8
치수문자_일반주서
100
AcDbDimension
  2
_D_3
 10
82.00000000000003
 20
18.82173021490883
 30
0.0
 11
47.00000000000001
 21
18.82173021490883
 31
0.0
 70
   160
  1
<>
 71
     2
 42
70.00000000000003
  3
SLDDIMSTYLE1
100
AcDbAlignedDimension
 13
12.00000000000001
 23
7.975811912321175
 33
0.0
 14
82.00000000000003
 24
8.000000000000005
 34
0.0
 50
-0.0000000000000029
100
AcDbRotatedDimension
  0
INSERT
  5
113
330
1F
100
AcDbEntity
  8
해칭선
100
AcDbBlockReference
  2
SW_DOWELSYMBOL_0
 10
0.0003515434851432
 20
-0.0000000000000043
 30
0.0
  0
ENDSEC
  0
SECTION
  2
OBJECTS
  0
DICTIONARY
  5
C
330
0
100
AcDbDictionary
281
     1
  3
ACAD_GROUP
350
D
  3
ACAD_IMAGE_VARS
350
137
  3
ACAD_LAYOUT
350
1A
  3
ACAD_MLINESTYLE
350
17
  3
ACAD_PLOTSETTINGS
350
19
  3
ACAD_PLOTSTYLENAME
350
E
  3
ACAD_SCALELIST
350
47
  3
APPDATA
350
135
  3
DWGPROPS
350
147
  0
DICTIONARY
  5
D
102
{ACAD_REACTORS
330
C
102
}
330
C
100
AcDbDictionary
281
     1
  0
RASTERVARIABLES
  5
137
102
{ACAD_REACTORS
330
C
102
}
330
C
100
AcDbRasterVariables
 90
        0
 70
     1
 71
     1
 72
     1
  0
DICTIONARY
  5
1A
102
{ACAD_REACTORS
330
C
102
}
330
C
100
AcDbDictionary
281
     1
  3
Layout1
350
1E
  3
Layout2
350
26
  3
Model
350
22
  0
DICTIONARY
  5
17
102
{ACAD_REACTORS
330
C
102
}
330
C
100
AcDbDictionary
281
     1
  3
Standard
350
18
  0
DICTIONARY
  5
19
102
{ACAD_REACTORS
330
C
102
}
330
C
100
AcDbDictionary
281
     1
  0
ACDBDICTIONARYWDFLT
  5
E
102
{ACAD_REACTORS
330
C
102
}
330
C
100
AcDbDictionary
281
     1
  3
Normal
350
F
100
AcDbDictionaryWithDefault
340
F
  0
DICTIONARY
  5
47
102
{ACAD_REACTORS
330
C
102
}
330
C
100
AcDbDictionary
281
     1
  3
A0
350
48
  3
A1
350
49
  3
A2
350
4A
  3
A3
350
4B
  3
A4
350
4C
  3
A5
350
4D
  3
A6
350
4E
  3
A7
350
4F
  3
A8
350
50
  3
A9
350
51
  3
B0
350
52
  3
B1
350
53
  3
B2
350
54
  3
B3
350
55
  3
B4
350
56
  3
B5
350
57
  3
B6
350
58
  3
B7
350
59
  3
B8
350
5A
  3
B9
350
5B
  3
C0
350
5C
  3
C1
350
5D
  3
C2
350
5E
  3
C3
350
5F
  3
C4
350
60
  3
C5
350
61
  3
C6
350
62
  3
C7
350
63
  3
C8
350
64
  3
C9
350
65
  3
D0
350
66
  3
D1
350
67
  3
D2
350
68
  0
DICTIONARY
  5
135
102
{ACAD_REACTORS
330
C
102
}
330
C
100
AcDbDictionary
281
     1
  0
XRECORD
  5
147
102
{ACAD_REACTORS
330
C
102
}
330
C
100
AcDbXrecord
280
     1
  1
DWGPROPS COOKIE
  2

  3

  4

  6

  7

  8
12014102
  9

300
=
301
=
302
=
303
=
304
=
305
=
306
=
307
=
308
=
309
=
 40
0.0
 41
2458260.20901897
 42
2458268.28693316
  1

 90
        0
  0
LAYOUT
  5
1E
102
{ACAD_REACTORS
330
1A
102
}
330
1A
100
AcDbPlotSettings
  1

  2
none_device
  4

  6

 40
0.0
 41
0.0
 42
0.0
 43
0.0
 44
0.0
 45
0.0
 46
0.0
 47
0.0
 48
0.0
 49
0.0
140
0.0
141
0.0
142
1.0
143
1.0
 70
   688
 72
     1
 73
     0
 74
     5
  7

 75
    16
147
1.0
148
0.0
149
0.0
100
AcDbLayout
  1
Layout1
 70
     1
 71
     1
 10
0.0
 20
0.0
 11
420.0
 21
297.0
 12
0.0
 22
0.0
 32
0.0
 14
1.000000000000000E+20
 24
1.000000000000000E+20
 34
1.000000000000000E+20
 15
-1.000000000000000E+20
 25
-1.000000000000000E+20
 35
-1.000000000000000E+20
146
0.0
 13
0.0
 23
0.0
 33
0.0
 16
1.0
 26
0.0
 36
0.0
 17
0.0
 27
1.0
 37
0.0
 76
     0
330
1B
  0
LAYOUT
  5
26
102
{ACAD_REACTORS
330
1A
102
}
330
1A
100
AcDbPlotSettings
  1

  2
none_device
  4

  6

 40
0.0
 41
0.0
 42
0.0
 43
0.0
 44
0.0
 45
0.0
 46
0.0
 47
0.0
 48
0.0
 49
0.0
140
0.0
141
0.0
142
1.0
143
1.0
 70
   688
 72
     1
 73
     0
 74
     5
  7

 75
    16
147
1.0
148
0.0
149
0.0
100
AcDbLayout
  1
Layout2
 70
     1
 71
     2
 10
0.0
 20
0.0
 11
0.0
 21
0.0
 12
0.0
 22
0.0
 32
0.0
 14
0.0
 24
0.0
 34
0.0
 15
0.0
 25
0.0
 35
0.0
146
0.0
 13
0.0
 23
0.0
 33
0.0
 16
1.0
 26
0.0
 36
0.0
 17
0.0
 27
1.0
 37
0.0
 76
     0
330
23
  0
LAYOUT
  5
22
102
{ACAD_REACTORS
330
1A
102
}
330
1A
100
AcDbPlotSettings
  1

  2
none_device
  4
ANSI_A_(11.00_x_8.50_Inches)
  6

 40
6.35
 41
19.05
 42
6.35000508
 43
19.05000254
 44
279.4
 45
215.9
 46
155.8757313666318
 47
101.1572174858553
 48
0.0
 49
0.0
140
0.0
141
0.0
142
0.0463675140258003
143
1.0
 70
  1696
 72
     0
 73
     0
 74
     0
  7

 75
     0
147
0.0235690232323232
148
0.0
149
0.0
100
AcDbLayout
  1
Model
 70
     1
 71
     0
 10
0.0
 20
0.0
 11
420.0
 21
297.0
 12
0.0
 22
0.0
 32
0.0
 14
-136.289948828992
 24
-49.97180738881174
 34
0.0
 15
97.52055571240663
 25
29.76413260158163
 35
0.0
146
0.0
 13
0.0
 23
0.0
 33
0.0
 16
1.0
 26
0.0
 36
0.0
 17
0.0
 27
1.0
 37
0.0
 76
     0
330
1F
331
29
  0
MLINESTYLE
  5
18
102
{ACAD_REACTORS
330
17
102
}
330
17
100
AcDbMlineStyle
  2
Standard
 70
     0
  3

 62
   256
 51
90.0
 52
90.0
 71
     2
 49
0.5
 62
   256
  6
BYLAYER
 49
-0.5
 62
   256
  6
BYLAYER
  0
ACDBPLACEHOLDER
  5
F
102
{ACAD_REACTORS
330
E
102
}
330
E
  0
SCALE
  5
48
102
{ACAD_REACTORS
330
47
102
}
330
47
100
AcDbScale
 70
     0
300
1:1
140
1.0
141
1.0
290
     1
  0
SCALE
  5
49
102
{ACAD_REACTORS
330
47
102
}
330
47
100
AcDbScale
 70
     0
300
1:2
140
1.0
141
2.0
290
     0
  0
SCALE
  5
4A
102
{ACAD_REACTORS
330
47
102
}
330
47
100
AcDbScale
 70
     0
300
1:4
140
1.0
141
4.0
290
     0
  0
SCALE
  5
4B
102
{ACAD_REACTORS
330
47
102
}
330
47
100
AcDbScale
 70
     0
300
1:5
140
1.0
141
5.0
290
     0
  0
SCALE
  5
4C
102
{ACAD_REACTORS
330
47
102
}
330
47
100
AcDbScale
 70
     0
300
1:8
140
1.0
141
8.0
290
     0
  0
SCALE
  5
4D
102
{ACAD_REACTORS
330
47
102
}
330
47
100
AcDbScale
 70
     0
300
1:10
140
1.0
141
10.0
290
     0
  0
SCALE
  5
4E
102
{ACAD_REACTORS
330
47
102
}
330
47
100
AcDbScale
 70
     0
300
1:16
140
1.0
141
16.0
290
     0
  0
SCALE
  5
4F
102
{ACAD_REACTORS
330
47
102
}
330
47
100
AcDbScale
 70
     0
300
1:20
140
1.0
141
20.0
290
     0
  0
SCALE
  5
50
102
{ACAD_REACTORS
330
47
102
}
330
47
100
AcDbScale
 70
     0
300
1:30
140
1.0
141
30.0
290
     0
  0
SCALE
  5
51
102
{ACAD_REACTORS
330
47
102
}
330
47
100
AcDbScale
 70
     0
300
1:40
140
1.0
141
40.0
290
     0
  0
SCALE
  5
52
102
{ACAD_REACTORS
330
47
102
}
330
47
100
AcDbScale
 70
     0
300
1:50
140
1.0
141
50.0
290
     0
  0
SCALE
  5
53
102
{ACAD_REACTORS
330
47
102
}
330
47
100
AcDbScale
 70
     0
300
1:100
140
1.0
141
100.0
290
     0
  0
SCALE
  5
54
102
{ACAD_REACTORS
330
47
102
}
330
47
100
AcDbScale
 70
     0
300
2:1
140
2.0
141
1.0
290
     0
  0
SCALE
  5
55
102
{ACAD_REACTORS
330
47
102
}
330
47
100
AcDbScale
 70
     0
300
4:1
140
4.0
141
1.0
290
     0
  0
SCALE
  5
56
102
{ACAD_REACTORS
330
47
102
}
330
47
100
AcDbScale
 70
     0
300
8:1
140
8.0
141
1.0
290
     0
  0
SCALE
  5
57
102
{ACAD_REACTORS
330
47
102
}
330
47
100
AcDbScale
 70
     0
300
10:1
140
10.0
141
1.0
290
     0
  0
SCALE
  5
58
102
{ACAD_REACTORS
330
47
102
}
330
47
100
AcDbScale
 70
     0
300
100:1
140
100.0
141
1.0
290
     0
  0
SCALE
  5
59
102
{ACAD_REACTORS
330
47
102
}
330
47
100
AcDbScale
 70
     0
300
1/128" = 1'-0"
140
0.0078125
141
12.0
290
     0
  0
SCALE
  5
5A
102
{ACAD_REACTORS
330
47
102
}
330
47
100
AcDbScale
 70
     0
300
1/64" = 1'-0"
140
0.015625
141
12.0
290
     0
  0
SCALE
  5
5B
102
{ACAD_REACTORS
330
47
102
}
330
47
100
AcDbScale
 70
     0
300
1/32" = 1'-0"
140
0.03125
141
12.0
290
     0
  0
SCALE
  5
5C
102
{ACAD_REACTORS
330
47
102
}
330
47
100
AcDbScale
 70
     0
300
1/16" = 1'-0"
140
0.0625
141
12.0
290
     0
  0
SCALE
  5
5D
102
{ACAD_REACTORS
330
47
102
}
330
47
100
AcDbScale
 70
     0
300
3/32" = 1'-0"
140
0.09375
141
12.0
290
     0
  0
SCALE
  5
5E
102
{ACAD_REACTORS
330
47
102
}
330
47
100
AcDbScale
 70
     0
300
1/8" = 1'-0"
140
0.125
141
12.0
290
     0
  0
SCALE
  5
5F
102
{ACAD_REACTORS
330
47
102
}
330
47
100
AcDbScale
 70
     0
300
3/16" = 1'-0"
140
0.1875
141
12.0
290
     0
  0
SCALE
  5
60
102
{ACAD_REACTORS
330
47
102
}
330
47
100
AcDbScale
 70
     0
300
1/4" = 1'-0"
140
0.25
141
12.0
290
     0
  0
SCALE
  5
61
102
{ACAD_REACTORS
330
47
102
}
330
47
100
AcDbScale
 70
     0
300
3/8" = 1'-0"
140
0.375
141
12.0
290
     0
  0
SCALE
  5
62
102
{ACAD_REACTORS
330
47
102
}
330
47
100
AcDbScale
 70
     0
300
1/2" = 1'-0"
140
0.5
141
12.0
290
     0
  0
SCALE
  5
63
102
{ACAD_REACTORS
330
47
102
}
330
47
100
AcDbScale
 70
     0
300
3/4" = 1'-0"
140
0.75
141
12.0
290
     0
  0
SCALE
  5
64
102
{ACAD_REACTORS
330
47
102
}
330
47
100
AcDbScale
 70
     0
300
1" = 1'-0"
140
1.0
141
12.0
290
     0
  0
SCALE
  5
65
102
{ACAD_REACTORS
330
47
102
}
330
47
100
AcDbScale
 70
     0
300
1-1/2" = 1'-0"
140
1.5
141
12.0
290
     0
  0
SCALE
  5
66
102
{ACAD_REACTORS
330
47
102
}
330
47
100
AcDbScale
 70
     0
300
3" = 1'-0"
140
3.0
141
12.0
290
     0
  0
SCALE
  5
67
102
{ACAD_REACTORS
330
47
102
}
330
47
100
AcDbScale
 70
     0
300
6" = 1'-0"
140
6.0
141
12.0
290
     0
  0
SCALE
  5
68
102
{ACAD_REACTORS
330
47
102
}
330
47
100
AcDbScale
 70
     0
300
1'-0" = 1'-0"
140
12.0
141
12.0
290
     0
  0
ENDSEC
  0
EOF
