  0
SECTION
  2
HEADER
  9
$ACADVER
  1
AC1015
  9
$ACADMAINTVER
 70
     6
  9
$DWGCODEPAGE
  3
ANSI_949
  9
$INSBASE
 10
0.0
 20
0.0
 30
0.0
  9
$EXTMIN
 10
-84.55796276744017
 20
-49.97180738881174
 30
0.0
  9
$EXTMAX
 10
95.69141809397787
 20
29.76413260158164
 30
0.0
  9
$LIMMIN
 10
0.0
 20
0.0
  9
$LIMMAX
 10
420.0
 20
297.0
  9
$ORTHOMODE
 70
     0
  9
$REGENMODE
 70
     1
  9
$FILLMODE
 70
     1
  9
$QTEXTMODE
 70
     0
  9
$MIRRTEXT
 70
     1
  9
$LTSCALE
 40
1.0
  9
$ATTMODE
 70
     1
  9
$TEXTSIZE
 40
3.5
  9
$TRACEWID
 40
1.0
  9
$TEXTSTYLE
  7
Standard
  9
$CLAYER
  8
0
  9
$CELTYPE
  6
ByLayer
  9
$CECOLOR
 62
   256
  9
$CELTSCALE
 40
1.0
  9
$DISPSILH
 70
     0
  9
$DIMSCALE
 40
1.0
  9
$DIMASZ
 40
3.302
  9
$DIMEXO
 40
1.0
  9
$DIMDLI
 40
3.75
  9
$DIMRND
 40
0.0
  9
$DIMDLE
 40
0.0
  9
$DIMEXE
 40
1.0
  9
$DIMTP
 40
0.0
  9
$DIMTM
 40
0.0
  9
$DIMTXT
 40
3.5
  9
$DIMCEN
 40
2.5
  9
$DIMTSZ
 40
0.0
  9
$DIMTOL
 70
     0
  9
$DIMLIM
 70
     0
  9
$DIMTIH
 70
     1
  9
$DIMTOH
 70
     1
  9
$DIMSE1
 70
     0
  9
$DIMSE2
 70
     0
  9
$DIMTAD
 70
     1
  9
$DIMZIN
 70
     0
  9
$DIMBLK
  1

  9
$DIMASO
 70
     1
  9
$DIMSHO
 70
     1
  9
$DIMPOST
  1

  9
$DIMAPOST
  1

  9
$DIMALT
 70
     0
  9
$DIMALTD
 70
     3
  9
$DIMALTF
 40
0.0393700787401575
  9
$DIMLFAC
 40
1.0
  9
$DIMTOFL
 70
     1
  9
$DIMTVP
 40
0.0
  9
$DIMTIX
 70
     0
  9
$DIMSOXD
 70
     0
  9
$DIMSAH
 70
     0
  9
$DIMBLK1
  1

  9
$DIMBLK2
  1

  9
$DIMSTYLE
  2
ISO-25
  9
$DIMCLRD
 70
     0
  9
$DIMCLRE
 70
     0
  9
$DIMCLRT
 70
     0
  9
$DIMTFAC
 40
1.0
  9
$DIMGAP
 40
1.524
  9
$DIMJUST
 70
     0
  9
$DIMSD1
 70
     0
  9
$DIMSD2
 70
     0
  9
$DIMTOLJ
 70
     0
  9
$DIMTZIN
 70
     0
  9
$DIMALTZ
 70
     0
  9
$DIMALTTZ
 70
     0
  9
$DIMUPT
 70
     0
  9
$DIMDEC
 70
     2
  9
$DIMTDEC
 70
     2
  9
$DIMALTU
 70
     2
  9
$DIMALTTD
 70
     3
  9
$DIMTXSTY
  7
Standard
  9
$DIMAUNIT
 70
     0
  9
$DIMADEC
 70
     2
  9
$DIMALTRND
 40
0.0
  9
$DIMAZIN
 70
     0
  9
$DIMDSEP
 70
    44
  9
$DIMATFIT
 70
     3
  9
$DIMFRAC
 70
     0
  9
$DIMLDRBLK
  1

  9
$DIMLUNIT
 70
     2
  9
$DIMLWD
 70
    -2
  9
$DIMLWE
 70
    -2
  9
$DIMTMOVE
 70
     0
  9
$LUNITS
 70
     2
  9
$LUPREC
 70
     2
  9
$SKETCHINC
 40
1.0
  9
$FILLETRAD
 40
10.0
  9
$AUNITS
 70
     0
  9
$AUPREC
 70
     2
  9
$MENU
  1
.
  9
$ELEVATION
 40
0.0
  9
$PELEVATION
 40
0.0
  9
$THICKNESS
 40
0.0
  9
$LIMCHECK
 70
     0
  9
$CHAMFERA
 40
0.0
  9
$CHAMFERB
 40
0.0
  9
$CHAMFERC
 40
0.0
  9
$CHAMFERD
 40
0.0
  9
$SKPOLY
 70
     0
  9
$TDCREATE
 40
2458260.583830104
  9
$TDUCREATE
 40
2458260.208830104
  9
$TDUPDATE
 40
2458268.661110324
  9
$TDUUPDATE
 40
2458268.286110324
  9
$TDINDWG
 40
0.0028353009
  9
$TDUSRTIMER
 40
2458268.283275058
  9
$USRTIMER
 70
     1
  9
$ANGBASE
 50
0.0
  9
$ANGDIR
 70
     0
  9
$PDMODE
 70
     0
  9
$PDSIZE
 40
-1.0
  9
$PLINEWID
 40
0.0
  9
$SPLFRAME
 70
     0
  9
$SPLINETYPE
 70
     6
  9
$SPLINESEGS
 70
     8
  9
$HANDSEED
  5
14D
  9
$SURFTAB1
 70
     6
  9
$SURFTAB2
 70
     6
  9
$SURFTYPE
 70
     6
  9
$SURFU
 70
     6
  9
$SURFV
 70
     6
  9
$UCSBASE
  2

  9
$UCSNAME
  2

  9
$UCSORG
 10
0.0
 20
0.0
 30
0.0
  9
$UCSXDIR
 10
1.0
 20
0.0
 30
0.0
  9
$UCSYDIR
 10
0.0
 20
1.0
 30
0.0
  9
$UCSORTHOREF
  2

  9
$UCSORTHOVIEW
 70
     0
  9
$UCSORGTOP
 10
0.0
 20
0.0
 30
0.0
  9
$UCSORGBOTTOM
 10
0.0
 20
0.0
 30
0.0
  9
$UCSORGLEFT
 10
0.0
 20
0.0
 30
0.0
  9
$UCSORGRIGHT
 10
0.0
 20
0.0
 30
0.0
  9
$UCSORGFRONT
 10
0.0
 20
0.0
 30
0.0
  9
$UCSORGBACK
 10
0.0
 20
0.0
 30
0.0
  9
$PUCSBASE
  2

  9
$PUCSNAME
  2

  9
$PUCSORG
 10
0.0
 20
0.0
 30
0.0
  9
$PUCSXDIR
 10
1.0
 20
0.0
 30
0.0
  9
$PUCSYDIR
 10
0.0
 20
1.0
 30
0.0
  9
$PUCSORTHOREF
  2

  9
$PUCSORTHOVIEW
 70
     0
  9
$PUCSORGTOP
 10
0.0
 20
0.0
 30
0.0
  9
$PUCSORGBOTTOM
 10
0.0
 20
0.0
 30
0.0
  9
$PUCSORGLEFT
 10
0.0
 20
0.0
 30
0.0
  9
$PUCSORGRIGHT
 10
0.0
 20
0.0
 30
0.0
  9
$PUCSORGFRONT
 10
0.0
 20
0.0
 30
0.0
  9
$PUCSORGBACK
 10
0.0
 20
0.0
 30
0.0
  9
$USERI1
 70
     0
  9
$USERI2
 70
     0
  9
$USERI3
 70
     0
  9
$USERI4
 70
     0
  9
$USERI5
 70
     0
  9
$USERR1
 40
0.0
  9
$USERR2
 40
0.0
  9
$USERR3
 40
0.0
  9
$USERR4
 40
0.0
  9
$USERR5
 40
0.0
  9
$WORLDVIEW
 70
     1
  9
$SHADEDGE
 70
     3
  9
$SHADEDIF
 70
    70
  9
$TILEMODE
 70
     1
  9
$MAXACTVP
 70
    64
  9
$PINSBASE
 10
0.0
 20
0.0
 30
0.0
  9
$PLIMCHECK
 70
     0
  9
$PEXTMIN
 10
1.000000000000000E+20
 20
1.000000000000000E+20
 30
1.000000000000000E+20
  9
$PEXTMAX
 10
-1.000000000000000E+20
 20
-1.000000000000000E+20
 30
-1.000000000000000E+20
  9
$PLIMMIN
 10
0.0
 20
0.0
  9
$PLIMMAX
 10
0.0
 20
0.0
  9
$UNITMODE
 70
     0
  9
$VISRETAIN
 70
     1
  9
$PLINEGEN
 70
     0
  9
$PSLTSCALE
 70
     1
  9
$TREEDEPTH
 70
  3020
  9
$CMLSTYLE
  2
Standard
  9
$CMLJUST
 70
     0
  9
$CMLSCALE
 40
20.0
  9
$PROXYGRAPHICS
 70
     1
  9
$MEASUREMENT
 70
     1
  9
$CELWEIGHT
370
    -1
  9
$ENDCAPS
280
     0
  9
$JOINSTYLE
280
     0
  9
$LWDISPLAY
290
     1
  9
$INSUNITS
 70
     4
  9
$HYPERLINKBASE
  1

  9
$STYLESHEET
  1

  9
$XEDIT
290
     1
  9
$CEPSNTYPE
380
     0
  9
$PSTYLEMODE
290
     1
  9
$FINGERPRINTGUID
  2
{08B18678-29A6-4FE6-9D1B-11BEB1244432}
  9
$VERSIONGUID
  2
{FAEB1C32-E019-11D5-929B-00C0DF256EC4}
  9
$EXTNAMES
290
     1
  9
$PSVPSCALE
 40
0.0
  9
$OLESTARTUP
290
     0
  0
ENDSEC
  0
SECTION
  2
CLASSES
  0
CLASS
  1
ACDBDICTIONARYWDFLT
  2
AcDbDictionaryWithDefault
  3
ObjectDBX Classes
 90
        0
280
     0
281
     0
  0
CLASS
  1
VISUALSTYLE
  2
AcDbVisualStyle
  3
ObjectDBX Classes
 90
     4095
280
     0
281
     0
  0
CLASS
  1
MATERIAL
  2
AcDbMaterial
  3
ObjectDBX Classes
 90
     1153
280
     0
281
     0
  0
CLASS
  1
SCALE
  2
AcDbScale
  3
ObjectDBX Classes
 90
     1153
280
     0
281
     0
  0
CLASS
  1
TABLESTYLE
  2
AcDbTableStyle
  3
ObjectDBX Classes
 90
     4095
280
     0
281
     0
  0
CLASS
  1
MLEADERSTYLE
  2
AcDbMLeaderStyle
  3
ACDB_MLEADERSTYLE_CLASS
 90
     4095
280
     0
281
     0
  0
CLASS
  1
SUN
  2
AcDbSun
  3
SCENEOE
 90
     1153
280
     0
281
     0
  0
CLASS
  1
ACDBPLACEHOLDER
  2
AcDbPlaceHolder
  3
ObjectDBX Classes
 90
        0
280
     0
281
     0
  0
CLASS
  1
LAYOUT
  2
AcDbLayout
  3
ObjectDBX Classes
 90
        0
280
     0
281
     0
  0
CLASS
  1
RASTERVARIABLES
  2
AcDbRasterVariables
  3
ISM
 90
        0
280
     0
281
     0
  0
ENDSEC
  0
SECTION
  2
TABLES
  0
TABLE
  2
VPORT
  5
8
330
0
100
AcDbSymbolTable
 70
     1
  0
VPORT
  5
29
330
8
100
AcDbSymbolTableRecord
100
AcDbViewportTableRecord
  2
*Active
 70
     0
 10
0.0
 20
0.0
 11
1.0
 21
1.0
 12
5.56672766326885
 22
-10.10383739361505
 13
0.0
 23
0.0
 14
10.0
 24
10.0
 15
10.0
 25
10.0
 16
0.0
 26
0.0
 36
1.0
 17
0.0
 27
0.0
 37
0.0
 40
106.1172865044536
 41
1.732558139534884
 42
50.0
 43
0.0
 44
0.0
 50
0.0
 51
0.0
 71
    16
 72
  2000
 73
     1
 74
     3
 75
     0
 76
     0
 77
     0
 78
     0
281
     0
 65
     1
110
0.0
120
0.0
130
0.0
111
1.0
121
0.0
131
0.0
112
0.0
122
1.0
132
0.0
 79
     0
146
0.0
  0
ENDTAB
  0
TABLE
  2
LTYPE
  5
5
330
0
100
AcDbSymbolTable
 70
     6
  0
LTYPE
  5
14
330
5
100
AcDbSymbolTableRecord
100
AcDbLinetypeTableRecord
  2
ByBlock
 70
     0
  3

 72
    65
 73
     0
 40
0.0
  0
LTYPE
  5
15
330
5
100
AcDbSymbolTableRecord
100
AcDbLinetypeTableRecord
  2
ByLayer
 70
     0
  3

 72
    65
 73
     0
 40
0.0
  0
LTYPE
  5
16
330
5
100
AcDbSymbolTableRecord
100
AcDbLinetypeTableRecord
  2
Continuous
 70
     0
  3
Solid line
 72
    65
 73
     0
 40
0.0
  0
LTYPE
  5
6E
330
5
100
AcDbSymbolTableRecord
100
AcDbLinetypeTableRecord
  2
HIDDEN
 70
     0
  3
Hidden __ __ __ __ __ __ __ __ __ __ __ __ __ __
 72
    65
 73
     2
 40
1.905
 49
1.27
 74
     0
 49
-0.635
 74
     0
  0
LTYPE
  5
6F
330
5
100
AcDbSymbolTableRecord
100
AcDbLinetypeTableRecord
  2
PHANTOM
 70
     0
  3
Phantom ______  __  __  ______  __  __  ______
 72
    65
 73
     6
 40
12.7
 49
6.35
 74
     0
 49
-1.27
 74
     0
 49
1.27
 74
     0
 49
-1.27
 74
     0
 49
1.27
 74
     0
 49
-1.27
 74
     0
  0
LTYPE
  5
70
330
5
100
AcDbSymbolTableRecord
100
AcDbLinetypeTableRecord
  2
CENTER
 70
     0
  3
Center ____ _ ____ _ ____ _ ____ _ ____ _ ____
 72
    65
 73
     4
 40
10.16
 49
6.35
 74
     0
 49
-1.27
 74
     0
 49
1.27
 74
     0
 49
-1.27
 74
     0
  0
LTYPE
  5
71
330
5
100
AcDbSymbolTableRecord
100
AcDbLinetypeTableRecord
  2
CENTERX2
 70
     0
  3
Center (2x) ________  __  ________  __  _____
 72
    65
 73
     4
 40
20.32
 49
12.7
 74
     0
 49
-2.54
 74
     0
 49
2.54
 74
     0
 49
-2.54
 74
     0
  0
LTYPE
  5
72
330
5
100
AcDbSymbolTableRecord
100
AcDbLinetypeTableRecord
  2
DOT2
 70
     0
  3
Dot (.5x) ........................................
 72
    65
 73
     2
 40
0.635
 49
0.0
 74
     0
 49
-0.635
 74
     0
  0
ENDTAB
  0
TABLE
  2
LAYER
  5
2
330
0
100
AcDbSymbolTable
 70
    17
  0
LAYER
  5
10
330
2
100
AcDbSymbolTableRecord
100
AcDbLayerTableRecord
  2
0
 70
     0
 62
     7
  6
Continuous
370
    -3
390
F
  0
LAYER
  5
73
330
2
100
AcDbSymbolTableRecord
100
AcDbLayerTableRecord
  2
FORMAT
 70
     0
 62
     2
  6
Continuous
370
    -3
390
F
  0
LAYER
  5
74
330
2
100
AcDbSymbolTableRecord
100
AcDbLayerTableRecord
  2
외형선
 70
     0
 62
   100
  6
Continuous
370
    35
390
F
  0
LAYER
  5
75
330
2
100
AcDbSymbolTableRecord
100
AcDbLayerTableRecord
  2
숨은선
 70
     0
 62
     2
  6
HIDDEN
370
    25
390
F
  0
LAYER
  5
76
330
2
100
AcDbSymbolTableRecord
100
AcDbLayerTableRecord
  2
중심선
 70
     0
 62
     1
  6
CENTERX2
370
    -3
390
F
  0
LAYER
  5
77
330
2
100
AcDbSymbolTableRecord
100
AcDbLayerTableRecord
  2
파단선
 70
     0
 62
     4
  6
Continuous
370
    -3
390
F
  0
LAYER
  5
78
330
2
100
AcDbSymbolTableRecord
100
AcDbLayerTableRecord
  2
해칭선
 70
     0
 62
   100
  6
Continuous
370
    -3
390
F
  0
LAYER
  5
79
330
2
100
AcDbSymbolTableRecord
100
AcDbLayerTableRecord
  2
가는실선
 70
     0
 62
     4
  6
Continuous
370
    -3
390
F
  0
LAYER
  5
7A
330
2
100
AcDbSymbolTableRecord
100
AcDbLayerTableRecord
  2
치수_보조선
 70
     0
 62
     4
  6
Continuous
370
    -3
390
F
  0
LAYER
  5
7B
330
2
100
AcDbSymbolTableRecord
100
AcDbLayerTableRecord
  2
치수문자_일반주서
 70
     0
 62
     7
  6
Continuous
370
    25
390
F
  0
LAYER
  5
7C
330
2
100
AcDbSymbolTableRecord
100
AcDbLayerTableRecord
  2
개별주서
 70
     0
 62
   100
  6
Continuous
370
    35
390
F
  0
LAYER
  5
7D
330
2
100
AcDbSymbolTableRecord
100
AcDbLayerTableRecord
  2
중간선
 70
     0
 62
     2
  6
Continuous
370
    25
390
F
  0
LAYER
  5
7E
330
2
100
AcDbSymbolTableRecord
100
AcDbLayerTableRecord
  2
윤곽선
 70
     0
 62
     3
  6
Continuous
370
    50
390
F
  0
LAYER
  5
7F
330
2
100
AcDbSymbolTableRecord
100
AcDbLayerTableRecord
  2
중심마크
 70
     0
 62
   100
  6
Continuous
370
    35
390
F
  0
LAYER
  5
80
330
2
100
AcDbSymbolTableRecord
100
AcDbLayerTableRecord
  2
가상선
 70
     0
 62
     4
  6
PHANTOM
370
    -3
390
F
  0
LAYER
  5
81
330
2
100
AcDbSymbolTableRecord
100
AcDbLayerTableRecord
  2
특수지정선
 70
     0
 62
     5
  6
CENTERX2
370
    70
390
F
  0
LAYER
  5
13C
330
2
100
AcDbSymbolTableRecord
100
AcDbLayerTableRecord
  2
Defpoints
 70
     0
 62
     7
  6
Continuous
290
     0
370
    -3
390
F
  0
ENDTAB
  0
TABLE
  2
STYLE
  5
3
330
0
100
AcDbSymbolTable
 70
     2
  0
STYLE
  5
11
330
3
100
AcDbSymbolTableRecord
100
AcDbTextStyleTableRecord
  2
Standard
 70
     0
 40
0.0
 41
1.0
 50
0.0
 71
     0
 42
3.5
  3
txt
  4

  0
STYLE
  5
97
330
3
100
AcDbSymbolTableRecord
100
AcDbTextStyleTableRecord
  2
SLDTEXTSTYLE0
 70
     0
 40
0.0
 41
0.75
 50
0.0
 71
     0
 42
3.5
  3
TXT
  4

  0
ENDTAB
  0
TABLE
  2
VIEW
  5
6
330
0
100
AcDbSymbolTable
 70
     0
  0
ENDTAB
  0
TABLE
  2
UCS
  5
7
330
0
100
AcDbSymbolTable
 70
     0
  0
ENDTAB
  0
TABLE
  2
APPID
  5
9
330
0
100
AcDbSymbolTable
 70
     1
  0
APPID
  5
12
330
9
100
AcDbSymbolTableRecord
100
AcDbRegAppTableRecord
  2
ACAD
 70
     0
  0
ENDTAB
  0
TABLE
  2
DIMSTYLE
  5
A
330
0
100
AcDbSymbolTable
 70
     4
100
AcDbDimStyleTable
  0
DIMSTYLE
105
27
330
A
100
AcDbSymbolTableRecord
100
AcDbDimStyleTableRecord
  2
ISO-25
 70
     0
 41
2.5
 42
0.625
 43
3.75
 44
1.25
 73
     0
 74
     0
 77
     1
 78
     8
140
2.5
141
2.5
143
0.03937007874016
147
0.625
171
     3
172
     1
178
     0
271
     2
272
     2
274
     3
278
    44
283
     0
284
     8
340
11
  0
DIMSTYLE
105
E1
102
{ACAD_REACTORS
330
E0
102
}
330
A
100
AcDbSymbolTableRecord
100
AcDbDimStyleTableRecord
  2
SLDDIMSTYLE0
 70
     0
 41
3.302
 44
0.0
 45
0.000000001
 73
     0
 74
     0
 77
     1
 78
    12
 79
     3
140
3.5
147
0.875
172
     1
173
     1
178
     0
271
     1
272
     1
276
     2
284
    12
289
     0
340
97
  0
DIMSTYLE
105
EF
102
{ACAD_REACTORS
330
EE
330
107
102
}
330
A
100
AcDbSymbolTableRecord
100
AcDbDimStyleTableRecord
  2
SLDDIMSTYLE1
 70
     0
 41
3.302
 44
0.0
 45
0.000000001
 73
     0
 74
     0
 77
     1
 78
    12
 79
     3
140
3.5
147
0.875
173
     1
178
     0
271
     2
272
     2
276
     2
284
    12
340
97
  0
DIMSTYLE
105
FA
102
{ACAD_REACTORS
330
F9
102
}
330
A
100
AcDbSymbolTableRecord
100
AcDbDimStyleTableRecord
  2
SLDDIMSTYLE2
 70
     0
 41
3.302
 44
0.0
 45
0.000000001
 73
     0
 74
     0
 77
     1
 78
    12
 79
     3
140
3.5
147
0.875
172
     1
173
     1
178
     0
271
     2
272
     2
276
     2
284
    12
289
     0
340
97
  0
ENDTAB
  0
TABLE
  2
BLOCK_RECORD
  5
1
330
0
100
AcDbSymbolTable
 70
     7
  0
BLOCK_RECORD
  5
1F
330
1
100
AcDbSymbolTableRecord
100
AcDbBlockTableRecord
  2
*Model_Space
340
22
  0
BLOCK_RECORD
  5
1B
330
1
100
AcDbSymbolTableRecord
100
AcDbBlockTableRecord
  2
*Paper_Space
340
1E
  0
BLOCK_RECORD
  5
23
330
1
100
AcDbSymbolTableRecord
100
AcDbBlockTableRecord
  2
*Paper_Space0
340
26
  0
BLOCK_RECORD
  5
82
330
1
100
AcDbSymbolTableRecord
100
AcDbBlockTableRecord
  2
블럭10
340
0
102
{BLKREFS
331
D9
102
}
  0
BLOCK_RECORD
  5
E2
330
1
100
AcDbSymbolTableRecord
100
AcDbBlockTableRecord
  2
_D
340
0
  0
BLOCK_RECORD
  5
F0
330
1
100
AcDbSymbolTableRecord
100
AcDbBlockTableRecord
  2
_D_1
340
0
  0
BLOCK_RECORD
  5
FB
330
1
100
AcDbSymbolTableRecord
100
AcDbBlockTableRecord
  2
_D_2
340
0
  0
BLOCK_RECORD
  5
108
330
1
100
AcDbSymbolTableRecord
100
AcDbBlockTableRecord
  2
_D_3
340
0
  0
BLOCK_RECORD
  5
111
330
1
100
AcDbSymbolTableRecord
100
AcDbBlockTableRecord
  2
SW_DOWELSYMBOL_0
340
0
102
{BLKREFS
331
117
102
}
  0
ENDTAB
  0
ENDSEC
  0
SECTION
  2
BLOCKS
  0
BLOCK
  5
20
330
1F
100
AcDbEntity
  8
0
100
AcDbBlockBegin
  2
*Model_Space
 70
     0
 10
0.0
 20
0.0
 30
0.0
  3
*Model_Space
  1

  0
ENDBLK
  5
21
330
1F
100
AcDbEntity
  8
0
100
AcDbBlockEnd
  0
BLOCK
  5
1C
330
1B
100
AcDbEntity
 67
     1
  8
0
100
AcDbBlockBegin
  2
*Paper_Space
 70
     0
 10
0.0
 20
0.0
 30
0.0
  3
*Paper_Space
  1

  0
ENDBLK
  5
1D
330
1B
100
AcDbEntity
 67
     1
  8
0
100
AcDbBlockEnd
  0
BLOCK
  5
24
330
23
100
AcDbEntity
  8
0
100
AcDbBlockBegin
  2
*Paper_Space0
 70
     0
 10
0.0
 20
0.0
 30
0.0
  3
*Paper_Space0
  1

  0
ENDBLK
  5
25
330
23
100
AcDbEntity
  8
0
100
AcDbBlockEnd
  0
BLOCK
  5
83
330
82
100
AcDbEntity
  8
0
100
AcDbBlockBegin
  2
블럭10
 70
     2
 10
0.0
 20
0.0
 30
0.0
  3
블럭10
  1

  0
ELLIPSE
  5
85
330
82
100
AcDbEntity
  8
중심선
100
AcDbEllipse
 10
20.54032771741204
 20
12.0471743016438
 30
0.0
 11
6.600054785286829
 21
-1.261213355974178E-13
 31
0.0
210
0.0
220
0.0
230
1.0
 40
0.636358354079598
 41
0.9219305317359503
 42
6.513795318482858
  0
ELLIPSE
  5
86
330
82
100
AcDbEntity
  8
중심선
100
AcDbEllipse
 10
20.54032771746488
 20
12.04717430159265
 30
0.0
 11
3.960054785062283
 21
1.540847449632565E-10
 31
0.0
210
0.0
220
0.0
230
1.0
 40
0.3939339440162632
 41
1.131841032648279
 42
5.62031148352944
  0
LINE
  5
87
330
82
100
AcDbEntity
  8
중심선
100
AcDbLine
 10
2.268634060543552
 20
16.24717430164393
 30
0.0
 11
5.714909304380834
 21
16.24717430164393
 31
0.0
  0
LINE
  5
88
330
82
100
AcDbEntity
  8
중심선
100
AcDbLine
 10
5.245725140726316
 20
7.84717430164391
 30
0.0
 11
8.692000384563599
 21
7.84717430164391
 31
0.0
  0
LINE
  5
89
330
82
100
AcDbEntity
  8
중심선
100
AcDbLine
 10
15.74043728645272
 20
16.24717430164393
 30
0.0
 11
8.692000384563599
 21
7.84717430164391
 31
0.0
  0
LINE
  5
8A
330
82
100
AcDbEntity
  8
중심선
100
AcDbLine
 10
0.1404042013395286
 20
13.71084872107135
 30
0.0
 11
3.58671253028996
 21
13.71088815037384
 31
0.0
  0
LINE
  5
8B
330
82
100
AcDbEntity
  8
중심선
100
AcDbLine
 10
2.750260043222114
 20
10.84717430164391
 30
0.0
 11
6.196535287059397
 21
10.84717430164391
 31
0.0
  0
LINE
  5
8C
330
82
100
AcDbEntity
  8
중심선
100
AcDbLine
 10
12.29416204261559
 20
16.24717430164393
 30
0.0
 11
5.245725140726316
 21
7.84717430164391
 31
0.0
  0
LINE
  5
8D
330
82
100
AcDbEntity
  8
중심선
100
AcDbLine
 10
10.72767329541681
 20
16.24717430164393
 30
0.0
 11
6.196535287059397
 21
10.84717430164391
 31
0.0
  0
LINE
  5
8E
330
82
100
AcDbEntity
  8
중심선
100
AcDbLine
 10
7.28139805157953
 20
16.24717430164393
 30
0.0
 11
2.750260043222114
 21
10.84717430164391
 31
0.0
  0
LINE
  5
8F
330
82
100
AcDbEntity
  8
중심선
100
AcDbLine
 10
5.714909304380834
 20
16.24717430164393
 30
0.0
 11
3.58671253028996
 21
13.71088815037384
 31
0.0
  0
LINE
  5
90
330
82
100
AcDbEntity
  8
중심선
100
AcDbLine
 10
2.268634060543552
 20
16.24717430164393
 30
0.0
 11
0.1404042013395286
 21
13.71084872107135
 31
0.0
  0
LINE
  5
91
330
82
100
AcDbEntity
  8
중심선
100
AcDbLine
 10
7.28139805157953
 20
16.24717430164393
 30
0.0
 11
10.72767329541681
 21
16.24717430164393
 31
0.0
  0
LINE
  5
92
330
82
100
AcDbEntity
  8
중심선
100
AcDbLine
 10
12.29416204261559
 20
16.24717430164393
 30
0.0
 11
15.74043728645272
 21
16.24717430164393
 31
0.0
  0
LINE
  5
93
330
82
100
AcDbEntity
  8
중심선
100
AcDbLine
 10
19.22036997980202
 20
11.08717430171403
 30
0.0
 11
23.66174974927406
 21
11.08717430171406
 31
0.0
  0
LINE
  5
94
330
82
100
AcDbEntity
  8
중심선
100
AcDbLine
 10
19.22039502424796
 20
13.00717430171391
 30
0.0
 11
19.22036997980202
 21
11.08717430171403
 31
0.0
  0
LINE
  5
95
330
82
100
AcDbEntity
  8
중심선
100
AcDbLine
 10
19.22039502424796
 20
13.00717430171391
 30
0.0
 11
26.96566020931264
 21
13.00717430171391
 31
0.0
  0
LINE
  5
96
330
82
100
AcDbEntity
  8
중심선
100
AcDbLine
 10
22.22332737316547
 20
13.45928029700563
 30
0.0
 11
24.52862924686651
 21
15.39360700705356
 31
0.0
  0
ATTDEF
  5
98
330
82
100
AcDbEntity
  8
FORMAT
 62
     2
100
AcDbText
 10
-20.85824753159254
 20
2.075366912832191
 30
0.0
 40
4.233333333333333
  1
SEME7216070150E [ 4 FLUTE ]
 41
0.75
  7
SLDTEXTSTYLE0
 11
-20.85824753159254
 21
-0.0412997538344756
 31
0.0
100
AcDbAttributeDefinition
  3

  2
AUTOATTR0
 70
     0
 74
     1
  0
ENDBLK
  5
84
330
82
100
AcDbEntity
  8
0
100
AcDbBlockEnd
  0
BLOCK
  5
E3
330
E2
100
AcDbEntity
  8
0
100
AcDbBlockBegin
  2
_D
 70
     0
 10
0.0
 20
0.0
 30
0.0
  3
_D
  1

  0
LINE
  5
E5
330
E2
100
AcDbEntity
  8
치수문자_일반주서
 62
     0
370
    -2
100
AcDbLine
 10
82.0625
 20
-8.000000000000018
 30
0.0
 11
95.14108476064453
 21
-7.999999999999968
 31
0.0
  0
LINE
  5
E6
330
E2
100
AcDbEntity
  8
치수문자_일반주서
 62
     0
370
    -2
100
AcDbLine
 10
82.0625
 20
8.000000000000007
 30
0.0
 11
95.14108476064447
 21
8.000000000000057
 31
0.0
  0
LINE
  5
E7
330
E2
100
AcDbEntity
  8
치수문자_일반주서
 62
     0
370
    -2
100
AcDbLine
 10
95.14108476064453
 20
-7.999999999999968
 30
0.0
 11
95.14108476064442
 21
22.47900000000006
 31
0.0
  0
LINE
  5
E8
330
E2
100
AcDbEntity
  8
치수문자_일반주서
 62
     0
370
    -2
100
AcDbLine
 10
95.14108476064453
 20
-7.999999999999968
 30
0.0
 11
95.14108476064447
 21
8.000000000000057
 31
0.0
  0
LINE
  5
E9
330
E2
100
AcDbEntity
  8
치수문자_일반주서
 62
     0
370
    -2
100
AcDbLine
 10
95.14108476064455
 20
-11.30199999999997
 30
0.0
 11
95.14108476064456
 21
-14.60399999999997
 31
0.0
  0
LINE
  5
EA
330
E2
100
AcDbEntity
  8
치수문자_일반주서
 62
     0
370
    -2
100
AcDbLine
 10
95.14108476064446
 20
11.30200000000006
 30
0.0
 11
95.14108476064445
 21
14.60400000000006
 31
0.0
  0
SOLID
  5
EB
330
E2
100
AcDbEntity
  8
치수문자_일반주서
 62
     0
100
AcDbTrace
 10
95.69141809397787
 20
-11.30199999999997
 30
0.0
 11
94.59075142731122
 21
-11.30199999999997
 31
0.0
 12
95.14108476064453
 22
-7.999999999999968
 32
0.0
 13
95.14108476064453
 23
-7.999999999999968
 33
0.0
  0
SOLID
  5
EC
330
E2
100
AcDbEntity
  8
치수문자_일반주서
 62
     0
100
AcDbTrace
 10
94.59075142731113
 20
11.30200000000005
 30
0.0
 11
95.69141809397779
 21
11.30200000000006
 31
0.0
 12
95.14108476064447
 22
8.000000000000057
 32
0.0
 13
95.14108476064447
 23
8.000000000000057
 33
0.0
  0
MTEXT
  5
ED
330
E2
100
AcDbEntity
  8
치수문자_일반주서
 62
     0
100
AcDbMText
 10
90.76608476064443
 20
18.54150000000004
 30
0.0
 40
3.5
 41
0.0
 71
     2
 72
     1
  1
\A1;%%c16
  7
SLDTEXTSTYLE0
 11
-3.552713678800495E-15
 21
1.0
 31
0.0
 73
     1
 44
1.0
  0
POINT
  5
146
330
E2
100
AcDbEntity
  8
Defpoints
 62
     0
100
AcDbPoint
 10
82.0
 20
-8.000000000000018
 30
0.0
  0
POINT
  5
147
330
E2
100
AcDbEntity
  8
Defpoints
 62
     0
100
AcDbPoint
 10
82.0
 20
8.000000000000007
 30
0.0
  0
POINT
  5
148
330
E2
100
AcDbEntity
  8
Defpoints
 62
     0
100
AcDbPoint
 10
95.14108476064446
 20
8.000000000000057
 30
0.0
  0
ENDBLK
  5
E4
330
E2
100
AcDbEntity
  8
0
100
AcDbBlockEnd
  0
BLOCK
  5
F1
330
F0
100
AcDbEntity
  8
0
100
AcDbBlockBegin
  2
_D_1
 70
     0
 10
0.0
 20
0.0
 30
0.0
  3
_D_1
  1

  0
LINE
  5
F3
330
F0
100
AcDbEntity
  8
치수문자_일반주서
 62
     0
370
    -2
100
AcDbLine
 10
-67.99999999999999
 20
7.562499999999983
 30
0.0
 11
-68.0
 21
25.38913260158163
 31
0.0
  0
LINE
  5
F4
330
F0
100
AcDbEntity
  8
치수문자_일반주서
 62
     0
370
    -2
100
AcDbLine
 10
82.0
 20
8.062500000000002
 30
0.0
 11
81.99999999999999
 21
25.38913260158163
 31
0.0
  0
LINE
  5
F5
330
F0
100
AcDbEntity
  8
치수문자_일반주서
 62
     0
370
    -2
100
AcDbLine
 10
-64.69800000000001
 20
25.38913260158163
 30
0.0
 11
78.69799999999998
 21
25.38913260158163
 31
0.0
  0
SOLID
  5
F6
330
F0
100
AcDbEntity
  8
치수문자_일반주서
 62
     0
100
AcDbTrace
 10
-64.69800000000001
 20
25.93946593491497
 30
0.0
 11
-64.69800000000001
 21
24.8387992682483
 31
0.0
 12
-68.0
 22
25.38913260158163
 32
0.0
 13
-68.0
 23
25.38913260158163
 33
0.0
  0
SOLID
  5
F7
330
F0
100
AcDbEntity
  8
치수문자_일반주서
 62
     0
100
AcDbTrace
 10
78.69799999999998
 20
24.8387992682483
 30
0.0
 11
78.69799999999998
 21
25.93946593491497
 31
0.0
 12
81.99999999999999
 22
25.38913260158163
 32
0.0
 13
81.99999999999999
 23
25.38913260158163
 33
0.0
  0
MTEXT
  5
F8
330
F0
100
AcDbEntity
  8
치수문자_일반주서
 62
     0
100
AcDbMText
 10
6.999999999999999
 20
29.76413260158163
 30
0.0
 40
3.5
 41
0.0
 71
     2
 72
     1
  1
\A1;150
  7
SLDTEXTSTYLE0
 73
     1
 44
1.0
  0
POINT
  5
13D
330
F0
100
AcDbEntity
  8
Defpoints
 62
     0
100
AcDbPoint
 10
-67.99999999999999
 20
7.499999999999983
 30
0.0
  0
POINT
  5
13E
330
F0
100
AcDbEntity
  8
Defpoints
 62
     0
100
AcDbPoint
 10
82.0
 20
8.000000000000002
 30
0.0
  0
POINT
  5
13F
330
F0
100
AcDbEntity
  8
Defpoints
 62
     0
100
AcDbPoint
 10
82.0
 20
25.38913260158163
 30
0.0
  0
ENDBLK
  5
F2
330
F0
100
AcDbEntity
  8
0
100
AcDbBlockEnd
  0
BLOCK
  5
FC
330
FB
100
AcDbEntity
  8
0
100
AcDbBlockBegin
  2
_D_2
 70
     0
 10
0.0
 20
0.0
 30
0.0
  3
_D_2
  1

  0
LINE
  5
FE
330
FB
100
AcDbEntity
  8
치수문자_일반주서
 62
     0
370
    -2
100
AcDbLine
 10
-67.56249999999999
 20
8.000000000000002
 30
0.0
 11
-80.18296276744012
 21
7.999999999999957
 31
0.0
  0
LINE
  5
FF
330
FB
100
AcDbEntity
  8
치수문자_일반주서
 62
     0
370
    -2
100
AcDbLine
 10
-67.56249999999999
 20
-8.000000000000012
 30
0.0
 11
-80.18296276744006
 21
-8.00000000000006
 31
0.0
  0
LINE
  5
100
330
FB
100
AcDbEntity
  8
치수문자_일반주서
 62
     0
370
    -2
100
AcDbLine
 10
-80.18296276744012
 20
7.999999999999957
 30
0.0
 11
-80.18296276744017
 21
22.47899999999996
 31
0.0
  0
LINE
  5
101
330
FB
100
AcDbEntity
  8
치수문자_일반주서
 62
     0
370
    -2
100
AcDbLine
 10
-80.18296276744012
 20
7.999999999999957
 30
0.0
 11
-80.18296276744006
 21
-8.00000000000006
 31
0.0
  0
LINE
  5
102
330
FB
100
AcDbEntity
  8
치수문자_일반주서
 62
     0
370
    -2
100
AcDbLine
 10
-80.18296276744013
 20
11.30199999999996
 30
0.0
 11
-80.18296276744015
 21
14.60399999999996
 31
0.0
  0
LINE
  5
103
330
FB
100
AcDbEntity
  8
치수문자_일반주서
 62
     0
370
    -2
100
AcDbLine
 10
-80.18296276744005
 20
-11.30200000000006
 30
0.0
 11
-80.18296276744003
 21
-14.60400000000006
 31
0.0
  0
SOLID
  5
104
330
FB
100
AcDbEntity
  8
치수문자_일반주서
 62
     0
100
AcDbTrace
 10
-80.73329610077346
 20
11.30199999999996
 30
0.0
 11
-79.6326294341068
 21
11.30199999999996
 31
0.0
 12
-80.18296276744012
 22
7.999999999999957
 32
0.0
 13
-80.18296276744012
 23
7.999999999999957
 33
0.0
  0
SOLID
  5
105
330
FB
100
AcDbEntity
  8
치수문자_일반주서
 62
     0
100
AcDbTrace
 10
-79.63262943410672
 20
-11.30200000000006
 30
0.0
 11
-80.73329610077337
 21
-11.30200000000006
 31
0.0
 12
-80.18296276744006
 22
-8.00000000000006
 32
0.0
 13
-80.18296276744006
 23
-8.00000000000006
 33
0.0
  0
MTEXT
  5
106
330
FB
100
AcDbEntity
  8
치수문자_일반주서
 62
     0
100
AcDbMText
 10
-84.55796276744016
 20
18.54149999999994
 30
0.0
 40
3.5
 41
0.0
 71
     2
 72
     1
  1
\A1;%%c16
  7
SLDTEXTSTYLE0
 11
-3.552713678800497E-15
 21
1.0
 31
0.0
 73
     1
 44
1.0
  0
POINT
  5
143
330
FB
100
AcDbEntity
  8
Defpoints
 62
     0
100
AcDbPoint
 10
-67.49999999999999
 20
8.000000000000002
 30
0.0
  0
POINT
  5
144
330
FB
100
AcDbEntity
  8
Defpoints
 62
     0
100
AcDbPoint
 10
-67.49999999999999
 20
-8.000000000000012
 30
0.0
  0
POINT
  5
145
330
FB
100
AcDbEntity
  8
Defpoints
 62
     0
100
AcDbPoint
 10
-80.18296276744007
 20
-8.00000000000006
 30
0.0
  0
ENDBLK
  5
FD
330
FB
100
AcDbEntity
  8
0
100
AcDbBlockEnd
  0
BLOCK
  5
109
330
108
100
AcDbEntity
  8
0
100
AcDbBlockBegin
  2
_D_3
 70
     0
 10
0.0
 20
0.0
 30
0.0
  3
_D_3
  1

  0
LINE
  5
10B
330
108
100
AcDbEntity
  8
치수문자_일반주서
 62
     0
370
    -2
100
AcDbLine
 10
11.99999999999999
 20
8.038311912321177
 30
0.0
 11
11.99999999999999
 21
18.82173021490883
 31
0.0
  0
LINE
  5
10C
330
108
100
AcDbEntity
  8
치수문자_일반주서
 62
     0
370
    -2
100
AcDbLine
 10
82.0
 20
8.062500000000002
 30
0.0
 11
82.0
 21
18.82173021490883
 31
0.0
  0
LINE
  5
10D
330
108
100
AcDbEntity
  8
치수문자_일반주서
 62
     0
370
    -2
100
AcDbLine
 10
15.30199999999999
 20
18.82173021490883
 30
0.0
 11
78.69800000000001
 21
18.82173021490883
 31
0.0
  0
SOLID
  5
10E
330
108
100
AcDbEntity
  8
치수문자_일반주서
 62
     0
100
AcDbTrace
 10
15.30199999999999
 20
19.37206354824216
 30
0.0
 11
15.30199999999999
 21
18.27139688157549
 31
0.0
 12
11.99999999999999
 22
18.82173021490883
 32
0.0
 13
11.99999999999999
 23
18.82173021490883
 33
0.0
  0
SOLID
  5
10F
330
108
100
AcDbEntity
  8
치수문자_일반주서
 62
     0
100
AcDbTrace
 10
78.69800000000001
 20
18.27139688157549
 30
0.0
 11
78.69800000000001
 21
19.37206354824216
 31
0.0
 12
82.0
 22
18.82173021490883
 32
0.0
 13
82.0
 23
18.82173021490883
 33
0.0
  0
MTEXT
  5
110
330
108
100
AcDbEntity
  8
치수문자_일반주서
 62
     0
100
AcDbMText
 10
46.99999999999999
 20
23.19673021490883
 30
0.0
 40
3.5
 41
0.0
 71
     2
 72
     1
  1
\A1;70
  7
SLDTEXTSTYLE0
 73
     1
 44
1.0
  0
POINT
  5
140
330
108
100
AcDbEntity
  8
Defpoints
 62
     0
100
AcDbPoint
 10
11.99999999999999
 20
7.975811912321177
 30
0.0
  0
POINT
  5
141
330
108
100
AcDbEntity
  8
Defpoints
 62
     0
100
AcDbPoint
 10
82.0
 20
8.000000000000002
 30
0.0
  0
POINT
  5
142
330
108
100
AcDbEntity
  8
Defpoints
 62
     0
100
AcDbPoint
 10
82.0
 20
18.82173021490883
 30
0.0
  0
ENDBLK
  5
10A
330
108
100
AcDbEntity
  8
0
100
AcDbBlockEnd
  0
BLOCK
  5
112
330
111
100
AcDbEntity
  8
0
100
AcDbBlockBegin
  2
SW_DOWELSYMBOL_0
 70
     0
 10
0.0
 20
0.0
 30
0.0
  3
SW_DOWELSYMBOL_0
  1

  0
CIRCLE
  5
114
330
111
100
AcDbEntity
  8
해칭선
 62
     0
100
AcDbCircle
 10
0.0
 20
0.0
 30
0.0
 40
3.0
  0
HATCH
  5
115
330
111
100
AcDbEntity
  8
0
  6
Continuous
 62
     0
370
    18
100
AcDbHatch
 10
0.0
 20
0.0
 30
0.0
210
0.0
220
0.0
230
1.0
  2
SOLID
 70
     1
 71
     0
 91
        1
 92
        0
 93
        3
 72
     2
 10
0.0
 20
0.0
 40
3.0
 50
0.0
 51
90.0
 73
     1
 72
     1
 10
0.0
 20
3.0
 11
0.0
 21
0.0
 72
     1
 10
0.0
 20
0.0
 11
3.0
 21
0.0
 97
        0
 75
     0
 76
     1
 98
        1
 10
0.0
 20
0.0
  0
HATCH
  5
116
330
111
100
AcDbEntity
  8
0
  6
Continuous
 62
     0
370
    18
100
AcDbHatch
 10
0.0
 20
0.0
 30
0.0
210
0.0
220
0.0
230
1.0
  2
SOLID
 70
     1
 71
     0
 91
        1
 92
        0
 93
        3
 72
     2
 10
0.0
 20
0.0
 40
3.0
 50
180.0
 51
270.0000000000008
 73
     1
 72
     1
 10
0.0
 20
-3.0
 11
0.0
 21
0.0
 72
     1
 10
0.0
 20
0.0
 11
-3.0
 21
0.0
 97
        0
 75
     0
 76
     1
 98
        1
 10
0.0
 20
0.0
  0
ENDBLK
  5
113
330
111
100
AcDbEntity
  8
0
100
AcDbBlockEnd
  0
ENDSEC
  0
SECTION
  2
ENTITIES
  0
LINE
  5
99
330
1F
100
AcDbEntity
  8
0
  6
Continuous
 62
     4
370
    25
100
AcDbLine
 10
10.84531232144132
 20
7.999999999999994
 30
0.0
 11
-67.49999999999999
 21
7.99999999999999
 31
0.0
  0
LINE
  5
9A
330
1F
100
AcDbEntity
  8
0
  6
Continuous
 62
     4
370
    25
100
AcDbLine
 10
-67.49999999999999
 20
-8.000000000000009
 30
0.0
 11
10.84531232144129
 21
-8.000000000000005
 31
0.0
  0
LINE
  5
9B
330
1F
100
AcDbEntity
  8
0
  6
Continuous
 62
     4
370
    25
100
AcDbLine
 10
-67.49999999999999
 20
7.999999999999987
 30
0.0
 11
-67.99999999999999
 21
7.499999999999982
 31
0.0
  0
LINE
  5
9C
330
1F
100
AcDbEntity
  8
0
  6
Continuous
 62
     4
370
    25
100
AcDbLine
 10
-67.99999999999999
 20
-7.500000000000005
 30
0.0
 11
-67.49999999999999
 21
-8.000000000000005
 31
0.0
  0
LINE
  5
9D
330
1F
100
AcDbEntity
  8
0
  6
Continuous
 62
     1
370
    25
100
AcDbLine
 10
57.13987727509507
 20
-8.000000000000012
 30
0.0
 11
63.32959182542209
 21
-8.000000000000012
 31
0.0
  0
LINE
  5
9E
330
1F
100
AcDbEntity
  8
0
  6
Continuous
 62
     1
370
    25
100
AcDbLine
 10
19.79774745905151
 20
8.000000000000002
 30
0.0
 11
13.60828794756811
 21
8.000000000000002
 31
0.0
  0
LINE
  5
9F
330
1F
100
AcDbEntity
  8
0
  6
Continuous
 62
     1
370
    25
100
AcDbLine
 10
78.90501631264137
 20
-8.000000000000012
 30
0.0
 11
82.0
 21
-8.000000000000012
 31
0.0
  0
LINE
  5
A0
330
1F
100
AcDbEntity
  8
0
  6
Continuous
 62
     1
370
    25
100
AcDbLine
 10
41.56366549338525
 20
8.000000000000002
 30
0.0
 11
35.37355486895706
 21
8.000000000000002
 31
0.0
  0
LINE
  5
A1
330
1F
100
AcDbEntity
  8
0
  6
Continuous
 62
     1
370
    25
100
AcDbLine
 10
13.60828794756828
 20
-8.000000000000012
 30
0.0
 11
19.79774745905149
 21
-8.000000000000012
 31
0.0
  0
LINE
  5
A2
330
1F
100
AcDbEntity
  8
0
  6
Continuous
 62
     1
370
    25
100
AcDbLine
 10
63.32959182542209
 20
8.000000000000002
 30
0.0
 11
57.13987727509519
 21
8.000000000000002
 31
0.0
  0
LINE
  5
A3
330
1F
100
AcDbEntity
  8
0
  6
Continuous
 62
     1
370
    25
100
AcDbLine
 10
59.4856060672081
 20
-1.340223141031236
 30
0.0
 11
59.12669485178641
 21
-1.142938214216594
 31
0.0
  0
LINE
  5
A4
330
1F
100
AcDbEntity
  8
0
  6
Continuous
 62
     1
370
    25
100
AcDbLine
 10
39.49300626341941
 20
1.18845583349634
 30
0.0
 11
39.5767180501118
 21
1.142829791037347
 31
0.0
  0
LINE
  5
A5
330
1F
100
AcDbEntity
  8
0
  6
Continuous
 62
     1
370
    25
100
AcDbLine
 10
39.2978210911577
 20
1.294839024070232
 30
0.0
 11
39.40202749764494
 21
1.238042650288883
 31
0.0
  0
LINE
  5
A6
330
1F
100
AcDbEntity
  8
0
  6
Continuous
 62
     1
370
    25
100
AcDbLine
 10
15.68260317595574
 20
-1.190458851284717
 30
0.0
 11
15.59541943889728
 21
-1.142886476736106
 31
0.0
  0
LINE
  5
A7
330
1F
100
AcDbEntity
  8
0
  6
Continuous
 62
     1
370
    25
100
AcDbLine
 10
15.82434795880537
 20
-1.267802816197721
 30
0.0
 11
15.77355826304794
 21
-1.240089087567778
 31
0.0
  0
LINE
  5
A8
330
1F
100
AcDbEntity
  8
0
  6
Continuous
 62
     1
370
    25
100
AcDbLine
 10
81.89750884065725
 20
1.827680778417169
 30
0.0
 11
82.0
 21
1.777666294451274
 31
0.0
  0
LINE
  5
A9
330
1F
100
AcDbEntity
  8
0
  6
Continuous
 62
     1
370
    25
100
AcDbLine
 10
35.37355486895708
 20
-8.000000000000012
 30
0.0
 11
41.56366549338518
 21
-8.000000000000012
 31
0.0
  0
LINE
  5
AA
330
1F
100
AcDbEntity
  8
0
  6
Continuous
 62
     1
370
    25
100
AcDbLine
 10
82.0
 20
8.000000000000002
 30
0.0
 11
78.90501631264137
 21
8.000000000000002
 31
0.0
  0
SPLINE
  5
AB
330
1F
100
AcDbEntity
  8
0
  6
Continuous
 62
     4
370
    25
100
AcDbSpline
210
0.0
220
0.0
230
1.0
 70
    24
 71
     3
 72
    18
 73
    14
 74
     0
 42
0.000000001
 43
0.00000001
 40
0.0
 40
0.0
 40
0.0
 40
0.0
 40
0.25
 40
0.25
 40
0.375
 40
0.375
 40
0.5
 40
0.5
 40
0.625
 40
0.625
 40
0.75
 40
0.75
 40
1.0
 40
1.0
 40
1.0
 40
1.0
 10
11.99999999999999
 20
0.6216303879924318
 30
0.0
 10
11.99999999999999
 20
0.5395745385780298
 30
0.0
 10
11.99999999999999
 20
0.4098549844537502
 30
0.0
 10
11.99999999999999
 20
0.1420063840385058
 30
0.0
 10
11.99999999999999
 20
0.0396428672554591
 30
0.0
 10
11.99999999999999
 20
-0.1855538200509426
 30
0.0
 10
11.99999999999999
 20
-0.3087045684245763
 30
0.0
 10
11.99999999999999
 20
-0.5762467989326552
 30
0.0
 10
11.99999999999999
 20
-0.7206343145932433
 30
0.0
 10
11.99999999999999
 20
-1.031804915126452
 30
0.0
 10
11.99999999999999
 20
-1.198979236433837
 30
0.0
 10
11.99999999999999
 20
-1.719068339775404
 30
0.0
 10
11.99999999999999
 20
-2.095069070786988
 30
0.0
 10
11.99999999999999
 20
-2.501650426871004
 30
0.0
  0
SPLINE
  5
AC
330
1F
100
AcDbEntity
  8
0
  6
Continuous
 62
     4
370
    25
100
AcDbSpline
210
0.0
220
0.0
230
1.0
 70
     8
 71
     3
 72
    14
 73
    10
 74
     0
 42
0.000000001
 43
0.00000001
 40
0.0
 40
0.0
 40
0.0
 40
0.0
 40
0.25
 40
0.25
 40
0.5
 40
0.5
 40
0.75
 40
0.75
 40
1.0
 40
1.0
 40
1.0
 40
1.0
 10
11.3046076202206
 20
-6.543726313530348
 30
0.0
 10
11.17861966022892
 20
-6.501759515387746
 30
0.0
 10
11.06542647512114
 20
-6.45016207645526
 30
0.0
 10
10.86387447512545
 20
-6.325817432416928
 30
0.0
 10
10.7770505467714
 20
-6.253363138528
 30
0.0
 10
10.63867399335035
 20
-6.093213283858702
 30
0.0
 10
10.58572026968241
 20
-6.003565022583194
 30
0.0
 10
10.51701034725207
 20
-5.815468159985433
 30
0.0
 10
10.50017786030171
 20
-5.715295990132263
 30
0.0
 10
10.50017786030171
 20
-5.611646376765835
 30
0.0
  0
SPLINE
  5
AD
330
1F
100
AcDbEntity
  8
0
  6
Continuous
 62
     4
370
    25
100
AcDbSpline
210
0.0
220
0.0
230
1.0
 70
     8
 71
     3
 72
    18
 73
    14
 74
     0
 42
0.000000001
 43
0.00000001
 40
0.0
 40
0.0
 40
0.0
 40
0.0
 40
0.2499999999999999
 40
0.2499999999999999
 40
0.3749999999999999
 40
0.3749999999999999
 40
0.4999999999999999
 40
0.4999999999999999
 40
0.6249999999999999
 40
0.6249999999999999
 40
0.7499999999999998
 40
0.7499999999999998
 40
1.0
 40
1.0
 40
1.0
 40
1.0
 10
10.5001778603017
 20
-1.02881531314711
 30
0.0
 10
10.5001778603017
 20
-0.8235176909998033
 30
0.0
 10
10.53375394070737
 20
-0.6210657884134207
 30
0.0
 10
10.63973492141797
 20
-0.3307091505540983
 30
0.0
 10
10.68350606652985
 20
-0.2384684656926307
 30
0.0
 10
10.78796977437977
 20
-0.0631209929176174
 30
0.0
 10
10.84947076056608
 20
0.0208367672294312
 30
0.0
 10
10.98667460194091
 20
0.1740898495397427
 30
0.0
 10
11.06186590186813
 20
0.2432241702775927
 30
0.0
 10
11.22534121853367
 20
0.3666363513314819
 30
0.0
 10
11.31446276411287
 20
0.4211369381961358
 30
0.0
 10
11.59091285618196
 20
0.5551157064231147
 30
0.0
 10
11.79309689810917
 20
0.6086075994039132
 30
0.0
 10
11.99999999999999
 20
0.6216303879924339
 30
0.0
  0
SPLINE
  5
AE
330
1F
100
AcDbEntity
  8
0
  6
Continuous
 62
     4
370
    25
100
AcDbSpline
210
0.0
220
0.0
230
1.0
 70
     8
 71
     3
 72
    14
 73
    10
 74
     0
 42
0.000000001
 43
0.00000001
 40
0.0
 40
0.0
 40
0.0
 40
0.0
 40
0.25
 40
0.25
 40
0.5
 40
0.5
 40
0.75
 40
0.75
 40
1.0
 40
1.0
 40
1.0
 40
1.0
 10
11.3046076202206
 20
4.602134932138566
 30
0.0
 10
11.17861966022892
 20
4.661807072427756
 30
0.0
 10
11.06542647512114
 20
4.733505603854681
 30
0.0
 10
10.86387447512546
 20
4.89843851916051
 30
0.0
 10
10.7770505467714
 20
4.991122075562424
 30
0.0
 10
10.63867399335035
 20
5.185422065066174
 30
0.0
 10
10.58572026968242
 20
5.289298172110552
 30
0.0
 10
10.51701034725207
 20
5.495434306228401
 30
0.0
 10
10.50017786030171
 20
5.599691199983701
 30
0.0
 10
10.50017786030171
 20
5.701703687682324
 30
0.0
  0
SPLINE
  5
AF
330
1F
100
AcDbEntity
  8
0
  6
Continuous
 62
     4
370
    25
100
AcDbSpline
210
0.0
220
0.0
230
1.0
 70
     8
 71
     3
 72
     8
 73
     4
 74
     0
 42
0.000000001
 43
0.00000001
 40
0.0
 40
0.0
 40
0.0
 40
0.0
 40
1.0
 40
1.0
 40
1.0
 40
1.0
 10
11.99999999999999
 20
4.267755634439845
 30
0.0
 10
11.76766358295187
 20
4.381145237848261
 30
0.0
 10
11.53572079897272
 20
4.492671948325762
 30
0.0
 10
11.3046076202206
 20
4.602134932138565
 30
0.0
  0
LINE
  5
B0
330
1F
100
AcDbEntity
  8
0
  6
Continuous
 62
     4
370
    25
100
AcDbLine
 10
11.99999999999999
 20
4.267755634439845
 30
0.0
 11
11.99999999999999
 21
0.6216303879924316
 31
0.0
  0
SPLINE
  5
B1
330
1F
100
AcDbEntity
  8
0
  6
Continuous
 62
     4
370
    25
100
AcDbSpline
210
0.0
220
0.0
230
1.0
 70
     8
 71
     3
 72
     8
 73
     4
 74
     0
 42
0.000000001
 43
0.00000001
 40
0.0
 40
0.0
 40
0.0
 40
0.0
 40
1.0
 40
1.0
 40
1.0
 40
1.0
 10
11.99999999999999
 20
-6.766554650980548
 30
0.0
 10
11.76766358295187
 20
-6.695038326382025
 30
0.0
 10
11.53572079897272
 20
-6.620710496157209
 30
0.0
 10
11.3046076202206
 20
-6.543726313530347
 30
0.0
  0
LINE
  5
B2
330
1F
100
AcDbEntity
  8
0
  6
Continuous
 62
     4
370
    25
100
AcDbLine
 10
11.99999999999999
 20
-6.766554650980548
 30
0.0
 11
11.99999999999999
 21
-7.975811912321182
 31
0.0
  0
SPLINE
  5
B3
330
1F
100
AcDbEntity
  8
0
  6
Continuous
 62
     4
370
    25
100
AcDbSpline
210
0.0
220
0.0
230
1.0
 70
     8
 71
     3
 72
    11
 73
     7
 74
     0
 42
0.000000001
 43
0.00000001
 40
0.0
 40
0.0
 40
0.0
 40
0.0
 40
0.0274773057129742
 40
0.4270035087882227
 40
0.8198715229672981
 40
1.0
 40
1.0
 40
1.0
 40
1.0
 10
10.84531232144129
 20
-7.999044897547973
 30
0.0
 10
10.85112134067755
 20
-7.999358831971118
 30
0.0
 10
10.94139480571115
 20
-8.00423744349195
 30
0.0
 10
11.25989676010338
 20
-7.988981445747795
 30
0.0
 10
11.66147738815402
 20
-7.97887930724719
 30
0.0
 10
11.91903393847757
 20
-7.976545555739972
 30
0.0
 10
11.99999999999999
 20
-7.975811912321182
 30
0.0
  0
SPLINE
  5
B4
330
1F
100
AcDbEntity
  8
0
  6
Continuous
 62
     4
370
    25
100
AcDbSpline
210
0.0
220
0.0
230
1.0
 70
     8
 71
     3
 72
    18
 73
    14
 74
     0
 42
0.000000001
 43
0.00000001
 40
0.0
 40
0.0
 40
0.0
 40
0.0
 40
0.2500000000000001
 40
0.2500000000000001
 40
0.3750000000000002
 40
0.3750000000000002
 40
0.5000000000000001
 40
0.5000000000000001
 40
0.6250000000000001
 40
0.6250000000000001
 40
0.7500000000000001
 40
0.7500000000000001
 40
1.0
 40
1.0
 40
1.0
 40
1.0
 10
10.5001778603017
 20
7.933570384854084
 30
0.0
 10
10.5001778603017
 20
7.960193119281586
 30
0.0
 10
10.53375394070738
 20
7.978211225283333
 30
0.0
 10
10.63973492141797
 20
7.993749165750284
 30
0.0
 10
10.68350606652985
 20
7.996925797264455
 30
0.0
 10
10.78796977437977
 20
8.000231568919535
 30
0.0
 10
10.84947076056608
 20
8.000339888252142
 30
0.0
 10
10.98667460194091
 20
7.998472680625608
 30
0.0
 10
11.06186590186813
 20
7.996540200898482
 30
0.0
 10
11.22534121853367
 20
7.991832766485741
 30
0.0
 10
11.31446276411286
 20
7.989032791439536
 30
0.0
 10
11.59091285618196
 20
7.981218679256952
 30
0.0
 10
11.79309689810917
 20
7.976826901291833
 30
0.0
 10
11.99999999999999
 20
7.975811912321177
 30
0.0
  0
LINE
  5
B5
330
1F
100
AcDbEntity
  8
0
  6
Continuous
 62
     4
370
    25
100
AcDbLine
 10
10.5001778603017
 20
7.933570384854084
 30
0.0
 11
10.5001778603017
 21
5.701703687682323
 31
0.0
  0
LINE
  5
B6
330
1F
100
AcDbEntity
  8
0
  6
Continuous
 62
     4
370
    25
100
AcDbLine
 10
-67.49999999999999
 20
7.999999999999987
 30
0.0
 11
-67.49999999999999
 21
-8.000000000000005
 31
0.0
  0
LINE
  5
B7
330
1F
100
AcDbEntity
  8
0
  6
Continuous
 62
     4
370
    25
100
AcDbLine
 10
10.5001778603017
 20
-1.02881531314711
 30
0.0
 11
10.5001778603017
 21
-5.611646376765835
 31
0.0
  0
LINE
  5
B8
330
1F
100
AcDbEntity
  8
0
  6
Continuous
 62
     4
370
    25
100
AcDbLine
 10
-67.99999999999999
 20
7.499999999999983
 30
0.0
 11
-67.99999999999999
 21
-7.500000000000005
 31
0.0
  0
SPLINE
  5
B9
330
1F
100
AcDbEntity
  8
0
  6
Continuous
 62
     4
370
    25
100
AcDbSpline
210
0.0
220
0.0
230
1.0
 70
    24
 71
     3
 72
    13
 73
     9
 74
     0
 42
0.000000001
 43
0.00000001
 40
0.0
 40
0.0
 40
0.0
 40
0.0
 40
0.1643983614075409
 40
0.3325052652782588
 40
0.5169908066622262
 40
0.7076003871589819
 40
0.8795138890518663
 40
1.0
 40
1.0
 40
1.0
 40
1.0
 10
11.99999999999999
 20
7.975811912321181
 30
0.0
 10
11.99999999999999
 20
7.715111073458762
 30
0.0
 10
11.99999999999999
 20
7.187828436076974
 30
0.0
 10
11.99999999999999
 20
6.415858216921301
 30
0.0
 10
11.99999999999999
 20
5.669405928686049
 30
0.0
 10
11.99999999999999
 20
5.023605086935165
 30
0.0
 10
11.99999999999999
 20
4.543136784399229
 30
0.0
 10
11.99999999999999
 20
4.34811589364742
 30
0.0
 10
11.99999999999999
 20
4.267755634439068
 30
0.0
  0
SPLINE
  5
BA
330
1F
100
AcDbEntity
  8
0
  6
Continuous
 62
     4
370
    25
100
AcDbSpline
210
0.0
220
0.0
230
1.0
 70
    24
 71
     3
 72
    12
 73
     8
 74
     0
 42
0.000000001
 43
0.00000001
 40
0.0
 40
0.0
 40
0.0
 40
0.0
 40
0.4999999999999998
 40
0.4999999999999998
 40
0.7499999999999998
 40
0.7499999999999998
 40
1.0
 40
1.0
 40
1.0
 40
1.0
 10
11.99999999999999
 20
-2.501650426871008
 30
0.0
 10
11.99999999999999
 20
-3.126591249593013
 30
0.0
 10
11.99999999999999
 20
-3.839278934725863
 30
0.0
 10
11.99999999999999
 20
-4.946475892156502
 30
0.0
 10
11.99999999999999
 20
-5.32099620183237
 30
0.0
 10
11.99999999999999
 20
-6.058346460238694
 30
0.0
 10
11.99999999999999
 20
-6.42102062142785
 30
0.0
 10
11.99999999999999
 20
-6.766554650980553
 30
0.0
  0
SPLINE
  5
BB
330
1F
100
AcDbEntity
  8
0
  6
Continuous
 62
     1
370
    25
100
AcDbSpline
210
0.0
220
0.0
230
1.0
 70
     8
 71
     3
 72
    23
 73
    19
 74
     0
 42
0.000000001
 43
0.00000001
 40
0.0
 40
0.0
 40
0.0
 40
0.0
 40
0.0604562209898904
 40
0.120912447860865
 40
0.1813686805349836
 40
0.2418249189342969
 40
0.302281162980846
 40
0.3627374125966625
 40
0.4287427635976147
 40
0.4947511477152298
 40
0.5607600648780536
 40
0.6267670141155064
 40
0.6927694977758246
 40
0.7587650257319144
 40
0.8247511195598314
 40
0.8907289113434079
 40
0.9567155269590271
 40
1.0
 40
1.0
 40
1.0
 40
1.0
 10
11.99999999999999
 20
7.946198868111311
 30
0.0
 10
12.90961781366421
 20
7.977250842402522
 30
0.0
 10
14.7288535294788
 20
8.039354794005632
 30
0.0
 10
17.45770673453589
 20
7.739402928974005
 30
0.0
 10
20.18656252083947
 20
7.162306586102499
 30
0.0
 10
22.91541010276406
 20
6.302412608539872
 30
0.0
 10
25.6442897814793
 20
5.200449356688839
 30
0.0
 10
28.45653935628627
 20
3.857160357657775
 30
0.0
 10
31.35281450581446
 20
2.306786951311146
 30
0.0
 10
34.33254510523221
 20
0.6054772619189043
 30
0.0
 10
37.31233890638141
 20
-1.123737552104112
 30
0.0
 10
40.29201688482367
 20
-2.801105296000894
 30
0.0
 10
43.27145584131728
 20
-4.349711704547707
 30
0.0
 10
46.25051648443084
 20
-5.696907916039411
 30
0.0
 10
49.22912467536293
 20
-6.785650596192183
 30
0.0
 10
52.20747645080899
 20
-7.547425420685778
 30
0.0
 10
54.84436809900249
 20
-7.962281862897657
 30
0.0
 10
56.48857420923332
 20
-7.959442229897729
 30
0.0
 10
57.13987727509507
 20
-7.958317394229461
 30
0.0
  0
SPLINE
  5
BC
330
1F
100
AcDbEntity
  8
0
  6
Continuous
 62
     1
370
    25
100
AcDbSpline
210
0.0
220
0.0
230
1.0
 70
     8
 71
     3
 72
    26
 73
    22
 74
     0
 42
0.000000001
 43
0.00000001
 40
0.0
 40
0.0
 40
0.0
 40
0.0
 40
0.0201374782086795
 40
0.0781985119740038
 40
0.1362601228257401
 40
0.1943201108570157
 40
0.252376278897836
 40
0.3104264362154023
 40
0.3684684021910076
 40
0.4265026067053767
 40
0.4845441137154203
 40
0.5425939190044606
 40
0.6006498425455798
 40
0.6587096940177455
 40
0.716771276481209
 40
0.7748323900769852
 40
0.8328908357369609
 40
0.886068280139539
 40
0.9392457196433779
 40
0.9924231541798965
 40
1.0
 40
1.0
 40
1.0
 40
1.0
 10
71.11738944469688
 20
-6.734438565970365
 30
0.0
 10
70.77289713382424
 20
-6.84984429883102
 30
0.0
 10
69.4351533598737
 20
-7.297991603545814
 30
0.0
 10
67.10411409448875
 20
-7.751424365278279
 30
0.0
 10
64.1243278466017
 20
-8.052104837048704
 30
0.0
 10
61.14463900862253
 20
-7.961038407489635
 30
0.0
 10
58.16518551776608
 20
-7.508957603839708
 30
0.0
 10
55.18610360145927
 20
-6.709615647880388
 30
0.0
 10
52.20747474199662
 20
-5.601782606225798
 30
0.0
 10
49.22912513327579
 20
-4.235798356953185
 30
0.0
 10
46.25051636170027
 20
-2.674913249790027
 30
0.0
 10
43.27145587423695
 20
-0.9907832100525757
 30
0.0
 10
40.2920168758961
 20
0.7390291277986464
 30
0.0
 10
37.31233890916825
 20
2.434901959887817
 30
0.0
 10
34.33254510301292
 20
4.018482143505728
 30
0.0
 10
31.35281451190461
 20
5.417640856330545
 30
0.0
 10
28.45653933493715
 20
6.532721497129446
 30
0.0
 10
25.64428985360741
 20
7.350496032128283
 30
0.0
 10
22.91540983282581
 20
7.830225428072183
 30
0.0
 10
20.96657473303746
 20
8.03584691250727
 30
0.0
 10
19.92735199714179
 20
7.987156162789008
 30
0.0
 10
19.7977474590515
 20
7.98108379552015
 30
0.0
  0
SPLINE
  5
BD
330
1F
100
AcDbEntity
  8
0
  6
Continuous
 62
     1
370
    25
100
AcDbSpline
210
0.0
220
0.0
230
1.0
 70
     8
 71
     3
 72
    26
 73
    22
 74
     0
 42
0.000000001
 43
0.00000001
 40
0.0
 40
0.0
 40
0.0
 40
0.0
 40
0.0153825096827951
 40
0.0734388497728131
 40
0.1314978577018752
 40
0.1895573344816206
 40
0.2476150803328445
 40
0.3056688983954742
 40
0.363716598427912
 40
0.4217560004823018
 40
0.4797881003058519
 40
0.5378279613091577
 40
0.5958760133573549
 40
0.6539300759108183
 40
0.7119879583162
 40
0.7667830852419838
 40
0.821578317530702
 40
0.8763735586874689
 40
0.9311687122155478
 40
0.9859636816364957
 40
1.0
 40
1.0
 40
1.0
 40
1.0
 10
27.58372700499215
 20
6.742275497564079
 30
0.0
 10
27.84685659581902
 20
6.830820242199195
 30
0.0
 10
29.10308427842721
 20
7.253548674264047
 30
0.0
 10
31.3528255189617
 20
7.711344438869651
 30
0.0
 10
34.33254215370933
 20
8.04272079851054
 30
0.0
 10
37.31233969897836
 20
7.982213921714211
 30
0.0
 10
40.29201666589659
 20
7.559851222737999
 30
0.0
 10
43.27145592448412
 20
6.787814414068452
 30
0.0
 10
46.25051637068025
 20
5.703654465512791
 30
0.0
 10
49.22912504713683
 20
4.356816364652498
 30
0.0
 10
52.20747507754795
 20
2.809277201942416
 30
0.0
 10
55.18610234511777
 20
1.132497763604871
 30
0.0
 10
58.1651902084319
 20
-0.5964934203512338
 30
0.0
 10
61.14462150013063
 20
-2.298131456983978
 30
0.0
 10
64.06854533961513
 20
-3.863906097237672
 30
0.0
 10
66.93636270762423
 20
-5.232626487820387
 30
0.0
 10
69.7484606377189
 20
-6.358098329132818
 30
0.0
 10
72.56053486082608
 20
-7.229589044666973
 30
0.0
 10
75.3726099614108
 20
-7.77838274423512
 30
0.0
 10
77.48743631314532
 20
-8.023965686908298
 30
0.0
 10
78.66490313568853
 20
-7.978026464617495
 30
0.0
 10
78.90501631264137
 20
-7.968658376787077
 30
0.0
  0
SPLINE
  5
BE
330
1F
100
AcDbEntity
  8
0
  6
Continuous
 62
     1
370
    25
100
AcDbSpline
210
0.0
220
0.0
230
1.0
 70
     8
 71
     3
 72
    21
 73
    17
 74
     0
 42
0.000000001
 43
0.00000001
 40
0.0
 40
0.0
 40
0.0
 40
0.0
 40
0.0736573467375978
 40
0.1473265346491378
 40
0.2210048047895887
 40
0.2946893829471733
 40
0.3683774842875387
 40
0.4420663180365311
 40
0.5157530921846033
 40
0.5894350181957146
 40
0.6631093157035848
 40
0.7367732171782224
 40
0.8104272682023076
 40
0.8840905871812742
 40
0.957764437912502
 40
0.9999999999999999
 40
0.9999999999999999
 40
0.9999999999999999
 40
0.9999999999999999
 10
82.0
 20
-7.80132558684018
 30
0.0
 10
81.00724222467416
 20
-7.639521200068027
 30
0.0
 10
79.02156707802803
 20
-7.315886414809026
 30
0.0
 10
76.04272489984206
 20
-6.397353106677985
 30
0.0
 10
73.06345073191896
 20
-5.209980798463314
 30
0.0
 10
70.08386836697456
 20
-3.775725818326393
 30
0.0
 10
67.10411574556686
 20
-2.169406895154594
 30
0.0
 10
64.12432740371324
 20
-0.4626801751757451
 30
0.0
 10
61.14463912912897
 20
1.265225913815342
 30
0.0
 10
58.16518547859808
 20
2.934768099700466
 30
0.0
 10
55.1861036376349
 20
4.469415718441014
 30
0.0
 10
52.20747463647664
 20
5.796991913786333
 30
0.0
 10
49.22912551915277
 20
6.862265798529378
 30
0.0
 10
46.25051492340797
 20
7.594554065603512
 30
0.0
 10
43.69531427203533
 20
7.976942914927402
 30
0.0
 10
42.13296201635604
 20
7.960719118219926
 30
0.0
 10
41.56366549338525
 20
7.954807422556301
 30
0.0
  0
LINE
  5
BF
330
1F
100
AcDbEntity
  8
0
  6
Continuous
 62
     1
370
    25
100
AcDbLine
 10
82.0
 20
-8.000000000000016
 30
0.0
 11
82.0
 21
-7.801325586842101
 31
0.0
  0
LINE
  5
C0
330
1F
100
AcDbEntity
  8
0
  6
Continuous
 62
     1
370
    25
100
AcDbLine
 10
11.99999999999999
 20
-7.946198868111316
 30
0.0
 11
13.60828794756829
 21
-7.962487690628246
 31
0.0
  0
SPLINE
  5
C1
330
1F
100
AcDbEntity
  8
0
  6
Continuous
 62
     1
370
    25
100
AcDbSpline
210
0.0
220
0.0
230
1.0
 70
     8
 71
     3
 72
    18
 73
    14
 74
     0
 42
0.000000001
 43
0.00000001
 40
0.0
 40
0.0
 40
0.0
 40
0.0
 40
0.0902131017920466
 40
0.1843426981704312
 40
0.2784855788630131
 40
0.3726382074499727
 40
0.466797031108958
 40
0.5556642870235197
 40
0.6445317138166866
 40
0.7333991549921389
 40
0.8222664540505543
 40
0.9111334545222819
 40
1.0
 40
1.0
 40
1.0
 40
1.0
 10
49.3527601379546
 20
6.763032593954216
 30
0.0
 10
50.30428970529756
 20
7.030731735160058
 30
0.0
 10
52.24865836515458
 20
7.577751857598005
 30
0.0
 10
55.18610095183092
 20
7.977751109624503
 30
0.0
 10
58.1651905819167
 20
8.040896252242423
 30
0.0
 10
61.14462139970718
 20
7.727093959749477
 30
0.0
 10
64.06854536537236
 20
7.071728956503856
 30
0.0
 10
66.93636269906152
 20
6.124301625879373
 30
0.0
 10
69.74846064688032
 20
4.944170167022095
 30
0.0
 10
72.5605348327432
 20
3.560834326540748
 30
0.0
 10
75.37261006458056
 20
2.032318449574682
 30
0.0
 10
78.18467249941601
 20
0.4168511575493181
 30
0.0
 10
80.05937476939292
 20
-0.6627183786148455
 30
0.0
 10
80.99672350478284
 20
-1.202501764859669
 30
0.0
  0
LINE
  5
C2
330
1F
100
AcDbEntity
  8
0
  6
Continuous
 62
     4
370
    25
100
AcDbLine
 10
11.99999999999999
 20
-7.946198868111379
 30
0.0
 11
11.99999999999999
 21
-6.766554650980033
 31
0.0
  0
SPLINE
  5
C3
330
1F
100
AcDbEntity
  8
0
  6
Continuous
 62
     1
370
    25
100
AcDbSpline
210
0.0
220
0.0
230
1.0
 70
     8
 71
     3
 72
    14
 73
    10
 74
     0
 42
0.000000001
 43
0.00000001
 40
0.0
 40
0.0
 40
0.0
 40
0.0
 40
0.1595285007406493
 40
0.3190826473239695
 40
0.478656464373655
 40
0.6382439434483869
 40
0.7978390531002677
 40
0.9574357490168641
 40
1.0
 40
1.0
 40
1.0
 40
1.0
 10
82.0
 20
1.771812373837188
 30
0.0
 10
81.00724222666531
 20
2.322930444758813
 30
0.0
 10
79.02156708400177
 20
3.425255184484412
 30
0.0
 10
76.0427248759413
 20
4.899580952610028
 30
0.0
 10
73.06345082156177
 20
6.152192035598177
 30
0.0
 10
70.08386803227091
 20
7.127619982280255
 30
0.0
 10
67.1041169947965
 20
7.746607273067339
 30
0.0
 10
64.85266638946216
 20
8.025375619311012
 30
0.0
 10
63.59449518874824
 20
7.974583724669787
 30
0.0
 10
63.32959182542209
 20
7.96388967626641
 30
0.0
  0
SPLINE
  5
C4
330
1F
100
AcDbEntity
  8
0
  6
Continuous
 62
     1
370
    25
100
AcDbSpline
210
0.0
220
0.0
230
1.0
 70
     8
 71
     3
 72
    13
 73
     9
 74
     0
 42
0.000000001
 43
0.00000001
 40
0.0
 40
0.0
 40
0.0
 40
0.0
 40
0.1244539882925006
 40
0.2995632237995949
 40
0.4746724429496839
 40
0.6497816455169613
 40
0.8248908312756507
 40
1.0
 40
1.0
 40
1.0
 40
1.0
 10
27.58372700499215
 20
-6.742275497564086
 30
0.0
 10
26.93724131161131
 20
-6.939282582785698
 30
0.0
 10
25.38113739636898
 20
-7.413482553152606
 30
0.0
 10
22.91541540241142
 20
-7.842684170491113
 30
0.0
 10
20.18656110129132
 20
-8.051127160355986
 30
0.0
 10
17.45770711308207
 20
-7.933836398663469
 30
0.0
 10
14.72885343484234
 20
-7.53113092216918
 30
0.0
 10
12.90961778211878
 20
-7.021413399778193
 30
0.0
 10
12.00000000000007
 20
-6.766554650978825
 30
0.0
  0
LINE
  5
C5
330
1F
100
AcDbEntity
  8
0
  6
Continuous
 62
     1
370
    25
100
AcDbLine
 10
82.0
 20
-0.5000000000000284
 30
0.0
 11
82.0
 21
1.771812373837343
 31
0.0
  0
LINE
  5
C6
330
1F
100
AcDbEntity
  8
0
  6
Continuous
 62
     1
370
    25
100
AcDbLine
 10
82.0
 20
-0.5000000000000318
 30
0.0
 11
80.99672350478286
 21
-1.202501764859689
 31
0.0
  0
SPLINE
  5
C7
330
1F
100
AcDbEntity
  8
0
  6
Continuous
 62
     1
370
    25
100
AcDbSpline
210
0.0
220
0.0
230
1.0
 70
     8
 71
     3
 72
    21
 73
    17
 74
     0
 42
0.000000001
 43
0.00000001
 40
0.0
 40
0.0
 40
0.0
 40
0.0
 40
0.0033072540189287
 40
0.0830499297112167
 40
0.162804006330271
 40
0.2425664887577971
 40
0.3223343677325135
 40
0.4021046248997475
 40
0.4818742378941155
 40
0.5616401854368046
 40
0.6347001716705472
 40
0.7077601511739583
 40
0.7808201238528152
 40
0.8538800896129058
 40
0.9269400483600304
 40
0.9999999999999999
 40
0.9999999999999999
 40
0.9999999999999999
 40
0.9999999999999999
 10
49.35276013795449
 20
-6.763032593954228
 30
0.0
 10
49.31158317782764
 20
-6.777673301658682
 30
0.0
 10
48.27757017952675
 20
-7.145322638183285
 30
0.0
 10
46.25051369238226
 20
-7.583695145433449
 30
0.0
 10
43.27145658957576
 20
-8.006514856337363
 30
0.0
 10
40.29201668430436
 20
-8.026391238770572
 30
0.0
 10
37.31233896011454
 20
-7.685810473110491
 30
0.0
 10
34.33254509083137
 20
-6.988797742362667
 30
0.0
 10
31.35281450968423
 20
-5.970588480858076
 30
0.0
 10
28.45653935534598
 20
-4.713438638897151
 30
0.0
 10
25.64428978172186
 20
-3.297833532178647
 30
0.0
 10
22.9154101026991
 20
-1.796988534256167
 30
0.0
 10
20.18656252085692
 20
-0.2258232839542522
 30
0.0
 10
17.4577067345313
 20
1.350898155201465
 30
0.0
 10
14.72885352948002
 20
2.88724040372971
 30
0.0
 10
12.90961781366467
 20
3.807583905790842
 30
0.0
 10
12.00000000000007
 20
4.267755634439022
 30
0.0
  0
SPLINE
  5
C8
330
1F
100
AcDbEntity
  8
0
  6
Continuous
 62
     4
370
    25
100
AcDbSpline
210
0.0
220
0.0
230
1.0
 70
    24
 71
     3
 72
    13
 73
     9
 74
     0
 42
0.000000001
 43
0.00000001
 40
0.0
 40
0.0
 40
0.0
 40
0.0
 40
0.1728504659753074
 40
0.3496196173650598
 40
0.5440569562096972
 40
0.74413299105295
 40
0.9385703298975875
 40
1.0
 40
1.0
 40
1.0
 40
1.0
 10
11.99999999999999
 20
7.946198868111376
 30
0.0
 10
11.99999999999999
 20
7.68258274148575
 30
0.0
 10
11.99999999999999
 20
7.149374058465619
 30
0.0
 10
11.99999999999999
 20
6.380533132760642
 30
0.0
 10
11.99999999999999
 20
5.644565932096383
 30
0.0
 10
11.99999999999999
 20
5.002634653144398
 30
0.0
 10
11.99999999999999
 20
4.571153493646796
 30
0.0
 10
11.99999999999999
 20
4.410056999073286
 30
0.0
 10
11.99999999999999
 20
4.371380248377561
 30
0.0
  0
SPLINE
  5
C9
330
1F
100
AcDbEntity
  8
0
  6
Continuous
 62
     1
370
    25
100
AcDbSpline
210
0.0
220
0.0
230
1.0
 70
     8
 71
     3
 72
     8
 73
     4
 74
     0
 42
0.000000001
 43
0.00000001
 40
0.0
 40
0.0
 40
0.0
 40
0.0
 40
1.0
 40
1.0
 40
1.0
 40
1.0
 10
82.0
 20
-5.869334219275757
 30
0.0
 10
80.66373915393409
 20
-5.118291190075197
 30
0.0
 10
79.40235313831808
 20
-4.197643585156674
 30
0.0
 10
78.18880970275944
 20
-3.168624175679539
 30
0.0
  0
LINE
  5
CA
330
1F
100
AcDbEntity
  8
0
  6
Continuous
 62
     1
370
    25
100
AcDbLine
 10
82.0
 20
-7.801325586842101
 30
0.0
 11
82.0
 21
-5.869334219275754
 31
0.0
  0
SPLINE
  5
CB
330
1F
100
AcDbEntity
  8
0
  6
Continuous
 62
     1
370
    25
100
AcDbSpline
210
0.0
220
0.0
230
1.0
 70
    24
 71
     3
 72
    15
 73
    11
 74
     0
 42
0.000000001
 43
0.00000001
 40
0.0
 40
0.0
 40
0.0
 40
0.0
 40
0.1467617952929642
 40
0.3032840485488554
 40
0.4077468706406514
 40
0.5121416267014035
 40
0.6168679633609856
 40
0.7216131401702486
 40
0.9216050370120382
 40
1.0
 40
1.0
 40
1.0
 40
1.0
 10
80.99298770678178
 20
-1.205117598781284
 30
0.0
 10
80.98358779352581
 20
-1.211699488901635
 30
0.0
 10
80.96416282163453
 20
-1.225301000649424
 30
0.0
 10
80.78892677593743
 20
-1.348002600812582
 30
0.0
 10
80.53350701173055
 20
-1.526849445117983
 30
0.0
 10
80.24222952043331
 20
-1.730804140235107
 30
0.0
 10
79.88138860390893
 20
-1.983467670079952
 30
0.0
 10
79.33931924701119
 20
-2.363028720012279
 30
0.0
 10
78.75370901064578
 20
-2.773077421968085
 30
0.0
 10
78.31293390837045
 20
-3.081711471236463
 30
0.0
 10
78.1888097027595
 20
-3.16862417567954
 30
0.0
  0
SPLINE
  5
CC
330
1F
100
AcDbEntity
  8
0
  6
Continuous
 62
     4
370
    25
100
AcDbSpline
210
0.0
220
0.0
230
1.0
 70
    24
 71
     3
 72
    24
 73
    20
 74
     0
 42
0.000000001
 43
0.00000001
 40
0.0
 40
0.0
 40
0.0
 40
0.0
 40
0.0625
 40
0.0625
 40
0.125
 40
0.125
 40
0.25
 40
0.25
 40
0.375
 40
0.375
 40
0.5
 40
0.5
 40
0.625
 40
0.625
 40
0.75
 40
0.75
 40
0.875
 40
0.875
 40
1.0
 40
1.0
 40
1.0
 40
1.0
 10
11.99999999999999
 20
0.9262416252934428
 30
0.0
 10
11.99999999999999
 20
0.8901477350202972
 30
0.0
 10
11.99999999999999
 20
0.8501976432203675
 30
0.0
 10
11.99999999999999
 20
0.764591623311871
 30
0.0
 10
11.99999999999999
 20
0.7171905265411812
 30
0.0
 10
11.99999999999999
 20
0.5535628313528852
 30
0.0
 10
11.99999999999999
 20
0.4179589175031108
 30
0.0
 10
11.99999999999999
 20
0.0776665996123763
 30
0.0
 10
11.99999999999999
 20
-0.1271764423258382
 30
0.0
 10
11.99999999999999
 20
-0.6209487640598765
 30
0.0
 10
11.99999999999999
 20
-0.9101443067582609
 30
0.0
 10
11.99999999999999
 20
-1.580161166460164
 30
0.0
 10
11.99999999999999
 20
-1.961289030214317
 30
0.0
 10
11.99999999999999
 20
-2.806234354834257
 30
0.0
 10
11.99999999999999
 20
-3.270174773971231
 30
0.0
 10
11.99999999999999
 20
-4.247881759284625
 30
0.0
 10
11.99999999999999
 20
-4.761327191720737
 30
0.0
 10
11.99999999999999
 20
-5.783361925467457
 30
0.0
 10
11.99999999999999
 20
-6.291233185901274
 30
0.0
 10
11.99999999999999
 20
-6.766554650980041
 30
0.0
  0
SPLINE
  5
CD
330
1F
100
AcDbEntity
  8
0
  6
Continuous
 62
     1
370
    25
100
AcDbSpline
210
0.0
220
0.0
230
1.0
 70
     8
 71
     3
 72
    16
 73
    12
 74
     0
 42
0.000000001
 43
0.00000001
 40
0.0
 40
0.0
 40
0.0
 40
0.0
 40
0.1167533137842451
 40
0.2335066389260652
 40
0.3502599752749417
 40
0.4670133226803392
 40
0.5837666809917026
 40
0.7005200500584591
 40
0.8279898675672656
 40
0.9554655426440063
 40
1.0
 40
1.0
 40
1.0
 40
1.0
 10
11.99999999999999
 20
0.9262416252934231
 30
0.0
 10
12.90961781370826
 20
0.401144329203653
 30
0.0
 10
14.72885352961097
 20
-0.6490503140565086
 30
0.0
 10
17.4577067340072
 20
-2.208873202552198
 30
0.0
 10
20.18656252282204
 20
-3.680619506538874
 30
0.0
 10
22.91541009536249
 20
-5.011186069643302
 30
0.0
 10
25.64428980910305
 20
-6.146266217979278
 30
0.0
 10
28.4565392491935
 20
-7.077296640587847
 30
0.0
 10
31.35281494655036
 20
-7.709158736932489
 30
0.0
 10
33.68628030076244
 20
-8.013175321560098
 30
0.0
 10
35.02655078366254
 20
-7.969358907293389
 30
0.0
 10
35.37355486895708
 20
-7.958014574229659
 30
0.0
  0
SPLINE
  5
CE
330
1F
100
AcDbEntity
  8
0
  6
Continuous
 62
     1
370
    25
100
AcDbSpline
210
0.0
220
0.0
230
1.0
 70
     8
 71
     3
 72
    11
 73
     7
 74
     0
 42
0.000000001
 43
0.00000001
 40
0.0
 40
0.0
 40
0.0
 40
0.0
 40
0.1460772999021019
 40
0.4307193232990352
 40
0.7153603903225878
 40
1.0
 40
1.0
 40
1.0
 40
1.0
 10
71.11738944469688
 20
6.734438565970362
 30
0.0
 10
71.59843873366967
 20
6.888929950469548
 30
0.0
 10
73.01684682554092
 20
7.344458801506747
 30
0.0
 10
75.3726097614832
 20
7.78182369396711
 30
0.0
 10
78.18467257518984
 20
8.061016196331485
 30
0.0
 10
80.0593747946508
 20
7.959743985340902
 30
0.0
 10
80.99672350478286
 20
7.909108009472939
 30
0.0
  0
SPLINE
  5
CF
330
1F
100
AcDbEntity
  8
0
  6
Continuous
 62
     1
370
    25
100
AcDbSpline
210
0.0
220
0.0
230
1.0
 70
     8
 71
     3
 72
    20
 73
    16
 74
     0
 42
0.000000001
 43
0.00000001
 40
0.0
 40
0.0
 40
0.0
 40
0.0
 40
0.2499999999999992
 40
0.2499999999999992
 40
0.3749999999999994
 40
0.3749999999999994
 40
0.4999999999999997
 40
0.4999999999999997
 40
0.6249999999999998
 40
0.6249999999999998
 40
0.7499999999999999
 40
0.7499999999999999
 40
0.8749999999999999
 40
0.8749999999999999
 40
1.0
 40
1.0
 40
1.0
 40
1.0
 10
80.99672350478289
 20
7.909108009472952
 30
0.0
 10
80.99966505198196
 20
7.413100832431162
 30
0.0
 10
80.95239375729004
 20
6.927723577167952
 30
0.0
 10
80.78145342910499
 20
6.220834489490258
 30
0.0
 10
80.70640116497742
 20
5.986906706860469
 30
0.0
 10
80.52287088977302
 20
5.547875627028887
 30
0.0
 10
80.41421349725762
 20
5.340637516351548
 30
0.0
 10
80.15958373356872
 20
4.953282127139603
 30
0.0
 10
80.01561625912308
 20
4.777003447864915
 30
0.0
 10
79.70285223432518
 20
4.467865028908149
 30
0.0
 10
79.53121629518985
 20
4.332295677425326
 30
0.0
 10
79.1691840905797
 20
4.107026517678909
 30
0.0
 10
78.98095212259632
 20
4.018045592823291
 30
0.0
 10
78.5915274572868
 20
3.882569098898115
 30
0.0
 10
78.3898304053771
 20
3.836445033137183
 30
0.0
 10
78.18880970275947
 20
3.811190297240513
 30
0.0
  0
SPLINE
  5
D0
330
1F
100
AcDbEntity
  8
0
  6
Continuous
 62
     1
370
    25
100
AcDbSpline
210
0.0
220
0.0
230
1.0
 70
     8
 71
     3
 72
     8
 73
     4
 74
     0
 42
0.000000001
 43
0.00000001
 40
0.0
 40
0.0
 40
0.0
 40
0.0
 40
1.0
 40
1.0
 40
1.0
 40
1.0
 10
82.0
 20
1.954277833643305
 30
0.0
 10
80.66373915393409
 20
2.676629013086652
 30
0.0
 10
79.40235313831805
 20
3.281456547503824
 30
0.0
 10
78.18880970275941
 20
3.811190297240505
 30
0.0
  0
LINE
  5
D1
330
1F
100
AcDbEntity
  8
0
  6
Continuous
 62
     1
370
    25
100
AcDbLine
 10
82.0
 20
1.778542168559706
 30
0.0
 11
82.0
 21
1.954277833643305
 31
0.0
  0
LINE
  5
D2
330
1F
100
AcDbEntity
  8
0
  6
Continuous
 62
     4
370
    25
100
AcDbLine
 10
11.99999999999999
 20
0.92624162529344
 30
0.0
 11
11.99999999999999
 21
4.267755634439614
 31
0.0
  0
LINE
  5
D3
330
1F
100
AcDbEntity
  8
0
  6
Continuous
 62
     1
370
    25
100
AcDbLine
 10
82.0
 20
7.984359711335661
 30
0.0
 11
82.0
 21
8.000000000000009
 31
0.0
  0
ELLIPSE
  5
D4
330
1F
100
AcDbEntity
  8
0
  6
Continuous
 62
     1
370
    25
100
AcDbEllipse
 10
82.71407400337107
 20
-0.000000000000005
 30
0.0
 11
11.42518405393689
 21
-5.350968460038310E-17
 31
0.0
210
0.0
220
0.0
230
1.0
 40
0.7002075382097124
 41
1.633337088591389
 42
1.721680906384341
  0
LINE
  5
D5
330
1F
100
AcDbEntity
  8
0
  6
Continuous
 62
     1
370
    25
100
AcDbLine
 10
82.0
 20
-0.5000000000000006
 30
0.0
 11
82.0
 21
-5.869334219275758
 31
0.0
  0
LINE
  5
D6
330
1F
100
AcDbEntity
  8
0
  6
Continuous
 62
     1
370
    25
100
AcDbLine
 10
82.0
 20
1.954277833643305
 30
0.0
 11
82.0
 21
7.984359711335661
 31
0.0
  0
LINE
  5
D7
330
1F
100
AcDbEntity
  8
중심선
100
AcDbLine
 10
-71.0
 20
-0.0000000000000102
 30
0.0
 11
89.0
 21
0.0000000000000094
 31
0.0
  0
CIRCLE
  5
D8
330
1F
100
AcDbEntity
  8
해칭선
100
AcDbCircle
 10
0.0003515434851432
 20
-0.0000000000000043
 30
0.0
 40
2.999999999999999
  0
INSERT
  5
D9
330
1F
100
AcDbEntity
  8
0
  6
Continuous
 62
     7
100
AcDbBlockReference
 66
     1
  2
블럭10
 10
-7.440099248941767
 20
-52.04717430164393
 30
0.0
  0
ATTRIB
  5
DA
330
D9
100
AcDbEntity
  8
FORMAT
 62
     2
100
AcDbText
 10
-28.29834678053431
 20
-49.97180738881174
 30
0.0
 40
4.233333333333333
  1
SEME7216070150E [ 4 FLUTE ]
 41
0.75
  7
SLDTEXTSTYLE0
 11
-28.29834678053431
 21
-52.08847405547841
 31
0.0
100
AcDbAttribute
  2
AUTOATTR0
 70
     0
 74
     1
  0
SEQEND
  5
DB
330
D9
100
AcDbEntity
  8
0
  6
Continuous
 62
     7
  0
HATCH
  5
DC
330
1F
100
AcDbEntity
  8
중심선
100
AcDbHatch
 10
0.0
 20
0.0
 30
0.0
210
0.0
220
0.0
230
1.0
  2
SOLID
 70
     1
 71
     0
 91
        1
 92
        0
 93
        4
 72
     1
 10
-1.725189944560918
 20
-35.8
 11
-5.1714651883982
 21
-35.8
 72
     1
 10
-5.1714651883982
 20
-35.8
 11
-7.299695047602222
 21
-38.33632558057259
 72
     1
 10
-7.299695047602222
 20
-38.33632558057259
 11
-3.853386718651791
 21
-38.3362861512701
 72
     1
 10
-3.853386718651791
 20
-38.3362861512701
 11
-1.725189944560918
 21
-35.8
 97
        0
 75
     0
 76
     1
 98
        1
 10
0.0
 20
0.0
  0
HATCH
  5
DD
330
1F
100
AcDbEntity
  8
중심선
100
AcDbHatch
 10
0.0
 20
0.0
 30
0.0
210
0.0
220
0.0
230
1.0
  2
SOLID
 70
     1
 71
     0
 91
        1
 92
        0
 93
        4
 72
     1
 10
3.287574046475034
 20
-35.80000000000003
 11
-0.158701197362221
 21
-35.79999999999997
 72
     1
 10
-0.158701197362221
 20
-35.79999999999997
 11
-4.689839205719638
 21
-41.20000000000002
 72
     1
 10
-4.689839205719637
 20
-41.20000000000002
 11
-1.243563961882355
 21
-41.20000000000002
 72
     1
 10
-1.243563961882355
 20
-41.20000000000002
 11
3.287574046475033
 21
-35.80000000000003
 97
        0
 75
     0
 76
     1
 98
        1
 10
0.0
 20
0.0
  0
HATCH
  5
DE
330
1F
100
AcDbEntity
  8
중심선
100
AcDbHatch
 10
0.0
 20
0.0
 30
0.0
210
0.0
220
0.0
230
1.0
  2
SOLID
 70
     1
 71
     0
 91
        1
 92
        0
 93
        4
 72
     1
 10
8.30033803751093
 20
-35.79999999999997
 11
4.854062793673869
 21
-35.79999999999997
 72
     1
 10
4.854062793673869
 20
-35.79999999999997
 11
-2.194374108215436
 21
-44.20000000000002
 72
     1
 10
-2.194374108215436
 20
-44.20000000000002
 11
1.251901135621847
 21
-44.20000000000002
 72
     1
 10
1.251901135621847
 20
-44.20000000000002
 11
8.30033803751093
 21
-35.79999999999997
 97
        0
 75
     0
 76
     1
 98
        1
 10
0.0
 20
0.0
  0
HATCH
  5
DF
330
1F
100
AcDbEntity
  8
중심선
100
AcDbHatch
 10
0.0
 20
0.0
 30
0.0
210
0.0
220
0.0
230
1.0
  2
SOLID
 70
     1
 71
     0
 91
        1
 92
        0
 93
        6
 72
     3
 10
13.10022846852313
 20
-40.00000000005127
 11
3.960054785062284
 21
1.540850780301639E-10
 40
0.3939339440162633
 50
17.09539180608433
 51
320.0019657685087
 73
     0
 72
     1
 10
14.7832281242237
 20
-38.58789400463836
 11
17.08852999792476
 21
-36.6535672945904
 72
     3
 10
13.10022846847028
 20
-40.00000000000015
 11
6.600054785286829
 21
-1.249000902703301E-13
 40
0.6363583540795982
 50
39.9987384933739
 51
368.4976242363725
 73
     1
 72
     1
 10
19.52556096037089
 20
-39.03999999993002
 11
11.7802957753062
 21
-39.03999999993002
 72
     1
 10
11.7802957753062
 20
-39.03999999993002
 11
11.78027073086027
 21
-40.95999999992991
 72
     1
 10
11.78027073086027
 20
-40.95999999992991
 11
16.22165050033231
 21
-40.95999999992988
 97
        0
 75
     0
 76
     1
 98
        1
 10
0.0
 20
0.0
  0
DIMENSION
  5
E0
330
1F
100
AcDbEntity
  8
치수문자_일반주서
100
AcDbDimension
  2
_D
 10
95.14108476064447
 20
8.000000000000057
 30
0.0
 11
95.14108476064443
 21
18.54150000000006
 31
0.0
 70
   160
  1
%%c<>
 71
     2
 42
16.00000000000002
 52
-270.0
  3
SLDDIMSTYLE0
100
AcDbAlignedDimension
 13
82.0
 23
-8.000000000000018
 33
0.0
 14
82.0
 24
8.000000000000007
 34
0.0
 50
90.0000000000002
100
AcDbRotatedDimension
  0
DIMENSION
  5
EE
330
1F
100
AcDbEntity
  8
치수문자_일반주서
100
AcDbDimension
  2
_D_1
 10
81.99999999999999
 20
25.38913260158163
 30
0.0
 11
6.999999999999999
 21
25.38913260158163
 31
0.0
 70
   160
  1
<>
 71
     2
 42
150.0
  3
SLDDIMSTYLE1
100
AcDbAlignedDimension
 13
-67.99999999999999
 23
7.499999999999983
 33
0.0
 14
82.0
 24
8.000000000000002
 34
0.0
 50
-0.0000000000000027
100
AcDbRotatedDimension
  0
DIMENSION
  5
F9
330
1F
100
AcDbEntity
  8
치수문자_일반주서
100
AcDbDimension
  2
_D_2
 10
-80.18296276744006
 20
-8.00000000000006
 30
0.0
 11
-80.18296276744016
 21
18.54149999999996
 31
0.0
 70
   160
  1
%%c<>
 71
     2
 42
16.00000000000001
 52
-270.0
  3
SLDDIMSTYLE2
100
AcDbAlignedDimension
 13
-67.49999999999999
 23
8.000000000000002
 33
0.0
 14
-67.49999999999999
 24
-8.000000000000012
 34
0.0
 50
90.0000000000002
100
AcDbRotatedDimension
  0
DIMENSION
  5
107
330
1F
100
AcDbEntity
  8
치수문자_일반주서
100
AcDbDimension
  2
_D_3
 10
82.0
 20
18.82173021490883
 30
0.0
 11
46.99999999999999
 21
18.82173021490883
 31
0.0
 70
   160
  1
<>
 71
     2
 42
70.00000000000001
  3
SLDDIMSTYLE1
100
AcDbAlignedDimension
 13
11.99999999999999
 23
7.975811912321177
 33
0.0
 14
82.0
 24
8.000000000000002
 34
0.0
 50
-0.0000000000000029
100
AcDbRotatedDimension
  0
INSERT
  5
117
330
1F
100
AcDbEntity
  8
해칭선
100
AcDbBlockReference
  2
SW_DOWELSYMBOL_0
 10
0.0003515434851432
 20
-0.0000000000000043
 30
0.0
  0
ENDSEC
  0
SECTION
  2
OBJECTS
  0
DICTIONARY
  5
C
330
0
100
AcDbDictionary
281
     1
  3
ACAD_GROUP
350
D
  3
ACAD_IMAGE_VARS
350
13B
  3
ACAD_LAYOUT
350
1A
  3
ACAD_MLINESTYLE
350
17
  3
ACAD_PLOTSETTINGS
350
19
  3
ACAD_PLOTSTYLENAME
350
E
  3
ACAD_SCALELIST
350
47
  3
APPDATA
350
139
  3
DWGPROPS
350
14C
  0
DICTIONARY
  5
D
102
{ACAD_REACTORS
330
C
102
}
330
C
100
AcDbDictionary
281
     1
  0
RASTERVARIABLES
  5
13B
102
{ACAD_REACTORS
330
C
102
}
330
C
100
AcDbRasterVariables
 90
        0
 70
     1
 71
     1
 72
     1
  0
DICTIONARY
  5
1A
102
{ACAD_REACTORS
330
C
102
}
330
C
100
AcDbDictionary
281
     1
  3
Layout1
350
1E
  3
Layout2
350
26
  3
Model
350
22
  0
DICTIONARY
  5
17
102
{ACAD_REACTORS
330
C
102
}
330
C
100
AcDbDictionary
281
     1
  3
Standard
350
18
  0
DICTIONARY
  5
19
102
{ACAD_REACTORS
330
C
102
}
330
C
100
AcDbDictionary
281
     1
  0
ACDBDICTIONARYWDFLT
  5
E
102
{ACAD_REACTORS
330
C
102
}
330
C
100
AcDbDictionary
281
     1
  3
Normal
350
F
100
AcDbDictionaryWithDefault
340
F
  0
DICTIONARY
  5
47
102
{ACAD_REACTORS
330
C
102
}
330
C
100
AcDbDictionary
281
     1
  3
A0
350
48
  3
A1
350
49
  3
A2
350
4A
  3
A3
350
4B
  3
A4
350
4C
  3
A5
350
4D
  3
A6
350
4E
  3
A7
350
4F
  3
A8
350
50
  3
A9
350
51
  3
B0
350
52
  3
B1
350
53
  3
B2
350
54
  3
B3
350
55
  3
B4
350
56
  3
B5
350
57
  3
B6
350
58
  3
B7
350
59
  3
B8
350
5A
  3
B9
350
5B
  3
C0
350
5C
  3
C1
350
5D
  3
C2
350
5E
  3
C3
350
5F
  3
C4
350
60
  3
C5
350
61
  3
C6
350
62
  3
C7
350
63
  3
C8
350
64
  3
C9
350
65
  3
D0
350
66
  3
D1
350
67
  3
D2
350
68
  0
DICTIONARY
  5
139
102
{ACAD_REACTORS
330
C
102
}
330
C
100
AcDbDictionary
281
     1
  0
XRECORD
  5
14C
102
{ACAD_REACTORS
330
C
102
}
330
C
100
AcDbXrecord
280
     1
  1
DWGPROPS COOKIE
  2

  3

  4

  6

  7

  8
12014102
  9

300
=
301
=
302
=
303
=
304
=
305
=
306
=
307
=
308
=
309
=
 40
0.0
 41
2458260.208830104
 42
2458268.286110324
  1

 90
        0
  0
LAYOUT
  5
1E
102
{ACAD_REACTORS
330
1A
102
}
330
1A
100
AcDbPlotSettings
  1

  2
none_device
  4

  6

 40
0.0
 41
0.0
 42
0.0
 43
0.0
 44
0.0
 45
0.0
 46
0.0
 47
0.0
 48
0.0
 49
0.0
140
0.0
141
0.0
142
1.0
143
1.0
 70
   688
 72
     1
 73
     0
 74
     5
  7

 75
    16
147
1.0
148
0.0
149
0.0
100
AcDbLayout
  1
Layout1
 70
     1
 71
     1
 10
0.0
 20
0.0
 11
420.0
 21
297.0
 12
0.0
 22
0.0
 32
0.0
 14
1.000000000000000E+20
 24
1.000000000000000E+20
 34
1.000000000000000E+20
 15
-1.000000000000000E+20
 25
-1.000000000000000E+20
 35
-1.000000000000000E+20
146
0.0
 13
0.0
 23
0.0
 33
0.0
 16
1.0
 26
0.0
 36
0.0
 17
0.0
 27
1.0
 37
0.0
 76
     0
330
1B
  0
LAYOUT
  5
26
102
{ACAD_REACTORS
330
1A
102
}
330
1A
100
AcDbPlotSettings
  1

  2
none_device
  4

  6

 40
0.0
 41
0.0
 42
0.0
 43
0.0
 44
0.0
 45
0.0
 46
0.0
 47
0.0
 48
0.0
 49
0.0
140
0.0
141
0.0
142
1.0
143
1.0
 70
   688
 72
     1
 73
     0
 74
     5
  7

 75
    16
147
1.0
148
0.0
149
0.0
100
AcDbLayout
  1
Layout2
 70
     1
 71
     2
 10
0.0
 20
0.0
 11
0.0
 21
0.0
 12
0.0
 22
0.0
 32
0.0
 14
0.0
 24
0.0
 34
0.0
 15
0.0
 25
0.0
 35
0.0
146
0.0
 13
0.0
 23
0.0
 33
0.0
 16
1.0
 26
0.0
 36
0.0
 17
0.0
 27
1.0
 37
0.0
 76
     0
330
23
  0
LAYOUT
  5
22
102
{ACAD_REACTORS
330
1A
102
}
330
1A
100
AcDbPlotSettings
  1

  2
none_device
  4
ANSI_A_(11.00_x_8.50_Inches)
  6

 40
6.35
 41
19.05
 42
6.35000508
 43
19.05000254
 44
279.4
 45
215.9
 46
124.5613397042431
 47
104.4724395649713
 48
0.0
 49
0.0
140
0.0
141
0.0
142
0.0589085814011888
143
1.0
 70
  1696
 72
     0
 73
     0
 74
     0
  7

 75
     0
147
0.0235690232323232
148
0.0
149
0.0
100
AcDbLayout
  1
Model
 70
     1
 71
     0
 10
0.0
 20
0.0
 11
420.0
 21
297.0
 12
0.0
 22
0.0
 32
0.0
 14
-84.55796276744017
 24
-49.97180738881174
 34
0.0
 15
95.69141809397787
 25
29.76413260158164
 35
0.0
146
0.0
 13
0.0
 23
0.0
 33
0.0
 16
1.0
 26
0.0
 36
0.0
 17
0.0
 27
1.0
 37
0.0
 76
     0
330
1F
331
29
  0
MLINESTYLE
  5
18
102
{ACAD_REACTORS
330
17
102
}
330
17
100
AcDbMlineStyle
  2
Standard
 70
     0
  3

 62
   256
 51
90.0
 52
90.0
 71
     2
 49
0.5
 62
   256
  6
BYLAYER
 49
-0.5
 62
   256
  6
BYLAYER
  0
ACDBPLACEHOLDER
  5
F
102
{ACAD_REACTORS
330
E
102
}
330
E
  0
SCALE
  5
48
102
{ACAD_REACTORS
330
47
102
}
330
47
100
AcDbScale
 70
     0
300
1:1
140
1.0
141
1.0
290
     1
  0
SCALE
  5
49
102
{ACAD_REACTORS
330
47
102
}
330
47
100
AcDbScale
 70
     0
300
1:2
140
1.0
141
2.0
290
     0
  0
SCALE
  5
4A
102
{ACAD_REACTORS
330
47
102
}
330
47
100
AcDbScale
 70
     0
300
1:4
140
1.0
141
4.0
290
     0
  0
SCALE
  5
4B
102
{ACAD_REACTORS
330
47
102
}
330
47
100
AcDbScale
 70
     0
300
1:5
140
1.0
141
5.0
290
     0
  0
SCALE
  5
4C
102
{ACAD_REACTORS
330
47
102
}
330
47
100
AcDbScale
 70
     0
300
1:8
140
1.0
141
8.0
290
     0
  0
SCALE
  5
4D
102
{ACAD_REACTORS
330
47
102
}
330
47
100
AcDbScale
 70
     0
300
1:10
140
1.0
141
10.0
290
     0
  0
SCALE
  5
4E
102
{ACAD_REACTORS
330
47
102
}
330
47
100
AcDbScale
 70
     0
300
1:16
140
1.0
141
16.0
290
     0
  0
SCALE
  5
4F
102
{ACAD_REACTORS
330
47
102
}
330
47
100
AcDbScale
 70
     0
300
1:20
140
1.0
141
20.0
290
     0
  0
SCALE
  5
50
102
{ACAD_REACTORS
330
47
102
}
330
47
100
AcDbScale
 70
     0
300
1:30
140
1.0
141
30.0
290
     0
  0
SCALE
  5
51
102
{ACAD_REACTORS
330
47
102
}
330
47
100
AcDbScale
 70
     0
300
1:40
140
1.0
141
40.0
290
     0
  0
SCALE
  5
52
102
{ACAD_REACTORS
330
47
102
}
330
47
100
AcDbScale
 70
     0
300
1:50
140
1.0
141
50.0
290
     0
  0
SCALE
  5
53
102
{ACAD_REACTORS
330
47
102
}
330
47
100
AcDbScale
 70
     0
300
1:100
140
1.0
141
100.0
290
     0
  0
SCALE
  5
54
102
{ACAD_REACTORS
330
47
102
}
330
47
100
AcDbScale
 70
     0
300
2:1
140
2.0
141
1.0
290
     0
  0
SCALE
  5
55
102
{ACAD_REACTORS
330
47
102
}
330
47
100
AcDbScale
 70
     0
300
4:1
140
4.0
141
1.0
290
     0
  0
SCALE
  5
56
102
{ACAD_REACTORS
330
47
102
}
330
47
100
AcDbScale
 70
     0
300
8:1
140
8.0
141
1.0
290
     0
  0
SCALE
  5
57
102
{ACAD_REACTORS
330
47
102
}
330
47
100
AcDbScale
 70
     0
300
10:1
140
10.0
141
1.0
290
     0
  0
SCALE
  5
58
102
{ACAD_REACTORS
330
47
102
}
330
47
100
AcDbScale
 70
     0
300
100:1
140
100.0
141
1.0
290
     0
  0
SCALE
  5
59
102
{ACAD_REACTORS
330
47
102
}
330
47
100
AcDbScale
 70
     0
300
1/128" = 1'-0"
140
0.0078125
141
12.0
290
     0
  0
SCALE
  5
5A
102
{ACAD_REACTORS
330
47
102
}
330
47
100
AcDbScale
 70
     0
300
1/64" = 1'-0"
140
0.015625
141
12.0
290
     0
  0
SCALE
  5
5B
102
{ACAD_REACTORS
330
47
102
}
330
47
100
AcDbScale
 70
     0
300
1/32" = 1'-0"
140
0.03125
141
12.0
290
     0
  0
SCALE
  5
5C
102
{ACAD_REACTORS
330
47
102
}
330
47
100
AcDbScale
 70
     0
300
1/16" = 1'-0"
140
0.0625
141
12.0
290
     0
  0
SCALE
  5
5D
102
{ACAD_REACTORS
330
47
102
}
330
47
100
AcDbScale
 70
     0
300
3/32" = 1'-0"
140
0.09375
141
12.0
290
     0
  0
SCALE
  5
5E
102
{ACAD_REACTORS
330
47
102
}
330
47
100
AcDbScale
 70
     0
300
1/8" = 1'-0"
140
0.125
141
12.0
290
     0
  0
SCALE
  5
5F
102
{ACAD_REACTORS
330
47
102
}
330
47
100
AcDbScale
 70
     0
300
3/16" = 1'-0"
140
0.1875
141
12.0
290
     0
  0
SCALE
  5
60
102
{ACAD_REACTORS
330
47
102
}
330
47
100
AcDbScale
 70
     0
300
1/4" = 1'-0"
140
0.25
141
12.0
290
     0
  0
SCALE
  5
61
102
{ACAD_REACTORS
330
47
102
}
330
47
100
AcDbScale
 70
     0
300
3/8" = 1'-0"
140
0.375
141
12.0
290
     0
  0
SCALE
  5
62
102
{ACAD_REACTORS
330
47
102
}
330
47
100
AcDbScale
 70
     0
300
1/2" = 1'-0"
140
0.5
141
12.0
290
     0
  0
SCALE
  5
63
102
{ACAD_REACTORS
330
47
102
}
330
47
100
AcDbScale
 70
     0
300
3/4" = 1'-0"
140
0.75
141
12.0
290
     0
  0
SCALE
  5
64
102
{ACAD_REACTORS
330
47
102
}
330
47
100
AcDbScale
 70
     0
300
1" = 1'-0"
140
1.0
141
12.0
290
     0
  0
SCALE
  5
65
102
{ACAD_REACTORS
330
47
102
}
330
47
100
AcDbScale
 70
     0
300
1-1/2" = 1'-0"
140
1.5
141
12.0
290
     0
  0
SCALE
  5
66
102
{ACAD_REACTORS
330
47
102
}
330
47
100
AcDbScale
 70
     0
300
3" = 1'-0"
140
3.0
141
12.0
290
     0
  0
SCALE
  5
67
102
{ACAD_REACTORS
330
47
102
}
330
47
100
AcDbScale
 70
     0
300
6" = 1'-0"
140
6.0
141
12.0
290
     0
  0
SCALE
  5
68
102
{ACAD_REACTORS
330
47
102
}
330
47
100
AcDbScale
 70
     0
300
1'-0" = 1'-0"
140
12.0
141
12.0
290
     0
  0
ENDSEC
  0
EOF
