  0
SECTION
  2
HEADER
  9
$ACADVER
  1
AC1015
  9
$ACADMAINTVER
 70
     6
  9
$DWGCODEPAGE
  3
ANSI_949
  9
$INSBASE
 10
0.0
 20
0.0
 30
0.0
  9
$EXTMIN
 10
-64.54877265952888
 20
-49.97180738881174
 30
0.0
  9
$EXTMAX
 10
87.98640442490313
 20
29.76413260158164
 30
0.0
  9
$LIMMIN
 10
0.0
 20
0.0
  9
$LIMMAX
 10
420.0
 20
297.0
  9
$ORTHOMODE
 70
     0
  9
$REGENMODE
 70
     1
  9
$FILLMODE
 70
     1
  9
$QTEXTMODE
 70
     0
  9
$MIRRTEXT
 70
     1
  9
$LTSCALE
 40
1.0
  9
$ATTMODE
 70
     1
  9
$TEXTSIZE
 40
3.5
  9
$TRACEWID
 40
1.0
  9
$TEXTSTYLE
  7
Standard
  9
$CLAYER
  8
0
  9
$CELTYPE
  6
ByLayer
  9
$CECOLOR
 62
   256
  9
$CELTSCALE
 40
1.0
  9
$DISPSILH
 70
     0
  9
$DIMSCALE
 40
1.0
  9
$DIMASZ
 40
3.302
  9
$DIMEXO
 40
1.0
  9
$DIMDLI
 40
3.75
  9
$DIMRND
 40
0.0
  9
$DIMDLE
 40
0.0
  9
$DIMEXE
 40
1.0
  9
$DIMTP
 40
0.0
  9
$DIMTM
 40
0.0
  9
$DIMTXT
 40
3.5
  9
$DIMCEN
 40
2.5
  9
$DIMTSZ
 40
0.0
  9
$DIMTOL
 70
     0
  9
$DIMLIM
 70
     0
  9
$DIMTIH
 70
     1
  9
$DIMTOH
 70
     1
  9
$DIMSE1
 70
     0
  9
$DIMSE2
 70
     0
  9
$DIMTAD
 70
     1
  9
$DIMZIN
 70
     0
  9
$DIMBLK
  1

  9
$DIMASO
 70
     1
  9
$DIMSHO
 70
     1
  9
$DIMPOST
  1

  9
$DIMAPOST
  1

  9
$DIMALT
 70
     0
  9
$DIMALTD
 70
     3
  9
$DIMALTF
 40
0.0393700787401575
  9
$DIMLFAC
 40
1.0
  9
$DIMTOFL
 70
     1
  9
$DIMTVP
 40
0.0
  9
$DIMTIX
 70
     0
  9
$DIMSOXD
 70
     0
  9
$DIMSAH
 70
     0
  9
$DIMBLK1
  1

  9
$DIMBLK2
  1

  9
$DIMSTYLE
  2
ISO-25
  9
$DIMCLRD
 70
     0
  9
$DIMCLRE
 70
     0
  9
$DIMCLRT
 70
     0
  9
$DIMTFAC
 40
1.0
  9
$DIMGAP
 40
1.524
  9
$DIMJUST
 70
     0
  9
$DIMSD1
 70
     0
  9
$DIMSD2
 70
     0
  9
$DIMTOLJ
 70
     0
  9
$DIMTZIN
 70
     0
  9
$DIMALTZ
 70
     0
  9
$DIMALTTZ
 70
     0
  9
$DIMUPT
 70
     0
  9
$DIMDEC
 70
     2
  9
$DIMTDEC
 70
     2
  9
$DIMALTU
 70
     2
  9
$DIMALTTD
 70
     3
  9
$DIMTXSTY
  7
Standard
  9
$DIMAUNIT
 70
     0
  9
$DIMADEC
 70
     2
  9
$DIMALTRND
 40
0.0
  9
$DIMAZIN
 70
     0
  9
$DIMDSEP
 70
    44
  9
$DIMATFIT
 70
     3
  9
$DIMFRAC
 70
     0
  9
$DIMLDRBLK
  1

  9
$DIMLUNIT
 70
     2
  9
$DIMLWD
 70
    -2
  9
$DIMLWE
 70
    -2
  9
$DIMTMOVE
 70
     0
  9
$LUNITS
 70
     2
  9
$LUPREC
 70
     2
  9
$SKETCHINC
 40
1.0
  9
$FILLETRAD
 40
10.0
  9
$AUNITS
 70
     0
  9
$AUPREC
 70
     2
  9
$MENU
  1
.
  9
$ELEVATION
 40
0.0
  9
$PELEVATION
 40
0.0
  9
$THICKNESS
 40
0.0
  9
$LIMCHECK
 70
     0
  9
$CHAMFERA
 40
0.0
  9
$CHAMFERB
 40
0.0
  9
$CHAMFERC
 40
0.0
  9
$CHAMFERD
 40
0.0
  9
$SKPOLY
 70
     0
  9
$TDCREATE
 40
2458260.583640879
  9
$TDUCREATE
 40
2458260.208640879
  9
$TDUPDATE
 40
2458268.594572141
  9
$TDUUPDATE
 40
2458268.219572141
  9
$TDINDWG
 40
0.0005083218
  9
$TDUSRTIMER
 40
2458268.219063877
  9
$USRTIMER
 70
     1
  9
$ANGBASE
 50
0.0
  9
$ANGDIR
 70
     0
  9
$PDMODE
 70
     0
  9
$PDSIZE
 40
-1.0
  9
$PLINEWID
 40
0.0
  9
$SPLFRAME
 70
     0
  9
$SPLINETYPE
 70
     6
  9
$SPLINESEGS
 70
     8
  9
$HANDSEED
  5
148
  9
$SURFTAB1
 70
     6
  9
$SURFTAB2
 70
     6
  9
$SURFTYPE
 70
     6
  9
$SURFU
 70
     6
  9
$SURFV
 70
     6
  9
$UCSBASE
  2

  9
$UCSNAME
  2

  9
$UCSORG
 10
0.0
 20
0.0
 30
0.0
  9
$UCSXDIR
 10
1.0
 20
0.0
 30
0.0
  9
$UCSYDIR
 10
0.0
 20
1.0
 30
0.0
  9
$UCSORTHOREF
  2

  9
$UCSORTHOVIEW
 70
     0
  9
$UCSORGTOP
 10
0.0
 20
0.0
 30
0.0
  9
$UCSORGBOTTOM
 10
0.0
 20
0.0
 30
0.0
  9
$UCSORGLEFT
 10
0.0
 20
0.0
 30
0.0
  9
$UCSORGRIGHT
 10
0.0
 20
0.0
 30
0.0
  9
$UCSORGFRONT
 10
0.0
 20
0.0
 30
0.0
  9
$UCSORGBACK
 10
0.0
 20
0.0
 30
0.0
  9
$PUCSBASE
  2

  9
$PUCSNAME
  2

  9
$PUCSORG
 10
0.0
 20
0.0
 30
0.0
  9
$PUCSXDIR
 10
1.0
 20
0.0
 30
0.0
  9
$PUCSYDIR
 10
0.0
 20
1.0
 30
0.0
  9
$PUCSORTHOREF
  2

  9
$PUCSORTHOVIEW
 70
     0
  9
$PUCSORGTOP
 10
0.0
 20
0.0
 30
0.0
  9
$PUCSORGBOTTOM
 10
0.0
 20
0.0
 30
0.0
  9
$PUCSORGLEFT
 10
0.0
 20
0.0
 30
0.0
  9
$PUCSORGRIGHT
 10
0.0
 20
0.0
 30
0.0
  9
$PUCSORGFRONT
 10
0.0
 20
0.0
 30
0.0
  9
$PUCSORGBACK
 10
0.0
 20
0.0
 30
0.0
  9
$USERI1
 70
     0
  9
$USERI2
 70
     0
  9
$USERI3
 70
     0
  9
$USERI4
 70
     0
  9
$USERI5
 70
     0
  9
$USERR1
 40
0.0
  9
$USERR2
 40
0.0
  9
$USERR3
 40
0.0
  9
$USERR4
 40
0.0
  9
$USERR5
 40
0.0
  9
$WORLDVIEW
 70
     1
  9
$SHADEDGE
 70
     3
  9
$SHADEDIF
 70
    70
  9
$TILEMODE
 70
     1
  9
$MAXACTVP
 70
    64
  9
$PINSBASE
 10
0.0
 20
0.0
 30
0.0
  9
$PLIMCHECK
 70
     0
  9
$PEXTMIN
 10
1.000000000000000E+20
 20
1.000000000000000E+20
 30
1.000000000000000E+20
  9
$PEXTMAX
 10
-1.000000000000000E+20
 20
-1.000000000000000E+20
 30
-1.000000000000000E+20
  9
$PLIMMIN
 10
0.0
 20
0.0
  9
$PLIMMAX
 10
0.0
 20
0.0
  9
$UNITMODE
 70
     0
  9
$VISRETAIN
 70
     1
  9
$PLINEGEN
 70
     0
  9
$PSLTSCALE
 70
     1
  9
$TREEDEPTH
 70
  3020
  9
$CMLSTYLE
  2
Standard
  9
$CMLJUST
 70
     0
  9
$CMLSCALE
 40
20.0
  9
$PROXYGRAPHICS
 70
     1
  9
$MEASUREMENT
 70
     1
  9
$CELWEIGHT
370
    -1
  9
$ENDCAPS
280
     0
  9
$JOINSTYLE
280
     0
  9
$LWDISPLAY
290
     1
  9
$INSUNITS
 70
     4
  9
$HYPERLINKBASE
  1

  9
$STYLESHEET
  1

  9
$XEDIT
290
     1
  9
$CEPSNTYPE
380
     0
  9
$PSTYLEMODE
290
     1
  9
$FINGERPRINTGUID
  2
{677CF9C3-619E-4263-AFF3-32093783CCBA}
  9
$VERSIONGUID
  2
{FAEB1C32-E019-11D5-929B-00C0DF256EC4}
  9
$EXTNAMES
290
     1
  9
$PSVPSCALE
 40
0.0
  9
$OLESTARTUP
290
     0
  0
ENDSEC
  0
SECTION
  2
CLASSES
  0
CLASS
  1
ACDBDICTIONARYWDFLT
  2
AcDbDictionaryWithDefault
  3
ObjectDBX Classes
 90
        0
280
     0
281
     0
  0
CLASS
  1
VISUALSTYLE
  2
AcDbVisualStyle
  3
ObjectDBX Classes
 90
     4095
280
     0
281
     0
  0
CLASS
  1
MATERIAL
  2
AcDbMaterial
  3
ObjectDBX Classes
 90
     1153
280
     0
281
     0
  0
CLASS
  1
SCALE
  2
AcDbScale
  3
ObjectDBX Classes
 90
     1153
280
     0
281
     0
  0
CLASS
  1
TABLESTYLE
  2
AcDbTableStyle
  3
ObjectDBX Classes
 90
     4095
280
     0
281
     0
  0
CLASS
  1
MLEADERSTYLE
  2
AcDbMLeaderStyle
  3
ACDB_MLEADERSTYLE_CLASS
 90
     4095
280
     0
281
     0
  0
CLASS
  1
SUN
  2
AcDbSun
  3
SCENEOE
 90
     1153
280
     0
281
     0
  0
CLASS
  1
ACDBPLACEHOLDER
  2
AcDbPlaceHolder
  3
ObjectDBX Classes
 90
        0
280
     0
281
     0
  0
CLASS
  1
LAYOUT
  2
AcDbLayout
  3
ObjectDBX Classes
 90
        0
280
     0
281
     0
  0
CLASS
  1
RASTERVARIABLES
  2
AcDbRasterVariables
  3
ISM
 90
        0
280
     0
281
     0
  0
ENDSEC
  0
SECTION
  2
TABLES
  0
TABLE
  2
VPORT
  5
8
330
0
100
AcDbSymbolTable
 70
     1
  0
VPORT
  5
29
330
8
100
AcDbSymbolTableRecord
100
AcDbViewportTableRecord
  2
*Active
 70
     0
 10
0.0
 20
0.0
 11
1.0
 21
1.0
 12
11.71881588268712
 22
-10.10383739361505
 13
0.0
 23
0.0
 14
10.0
 24
10.0
 15
10.0
 25
10.0
 16
0.0
 26
0.0
 36
1.0
 17
0.0
 27
0.0
 37
0.0
 40
89.4676609246786
 41
1.739018087855297
 42
50.0
 43
0.0
 44
0.0
 50
0.0
 51
0.0
 71
    16
 72
  2000
 73
     1
 74
     3
 75
     0
 76
     0
 77
     0
 78
     0
281
     0
 65
     1
110
0.0
120
0.0
130
0.0
111
1.0
121
0.0
131
0.0
112
0.0
122
1.0
132
0.0
 79
     0
146
0.0
  0
ENDTAB
  0
TABLE
  2
LTYPE
  5
5
330
0
100
AcDbSymbolTable
 70
     6
  0
LTYPE
  5
14
330
5
100
AcDbSymbolTableRecord
100
AcDbLinetypeTableRecord
  2
ByBlock
 70
     0
  3

 72
    65
 73
     0
 40
0.0
  0
LTYPE
  5
15
330
5
100
AcDbSymbolTableRecord
100
AcDbLinetypeTableRecord
  2
ByLayer
 70
     0
  3

 72
    65
 73
     0
 40
0.0
  0
LTYPE
  5
16
330
5
100
AcDbSymbolTableRecord
100
AcDbLinetypeTableRecord
  2
Continuous
 70
     0
  3
Solid line
 72
    65
 73
     0
 40
0.0
  0
LTYPE
  5
6E
330
5
100
AcDbSymbolTableRecord
100
AcDbLinetypeTableRecord
  2
HIDDEN
 70
     0
  3
Hidden __ __ __ __ __ __ __ __ __ __ __ __ __ __
 72
    65
 73
     2
 40
1.905
 49
1.27
 74
     0
 49
-0.635
 74
     0
  0
LTYPE
  5
6F
330
5
100
AcDbSymbolTableRecord
100
AcDbLinetypeTableRecord
  2
PHANTOM
 70
     0
  3
Phantom ______  __  __  ______  __  __  ______
 72
    65
 73
     6
 40
12.7
 49
6.35
 74
     0
 49
-1.27
 74
     0
 49
1.27
 74
     0
 49
-1.27
 74
     0
 49
1.27
 74
     0
 49
-1.27
 74
     0
  0
LTYPE
  5
70
330
5
100
AcDbSymbolTableRecord
100
AcDbLinetypeTableRecord
  2
CENTER
 70
     0
  3
Center ____ _ ____ _ ____ _ ____ _ ____ _ ____
 72
    65
 73
     4
 40
10.16
 49
6.35
 74
     0
 49
-1.27
 74
     0
 49
1.27
 74
     0
 49
-1.27
 74
     0
  0
LTYPE
  5
71
330
5
100
AcDbSymbolTableRecord
100
AcDbLinetypeTableRecord
  2
CENTERX2
 70
     0
  3
Center (2x) ________  __  ________  __  _____
 72
    65
 73
     4
 40
20.32
 49
12.7
 74
     0
 49
-2.54
 74
     0
 49
2.54
 74
     0
 49
-2.54
 74
     0
  0
LTYPE
  5
72
330
5
100
AcDbSymbolTableRecord
100
AcDbLinetypeTableRecord
  2
DOT2
 70
     0
  3
Dot (.5x) ........................................
 72
    65
 73
     2
 40
0.635
 49
0.0
 74
     0
 49
-0.635
 74
     0
  0
ENDTAB
  0
TABLE
  2
LAYER
  5
2
330
0
100
AcDbSymbolTable
 70
    17
  0
LAYER
  5
10
330
2
100
AcDbSymbolTableRecord
100
AcDbLayerTableRecord
  2
0
 70
     0
 62
     7
  6
Continuous
370
    -3
390
F
  0
LAYER
  5
73
330
2
100
AcDbSymbolTableRecord
100
AcDbLayerTableRecord
  2
FORMAT
 70
     0
 62
     2
  6
Continuous
370
    -3
390
F
  0
LAYER
  5
74
330
2
100
AcDbSymbolTableRecord
100
AcDbLayerTableRecord
  2
외형선
 70
     0
 62
   100
  6
Continuous
370
    35
390
F
  0
LAYER
  5
75
330
2
100
AcDbSymbolTableRecord
100
AcDbLayerTableRecord
  2
숨은선
 70
     0
 62
     2
  6
HIDDEN
370
    25
390
F
  0
LAYER
  5
76
330
2
100
AcDbSymbolTableRecord
100
AcDbLayerTableRecord
  2
중심선
 70
     0
 62
     1
  6
CENTERX2
370
    -3
390
F
  0
LAYER
  5
77
330
2
100
AcDbSymbolTableRecord
100
AcDbLayerTableRecord
  2
파단선
 70
     0
 62
     4
  6
Continuous
370
    -3
390
F
  0
LAYER
  5
78
330
2
100
AcDbSymbolTableRecord
100
AcDbLayerTableRecord
  2
해칭선
 70
     0
 62
   100
  6
Continuous
370
    -3
390
F
  0
LAYER
  5
79
330
2
100
AcDbSymbolTableRecord
100
AcDbLayerTableRecord
  2
가는실선
 70
     0
 62
     4
  6
Continuous
370
    -3
390
F
  0
LAYER
  5
7A
330
2
100
AcDbSymbolTableRecord
100
AcDbLayerTableRecord
  2
치수_보조선
 70
     0
 62
     4
  6
Continuous
370
    -3
390
F
  0
LAYER
  5
7B
330
2
100
AcDbSymbolTableRecord
100
AcDbLayerTableRecord
  2
치수문자_일반주서
 70
     0
 62
     7
  6
Continuous
370
    25
390
F
  0
LAYER
  5
7C
330
2
100
AcDbSymbolTableRecord
100
AcDbLayerTableRecord
  2
개별주서
 70
     0
 62
   100
  6
Continuous
370
    35
390
F
  0
LAYER
  5
7D
330
2
100
AcDbSymbolTableRecord
100
AcDbLayerTableRecord
  2
중간선
 70
     0
 62
     2
  6
Continuous
370
    25
390
F
  0
LAYER
  5
7E
330
2
100
AcDbSymbolTableRecord
100
AcDbLayerTableRecord
  2
윤곽선
 70
     0
 62
     3
  6
Continuous
370
    50
390
F
  0
LAYER
  5
7F
330
2
100
AcDbSymbolTableRecord
100
AcDbLayerTableRecord
  2
중심마크
 70
     0
 62
   100
  6
Continuous
370
    35
390
F
  0
LAYER
  5
80
330
2
100
AcDbSymbolTableRecord
100
AcDbLayerTableRecord
  2
가상선
 70
     0
 62
     4
  6
PHANTOM
370
    -3
390
F
  0
LAYER
  5
81
330
2
100
AcDbSymbolTableRecord
100
AcDbLayerTableRecord
  2
특수지정선
 70
     0
 62
     5
  6
CENTERX2
370
    70
390
F
  0
LAYER
  5
138
330
2
100
AcDbSymbolTableRecord
100
AcDbLayerTableRecord
  2
Defpoints
 70
     0
 62
     7
  6
Continuous
290
     0
370
    -3
390
F
  0
ENDTAB
  0
TABLE
  2
STYLE
  5
3
330
0
100
AcDbSymbolTable
 70
     2
  0
STYLE
  5
11
330
3
100
AcDbSymbolTableRecord
100
AcDbTextStyleTableRecord
  2
Standard
 70
     0
 40
0.0
 41
1.0
 50
0.0
 71
     0
 42
3.5
  3
txt
  4

  0
STYLE
  5
97
330
3
100
AcDbSymbolTableRecord
100
AcDbTextStyleTableRecord
  2
SLDTEXTSTYLE0
 70
     0
 40
0.0
 41
0.75
 50
0.0
 71
     0
 42
3.5
  3
TXT
  4

  0
ENDTAB
  0
TABLE
  2
VIEW
  5
6
330
0
100
AcDbSymbolTable
 70
     0
  0
ENDTAB
  0
TABLE
  2
UCS
  5
7
330
0
100
AcDbSymbolTable
 70
     0
  0
ENDTAB
  0
TABLE
  2
APPID
  5
9
330
0
100
AcDbSymbolTable
 70
     1
  0
APPID
  5
12
330
9
100
AcDbSymbolTableRecord
100
AcDbRegAppTableRecord
  2
ACAD
 70
     0
  0
ENDTAB
  0
TABLE
  2
DIMSTYLE
  5
A
330
0
100
AcDbSymbolTable
 70
     4
100
AcDbDimStyleTable
  0
DIMSTYLE
105
27
330
A
100
AcDbSymbolTableRecord
100
AcDbDimStyleTableRecord
  2
ISO-25
 70
     0
 41
2.5
 42
0.625
 43
3.75
 44
1.25
 73
     0
 74
     0
 77
     1
 78
     8
140
2.5
141
2.5
143
0.03937007874016
147
0.625
171
     3
172
     1
178
     0
271
     2
272
     2
274
     3
278
    44
283
     0
284
     8
340
11
  0
DIMSTYLE
105
DD
102
{ACAD_REACTORS
330
DC
102
}
330
A
100
AcDbSymbolTableRecord
100
AcDbDimStyleTableRecord
  2
SLDDIMSTYLE0
 70
     0
 41
3.302
 44
0.0
 45
0.000000001
 73
     0
 74
     0
 77
     1
 78
    12
 79
     3
140
3.5
147
0.875
172
     1
173
     1
178
     0
271
     1
272
     1
276
     2
284
    12
289
     0
340
97
  0
DIMSTYLE
105
EB
102
{ACAD_REACTORS
330
EA
330
103
102
}
330
A
100
AcDbSymbolTableRecord
100
AcDbDimStyleTableRecord
  2
SLDDIMSTYLE1
 70
     0
 41
3.302
 44
0.0
 45
0.000000001
 73
     0
 74
     0
 77
     1
 78
    12
 79
     3
140
3.5
147
0.875
173
     1
178
     0
271
     2
272
     2
276
     2
284
    12
340
97
  0
DIMSTYLE
105
F6
102
{ACAD_REACTORS
330
F5
102
}
330
A
100
AcDbSymbolTableRecord
100
AcDbDimStyleTableRecord
  2
SLDDIMSTYLE2
 70
     0
 41
3.302
 44
0.0
 45
0.000000001
 73
     0
 74
     0
 77
     1
 78
    12
 79
     3
140
3.5
147
0.875
172
     1
173
     1
178
     0
271
     2
272
     2
276
     2
284
    12
289
     0
340
97
  0
ENDTAB
  0
TABLE
  2
BLOCK_RECORD
  5
1
330
0
100
AcDbSymbolTable
 70
     7
  0
BLOCK_RECORD
  5
1F
330
1
100
AcDbSymbolTableRecord
100
AcDbBlockTableRecord
  2
*Model_Space
340
22
  0
BLOCK_RECORD
  5
1B
330
1
100
AcDbSymbolTableRecord
100
AcDbBlockTableRecord
  2
*Paper_Space
340
1E
  0
BLOCK_RECORD
  5
23
330
1
100
AcDbSymbolTableRecord
100
AcDbBlockTableRecord
  2
*Paper_Space0
340
26
  0
BLOCK_RECORD
  5
82
330
1
100
AcDbSymbolTableRecord
100
AcDbBlockTableRecord
  2
블럭10
340
0
102
{BLKREFS
331
D5
102
}
  0
BLOCK_RECORD
  5
DE
330
1
100
AcDbSymbolTableRecord
100
AcDbBlockTableRecord
  2
_D
340
0
  0
BLOCK_RECORD
  5
EC
330
1
100
AcDbSymbolTableRecord
100
AcDbBlockTableRecord
  2
_D_1
340
0
  0
BLOCK_RECORD
  5
F7
330
1
100
AcDbSymbolTableRecord
100
AcDbBlockTableRecord
  2
_D_2
340
0
  0
BLOCK_RECORD
  5
104
330
1
100
AcDbSymbolTableRecord
100
AcDbBlockTableRecord
  2
_D_3
340
0
  0
BLOCK_RECORD
  5
10D
330
1
100
AcDbSymbolTableRecord
100
AcDbBlockTableRecord
  2
SW_DOWELSYMBOL_0
340
0
102
{BLKREFS
331
113
102
}
  0
ENDTAB
  0
ENDSEC
  0
SECTION
  2
BLOCKS
  0
BLOCK
  5
20
330
1F
100
AcDbEntity
  8
0
100
AcDbBlockBegin
  2
*Model_Space
 70
     0
 10
0.0
 20
0.0
 30
0.0
  3
*Model_Space
  1

  0
ENDBLK
  5
21
330
1F
100
AcDbEntity
  8
0
100
AcDbBlockEnd
  0
BLOCK
  5
1C
330
1B
100
AcDbEntity
 67
     1
  8
0
100
AcDbBlockBegin
  2
*Paper_Space
 70
     0
 10
0.0
 20
0.0
 30
0.0
  3
*Paper_Space
  1

  0
ENDBLK
  5
1D
330
1B
100
AcDbEntity
 67
     1
  8
0
100
AcDbBlockEnd
  0
BLOCK
  5
24
330
23
100
AcDbEntity
  8
0
100
AcDbBlockBegin
  2
*Paper_Space0
 70
     0
 10
0.0
 20
0.0
 30
0.0
  3
*Paper_Space0
  1

  0
ENDBLK
  5
25
330
23
100
AcDbEntity
  8
0
100
AcDbBlockEnd
  0
BLOCK
  5
83
330
82
100
AcDbEntity
  8
0
100
AcDbBlockBegin
  2
블럭10
 70
     2
 10
0.0
 20
0.0
 30
0.0
  3
블럭10
  1

  0
ELLIPSE
  5
85
330
82
100
AcDbEntity
  8
중심선
100
AcDbEllipse
 10
20.54032771741204
 20
12.0471743016438
 30
0.0
 11
6.600054785286829
 21
-1.261213355974178E-13
 31
0.0
210
0.0
220
0.0
230
1.0
 40
0.636358354079598
 41
0.9219305317359503
 42
6.513795318482858
  0
ELLIPSE
  5
86
330
82
100
AcDbEntity
  8
중심선
100
AcDbEllipse
 10
20.54032771746488
 20
12.04717430159265
 30
0.0
 11
3.960054785062283
 21
1.540847449632565E-10
 31
0.0
210
0.0
220
0.0
230
1.0
 40
0.3939339440162632
 41
1.131841032648279
 42
5.62031148352944
  0
LINE
  5
87
330
82
100
AcDbEntity
  8
중심선
100
AcDbLine
 10
2.268634060543552
 20
16.24717430164393
 30
0.0
 11
5.714909304380834
 21
16.24717430164393
 31
0.0
  0
LINE
  5
88
330
82
100
AcDbEntity
  8
중심선
100
AcDbLine
 10
5.245725140726316
 20
7.84717430164391
 30
0.0
 11
8.692000384563599
 21
7.84717430164391
 31
0.0
  0
LINE
  5
89
330
82
100
AcDbEntity
  8
중심선
100
AcDbLine
 10
15.74043728645272
 20
16.24717430164393
 30
0.0
 11
8.692000384563599
 21
7.84717430164391
 31
0.0
  0
LINE
  5
8A
330
82
100
AcDbEntity
  8
중심선
100
AcDbLine
 10
0.1404042013395286
 20
13.71084872107135
 30
0.0
 11
3.58671253028996
 21
13.71088815037384
 31
0.0
  0
LINE
  5
8B
330
82
100
AcDbEntity
  8
중심선
100
AcDbLine
 10
2.750260043222114
 20
10.84717430164391
 30
0.0
 11
6.196535287059397
 21
10.84717430164391
 31
0.0
  0
LINE
  5
8C
330
82
100
AcDbEntity
  8
중심선
100
AcDbLine
 10
12.29416204261559
 20
16.24717430164393
 30
0.0
 11
5.245725140726316
 21
7.84717430164391
 31
0.0
  0
LINE
  5
8D
330
82
100
AcDbEntity
  8
중심선
100
AcDbLine
 10
10.72767329541681
 20
16.24717430164393
 30
0.0
 11
6.196535287059397
 21
10.84717430164391
 31
0.0
  0
LINE
  5
8E
330
82
100
AcDbEntity
  8
중심선
100
AcDbLine
 10
7.28139805157953
 20
16.24717430164393
 30
0.0
 11
2.750260043222114
 21
10.84717430164391
 31
0.0
  0
LINE
  5
8F
330
82
100
AcDbEntity
  8
중심선
100
AcDbLine
 10
5.714909304380834
 20
16.24717430164393
 30
0.0
 11
3.58671253028996
 21
13.71088815037384
 31
0.0
  0
LINE
  5
90
330
82
100
AcDbEntity
  8
중심선
100
AcDbLine
 10
2.268634060543552
 20
16.24717430164393
 30
0.0
 11
0.1404042013395286
 21
13.71084872107135
 31
0.0
  0
LINE
  5
91
330
82
100
AcDbEntity
  8
중심선
100
AcDbLine
 10
7.28139805157953
 20
16.24717430164393
 30
0.0
 11
10.72767329541681
 21
16.24717430164393
 31
0.0
  0
LINE
  5
92
330
82
100
AcDbEntity
  8
중심선
100
AcDbLine
 10
12.29416204261559
 20
16.24717430164393
 30
0.0
 11
15.74043728645272
 21
16.24717430164393
 31
0.0
  0
LINE
  5
93
330
82
100
AcDbEntity
  8
중심선
100
AcDbLine
 10
19.22036997980202
 20
11.08717430171403
 30
0.0
 11
23.66174974927406
 21
11.08717430171406
 31
0.0
  0
LINE
  5
94
330
82
100
AcDbEntity
  8
중심선
100
AcDbLine
 10
19.22039502424796
 20
13.00717430171391
 30
0.0
 11
19.22036997980202
 21
11.08717430171403
 31
0.0
  0
LINE
  5
95
330
82
100
AcDbEntity
  8
중심선
100
AcDbLine
 10
19.22039502424796
 20
13.00717430171391
 30
0.0
 11
26.96566020931264
 21
13.00717430171391
 31
0.0
  0
LINE
  5
96
330
82
100
AcDbEntity
  8
중심선
100
AcDbLine
 10
22.22332737316547
 20
13.45928029700563
 30
0.0
 11
24.52862924686651
 21
15.39360700705356
 31
0.0
  0
ATTDEF
  5
98
330
82
100
AcDbEntity
  8
FORMAT
 62
     2
100
AcDbText
 10
-16.11926103943555
 20
2.075366912832191
 30
0.0
 40
4.233333333333333
  1
SEME7216060E [ 4 FLUTE ]
 41
0.75
  7
SLDTEXTSTYLE0
 11
-16.11926103943555
 21
-0.0412997538344756
 31
0.0
100
AcDbAttributeDefinition
  3

  2
AUTOATTR0
 70
     0
 74
     1
  0
ENDBLK
  5
84
330
82
100
AcDbEntity
  8
0
100
AcDbBlockEnd
  0
BLOCK
  5
DF
330
DE
100
AcDbEntity
  8
0
100
AcDbBlockBegin
  2
_D
 70
     0
 10
0.0
 20
0.0
 30
0.0
  3
_D
  1

  0
LINE
  5
E1
330
DE
100
AcDbEntity
  8
치수문자_일반주서
 62
     0
370
    -2
100
AcDbLine
 10
72.0625
 20
-8.000000000000016
 30
0.0
 11
87.43607109156979
 21
-7.999999999999957
 31
0.0
  0
LINE
  5
E2
330
DE
100
AcDbEntity
  8
치수문자_일반주서
 62
     0
370
    -2
100
AcDbLine
 10
72.0625
 20
8.000000000000009
 30
0.0
 11
87.43607109156973
 21
8.000000000000066
 31
0.0
  0
LINE
  5
E3
330
DE
100
AcDbEntity
  8
치수문자_일반주서
 62
     0
370
    -2
100
AcDbLine
 10
87.43607109156979
 20
-7.999999999999957
 30
0.0
 11
87.43607109156967
 21
22.47900000000007
 31
0.0
  0
LINE
  5
E4
330
DE
100
AcDbEntity
  8
치수문자_일반주서
 62
     0
370
    -2
100
AcDbLine
 10
87.43607109156979
 20
-7.999999999999957
 30
0.0
 11
87.43607109156973
 21
8.000000000000066
 31
0.0
  0
LINE
  5
E5
330
DE
100
AcDbEntity
  8
치수문자_일반주서
 62
     0
370
    -2
100
AcDbLine
 10
87.4360710915698
 20
-11.30199999999996
 30
0.0
 11
87.43607109156981
 21
-14.60399999999996
 31
0.0
  0
LINE
  5
E6
330
DE
100
AcDbEntity
  8
치수문자_일반주서
 62
     0
370
    -2
100
AcDbLine
 10
87.43607109156972
 20
11.30200000000007
 30
0.0
 11
87.4360710915697
 21
14.60400000000006
 31
0.0
  0
SOLID
  5
E7
330
DE
100
AcDbEntity
  8
치수문자_일반주서
 62
     0
100
AcDbTrace
 10
87.98640442490313
 20
-11.30199999999996
 30
0.0
 11
86.88573775823647
 21
-11.30199999999996
 31
0.0
 12
87.43607109156979
 22
-7.999999999999957
 32
0.0
 13
87.43607109156979
 23
-7.999999999999957
 33
0.0
  0
SOLID
  5
E8
330
DE
100
AcDbEntity
  8
치수문자_일반주서
 62
     0
100
AcDbTrace
 10
86.88573775823639
 20
11.30200000000006
 30
0.0
 11
87.98640442490304
 21
11.30200000000007
 31
0.0
 12
87.43607109156973
 22
8.000000000000066
 32
0.0
 13
87.43607109156973
 23
8.000000000000066
 33
0.0
  0
MTEXT
  5
E9
330
DE
100
AcDbEntity
  8
치수문자_일반주서
 62
     0
100
AcDbMText
 10
83.06107109156969
 20
18.54150000000005
 30
0.0
 40
3.5
 41
0.0
 71
     2
 72
     1
  1
\A1;%%c16
  7
SLDTEXTSTYLE0
 11
-3.552713678800495E-15
 21
1.0
 31
0.0
 73
     1
 44
1.0
  0
POINT
  5
142
330
DE
100
AcDbEntity
  8
Defpoints
 62
     0
100
AcDbPoint
 10
72.0
 20
-8.000000000000016
 30
0.0
  0
POINT
  5
143
330
DE
100
AcDbEntity
  8
Defpoints
 62
     0
100
AcDbPoint
 10
72.0
 20
8.000000000000009
 30
0.0
  0
POINT
  5
144
330
DE
100
AcDbEntity
  8
Defpoints
 62
     0
100
AcDbPoint
 10
87.43607109156969
 20
8.000000000000066
 30
0.0
  0
ENDBLK
  5
E0
330
DE
100
AcDbEntity
  8
0
100
AcDbBlockEnd
  0
BLOCK
  5
ED
330
EC
100
AcDbEntity
  8
0
100
AcDbBlockBegin
  2
_D_1
 70
     0
 10
0.0
 20
0.0
 30
0.0
  3
_D_1
  1

  0
LINE
  5
EF
330
EC
100
AcDbEntity
  8
치수문자_일반주서
 62
     0
370
    -2
100
AcDbLine
 10
-48.0
 20
7.562499999999989
 30
0.0
 11
-48.0
 21
25.38913260158164
 31
0.0
  0
LINE
  5
F0
330
EC
100
AcDbEntity
  8
치수문자_일반주서
 62
     0
370
    -2
100
AcDbLine
 10
72.0
 20
8.062500000000007
 30
0.0
 11
72.0
 21
25.38913260158164
 31
0.0
  0
LINE
  5
F1
330
EC
100
AcDbEntity
  8
치수문자_일반주서
 62
     0
370
    -2
100
AcDbLine
 10
-44.698
 20
25.38913260158164
 30
0.0
 11
68.69800000000001
 21
25.38913260158164
 31
0.0
  0
SOLID
  5
F2
330
EC
100
AcDbEntity
  8
치수문자_일반주서
 62
     0
100
AcDbTrace
 10
-44.698
 20
25.93946593491497
 30
0.0
 11
-44.698
 21
24.83879926824831
 31
0.0
 12
-48.0
 22
25.38913260158164
 32
0.0
 13
-48.0
 23
25.38913260158164
 33
0.0
  0
SOLID
  5
F3
330
EC
100
AcDbEntity
  8
치수문자_일반주서
 62
     0
100
AcDbTrace
 10
68.69800000000001
 20
24.83879926824831
 30
0.0
 11
68.69800000000001
 21
25.93946593491497
 31
0.0
 12
72.0
 22
25.38913260158164
 32
0.0
 13
72.0
 23
25.38913260158164
 33
0.0
  0
MTEXT
  5
F4
330
EC
100
AcDbEntity
  8
치수문자_일반주서
 62
     0
100
AcDbMText
 10
12.0
 20
29.76413260158164
 30
0.0
 40
3.5
 41
0.0
 71
     2
 72
     1
  1
\A1;120
  7
SLDTEXTSTYLE0
 73
     1
 44
1.0
  0
POINT
  5
139
330
EC
100
AcDbEntity
  8
Defpoints
 62
     0
100
AcDbPoint
 10
-48.0
 20
7.499999999999989
 30
0.0
  0
POINT
  5
13A
330
EC
100
AcDbEntity
  8
Defpoints
 62
     0
100
AcDbPoint
 10
72.0
 20
8.000000000000007
 30
0.0
  0
POINT
  5
13B
330
EC
100
AcDbEntity
  8
Defpoints
 62
     0
100
AcDbPoint
 10
72.0
 20
25.38913260158164
 30
0.0
  0
ENDBLK
  5
EE
330
EC
100
AcDbEntity
  8
0
100
AcDbBlockEnd
  0
BLOCK
  5
F8
330
F7
100
AcDbEntity
  8
0
100
AcDbBlockBegin
  2
_D_2
 70
     0
 10
0.0
 20
0.0
 30
0.0
  3
_D_2
  1

  0
LINE
  5
FA
330
F7
100
AcDbEntity
  8
치수문자_일반주서
 62
     0
370
    -2
100
AcDbLine
 10
-47.5625
 20
8.000000000000004
 30
0.0
 11
-60.17377265952883
 21
7.999999999999959
 31
0.0
  0
LINE
  5
FB
330
F7
100
AcDbEntity
  8
치수문자_일반주서
 62
     0
370
    -2
100
AcDbLine
 10
-47.5625
 20
-8.00000000000001
 30
0.0
 11
-60.17377265952877
 21
-8.000000000000057
 31
0.0
  0
LINE
  5
FC
330
F7
100
AcDbEntity
  8
치수문자_일반주서
 62
     0
370
    -2
100
AcDbLine
 10
-60.17377265952883
 20
7.999999999999959
 30
0.0
 11
-60.17377265952888
 21
22.47899999999996
 31
0.0
  0
LINE
  5
FD
330
F7
100
AcDbEntity
  8
치수문자_일반주서
 62
     0
370
    -2
100
AcDbLine
 10
-60.17377265952883
 20
7.999999999999959
 30
0.0
 11
-60.17377265952877
 21
-8.000000000000057
 31
0.0
  0
LINE
  5
FE
330
F7
100
AcDbEntity
  8
치수문자_일반주서
 62
     0
370
    -2
100
AcDbLine
 10
-60.17377265952884
 20
11.30199999999996
 30
0.0
 11
-60.17377265952886
 21
14.60399999999996
 31
0.0
  0
LINE
  5
FF
330
F7
100
AcDbEntity
  8
치수문자_일반주서
 62
     0
370
    -2
100
AcDbLine
 10
-60.17377265952876
 20
-11.30200000000006
 30
0.0
 11
-60.17377265952874
 21
-14.60400000000006
 31
0.0
  0
SOLID
  5
100
330
F7
100
AcDbEntity
  8
치수문자_일반주서
 62
     0
100
AcDbTrace
 10
-60.72410599286218
 20
11.30199999999996
 30
0.0
 11
-59.62343932619551
 21
11.30199999999996
 31
0.0
 12
-60.17377265952883
 22
7.999999999999959
 32
0.0
 13
-60.17377265952883
 23
7.999999999999959
 33
0.0
  0
SOLID
  5
101
330
F7
100
AcDbEntity
  8
치수문자_일반주서
 62
     0
100
AcDbTrace
 10
-59.62343932619542
 20
-11.30200000000005
 30
0.0
 11
-60.72410599286209
 21
-11.30200000000006
 31
0.0
 12
-60.17377265952877
 22
-8.000000000000057
 32
0.0
 13
-60.17377265952877
 23
-8.000000000000057
 33
0.0
  0
MTEXT
  5
102
330
F7
100
AcDbEntity
  8
치수문자_일반주서
 62
     0
100
AcDbMText
 10
-64.54877265952886
 20
18.54149999999994
 30
0.0
 40
3.5
 41
0.0
 71
     2
 72
     1
  1
\A1;%%c16
  7
SLDTEXTSTYLE0
 11
-3.552713678800497E-15
 21
1.0
 31
0.0
 73
     1
 44
1.0
  0
POINT
  5
13F
330
F7
100
AcDbEntity
  8
Defpoints
 62
     0
100
AcDbPoint
 10
-47.5
 20
8.000000000000004
 30
0.0
  0
POINT
  5
140
330
F7
100
AcDbEntity
  8
Defpoints
 62
     0
100
AcDbPoint
 10
-47.5
 20
-8.00000000000001
 30
0.0
  0
POINT
  5
141
330
F7
100
AcDbEntity
  8
Defpoints
 62
     0
100
AcDbPoint
 10
-60.17377265952878
 20
-8.000000000000059
 30
0.0
  0
ENDBLK
  5
F9
330
F7
100
AcDbEntity
  8
0
100
AcDbBlockEnd
  0
BLOCK
  5
105
330
104
100
AcDbEntity
  8
0
100
AcDbBlockBegin
  2
_D_3
 70
     0
 10
0.0
 20
0.0
 30
0.0
  3
_D_3
  1

  0
LINE
  5
107
330
104
100
AcDbEntity
  8
치수문자_일반주서
 62
     0
370
    -2
100
AcDbLine
 10
11.99999999999999
 20
7.961708979602747
 30
0.0
 11
11.99999999999999
 21
18.74512728219042
 31
0.0
  0
LINE
  5
108
330
104
100
AcDbEntity
  8
치수문자_일반주서
 62
     0
370
    -2
100
AcDbLine
 10
72.0
 20
8.062500000000007
 30
0.0
 11
72.0
 21
18.74512728219042
 31
0.0
  0
LINE
  5
109
330
104
100
AcDbEntity
  8
치수문자_일반주서
 62
     0
370
    -2
100
AcDbLine
 10
15.30199999999999
 20
18.74512728219042
 30
0.0
 11
68.69800000000001
 21
18.74512728219042
 31
0.0
  0
SOLID
  5
10A
330
104
100
AcDbEntity
  8
치수문자_일반주서
 62
     0
100
AcDbTrace
 10
15.30199999999999
 20
19.29546061552376
 30
0.0
 11
15.30199999999999
 21
18.19479394885709
 31
0.0
 12
11.99999999999999
 22
18.74512728219042
 32
0.0
 13
11.99999999999999
 23
18.74512728219042
 33
0.0
  0
SOLID
  5
10B
330
104
100
AcDbEntity
  8
치수문자_일반주서
 62
     0
100
AcDbTrace
 10
68.69800000000001
 20
18.19479394885709
 30
0.0
 11
68.69800000000001
 21
19.29546061552376
 31
0.0
 12
72.0
 22
18.74512728219042
 32
0.0
 13
72.0
 23
18.74512728219042
 33
0.0
  0
MTEXT
  5
10C
330
104
100
AcDbEntity
  8
치수문자_일반주서
 62
     0
100
AcDbMText
 10
41.99999999999997
 20
23.12012728219042
 30
0.0
 40
3.5
 41
0.0
 71
     2
 72
     1
  1
\A1;60
  7
SLDTEXTSTYLE0
 73
     1
 44
1.0
  0
POINT
  5
13C
330
104
100
AcDbEntity
  8
Defpoints
 62
     0
100
AcDbPoint
 10
11.99999999999999
 20
7.899208979602747
 30
0.0
  0
POINT
  5
13D
330
104
100
AcDbEntity
  8
Defpoints
 62
     0
100
AcDbPoint
 10
72.0
 20
8.000000000000007
 30
0.0
  0
POINT
  5
13E
330
104
100
AcDbEntity
  8
Defpoints
 62
     0
100
AcDbPoint
 10
72.0
 20
18.74512728219042
 30
0.0
  0
ENDBLK
  5
106
330
104
100
AcDbEntity
  8
0
100
AcDbBlockEnd
  0
BLOCK
  5
10E
330
10D
100
AcDbEntity
  8
0
100
AcDbBlockBegin
  2
SW_DOWELSYMBOL_0
 70
     0
 10
0.0
 20
0.0
 30
0.0
  3
SW_DOWELSYMBOL_0
  1

  0
CIRCLE
  5
110
330
10D
100
AcDbEntity
  8
해칭선
 62
     0
100
AcDbCircle
 10
0.0
 20
0.0
 30
0.0
 40
3.0
  0
HATCH
  5
111
330
10D
100
AcDbEntity
  8
0
  6
Continuous
 62
     0
370
    18
100
AcDbHatch
 10
0.0
 20
0.0
 30
0.0
210
0.0
220
0.0
230
1.0
  2
SOLID
 70
     1
 71
     0
 91
        1
 92
        0
 93
        3
 72
     2
 10
0.0
 20
0.0
 40
3.0
 50
0.0
 51
90.0
 73
     1
 72
     1
 10
0.0
 20
3.0
 11
0.0
 21
0.0
 72
     1
 10
0.0
 20
0.0
 11
3.0
 21
0.0
 97
        0
 75
     0
 76
     1
 98
        1
 10
0.0
 20
0.0
  0
HATCH
  5
112
330
10D
100
AcDbEntity
  8
0
  6
Continuous
 62
     0
370
    18
100
AcDbHatch
 10
0.0
 20
0.0
 30
0.0
210
0.0
220
0.0
230
1.0
  2
SOLID
 70
     1
 71
     0
 91
        1
 92
        0
 93
        3
 72
     2
 10
0.0
 20
0.0
 40
3.0
 50
180.0
 51
270.0000000000008
 73
     1
 72
     1
 10
0.0
 20
-3.0
 11
0.0
 21
0.0
 72
     1
 10
0.0
 20
0.0
 11
-3.0
 21
0.0
 97
        0
 75
     0
 76
     1
 98
        1
 10
0.0
 20
0.0
  0
ENDBLK
  5
10F
330
10D
100
AcDbEntity
  8
0
100
AcDbBlockEnd
  0
ENDSEC
  0
SECTION
  2
ENTITIES
  0
LINE
  5
99
330
1F
100
AcDbEntity
  8
0
  6
Continuous
 62
     4
370
    25
100
AcDbLine
 10
10.60475621179292
 20
7.999999999999996
 30
0.0
 11
-47.5
 21
7.999999999999993
 31
0.0
  0
LINE
  5
9A
330
1F
100
AcDbEntity
  8
0
  6
Continuous
 62
     4
370
    25
100
AcDbLine
 10
-47.5
 20
-8.000000000000007
 30
0.0
 11
10.60475621179294
 21
-8.000000000000004
 31
0.0
  0
LINE
  5
9B
330
1F
100
AcDbEntity
  8
0
  6
Continuous
 62
     4
370
    25
100
AcDbLine
 10
-47.5
 20
7.999999999999989
 30
0.0
 11
-48.0
 21
7.499999999999988
 31
0.0
  0
LINE
  5
9C
330
1F
100
AcDbEntity
  8
0
  6
Continuous
 62
     4
370
    25
100
AcDbLine
 10
-48.0
 20
-7.500000000000003
 30
0.0
 11
-47.5
 21
-8.000000000000004
 31
0.0
  0
LINE
  5
9D
330
1F
100
AcDbEntity
  8
0
  6
Continuous
 62
     1
370
    25
100
AcDbLine
 10
47.13953648189054
 20
-8.000000000000007
 30
0.0
 11
53.32925072591073
 21
-8.000000000000007
 31
0.0
  0
LINE
  5
9E
330
1F
100
AcDbEntity
  8
0
  6
Continuous
 62
     1
370
    25
100
AcDbLine
 10
68.90576258791438
 20
-8.000000000000007
 30
0.0
 11
72.0
 21
-8.000000000000007
 31
0.0
  0
LINE
  5
9F
330
1F
100
AcDbEntity
  8
0
  6
Continuous
 62
     1
370
    25
100
AcDbLine
 10
31.56318022678455
 20
8.000000000000004
 30
0.0
 11
25.37483601847801
 21
8.000000000000004
 31
0.0
  0
LINE
  5
A0
330
1F
100
AcDbEntity
  8
0
  6
Continuous
 62
     1
370
    25
100
AcDbLine
 10
53.32925072591068
 20
8.000000000000004
 30
0.0
 11
47.13953648189068
 21
8.000000000000004
 31
0.0
  0
LINE
  5
A1
330
1F
100
AcDbEntity
  8
0
  6
Continuous
 62
     1
370
    25
100
AcDbLine
 10
27.76194487322298
 20
-1.367927337060884
 30
0.0
 11
27.36097580612622
 21
-1.142865932899971
 31
0.0
  0
LINE
  5
A2
330
1F
100
AcDbEntity
  8
0
  6
Continuous
 62
     1
370
    25
100
AcDbLine
 10
70.94379273732841
 20
-1.172039939552719
 30
0.0
 11
70.91200583045523
 21
-1.154188737736974
 31
0.0
  0
LINE
  5
A3
330
1F
100
AcDbEntity
  8
0
  6
Continuous
 62
     1
370
    25
100
AcDbLine
 10
51.00966421260826
 20
1.328416163388379
 30
0.0
 11
51.34226342878856
 21
1.142856605014263
 31
0.0
  0
LINE
  5
A4
330
1F
100
AcDbEntity
  8
0
  6
Continuous
 62
     1
370
    25
100
AcDbLine
 10
25.37483601847798
 20
-8.000000000000007
 30
0.0
 11
31.56318022678451
 21
-8.000000000000007
 31
0.0
  0
LINE
  5
A5
330
1F
100
AcDbEntity
  8
0
  6
Continuous
 62
     1
370
    25
100
AcDbLine
 10
72.0
 20
8.000000000000004
 30
0.0
 11
68.90576258791432
 21
8.000000000000004
 31
0.0
  0
SPLINE
  5
A6
330
1F
100
AcDbEntity
  8
0
  6
Continuous
 62
     4
370
    25
100
AcDbSpline
210
0.0
220
0.0
230
1.0
 70
    24
 71
     3
 72
    18
 73
    14
 74
     0
 42
0.000000001
 43
0.00000001
 40
0.0
 40
0.0
 40
0.0
 40
0.0
 40
0.2500000000000001
 40
0.2500000000000001
 40
0.3750000000000001
 40
0.3750000000000001
 40
0.5000000000000001
 40
0.5000000000000001
 40
0.625
 40
0.625
 40
0.75
 40
0.75
 40
1.0
 40
1.0
 40
1.0
 40
1.0
 10
11.99999999999999
 20
6.397747160244265
 30
0.0
 10
11.99999999999999
 20
6.023758108780059
 30
0.0
 10
11.99999999999999
 20
5.630898432341752
 30
0.0
 10
11.99999999999999
 20
5.012602211281584
 30
0.0
 10
11.99999999999999
 20
4.800408697091396
 30
0.0
 10
11.99999999999999
 20
4.376564676403925
 30
0.0
 10
11.99999999999999
 20
4.163934148541347
 30
0.0
 10
11.99999999999999
 20
3.737246838447993
 30
0.0
 10
11.99999999999999
 20
3.52319032533541
 30
0.0
 10
11.99999999999999
 20
3.093573298229415
 30
0.0
 10
11.99999999999999
 20
2.877769324863868
 30
0.0
 10
11.99999999999999
 20
2.248693860125136
 30
0.0
 10
11.99999999999999
 20
1.846553099003998
 30
0.0
 10
11.99999999999999
 20
1.462421350946476
 30
0.0
  0
SPLINE
  5
A7
330
1F
100
AcDbEntity
  8
0
  6
Continuous
 62
     4
370
    25
100
AcDbSpline
210
0.0
220
0.0
230
1.0
 70
     8
 71
     3
 72
    14
 73
    10
 74
     0
 42
0.000000001
 43
0.00000001
 40
0.0
 40
0.0
 40
0.0
 40
0.0
 40
0.25
 40
0.25
 40
0.5
 40
0.5
 40
0.75
 40
0.75
 40
1.0
 40
1.0
 40
1.0
 40
1.0
 10
11.30661502954218
 20
-0.8690115734749964
 30
0.0
 10
11.18030951899922
 20
-0.7965856401212204
 30
0.0
 10
11.0668124737747
 20
-0.7087012962270537
 30
0.0
 10
10.86468371660601
 20
-0.5026548353397827
 30
0.0
 10
10.77761429887805
 20
-0.385125757891066
 30
0.0
 10
10.63881852936241
 20
-0.1331706722714775
 30
0.0
 10
10.58570516941616
 20
0.0042193186746857
 30
0.0
 10
10.51678687787393
 20
0.2836330569385175
 30
0.0
 10
10.49989992513204
 20
0.4283324463128074
 30
0.0
 10
10.49989992513204
 20
0.573614929520054
 30
0.0
  0
SPLINE
  5
A8
330
1F
100
AcDbEntity
  8
0
  6
Continuous
 62
     4
370
    25
100
AcDbSpline
210
0.0
220
0.0
230
1.0
 70
     8
 71
     3
 72
    18
 73
    14
 74
     0
 42
0.000000001
 43
0.00000001
 40
0.0
 40
0.0
 40
0.0
 40
0.0
 40
0.250000000000001
 40
0.250000000000001
 40
0.3750000000000008
 40
0.3750000000000008
 40
0.5000000000000007
 40
0.5000000000000007
 40
0.6250000000000004
 40
0.6250000000000004
 40
0.7500000000000003
 40
0.7500000000000003
 40
1.0
 40
1.0
 40
1.0
 40
1.0
 10
10.49989992513203
 20
5.275591961706803
 30
0.0
 10
10.49989992513203
 20
5.431232789459206
 30
0.0
 10
10.53348590074131
 20
5.578534114857201
 30
0.0
 10
10.63949229709141
 20
5.782050631633613
 30
0.0
 10
10.68327369989668
 20
5.845382525537469
 30
0.0
 10
10.78776184022801
 20
5.963722332128748
 30
0.0
 10
10.8492778307398
 20
6.01927712678534
 30
0.0
 10
10.98650916254996
 20
6.119129014684397
 30
0.0
 10
11.06171540670933
 20
6.163354291257971
 30
0.0
 10
11.22522376824732
 20
6.241354877089638
 30
0.0
 10
11.31436151962374
 20
6.275257537439763
 30
0.0
 10
11.59085582450756
 20
6.357895324674479
 30
0.0
 10
11.79307317593225
 20
6.389925871259808
 30
0.0
 10
11.99999999999999
 20
6.397747160244265
 30
0.0
  0
SPLINE
  5
A9
330
1F
100
AcDbEntity
  8
0
  6
Continuous
 62
     4
370
    25
100
AcDbSpline
210
0.0
220
0.0
230
1.0
 70
     8
 71
     3
 72
     8
 73
     4
 74
     0
 42
0.000000001
 43
0.00000001
 40
0.0
 40
0.0
 40
0.0
 40
0.0
 40
1.0
 40
1.0
 40
1.0
 40
1.0
 10
11.99999999999999
 20
-1.265897901318905
 30
0.0
 10
11.76948811656831
 20
-1.134193259826267
 30
0.0
 10
11.53821568796186
 20
-1.001815706717383
 30
0.0
 10
11.30661502954218
 20
-0.869011573475001
 30
0.0
  0
LINE
  5
AA
330
1F
100
AcDbEntity
  8
0
  6
Continuous
 62
     4
370
    25
100
AcDbLine
 10
11.99999999999999
 20
-1.265897901318905
 30
0.0
 11
11.99999999999999
 21
-4.80300231871543
 31
0.0
  0
SPLINE
  5
AB
330
1F
100
AcDbEntity
  8
0
  6
Continuous
 62
     4
370
    25
100
AcDbSpline
210
0.0
220
0.0
230
1.0
 70
     8
 71
     3
 72
    18
 73
    14
 74
     0
 42
0.000000001
 43
0.00000001
 40
0.0
 40
0.0
 40
0.0
 40
0.0
 40
0.2499999999999994
 40
0.2499999999999994
 40
0.3749999999999995
 40
0.3749999999999995
 40
0.4999999999999996
 40
0.4999999999999996
 40
0.6249999999999996
 40
0.6249999999999996
 40
0.7499999999999997
 40
0.7499999999999997
 40
1.0
 40
1.0
 40
1.0
 40
1.0
 10
10.49989992513203
 20
-6.013994467371409
 30
0.0
 10
10.49989992513203
 20
-5.877463330826675
 30
0.0
 10
10.53348590074131
 20
-5.737380935500585
 30
0.0
 10
10.63949229709141
 20
-5.529673246281616
 30
0.0
 10
10.68327369989668
 20
-5.462526293900762
 30
0.0
 10
10.78776184022801
 20
-5.333076628615498
 30
0.0
 10
10.8492778307398
 20
-5.270121005936451
 30
0.0
 10
10.98650916254996
 20
-5.153846393510515
 30
0.0
 10
11.06171540670933
 20
-5.100674146086384
 30
0.0
 10
11.22522376824732
 20
-5.004927787925768
 30
0.0
 10
11.31436151962374
 20
-4.962171233688399
 30
0.0
 10
11.59085582450756
 20
-4.856456433969234
 30
0.0
 10
11.79307317593225
 20
-4.813420516765175
 30
0.0
 10
11.99999999999999
 20
-4.80300231871543
 30
0.0
  0
LINE
  5
AC
330
1F
100
AcDbEntity
  8
0
  6
Continuous
 62
     4
370
    25
100
AcDbLine
 10
10.49989992513203
 20
-6.013994467371409
 30
0.0
 11
10.49989992513203
 21
-7.979408869874489
 31
0.0
  0
SPLINE
  5
AD
330
1F
100
AcDbEntity
  8
0
  6
Continuous
 62
     4
370
    25
100
AcDbSpline
210
0.0
220
0.0
230
1.0
 70
     8
 71
     3
 72
    14
 73
    10
 74
     0
 42
0.000000001
 43
0.00000001
 40
0.0
 40
0.0
 40
0.0
 40
0.0
 40
0.25
 40
0.25
 40
0.5
 40
0.5
 40
0.75
 40
0.75
 40
1.0
 40
1.0
 40
1.0
 40
1.0
 10
11.30661502954218
 20
-7.95266111972381
 30
0.0
 10
11.18030951899922
 20
-7.960575322700225
 30
0.0
 10
11.0668124737747
 20
-7.969216865373132
 30
0.0
 10
10.86468371660602
 20
-7.984861494799451
 30
0.0
 10
10.77761429887805
 20
-7.991718536259143
 30
0.0
 10
10.63881852936241
 20
-7.999884535680867
 30
0.0
 10
10.58570516941616
 20
-8.001219064994514
 30
0.0
 10
10.51678687787393
 20
-7.996191382007651
 30
0.0
 10
10.49989992513204
 20
-7.989852776525277
 30
0.0
 10
10.49989992513204
 20
-7.979408869874489
 30
0.0
  0
SPLINE
  5
AE
330
1F
100
AcDbEntity
  8
0
  6
Continuous
 62
     4
370
    25
100
AcDbSpline
210
0.0
220
0.0
230
1.0
 70
     8
 71
     3
 72
     8
 73
     4
 74
     0
 42
0.000000001
 43
0.00000001
 40
0.0
 40
0.0
 40
0.0
 40
0.0
 40
1.0
 40
1.0
 40
1.0
 40
1.0
 10
11.99999999999999
 20
-7.899208979602751
 30
0.0
 10
11.76948811656831
 20
-7.920315476429206
 30
0.0
 10
11.53821568796186
 20
-7.938149206408819
 30
0.0
 10
11.30661502954218
 20
-7.95266111972381
 30
0.0
  0
SPLINE
  5
AF
330
1F
100
AcDbEntity
  8
0
  6
Continuous
 62
     4
370
    25
100
AcDbSpline
210
0.0
220
0.0
230
1.0
 70
     8
 71
     3
 72
    10
 73
     6
 74
     0
 42
0.000000001
 43
0.00000001
 40
0.0
 40
0.0
 40
0.0
 40
0.0
 40
0.4655539375570492
 40
0.9310219568568497
 40
1.0
 40
1.0
 40
1.0
 40
1.0
 10
11.30661502954218
 20
7.952661119723807
 30
0.0
 10
11.16406365615613
 20
7.962523083985661
 30
0.0
 10
10.87898721732514
 20
7.98224519247797
 30
0.0
 10
10.6513505762789
 20
8.003842875510735
 30
0.0
 10
10.61008246252436
 20
7.998543367042643
 30
0.0
 10
10.60475621179292
 20
7.997859388341261
 30
0.0
  0
SPLINE
  5
B0
330
1F
100
AcDbEntity
  8
0
  6
Continuous
 62
     4
370
    25
100
AcDbSpline
210
0.0
220
0.0
230
1.0
 70
     8
 71
     3
 72
     8
 73
     4
 74
     0
 42
0.000000001
 43
0.00000001
 40
0.0
 40
0.0
 40
0.0
 40
0.0
 40
1.0
 40
1.0
 40
1.0
 40
1.0
 10
11.99999999999999
 20
7.899208979602747
 30
0.0
 10
11.76948811656831
 20
7.920315476429202
 30
0.0
 10
11.53821568796185
 20
7.938149206408815
 30
0.0
 10
11.30661502954218
 20
7.952661119723807
 30
0.0
  0
LINE
  5
B1
330
1F
100
AcDbEntity
  8
0
  6
Continuous
 62
     4
370
    25
100
AcDbLine
 10
11.99999999999999
 20
7.899208979602747
 30
0.0
 11
11.99999999999999
 21
6.397747160244265
 31
0.0
  0
LINE
  5
B2
330
1F
100
AcDbEntity
  8
0
  6
Continuous
 62
     4
370
    25
100
AcDbLine
 10
-47.5
 20
7.999999999999989
 30
0.0
 11
-47.5
 21
-8.000000000000004
 31
0.0
  0
LINE
  5
B3
330
1F
100
AcDbEntity
  8
0
  6
Continuous
 62
     4
370
    25
100
AcDbLine
 10
10.49989992513203
 20
5.275591961706803
 30
0.0
 11
10.49989992513203
 21
0.5736149295200539
 31
0.0
  0
LINE
  5
B4
330
1F
100
AcDbEntity
  8
0
  6
Continuous
 62
     4
370
    25
100
AcDbLine
 10
-48.0
 20
7.499999999999989
 30
0.0
 11
-48.0
 21
-7.500000000000003
 31
0.0
  0
SPLINE
  5
B5
330
1F
100
AcDbEntity
  8
0
  6
Continuous
 62
     4
370
    25
100
AcDbSpline
210
0.0
220
0.0
230
1.0
 70
    24
 71
     3
 72
    12
 73
     8
 74
     0
 42
0.000000001
 43
0.00000001
 40
0.0
 40
0.0
 40
0.0
 40
0.0
 40
0.4999999999999998
 40
0.4999999999999998
 40
0.7499999999999999
 40
0.7499999999999999
 40
1.0
 40
1.0
 40
1.0
 40
1.0
 10
11.99999999999999
 20
1.462421350946302
 30
0.0
 10
11.99999999999999
 20
0.8713283484220167
 30
0.0
 10
11.99999999999999
 20
0.2964873271959999
 30
0.0
 10
11.99999999999999
 20
-0.4220688001185535
 30
0.0
 10
11.99999999999999
 20
-0.6374297661981382
 30
0.0
 10
11.99999999999999
 20
-1.003053870832159
 30
0.0
 10
11.99999999999999
 20
-1.153210598591957
 30
0.0
 10
11.99999999999999
 20
-1.265897901318905
 30
0.0
  0
SPLINE
  5
B6
330
1F
100
AcDbEntity
  8
0
  6
Continuous
 62
     4
370
    25
100
AcDbSpline
210
0.0
220
0.0
230
1.0
 70
    24
 71
     3
 72
    12
 73
     8
 74
     0
 42
0.000000001
 43
0.00000001
 40
0.0
 40
0.0
 40
0.0
 40
0.0
 40
0.2170636209943192
 40
0.4524963310642532
 40
0.6879290411341861
 40
0.9233617512041192
 40
1.0
 40
1.0
 40
1.0
 40
1.0
 10
11.99999999999999
 20
-4.803002318715433
 30
0.0
 10
11.99999999999999
 20
-4.964690005269047
 30
0.0
 10
11.99999999999999
 20
-5.301748258552735
 30
0.0
 10
11.99999999999999
 20
-5.966832385873199
 30
0.0
 10
11.99999999999999
 20
-6.742400189352697
 30
0.0
 10
11.99999999999998
 20
-7.406151377000523
 30
0.0
 10
11.99999999999999
 20
-7.801997309608518
 30
0.0
 10
11.99999999999999
 20
-7.899208979602754
 30
0.0
  0
SPLINE
  5
B7
330
1F
100
AcDbEntity
  8
0
  6
Continuous
 62
     1
370
    25
100
AcDbSpline
210
0.0
220
0.0
230
1.0
 70
     8
 71
     3
 72
    21
 73
    17
 74
     0
 42
0.000000001
 43
0.00000001
 40
0.0
 40
0.0
 40
0.0
 40
0.0
 40
0.0789689246366291
 40
0.1579371524352171
 40
0.2369047379537436
 40
0.3158727302912839
 40
0.3948414291630642
 40
0.4677820177189345
 40
0.5407205301456454
 40
0.613653619709015
 40
0.6865820122803195
 40
0.7595064366442881
 40
0.8324276240504808
 40
0.9053463077614036
 40
0.9782632225979532
 40
1.0
 40
1.0
 40
1.0
 40
1.0
 10
11.99999999999881
 20
6.577459212568585
 30
0.0
 10
12.92500171889301
 20
6.247981668842378
 30
0.0
 10
14.77499699427592
 20
5.589029488767606
 30
0.0
 10
17.54997244755333
 20
4.306712157088936
 30
0.0
 10
20.32493106385685
 20
2.871086458074421
 30
0.0
 10
23.09989768181173
 20
1.315674039316897
 30
0.0
 10
25.80428013997944
 20
-0.2502628584622048
 30
0.0
 10
28.43801327369444
 20
-1.764423244087509
 30
0.0
 10
31.00104451096504
 20
-3.177871327249823
 30
0.0
 10
33.56388445870604
 20
-4.482812819667965
 30
0.0
 10
36.12652920213456
 20
-5.635225794250062
 30
0.0
 10
38.68900589204826
 20
-6.593991723374049
 30
0.0
 10
41.25134642123604
 20
-7.333271573864149
 30
0.0
 10
43.81358096476244
 20
-7.802340928054987
 30
0.0
 10
45.77629898484977
 20
-8.015409971181356
 30
0.0
 10
46.88494183929834
 20
-7.979626975329605
 30
0.0
 10
47.13953648189055
 20
-7.971409577812269
 30
0.0
  0
LINE
  5
B8
330
1F
100
AcDbEntity
  8
0
  6
Continuous
 62
     4
370
    25
100
AcDbLine
 10
11.99999999999999
 20
6.577459212585243
 30
0.0
 11
12.0
 21
7.899208979602556
 31
0.0
  0
SPLINE
  5
B9
330
1F
100
AcDbEntity
  8
0
  6
Continuous
 62
     1
370
    25
100
AcDbSpline
210
0.0
220
0.0
230
1.0
 70
     8
 71
     3
 72
    26
 73
    22
 74
     0
 42
0.000000001
 43
0.00000001
 40
0.0
 40
0.0
 40
0.0
 40
0.0
 40
0.0389418957063207
 40
0.0911291552704361
 40
0.1433150460219797
 40
0.1955000945228447
 40
0.2476848278597289
 40
0.2998697733157589
 40
0.3520554580418544
 40
0.4042424087282632
 40
0.4564311512767154
 40
0.5086222104736206
 40
0.5608161096647497
 40
0.613013370431826
 40
0.6652145122714532
 40
0.7174171399696359
 40
0.773934007582453
 40
0.830450369537931
 40
0.8869664403383481
 40
0.9434829708102265
 40
1.0
 40
1.0
 40
1.0
 40
1.0
 10
61.09843246536544
 20
-6.752418616990175
 30
0.0
 10
60.46111501438888
 20
-6.944594998062228
 30
0.0
 10
58.96970839708921
 20
-7.394312993357026
 30
0.0
 10
56.62425810951441
 20
-7.814309848054122
 30
0.0
 10
54.06208511247748
 20
-8.035760842604361
 30
0.0
 10
51.49996247124836
 20
-7.975399458719907
 30
0.0
 10
48.93785819815962
 20
-7.645174524627557
 30
0.0
 10
46.37574148312865
 20
-7.053696157752793
 30
0.0
 10
43.81358119972556
 20
-6.221837977539009
 30
0.0
 10
41.25134635827494
 20
-5.177767141148873
 30
0.0
 10
38.68900590891968
 20
-3.957126625308135
 30
0.0
 10
36.12652919761354
 20
-2.601515444255792
 30
0.0
 10
33.56388445991755
 20
-1.157155524130526
 30
0.0
 10
31.00104451064044
 20
0.3267096490943523
 30
0.0
 10
28.4380132737812
 20
1.799439202811935
 30
0.0
 10
25.80428013995412
 20
3.249690059410893
 30
0.0
 10
23.09989768181901
 20
4.618587736366862
 30
0.0
 10
20.32493106385547
 20
5.840047676186193
 30
0.0
 10
17.54997244755459
 20
6.822012123377267
 30
0.0
 10
14.77499699427682
 20
7.55390850281325
 30
0.0
 10
12.92500171889418
 20
7.784108482114857
 30
0.0
 10
12.00000000000011
 20
7.899208979600898
 30
0.0
  0
SPLINE
  5
BA
330
1F
100
AcDbEntity
  8
0
  6
Continuous
 62
     1
370
    25
100
AcDbSpline
210
0.0
220
0.0
230
1.0
 70
     8
 71
     3
 72
    28
 73
    24
 74
     0
 42
0.000000001
 43
0.00000001
 40
0.0
 40
0.0
 40
0.0
 40
0.0
 40
0.0533608121880909
 40
0.1074308213431467
 40
0.1615013142677867
 40
0.2114443123641964
 40
0.261385888918544
 40
0.3113237523954558
 40
0.3612583998047375
 40
0.4111903301510596
 40
0.4611200441267814
 40
0.5110480438025425
 40
0.5609748323160247
 40
0.6109009135592969
 40
0.660826791865158
 40
0.7107529716928926
 40
0.7606799573138582
 40
0.8073474710062668
 40
0.8540249045386896
 40
0.9007164791835506
 40
0.947405480382252
 40
0.9940809408124333
 40
1.0
 40
1.0
 40
1.0
 40
1.0
 10
17.58636184673493
 20
6.767479773978215
 30
0.0
 10
18.4992167530704
 20
7.023582024147692
 30
0.0
 10
20.33705895099384
 20
7.539190275884079
 30
0.0
 10
23.09989761110231
 20
7.942059631365319
 30
0.0
 10
25.80428015730558
 20
8.046579830169463
 30
0.0
 10
28.43801326926749
 20
7.849660406293663
 30
0.0
 10
31.00104451193029
 20
7.391615431559501
 30
0.0
 10
33.56388445927151
 20
6.681123136244451
 30
0.0
 10
36.1265291989078
 20
5.74289026059782
 30
0.0
 10
38.68900590438896
 20
4.608805047133763
 30
0.0
 10
41.25134637510257
 20
3.317580646916423
 30
0.0
 10
43.81358113694835
 20
1.913241523694277
 30
0.0
 10
46.37574171740318
 20
0.4436765974329243
 30
0.0
 10
48.93785732385125
 20
-1.04101180400684
 30
0.0
 10
51.49996573420658
 20
-2.490190034017729
 30
0.0
 10
54.06207293478464
 20
-3.854496942838398
 30
0.0
 10
56.56852312916981
 20
-5.060396574484151
 30
0.0
 10
59.0191563347901
 20
-6.079521142827968
 30
0.0
 10
61.41461125515387
 20
-6.892601714312296
 30
0.0
 10
63.81062280654034
 20
-7.506482428310671
 30
0.0
 10
66.20655122983649
 20
-7.873076298099735
 30
0.0
 10
67.90488105552518
 20
-8.029001259072498
 30
0.0
 10
68.80451639598917
 20
-7.991057628229596
 30
0.0
 10
68.90576258791438
 20
-7.9867874001073
 30
0.0
  0
SPLINE
  5
BB
330
1F
100
AcDbEntity
  8
0
  6
Continuous
 62
     1
370
    25
100
AcDbSpline
210
0.0
220
0.0
230
1.0
 70
     8
 71
     3
 72
    23
 73
    19
 74
     0
 42
0.000000001
 43
0.00000001
 40
0.0
 40
0.0
 40
0.0
 40
0.0
 40
0.0633827575096593
 40
0.126760679740177
 40
0.1901343969156878
 40
0.2535045418678574
 40
0.316871749646657
 40
0.3802366571281993
 40
0.4435999026201548
 40
0.5069621254652655
 40
0.570323965643483
 40
0.6336860633732593
 40
0.6970490587125229
 40
0.7604135911598623
 40
0.8237802992564607
 40
0.8871498201892976
 40
0.9505227893961529
 40
1.0
 40
1.0
 40
1.0
 40
1.0
 10
72.0
 20
-7.801325586840167
 30
0.0
 10
71.145626730441
 20
-7.666348369355424
 30
0.0
 10
69.4369453688794
 20
-7.396404231390201
 30
0.0
 10
66.87406345084693
 20
-6.667923522880272
 30
0.0
 10
64.3113823480393
 20
-5.731157832997019
 30
0.0
 10
61.74887538556261
 20
-4.593846713224957
 30
0.0
 10
59.18651068861321
 20
-3.301270685858556
 30
0.0
 10
56.62425765255046
 20
-1.895771446650397
 30
0.0
 10
54.06208523499402
 20
-0.4257393937687055
 30
0.0
 10
51.49996243813339
 20
1.058823685112513
 30
0.0
 10
48.93785820810458
 20
2.50728303160552
 30
0.0
 10
46.37574147646376
 20
3.870206795522181
 30
0.0
 10
43.81358121644045
 20
5.101330260324792
 30
0.0
 10
41.25134629807794
 20
6.157898984337255
 30
0.0
 10
38.68900613300463
 20
7.006776687737137
 30
0.0
 10
36.1265283614146
 20
7.608201563914212
 30
0.0
 10
33.75124495139863
 20
7.954658816354917
 30
0.0
 10
32.23009995559993
 20
7.969917853005291
 30
0.0
 10
31.56318022678456
 20
7.976607913856141
 30
0.0
  0
LINE
  5
BC
330
1F
100
AcDbEntity
  8
0
  6
Continuous
 62
     1
370
    25
100
AcDbLine
 10
72.0
 20
-8.000000000000014
 30
0.0
 11
72.0
 21
-7.801325586842095
 31
0.0
  0
SPLINE
  5
BD
330
1F
100
AcDbEntity
  8
0
  6
Continuous
 62
     1
370
    25
100
AcDbSpline
210
0.0
220
0.0
230
1.0
 70
     8
 71
     3
 72
    20
 73
    16
 74
     0
 42
0.000000001
 43
0.00000001
 40
0.0
 40
0.0
 40
0.0
 40
0.0
 40
0.0599685295726496
 40
0.1409410809822805
 40
0.2219116681453859
 40
0.3028811082672755
 40
0.3838502192680295
 40
0.4648198192728607
 40
0.5457907261022038
 40
0.621475465650316
 40
0.6971762930601642
 40
0.7729000543340028
 40
0.8486196420278299
 40
0.9243172694872749
 40
1.0
 40
1.0
 40
1.0
 40
1.0
 10
39.35376615273479
 20
6.747019947194402
 30
0.0
 10
39.98630252413636
 20
6.938406974512758
 30
0.0
 10
41.47292159886192
 20
7.38821447702215
 30
0.0
 10
43.81358069601321
 20
7.81000808554943
 30
0.0
 10
46.37574183565359
 20
8.034803163707375
 30
0.0
 10
48.9378572917737
 20
7.977740656298013
 30
0.0
 10
51.4999657442677
 20
7.65075560790729
 30
0.0
 10
54.06207292661777
 20
7.062321670842604
 30
0.0
 10
56.56852315110671
 20
6.251260186785363
 30
0.0
 10
59.01915626065344
 20
5.261499232863828
 30
0.0
 10
61.41461153204852
 20
4.13743788152909
 30
0.0
 10
63.81062177280818
 20
2.88998397321692
 30
0.0
 10
66.20655508703513
 20
1.557029534340259
 30
0.0
 10
68.60188275910838
 20
0.1750434289086223
 30
0.0
 10
70.19849562906265
 20
-0.7433501591771854
 30
0.0
 10
70.99672350478289
 20
-1.202501764859681
 30
0.0
  0
SPLINE
  5
BE
330
1F
100
AcDbEntity
  8
0
  6
Continuous
 62
     1
370
    25
100
AcDbSpline
210
0.0
220
0.0
230
1.0
 70
     8
 71
     3
 72
    15
 73
    11
 74
     0
 42
0.000000001
 43
0.00000001
 40
0.0
 40
0.0
 40
0.0
 40
0.0
 40
0.1372744468972735
 40
0.2745384215415901
 40
0.4117932888730832
 40
0.5490404194792804
 40
0.6862811887521172
 40
0.8235169760385891
 40
0.9607491637861604
 40
1.0
 40
1.0
 40
1.0
 40
1.0
 10
72.0
 20
1.77181237383719
 30
0.0
 10
71.14562673031739
 20
2.246903617166424
 30
0.0
 10
69.43694536850859
 20
3.197049860548812
 30
0.0
 10
66.87406345233
 20
4.496974990736955
 30
0.0
 10
64.3113823424782
 20
5.648224195938802
 30
0.0
 10
61.74887540632239
 20
6.60419064170551
 30
0.0
 10
59.18651061113989
 20
7.340743236138773
 30
0.0
 10
56.62425794167093
 20
7.806329740667008
 30
0.0
 10
54.6718505559094
 20
8.016718856305033
 30
0.0
 10
53.57352469377646
 20
7.980215926925646
 30
0.0
 10
53.32925072591068
 20
7.972097466179481
 30
0.0
  0
SPLINE
  5
BF
330
1F
100
AcDbEntity
  8
0
  6
Continuous
 62
     1
370
    25
100
AcDbSpline
210
0.0
220
0.0
230
1.0
 70
     8
 71
     3
 72
    10
 73
     6
 74
     0
 42
0.000000001
 43
0.00000001
 40
0.0
 40
0.0
 40
0.0
 40
0.0
 40
0.0065128170159475
 40
0.50325421681447
 40
0.9999999999999999
 40
0.9999999999999999
 40
0.9999999999999999
 40
0.9999999999999999
 10
17.58636184673493
 20
-6.767479773978219
 30
0.0
 10
17.57423422619086
 20
-6.771769953598878
 30
0.0
 10
16.6371165144873
 20
-7.103277959996221
 30
0.0
 10
14.77499677859871
 20
-7.53671178271322
 30
0.0
 10
12.92500164700126
 20
-7.778376225220646
 30
0.0
 10
12.00000000000011
 20
-7.899208979600902
 30
0.0
  0
LINE
  5
C0
330
1F
100
AcDbEntity
  8
0
  6
Continuous
 62
     1
370
    25
100
AcDbLine
 10
72.0
 20
-0.5000000000000266
 30
0.0
 11
72.0
 21
1.771812373837344
 31
0.0
  0
LINE
  5
C1
330
1F
100
AcDbEntity
  8
0
  6
Continuous
 62
     1
370
    25
100
AcDbLine
 10
72.0
 20
-0.5000000000000264
 30
0.0
 11
70.99672350478286
 21
-1.202501764859683
 31
0.0
  0
SPLINE
  5
C2
330
1F
100
AcDbEntity
  8
0
  6
Continuous
 62
     1
370
    25
100
AcDbSpline
210
0.0
220
0.0
230
1.0
 70
     8
 71
     3
 72
    18
 73
    14
 74
     0
 42
0.000000001
 43
0.00000001
 40
0.0
 40
0.0
 40
0.0
 40
0.0
 40
0.0243021572041602
 40
0.1179843172309091
 40
0.2116715750042348
 40
0.3053648667554232
 40
0.3990651249730021
 40
0.4927680502841621
 40
0.5942149708369542
 40
0.6956609837424886
 40
0.7971064740291026
 40
0.8985527894190207
 40
1.0
 40
1.0
 40
1.0
 40
1.0
 10
39.35376615273471
 20
-6.747019947194406
 30
0.0
 10
39.13219095943229
 20
-6.821682654254378
 30
0.0
 10
38.05646761201615
 20
-7.184161937104796
 30
0.0
 10
36.12652818485596
 20
-7.602345270389329
 30
0.0
 10
33.56388473130642
 20
-7.96508255565695
 30
0.0
 10
31.0010444379279
 20
-8.03830013350115
 30
0.0
 10
28.43801329321415
 20
-7.842128188376707
 30
0.0
 10
25.80428013426587
 20
-7.364505412963099
 30
0.0
 10
23.09989768339392
 20
-6.597530680226613
 30
0.0
 10
20.32493106343362
 20
-5.546970536391255
 30
0.0
 10
17.54997244766709
 20
-4.273699208101436
 30
0.0
 10
14.77499699424869
 20
-2.833209383123303
 30
0.0
 10
12.9250017188848
 20
-1.788336598622222
 30
0.0
 10
12.00000000000011
 20
-1.265897901318397
 30
0.0
  0
LINE
  5
C3
330
1F
100
AcDbEntity
  8
0
  6
Continuous
 62
     4
370
    25
100
AcDbLine
 10
11.99999999999999
 20
6.577459212585243
 30
0.0
 11
11.99999999999999
 21
6.481191490183712
 31
0.0
  0
SPLINE
  5
C4
330
1F
100
AcDbEntity
  8
0
  6
Continuous
 62
     4
370
    25
100
AcDbSpline
210
0.0
220
0.0
230
1.0
 70
    24
 71
     3
 72
    13
 73
     9
 74
     0
 42
0.000000001
 43
0.00000001
 40
0.0
 40
0.0
 40
0.0
 40
0.0
 40
0.084789021575149
 40
0.2963730172479892
 40
0.5079570129208293
 40
0.7195410085936688
 40
0.9311250042665079
 40
1.0
 40
1.0
 40
1.0
 40
1.0
 10
11.99999999999999
 20
1.54587568088583
 30
0.0
 10
11.99999999999999
 20
1.431316400003226
 30
0.0
 10
11.99999999999999
 20
1.030883901807158
 30
0.0
 10
11.99999999999999
 20
0.426260657949452
 30
0.0
 10
11.99999999999999
 20
-0.2446183833234203
 30
0.0
 10
11.99999999999999
 20
-0.784298866650279
 30
0.0
 10
11.99999999999997
 20
-1.102987885438687
 30
0.0
 10
11.99999999999999
 20
-1.233778419499871
 30
0.0
 10
12.0
 20
-1.265897901318851
 30
0.0
  0
SPLINE
  5
C5
330
1F
100
AcDbEntity
  8
0
  6
Continuous
 62
     1
370
    25
100
AcDbSpline
210
0.0
220
0.0
230
1.0
 70
     8
 71
     3
 72
     8
 73
     4
 74
     0
 42
0.000000001
 43
0.00000001
 40
0.0
 40
0.0
 40
0.0
 40
0.0
 40
1.0
 40
1.0
 40
1.0
 40
1.0
 10
72.0
 20
-5.869334219275755
 30
0.0
 10
70.66373915393407
 20
-5.118291190075192
 30
0.0
 10
69.40235313831809
 20
-4.197643585156668
 30
0.0
 10
68.18880970275947
 20
-3.168624175679533
 30
0.0
  0
LINE
  5
C6
330
1F
100
AcDbEntity
  8
0
  6
Continuous
 62
     1
370
    25
100
AcDbLine
 10
72.0
 20
-7.801325586842095
 30
0.0
 11
72.0
 21
-5.869334219275751
 31
0.0
  0
SPLINE
  5
C7
330
1F
100
AcDbEntity
  8
0
  6
Continuous
 62
     1
370
    25
100
AcDbSpline
210
0.0
220
0.0
230
1.0
 70
    24
 71
     3
 72
    20
 73
    16
 74
     0
 42
0.000000001
 43
0.00000001
 40
0.0
 40
0.0
 40
0.0
 40
0.0
 40
0.2500000000000001
 40
0.2500000000000001
 40
0.3750000000000001
 40
0.3750000000000001
 40
0.5000000000000001
 40
0.5000000000000001
 40
0.6250000000000001
 40
0.6250000000000001
 40
0.7500000000000002
 40
0.7500000000000002
 40
0.8750000000000002
 40
0.8750000000000002
 40
1.0
 40
1.0
 40
1.0
 40
1.0
 10
70.99672350478286
 20
-1.20250176485968
 30
0.0
 10
70.9996650519819
 20
-1.200442071336915
 30
0.0
 10
70.95239375729
 20
-1.233541788221101
 30
0.0
 10
70.781453429105
 20
-1.353235494600306
 30
0.0
 10
70.70640116497742
 20
-1.405787655702126
 30
0.0
 10
70.522870889773
 20
-1.534296937889951
 30
0.0
 10
70.41421349725763
 20
-1.610379663211428
 30
0.0
 10
70.15958373356872
 20
-1.788673343198959
 30
0.0
 10
70.01561625912305
 20
-1.889480454062826
 30
0.0
 10
69.70285223432515
 20
-2.108480181907114
 30
0.0
 10
69.53121629518986
 20
-2.228660960317393
 30
0.0
 10
69.16918409057973
 20
-2.482158639060087
 30
0.0
 10
68.98095212259628
 20
-2.613960081974106
 30
0.0
 10
68.59152745728676
 20
-2.886638168188625
 30
0.0
 10
68.3898304053771
 20
-3.027867964370444
 30
0.0
 10
68.18880970275944
 20
-3.168624175679547
 30
0.0
  0
SPLINE
  5
C8
330
1F
100
AcDbEntity
  8
0
  6
Continuous
 62
     1
370
    25
100
AcDbSpline
210
0.0
220
0.0
230
1.0
 70
     8
 71
     3
 72
    12
 73
     8
 74
     0
 42
0.000000001
 43
0.00000001
 40
0.0
 40
0.0
 40
0.0
 40
0.0
 40
0.2074791486283429
 40
0.4149564664179835
 40
0.6224320967119296
 40
0.8299087958625556
 40
0.9999999999999999
 40
0.9999999999999999
 40
0.9999999999999999
 40
0.9999999999999999
 10
11.99999999999881
 20
-4.553792958292639
 30
0.0
 10
12.92500171287814
 20
-4.975132319142479
 30
0.0
 10
14.77499697623136
 20
-5.817807322856939
 30
0.0
 10
17.54997251973057
 20
-6.802757962908775
 30
0.0
 10
20.32493079319399
 20
-7.519647828920279
 30
0.0
 10
22.93321560782726
 20
-7.939974148658907
 30
0.0
 10
24.61652094608484
 20
-7.965046869050775
 30
0.0
 10
25.37483601847799
 20
-7.97634192131903
 30
0.0
  0
SPLINE
  5
C9
330
1F
100
AcDbEntity
  8
0
  6
Continuous
 62
     1
370
    25
100
AcDbSpline
210
0.0
220
0.0
230
1.0
 70
     8
 71
     3
 72
    12
 73
     8
 74
     0
 42
0.000000001
 43
0.00000001
 40
0.0
 40
0.0
 40
0.0
 40
0.0
 40
0.031921925169135
 40
0.2739984579932119
 40
0.5160616485616786
 40
0.7580546358371527
 40
1.0
 40
1.0
 40
1.0
 40
1.0
 10
61.09843246536544
 20
6.752418616990176
 30
0.0
 10
61.20375484566292
 20
6.788506402141724
 30
0.0
 10
62.10777832296848
 20
7.098262077324978
 30
0.0
 10
63.81063269966674
 20
7.491287878891287
 30
0.0
 10
66.20655217419852
 20
7.888182187706757
 30
0.0
 10
68.60188348706237
 20
8.047779395257217
 30
0.0
 10
70.19849587169801
 20
7.955328772126028
 30
0.0
 10
70.99672350478286
 20
7.909108009472938
 30
0.0
  0
LINE
  5
CA
330
1F
100
AcDbEntity
  8
0
  6
Continuous
 62
     4
370
    25
100
AcDbLine
 10
11.99999999999999
 20
-4.553792958301696
 30
0.0
 11
12.0
 21
-1.265897901318851
 31
0.0
  0
ELLIPSE
  5
CB
330
1F
100
AcDbEntity
  8
0
  6
Continuous
 62
     1
370
    25
100
AcDbEllipse
 10
72.71407400337105
 20
-0.0000000000000025
 30
0.0
 11
11.42518405393689
 21
5.350968460038300E-17
 31
0.0
210
0.0
220
0.0
230
1.0
 40
0.700207538209712
 41
1.633337088591386
 42
1.721680906384338
  0
LINE
  5
CC
330
1F
100
AcDbEntity
  8
0
  6
Continuous
 62
     1
370
    25
100
AcDbLine
 10
72.0
 20
7.984359711335664
 30
0.0
 11
72.0
 21
8.000000000000007
 31
0.0
  0
SPLINE
  5
CD
330
1F
100
AcDbEntity
  8
0
  6
Continuous
 62
     1
370
    25
100
AcDbSpline
210
0.0
220
0.0
230
1.0
 70
     8
 71
     3
 72
    20
 73
    16
 74
     0
 42
0.000000001
 43
0.00000001
 40
0.0
 40
0.0
 40
0.0
 40
0.0
 40
0.2499999999999999
 40
0.2499999999999999
 40
0.3749999999999999
 40
0.3749999999999999
 40
0.4999999999999999
 40
0.4999999999999999
 40
0.6249999999999999
 40
0.6249999999999999
 40
0.7499999999999999
 40
0.7499999999999999
 40
0.875
 40
0.875
 40
1.0
 40
1.0
 40
1.0
 40
1.0
 10
70.99672350478286
 20
7.909108009472945
 30
0.0
 10
70.9996650519819
 20
7.413100832431158
 30
0.0
 10
70.95239375729
 20
6.927723577167955
 30
0.0
 10
70.78145342910497
 20
6.220834489490262
 30
0.0
 10
70.70640116497742
 20
5.986906706860474
 30
0.0
 10
70.522870889773
 20
5.547875627028893
 30
0.0
 10
70.41421349725763
 20
5.340637516351549
 30
0.0
 10
70.15958373356872
 20
4.953282127139603
 30
0.0
 10
70.01561625912305
 20
4.777003447864921
 30
0.0
 10
69.7028522343252
 20
4.467865028908155
 30
0.0
 10
69.53121629518984
 20
4.332295677425329
 30
0.0
 10
69.1691840905797
 20
4.107026517678907
 30
0.0
 10
68.9809521225963
 20
4.018045592823291
 30
0.0
 10
68.59152745728679
 20
3.882569098898115
 30
0.0
 10
68.38983040537713
 20
3.836445033137184
 30
0.0
 10
68.18880970275947
 20
3.811190297240514
 30
0.0
  0
SPLINE
  5
CE
330
1F
100
AcDbEntity
  8
0
  6
Continuous
 62
     1
370
    25
100
AcDbSpline
210
0.0
220
0.0
230
1.0
 70
     8
 71
     3
 72
     8
 73
     4
 74
     0
 42
0.000000001
 43
0.00000001
 40
0.0
 40
0.0
 40
0.0
 40
0.0
 40
1.0
 40
1.0
 40
1.0
 40
1.0
 10
72.0
 20
1.954277833643307
 30
0.0
 10
70.66373915393407
 20
2.676629013086654
 30
0.0
 10
69.40235313831809
 20
3.281456547503831
 30
0.0
 10
68.18880970275944
 20
3.811190297240513
 30
0.0
  0
SPLINE
  5
CF
330
1F
100
AcDbEntity
  8
0
  6
Continuous
 62
     4
370
    25
100
AcDbSpline
210
0.0
220
0.0
230
1.0
 70
    24
 71
     3
 72
    12
 73
     8
 74
     0
 42
0.000000001
 43
0.00000001
 40
0.0
 40
0.0
 40
0.0
 40
0.0
 40
0.1881223105771523
 40
0.4322578109723414
 40
0.6763933113675292
 40
0.9205288117627175
 40
1.0
 40
1.0
 40
1.0
 40
1.0
 10
11.99999999999999
 20
-4.886456648654878
 30
0.0
 10
11.99999999999999
 20
-5.022150413712707
 30
0.0
 10
11.99999999999999
 20
-5.333940597803799
 30
0.0
 10
11.99999999999999
 20
-5.967507813113168
 30
0.0
 10
11.99999999999999
 20
-6.742213750922375
 30
0.0
 10
11.99999999999997
 20
-7.406163975952746
 30
0.0
 10
11.99999999999999
 20
-7.801999793628887
 30
0.0
 10
12.0
 20
-7.899208979602561
 30
0.0
  0
LINE
  5
D0
330
1F
100
AcDbEntity
  8
0
  6
Continuous
 62
     1
370
    25
100
AcDbLine
 10
72.0
 20
1.778213507894594
 30
0.0
 11
72.0
 21
1.954277833643307
 31
0.0
  0
LINE
  5
D1
330
1F
100
AcDbEntity
  8
0
  6
Continuous
 62
     1
370
    25
100
AcDbLine
 10
72.0
 20
-0.4999999999999988
 30
0.0
 11
72.0
 21
-5.869334219275756
 31
0.0
  0
LINE
  5
D2
330
1F
100
AcDbEntity
  8
0
  6
Continuous
 62
     1
370
    25
100
AcDbLine
 10
72.0
 20
1.954277833643307
 30
0.0
 11
72.0
 21
7.984359711335664
 31
0.0
  0
LINE
  5
D3
330
1F
100
AcDbEntity
  8
중심선
100
AcDbLine
 10
-51.0
 20
-0.0000000000000077
 30
0.0
 11
75.0
 21
0.0000000000000077
 31
0.0
  0
CIRCLE
  5
D4
330
1F
100
AcDbEntity
  8
해칭선
100
AcDbCircle
 10
0.0000736083154654
 20
-0.0000000000000043
 30
0.0
 40
3.0
  0
INSERT
  5
D5
330
1F
100
AcDbEntity
  8
0
  6
Continuous
 62
     7
100
AcDbBlockReference
 66
     1
  2
블럭10
 10
-2.440099248941776
 20
-52.04717430164393
 30
0.0
  0
ATTRIB
  5
D6
330
D5
100
AcDbEntity
  8
FORMAT
 62
     2
100
AcDbText
 10
-18.55936028837733
 20
-49.97180738881174
 30
0.0
 40
4.233333333333333
  1
SEME7216060E [ 4 FLUTE ]
 41
0.75
  7
SLDTEXTSTYLE0
 11
-18.55936028837733
 21
-52.08847405547841
 31
0.0
100
AcDbAttribute
  2
AUTOATTR0
 70
     0
 74
     1
  0
SEQEND
  5
D7
330
D5
100
AcDbEntity
  8
0
  6
Continuous
 62
     7
  0
HATCH
  5
D8
330
1F
100
AcDbEntity
  8
중심선
100
AcDbHatch
 10
0.0
 20
0.0
 30
0.0
210
0.0
220
0.0
230
1.0
  2
SOLID
 70
     1
 71
     0
 91
        1
 92
        0
 93
        4
 72
     1
 10
3.274810055439059
 20
-35.8
 11
-0.1714651883982232
 21
-35.8
 72
     1
 10
-0.1714651883982232
 20
-35.8
 11
-2.299695047602246
 21
-38.33632558057257
 72
     1
 10
-2.299695047602246
 20
-38.33632558057257
 11
1.146613281348186
 21
-38.33628615127008
 72
     1
 10
1.146613281348186
 20
-38.33628615127008
 11
3.274810055439059
 21
-35.8
 97
        0
 75
     0
 76
     1
 98
        1
 10
0.0
 20
0.0
  0
HATCH
  5
D9
330
1F
100
AcDbEntity
  8
중심선
100
AcDbHatch
 10
0.0
 20
0.0
 30
0.0
210
0.0
220
0.0
230
1.0
  2
SOLID
 70
     1
 71
     0
 91
        1
 92
        0
 93
        4
 72
     1
 10
8.287574046475065
 20
-35.79999999999997
 11
4.841298802637755
 21
-35.79999999999997
 72
     1
 10
4.841298802637755
 20
-35.79999999999997
 11
0.3101607942803399
 21
-41.20000000000002
 72
     1
 10
0.3101607942803397
 20
-41.20000000000002
 11
3.756436038117622
 21
-41.20000000000002
 72
     1
 10
3.756436038117622
 20
-41.20000000000002
 11
8.287574046475065
 21
-35.79999999999997
 97
        0
 75
     0
 76
     1
 98
        1
 10
0.0
 20
0.0
  0
HATCH
  5
DA
330
1F
100
AcDbEntity
  8
중심선
100
AcDbHatch
 10
0.0
 20
0.0
 30
0.0
210
0.0
220
0.0
230
1.0
  2
SOLID
 70
     1
 71
     0
 91
        1
 92
        0
 93
        4
 72
     1
 10
13.30033803751093
 20
-35.79999999999997
 11
9.854062793673817
 21
-35.79999999999997
 72
     1
 10
9.854062793673817
 20
-35.79999999999997
 11
2.805625891784541
 21
-44.20000000000002
 72
     1
 10
2.805625891784541
 20
-44.20000000000002
 11
6.251901135621823
 21
-44.20000000000002
 72
     1
 10
6.251901135621823
 20
-44.20000000000002
 11
13.30033803751093
 21
-35.79999999999997
 97
        0
 75
     0
 76
     1
 98
        1
 10
0.0
 20
0.0
  0
HATCH
  5
DB
330
1F
100
AcDbEntity
  8
중심선
100
AcDbHatch
 10
0.0
 20
0.0
 30
0.0
210
0.0
220
0.0
230
1.0
  2
SOLID
 70
     1
 71
     0
 91
        1
 92
        0
 93
        6
 72
     3
 10
18.10022846852311
 20
-40.00000000005127
 11
3.960054785062284
 21
1.540850780301639E-10
 40
0.3939339440162633
 50
17.09539180608434
 51
320.0019657685081
 73
     0
 72
     1
 10
19.78322812422367
 20
-38.58789400463833
 11
22.08852999792474
 21
-36.65356729459038
 72
     3
 10
18.10022846847026
 20
-40.00000000000015
 11
6.600054785286829
 21
-1.249000902703301E-13
 40
0.6363583540795982
 50
39.9987384933741
 51
368.4976242363725
 73
     1
 72
     1
 10
24.52556096037087
 20
-39.03999999993002
 11
16.78029577530618
 21
-39.03999999993002
 72
     1
 10
16.78029577530618
 20
-39.03999999993002
 11
16.78027073086025
 21
-40.95999999992991
 72
     1
 10
16.78027073086025
 20
-40.95999999992991
 11
21.22165050033228
 21
-40.95999999992988
 97
        0
 75
     0
 76
     1
 98
        1
 10
0.0
 20
0.0
  0
DIMENSION
  5
DC
330
1F
100
AcDbEntity
  8
치수문자_일반주서
100
AcDbDimension
  2
_D
 10
87.43607109156973
 20
8.000000000000066
 30
0.0
 11
87.43607109156969
 21
18.54150000000007
 31
0.0
 70
   160
  1
%%c<>
 71
     2
 42
16.00000000000002
 52
-270.0
  3
SLDDIMSTYLE0
100
AcDbAlignedDimension
 13
72.0
 23
-8.000000000000016
 33
0.0
 14
72.0
 24
8.000000000000009
 34
0.0
 50
90.0000000000002
100
AcDbRotatedDimension
  0
DIMENSION
  5
EA
330
1F
100
AcDbEntity
  8
치수문자_일반주서
100
AcDbDimension
  2
_D_1
 10
72.0
 20
25.38913260158164
 30
0.0
 11
12.0
 21
25.38913260158164
 31
0.0
 70
   160
  1
<>
 71
     2
 42
120.0
  3
SLDDIMSTYLE1
100
AcDbAlignedDimension
 13
-48.0
 23
7.499999999999989
 33
0.0
 14
72.0
 24
8.000000000000007
 34
0.0
 50
-0.0000000000000034
100
AcDbRotatedDimension
  0
DIMENSION
  5
F5
330
1F
100
AcDbEntity
  8
치수문자_일반주서
100
AcDbDimension
  2
_D_2
 10
-60.17377265952877
 20
-8.000000000000057
 30
0.0
 11
-60.17377265952886
 21
18.54149999999996
 31
0.0
 70
   160
  1
%%c<>
 71
     2
 42
16.00000000000001
 52
-270.0
  3
SLDDIMSTYLE2
100
AcDbAlignedDimension
 13
-47.5
 23
8.000000000000004
 33
0.0
 14
-47.5
 24
-8.00000000000001
 34
0.0
 50
90.0000000000002
100
AcDbRotatedDimension
  0
DIMENSION
  5
103
330
1F
100
AcDbEntity
  8
치수문자_일반주서
100
AcDbDimension
  2
_D_3
 10
72.0
 20
18.74512728219042
 30
0.0
 11
41.99999999999997
 21
18.74512728219042
 31
0.0
 70
   160
  1
<>
 71
     2
 42
60.00000000000001
  3
SLDDIMSTYLE1
100
AcDbAlignedDimension
 13
11.99999999999999
 23
7.899208979602747
 33
0.0
 14
72.0
 24
8.000000000000007
 34
0.0
 50
0.0000000000000475
100
AcDbRotatedDimension
  0
INSERT
  5
113
330
1F
100
AcDbEntity
  8
해칭선
100
AcDbBlockReference
  2
SW_DOWELSYMBOL_0
 10
0.0000736083154654
 20
-0.0000000000000043
 30
0.0
  0
ENDSEC
  0
SECTION
  2
OBJECTS
  0
DICTIONARY
  5
C
330
0
100
AcDbDictionary
281
     1
  3
ACAD_GROUP
350
D
  3
ACAD_IMAGE_VARS
350
137
  3
ACAD_LAYOUT
350
1A
  3
ACAD_MLINESTYLE
350
17
  3
ACAD_PLOTSETTINGS
350
19
  3
ACAD_PLOTSTYLENAME
350
E
  3
ACAD_SCALELIST
350
47
  3
APPDATA
350
135
  3
DWGPROPS
350
147
  0
DICTIONARY
  5
D
102
{ACAD_REACTORS
330
C
102
}
330
C
100
AcDbDictionary
281
     1
  0
RASTERVARIABLES
  5
137
102
{ACAD_REACTORS
330
C
102
}
330
C
100
AcDbRasterVariables
 90
        0
 70
     1
 71
     1
 72
     1
  0
DICTIONARY
  5
1A
102
{ACAD_REACTORS
330
C
102
}
330
C
100
AcDbDictionary
281
     1
  3
Layout1
350
1E
  3
Layout2
350
26
  3
Model
350
22
  0
DICTIONARY
  5
17
102
{ACAD_REACTORS
330
C
102
}
330
C
100
AcDbDictionary
281
     1
  3
Standard
350
18
  0
DICTIONARY
  5
19
102
{ACAD_REACTORS
330
C
102
}
330
C
100
AcDbDictionary
281
     1
  0
ACDBDICTIONARYWDFLT
  5
E
102
{ACAD_REACTORS
330
C
102
}
330
C
100
AcDbDictionary
281
     1
  3
Normal
350
F
100
AcDbDictionaryWithDefault
340
F
  0
DICTIONARY
  5
47
102
{ACAD_REACTORS
330
C
102
}
330
C
100
AcDbDictionary
281
     1
  3
A0
350
48
  3
A1
350
49
  3
A2
350
4A
  3
A3
350
4B
  3
A4
350
4C
  3
A5
350
4D
  3
A6
350
4E
  3
A7
350
4F
  3
A8
350
50
  3
A9
350
51
  3
B0
350
52
  3
B1
350
53
  3
B2
350
54
  3
B3
350
55
  3
B4
350
56
  3
B5
350
57
  3
B6
350
58
  3
B7
350
59
  3
B8
350
5A
  3
B9
350
5B
  3
C0
350
5C
  3
C1
350
5D
  3
C2
350
5E
  3
C3
350
5F
  3
C4
350
60
  3
C5
350
61
  3
C6
350
62
  3
C7
350
63
  3
C8
350
64
  3
C9
350
65
  3
D0
350
66
  3
D1
350
67
  3
D2
350
68
  0
DICTIONARY
  5
135
102
{ACAD_REACTORS
330
C
102
}
330
C
100
AcDbDictionary
281
     1
  0
XRECORD
  5
147
102
{ACAD_REACTORS
330
C
102
}
330
C
100
AcDbXrecord
280
     1
  1
DWGPROPS COOKIE
  2

  3

  4

  6

  7

  8
12014102
  9

300
=
301
=
302
=
303
=
304
=
305
=
306
=
307
=
308
=
309
=
 40
0.0
 41
2458260.208640879
 42
2458268.219572141
  1

 90
        0
  0
LAYOUT
  5
1E
102
{ACAD_REACTORS
330
1A
102
}
330
1A
100
AcDbPlotSettings
  1

  2
none_device
  4

  6

 40
0.0
 41
0.0
 42
0.0
 43
0.0
 44
0.0
 45
0.0
 46
0.0
 47
0.0
 48
0.0
 49
0.0
140
0.0
141
0.0
142
1.0
143
1.0
 70
   688
 72
     1
 73
     0
 74
     5
  7

 75
    16
147
1.0
148
0.0
149
0.0
100
AcDbLayout
  1
Layout1
 70
     1
 71
     1
 10
0.0
 20
0.0
 11
420.0
 21
297.0
 12
0.0
 22
0.0
 32
0.0
 14
1.000000000000000E+20
 24
1.000000000000000E+20
 34
1.000000000000000E+20
 15
-1.000000000000000E+20
 25
-1.000000000000000E+20
 35
-1.000000000000000E+20
146
0.0
 13
0.0
 23
0.0
 33
0.0
 16
1.0
 26
0.0
 36
0.0
 17
0.0
 27
1.0
 37
0.0
 76
     0
330
1B
  0
LAYOUT
  5
26
102
{ACAD_REACTORS
330
1A
102
}
330
1A
100
AcDbPlotSettings
  1

  2
none_device
  4

  6

 40
0.0
 41
0.0
 42
0.0
 43
0.0
 44
0.0
 45
0.0
 46
0.0
 47
0.0
 48
0.0
 49
0.0
140
0.0
141
0.0
142
1.0
143
1.0
 70
   688
 72
     1
 73
     0
 74
     5
  7

 75
    16
147
1.0
148
0.0
149
0.0
100
AcDbLayout
  1
Layout2
 70
     1
 71
     2
 10
0.0
 20
0.0
 11
0.0
 21
0.0
 12
0.0
 22
0.0
 32
0.0
 14
0.0
 24
0.0
 34
0.0
 15
0.0
 25
0.0
 35
0.0
146
0.0
 13
0.0
 23
0.0
 33
0.0
 16
1.0
 26
0.0
 36
0.0
 17
0.0
 27
1.0
 37
0.0
 76
     0
330
23
  0
LAYOUT
  5
22
102
{ACAD_REACTORS
330
1A
102
}
330
1A
100
AcDbPlotSettings
  1

  2
none_device
  4
ANSI_A_(11.00_x_8.50_Inches)
  6

 40
6.35
 41
19.05
 42
6.35000508
 43
19.05000254
 44
279.4
 45
215.9
 46
113.928116685693
 47
107.4891323831017
 48
0.0
 49
0.0
140
0.0
141
0.0
142
0.0703203501998302
143
1.0
 70
  1696
 72
     0
 73
     0
 74
     0
  7

 75
     0
147
0.0235690232323232
148
0.0
149
0.0
100
AcDbLayout
  1
Model
 70
     1
 71
     0
 10
0.0
 20
0.0
 11
420.0
 21
297.0
 12
0.0
 22
0.0
 32
0.0
 14
-64.54877265952888
 24
-49.97180738881174
 34
0.0
 15
87.98640442490313
 25
29.76413260158164
 35
0.0
146
0.0
 13
0.0
 23
0.0
 33
0.0
 16
1.0
 26
0.0
 36
0.0
 17
0.0
 27
1.0
 37
0.0
 76
     0
330
1F
331
29
  0
MLINESTYLE
  5
18
102
{ACAD_REACTORS
330
17
102
}
330
17
100
AcDbMlineStyle
  2
Standard
 70
     0
  3

 62
   256
 51
90.0
 52
90.0
 71
     2
 49
0.5
 62
   256
  6
BYLAYER
 49
-0.5
 62
   256
  6
BYLAYER
  0
ACDBPLACEHOLDER
  5
F
102
{ACAD_REACTORS
330
E
102
}
330
E
  0
SCALE
  5
48
102
{ACAD_REACTORS
330
47
102
}
330
47
100
AcDbScale
 70
     0
300
1:1
140
1.0
141
1.0
290
     1
  0
SCALE
  5
49
102
{ACAD_REACTORS
330
47
102
}
330
47
100
AcDbScale
 70
     0
300
1:2
140
1.0
141
2.0
290
     0
  0
SCALE
  5
4A
102
{ACAD_REACTORS
330
47
102
}
330
47
100
AcDbScale
 70
     0
300
1:4
140
1.0
141
4.0
290
     0
  0
SCALE
  5
4B
102
{ACAD_REACTORS
330
47
102
}
330
47
100
AcDbScale
 70
     0
300
1:5
140
1.0
141
5.0
290
     0
  0
SCALE
  5
4C
102
{ACAD_REACTORS
330
47
102
}
330
47
100
AcDbScale
 70
     0
300
1:8
140
1.0
141
8.0
290
     0
  0
SCALE
  5
4D
102
{ACAD_REACTORS
330
47
102
}
330
47
100
AcDbScale
 70
     0
300
1:10
140
1.0
141
10.0
290
     0
  0
SCALE
  5
4E
102
{ACAD_REACTORS
330
47
102
}
330
47
100
AcDbScale
 70
     0
300
1:16
140
1.0
141
16.0
290
     0
  0
SCALE
  5
4F
102
{ACAD_REACTORS
330
47
102
}
330
47
100
AcDbScale
 70
     0
300
1:20
140
1.0
141
20.0
290
     0
  0
SCALE
  5
50
102
{ACAD_REACTORS
330
47
102
}
330
47
100
AcDbScale
 70
     0
300
1:30
140
1.0
141
30.0
290
     0
  0
SCALE
  5
51
102
{ACAD_REACTORS
330
47
102
}
330
47
100
AcDbScale
 70
     0
300
1:40
140
1.0
141
40.0
290
     0
  0
SCALE
  5
52
102
{ACAD_REACTORS
330
47
102
}
330
47
100
AcDbScale
 70
     0
300
1:50
140
1.0
141
50.0
290
     0
  0
SCALE
  5
53
102
{ACAD_REACTORS
330
47
102
}
330
47
100
AcDbScale
 70
     0
300
1:100
140
1.0
141
100.0
290
     0
  0
SCALE
  5
54
102
{ACAD_REACTORS
330
47
102
}
330
47
100
AcDbScale
 70
     0
300
2:1
140
2.0
141
1.0
290
     0
  0
SCALE
  5
55
102
{ACAD_REACTORS
330
47
102
}
330
47
100
AcDbScale
 70
     0
300
4:1
140
4.0
141
1.0
290
     0
  0
SCALE
  5
56
102
{ACAD_REACTORS
330
47
102
}
330
47
100
AcDbScale
 70
     0
300
8:1
140
8.0
141
1.0
290
     0
  0
SCALE
  5
57
102
{ACAD_REACTORS
330
47
102
}
330
47
100
AcDbScale
 70
     0
300
10:1
140
10.0
141
1.0
290
     0
  0
SCALE
  5
58
102
{ACAD_REACTORS
330
47
102
}
330
47
100
AcDbScale
 70
     0
300
100:1
140
100.0
141
1.0
290
     0
  0
SCALE
  5
59
102
{ACAD_REACTORS
330
47
102
}
330
47
100
AcDbScale
 70
     0
300
1/128" = 1'-0"
140
0.0078125
141
12.0
290
     0
  0
SCALE
  5
5A
102
{ACAD_REACTORS
330
47
102
}
330
47
100
AcDbScale
 70
     0
300
1/64" = 1'-0"
140
0.015625
141
12.0
290
     0
  0
SCALE
  5
5B
102
{ACAD_REACTORS
330
47
102
}
330
47
100
AcDbScale
 70
     0
300
1/32" = 1'-0"
140
0.03125
141
12.0
290
     0
  0
SCALE
  5
5C
102
{ACAD_REACTORS
330
47
102
}
330
47
100
AcDbScale
 70
     0
300
1/16" = 1'-0"
140
0.0625
141
12.0
290
     0
  0
SCALE
  5
5D
102
{ACAD_REACTORS
330
47
102
}
330
47
100
AcDbScale
 70
     0
300
3/32" = 1'-0"
140
0.09375
141
12.0
290
     0
  0
SCALE
  5
5E
102
{ACAD_REACTORS
330
47
102
}
330
47
100
AcDbScale
 70
     0
300
1/8" = 1'-0"
140
0.125
141
12.0
290
     0
  0
SCALE
  5
5F
102
{ACAD_REACTORS
330
47
102
}
330
47
100
AcDbScale
 70
     0
300
3/16" = 1'-0"
140
0.1875
141
12.0
290
     0
  0
SCALE
  5
60
102
{ACAD_REACTORS
330
47
102
}
330
47
100
AcDbScale
 70
     0
300
1/4" = 1'-0"
140
0.25
141
12.0
290
     0
  0
SCALE
  5
61
102
{ACAD_REACTORS
330
47
102
}
330
47
100
AcDbScale
 70
     0
300
3/8" = 1'-0"
140
0.375
141
12.0
290
     0
  0
SCALE
  5
62
102
{ACAD_REACTORS
330
47
102
}
330
47
100
AcDbScale
 70
     0
300
1/2" = 1'-0"
140
0.5
141
12.0
290
     0
  0
SCALE
  5
63
102
{ACAD_REACTORS
330
47
102
}
330
47
100
AcDbScale
 70
     0
300
3/4" = 1'-0"
140
0.75
141
12.0
290
     0
  0
SCALE
  5
64
102
{ACAD_REACTORS
330
47
102
}
330
47
100
AcDbScale
 70
     0
300
1" = 1'-0"
140
1.0
141
12.0
290
     0
  0
SCALE
  5
65
102
{ACAD_REACTORS
330
47
102
}
330
47
100
AcDbScale
 70
     0
300
1-1/2" = 1'-0"
140
1.5
141
12.0
290
     0
  0
SCALE
  5
66
102
{ACAD_REACTORS
330
47
102
}
330
47
100
AcDbScale
 70
     0
300
3" = 1'-0"
140
3.0
141
12.0
290
     0
  0
SCALE
  5
67
102
{ACAD_REACTORS
330
47
102
}
330
47
100
AcDbScale
 70
     0
300
6" = 1'-0"
140
6.0
141
12.0
290
     0
  0
SCALE
  5
68
102
{ACAD_REACTORS
330
47
102
}
330
47
100
AcDbScale
 70
     0
300
1'-0" = 1'-0"
140
12.0
141
12.0
290
     0
  0
ENDSEC
  0
EOF
