  0
SECTION
  2
HEADER
  9
$ACADVER
  1
AC1015
  9
$ACADMAINTVER
 70
     6
  9
$DWGCODEPAGE
  3
ANSI_949
  9
$INSBASE
 10
0.0
 20
0.0
 30
0.0
  9
$EXTMIN
 10
-114.9599165868708
 20
-49.97180738881175
 30
0.0
  9
$EXTMAX
 10
67.3523996984329
 20
29.76413260158162
 30
0.0
  9
$LIMMIN
 10
0.0
 20
0.0
  9
$LIMMAX
 10
420.0
 20
297.0
  9
$ORTHOMODE
 70
     0
  9
$REGENMODE
 70
     1
  9
$FILLMODE
 70
     1
  9
$QTEXTMODE
 70
     0
  9
$MIRRTEXT
 70
     1
  9
$LTSCALE
 40
1.0
  9
$ATTMODE
 70
     1
  9
$TEXTSIZE
 40
3.5
  9
$TRACEWID
 40
1.0
  9
$TEXTSTYLE
  7
Standard
  9
$CLAYER
  8
0
  9
$CELTYPE
  6
ByLayer
  9
$CECOLOR
 62
   256
  9
$CELTSCALE
 40
1.0
  9
$DISPSILH
 70
     0
  9
$DIMSCALE
 40
1.0
  9
$DIMASZ
 40
3.302
  9
$DIMEXO
 40
1.0
  9
$DIMDLI
 40
3.75
  9
$DIMRND
 40
0.0
  9
$DIMDLE
 40
0.0
  9
$DIMEXE
 40
1.0
  9
$DIMTP
 40
0.0
  9
$DIMTM
 40
0.0
  9
$DIMTXT
 40
3.5
  9
$DIMCEN
 40
2.5
  9
$DIMTSZ
 40
0.0
  9
$DIMTOL
 70
     0
  9
$DIMLIM
 70
     0
  9
$DIMTIH
 70
     1
  9
$DIMTOH
 70
     1
  9
$DIMSE1
 70
     0
  9
$DIMSE2
 70
     0
  9
$DIMTAD
 70
     1
  9
$DIMZIN
 70
     0
  9
$DIMBLK
  1

  9
$DIMASO
 70
     1
  9
$DIMSHO
 70
     1
  9
$DIMPOST
  1

  9
$DIMAPOST
  1

  9
$DIMALT
 70
     0
  9
$DIMALTD
 70
     3
  9
$DIMALTF
 40
0.0393700787401575
  9
$DIMLFAC
 40
1.0
  9
$DIMTOFL
 70
     1
  9
$DIMTVP
 40
0.0
  9
$DIMTIX
 70
     0
  9
$DIMSOXD
 70
     0
  9
$DIMSAH
 70
     0
  9
$DIMBLK1
  1

  9
$DIMBLK2
  1

  9
$DIMSTYLE
  2
ISO-25
  9
$DIMCLRD
 70
     0
  9
$DIMCLRE
 70
     0
  9
$DIMCLRT
 70
     0
  9
$DIMTFAC
 40
1.0
  9
$DIMGAP
 40
1.524
  9
$DIMJUST
 70
     0
  9
$DIMSD1
 70
     0
  9
$DIMSD2
 70
     0
  9
$DIMTOLJ
 70
     0
  9
$DIMTZIN
 70
     0
  9
$DIMALTZ
 70
     0
  9
$DIMALTTZ
 70
     0
  9
$DIMUPT
 70
     0
  9
$DIMDEC
 70
     2
  9
$DIMTDEC
 70
     2
  9
$DIMALTU
 70
     2
  9
$DIMALTTD
 70
     3
  9
$DIMTXSTY
  7
Standard
  9
$DIMAUNIT
 70
     0
  9
$DIMADEC
 70
     2
  9
$DIMALTRND
 40
0.0
  9
$DIMAZIN
 70
     0
  9
$DIMDSEP
 70
    44
  9
$DIMATFIT
 70
     3
  9
$DIMFRAC
 70
     0
  9
$DIMLDRBLK
  1

  9
$DIMLUNIT
 70
     2
  9
$DIMLWD
 70
    -2
  9
$DIMLWE
 70
    -2
  9
$DIMTMOVE
 70
     0
  9
$LUNITS
 70
     2
  9
$LUPREC
 70
     2
  9
$SKETCHINC
 40
1.0
  9
$FILLETRAD
 40
10.0
  9
$AUNITS
 70
     0
  9
$AUPREC
 70
     2
  9
$MENU
  1
.
  9
$ELEVATION
 40
0.0
  9
$PELEVATION
 40
0.0
  9
$THICKNESS
 40
0.0
  9
$LIMCHECK
 70
     0
  9
$CHAMFERA
 40
0.0
  9
$CHAMFERB
 40
0.0
  9
$CHAMFERC
 40
0.0
  9
$CHAMFERD
 40
0.0
  9
$SKPOLY
 70
     0
  9
$TDCREATE
 40
2458260.583073935
  9
$TDUCREATE
 40
2458260.208073935
  9
$TDUPDATE
 40
2458268.593039989
  9
$TDUUPDATE
 40
2458268.218039989
  9
$TDINDWG
 40
0.0009975579
  9
$TDUSRTIMER
 40
2458268.217042465
  9
$USRTIMER
 70
     1
  9
$ANGBASE
 50
0.0
  9
$ANGDIR
 70
     0
  9
$PDMODE
 70
     0
  9
$PDSIZE
 40
-1.0
  9
$PLINEWID
 40
0.0
  9
$SPLFRAME
 70
     0
  9
$SPLINETYPE
 70
     6
  9
$SPLINESEGS
 70
     8
  9
$HANDSEED
  5
146
  9
$SURFTAB1
 70
     6
  9
$SURFTAB2
 70
     6
  9
$SURFTYPE
 70
     6
  9
$SURFU
 70
     6
  9
$SURFV
 70
     6
  9
$UCSBASE
  2

  9
$UCSNAME
  2

  9
$UCSORG
 10
0.0
 20
0.0
 30
0.0
  9
$UCSXDIR
 10
1.0
 20
0.0
 30
0.0
  9
$UCSYDIR
 10
0.0
 20
1.0
 30
0.0
  9
$UCSORTHOREF
  2

  9
$UCSORTHOVIEW
 70
     0
  9
$UCSORGTOP
 10
0.0
 20
0.0
 30
0.0
  9
$UCSORGBOTTOM
 10
0.0
 20
0.0
 30
0.0
  9
$UCSORGLEFT
 10
0.0
 20
0.0
 30
0.0
  9
$UCSORGRIGHT
 10
0.0
 20
0.0
 30
0.0
  9
$UCSORGFRONT
 10
0.0
 20
0.0
 30
0.0
  9
$UCSORGBACK
 10
0.0
 20
0.0
 30
0.0
  9
$PUCSBASE
  2

  9
$PUCSNAME
  2

  9
$PUCSORG
 10
0.0
 20
0.0
 30
0.0
  9
$PUCSXDIR
 10
1.0
 20
0.0
 30
0.0
  9
$PUCSYDIR
 10
0.0
 20
1.0
 30
0.0
  9
$PUCSORTHOREF
  2

  9
$PUCSORTHOVIEW
 70
     0
  9
$PUCSORGTOP
 10
0.0
 20
0.0
 30
0.0
  9
$PUCSORGBOTTOM
 10
0.0
 20
0.0
 30
0.0
  9
$PUCSORGLEFT
 10
0.0
 20
0.0
 30
0.0
  9
$PUCSORGRIGHT
 10
0.0
 20
0.0
 30
0.0
  9
$PUCSORGFRONT
 10
0.0
 20
0.0
 30
0.0
  9
$PUCSORGBACK
 10
0.0
 20
0.0
 30
0.0
  9
$USERI1
 70
     0
  9
$USERI2
 70
     0
  9
$USERI3
 70
     0
  9
$USERI4
 70
     0
  9
$USERI5
 70
     0
  9
$USERR1
 40
0.0
  9
$USERR2
 40
0.0
  9
$USERR3
 40
0.0
  9
$USERR4
 40
0.0
  9
$USERR5
 40
0.0
  9
$WORLDVIEW
 70
     1
  9
$SHADEDGE
 70
     3
  9
$SHADEDIF
 70
    70
  9
$TILEMODE
 70
     1
  9
$MAXACTVP
 70
    64
  9
$PINSBASE
 10
0.0
 20
0.0
 30
0.0
  9
$PLIMCHECK
 70
     0
  9
$PEXTMIN
 10
1.000000000000000E+20
 20
1.000000000000000E+20
 30
1.000000000000000E+20
  9
$PEXTMAX
 10
-1.000000000000000E+20
 20
-1.000000000000000E+20
 30
-1.000000000000000E+20
  9
$PLIMMIN
 10
0.0
 20
0.0
  9
$PLIMMAX
 10
0.0
 20
0.0
  9
$UNITMODE
 70
     0
  9
$VISRETAIN
 70
     1
  9
$PLINEGEN
 70
     0
  9
$PSLTSCALE
 70
     1
  9
$TREEDEPTH
 70
  3020
  9
$CMLSTYLE
  2
Standard
  9
$CMLJUST
 70
     0
  9
$CMLSCALE
 40
20.0
  9
$PROXYGRAPHICS
 70
     1
  9
$MEASUREMENT
 70
     1
  9
$CELWEIGHT
370
    -1
  9
$ENDCAPS
280
     0
  9
$JOINSTYLE
280
     0
  9
$LWDISPLAY
290
     1
  9
$INSUNITS
 70
     4
  9
$HYPERLINKBASE
  1

  9
$STYLESHEET
  1

  9
$XEDIT
290
     1
  9
$CEPSNTYPE
380
     0
  9
$PSTYLEMODE
290
     1
  9
$FINGERPRINTGUID
  2
{7C86DCB9-067E-4033-87DE-583E082F4B1E}
  9
$VERSIONGUID
  2
{FAEB1C32-E019-11D5-929B-00C0DF256EC4}
  9
$EXTNAMES
290
     1
  9
$PSVPSCALE
 40
0.0
  9
$OLESTARTUP
290
     0
  0
ENDSEC
  0
SECTION
  2
CLASSES
  0
CLASS
  1
ACDBDICTIONARYWDFLT
  2
AcDbDictionaryWithDefault
  3
ObjectDBX Classes
 90
        0
280
     0
281
     0
  0
CLASS
  1
VISUALSTYLE
  2
AcDbVisualStyle
  3
ObjectDBX Classes
 90
     4095
280
     0
281
     0
  0
CLASS
  1
MATERIAL
  2
AcDbMaterial
  3
ObjectDBX Classes
 90
     1153
280
     0
281
     0
  0
CLASS
  1
SCALE
  2
AcDbScale
  3
ObjectDBX Classes
 90
     1153
280
     0
281
     0
  0
CLASS
  1
TABLESTYLE
  2
AcDbTableStyle
  3
ObjectDBX Classes
 90
     4095
280
     0
281
     0
  0
CLASS
  1
MLEADERSTYLE
  2
AcDbMLeaderStyle
  3
ACDB_MLEADERSTYLE_CLASS
 90
     4095
280
     0
281
     0
  0
CLASS
  1
SUN
  2
AcDbSun
  3
SCENEOE
 90
     1153
280
     0
281
     0
  0
CLASS
  1
ACDBPLACEHOLDER
  2
AcDbPlaceHolder
  3
ObjectDBX Classes
 90
        0
280
     0
281
     0
  0
CLASS
  1
LAYOUT
  2
AcDbLayout
  3
ObjectDBX Classes
 90
        0
280
     0
281
     0
  0
CLASS
  1
RASTERVARIABLES
  2
AcDbRasterVariables
  3
ISM
 90
        0
280
     0
281
     0
  0
ENDSEC
  0
SECTION
  2
TABLES
  0
TABLE
  2
VPORT
  5
8
330
0
100
AcDbSymbolTable
 70
     1
  0
VPORT
  5
29
330
8
100
AcDbSymbolTableRecord
100
AcDbViewportTableRecord
  2
*Active
 70
     0
 10
0.0
 20
0.0
 11
1.0
 21
1.0
 12
-23.80375844421891
 22
-10.10383739361506
 13
0.0
 23
0.0
 14
10.0
 24
10.0
 15
10.0
 25
10.0
 16
0.0
 26
0.0
 36
1.0
 17
0.0
 27
0.0
 37
0.0
 40
106.9330813231215
 41
1.739018087855297
 42
50.0
 43
0.0
 44
0.0
 50
0.0
 51
0.0
 71
    16
 72
  2000
 73
     1
 74
     3
 75
     0
 76
     0
 77
     0
 78
     0
281
     0
 65
     1
110
0.0
120
0.0
130
0.0
111
1.0
121
0.0
131
0.0
112
0.0
122
1.0
132
0.0
 79
     0
146
0.0
  0
ENDTAB
  0
TABLE
  2
LTYPE
  5
5
330
0
100
AcDbSymbolTable
 70
     6
  0
LTYPE
  5
14
330
5
100
AcDbSymbolTableRecord
100
AcDbLinetypeTableRecord
  2
ByBlock
 70
     0
  3

 72
    65
 73
     0
 40
0.0
  0
LTYPE
  5
15
330
5
100
AcDbSymbolTableRecord
100
AcDbLinetypeTableRecord
  2
ByLayer
 70
     0
  3

 72
    65
 73
     0
 40
0.0
  0
LTYPE
  5
16
330
5
100
AcDbSymbolTableRecord
100
AcDbLinetypeTableRecord
  2
Continuous
 70
     0
  3
Solid line
 72
    65
 73
     0
 40
0.0
  0
LTYPE
  5
6E
330
5
100
AcDbSymbolTableRecord
100
AcDbLinetypeTableRecord
  2
HIDDEN
 70
     0
  3
Hidden __ __ __ __ __ __ __ __ __ __ __ __ __ __
 72
    65
 73
     2
 40
1.905
 49
1.27
 74
     0
 49
-0.635
 74
     0
  0
LTYPE
  5
6F
330
5
100
AcDbSymbolTableRecord
100
AcDbLinetypeTableRecord
  2
PHANTOM
 70
     0
  3
Phantom ______  __  __  ______  __  __  ______
 72
    65
 73
     6
 40
12.7
 49
6.35
 74
     0
 49
-1.27
 74
     0
 49
1.27
 74
     0
 49
-1.27
 74
     0
 49
1.27
 74
     0
 49
-1.27
 74
     0
  0
LTYPE
  5
70
330
5
100
AcDbSymbolTableRecord
100
AcDbLinetypeTableRecord
  2
CENTER
 70
     0
  3
Center ____ _ ____ _ ____ _ ____ _ ____ _ ____
 72
    65
 73
     4
 40
10.16
 49
6.35
 74
     0
 49
-1.27
 74
     0
 49
1.27
 74
     0
 49
-1.27
 74
     0
  0
LTYPE
  5
71
330
5
100
AcDbSymbolTableRecord
100
AcDbLinetypeTableRecord
  2
CENTERX2
 70
     0
  3
Center (2x) ________  __  ________  __  _____
 72
    65
 73
     4
 40
20.32
 49
12.7
 74
     0
 49
-2.54
 74
     0
 49
2.54
 74
     0
 49
-2.54
 74
     0
  0
LTYPE
  5
72
330
5
100
AcDbSymbolTableRecord
100
AcDbLinetypeTableRecord
  2
DOT2
 70
     0
  3
Dot (.5x) ........................................
 72
    65
 73
     2
 40
0.635
 49
0.0
 74
     0
 49
-0.635
 74
     0
  0
ENDTAB
  0
TABLE
  2
LAYER
  5
2
330
0
100
AcDbSymbolTable
 70
    17
  0
LAYER
  5
10
330
2
100
AcDbSymbolTableRecord
100
AcDbLayerTableRecord
  2
0
 70
     0
 62
     7
  6
Continuous
370
    -3
390
F
  0
LAYER
  5
73
330
2
100
AcDbSymbolTableRecord
100
AcDbLayerTableRecord
  2
FORMAT
 70
     0
 62
     2
  6
Continuous
370
    -3
390
F
  0
LAYER
  5
74
330
2
100
AcDbSymbolTableRecord
100
AcDbLayerTableRecord
  2
외형선
 70
     0
 62
   100
  6
Continuous
370
    35
390
F
  0
LAYER
  5
75
330
2
100
AcDbSymbolTableRecord
100
AcDbLayerTableRecord
  2
숨은선
 70
     0
 62
     2
  6
HIDDEN
370
    25
390
F
  0
LAYER
  5
76
330
2
100
AcDbSymbolTableRecord
100
AcDbLayerTableRecord
  2
중심선
 70
     0
 62
     1
  6
CENTERX2
370
    -3
390
F
  0
LAYER
  5
77
330
2
100
AcDbSymbolTableRecord
100
AcDbLayerTableRecord
  2
파단선
 70
     0
 62
     4
  6
Continuous
370
    -3
390
F
  0
LAYER
  5
78
330
2
100
AcDbSymbolTableRecord
100
AcDbLayerTableRecord
  2
해칭선
 70
     0
 62
   100
  6
Continuous
370
    -3
390
F
  0
LAYER
  5
79
330
2
100
AcDbSymbolTableRecord
100
AcDbLayerTableRecord
  2
가는실선
 70
     0
 62
     4
  6
Continuous
370
    -3
390
F
  0
LAYER
  5
7A
330
2
100
AcDbSymbolTableRecord
100
AcDbLayerTableRecord
  2
치수_보조선
 70
     0
 62
     4
  6
Continuous
370
    -3
390
F
  0
LAYER
  5
7B
330
2
100
AcDbSymbolTableRecord
100
AcDbLayerTableRecord
  2
치수문자_일반주서
 70
     0
 62
     7
  6
Continuous
370
    25
390
F
  0
LAYER
  5
7C
330
2
100
AcDbSymbolTableRecord
100
AcDbLayerTableRecord
  2
개별주서
 70
     0
 62
   100
  6
Continuous
370
    35
390
F
  0
LAYER
  5
7D
330
2
100
AcDbSymbolTableRecord
100
AcDbLayerTableRecord
  2
중간선
 70
     0
 62
     2
  6
Continuous
370
    25
390
F
  0
LAYER
  5
7E
330
2
100
AcDbSymbolTableRecord
100
AcDbLayerTableRecord
  2
윤곽선
 70
     0
 62
     3
  6
Continuous
370
    50
390
F
  0
LAYER
  5
7F
330
2
100
AcDbSymbolTableRecord
100
AcDbLayerTableRecord
  2
중심마크
 70
     0
 62
   100
  6
Continuous
370
    35
390
F
  0
LAYER
  5
80
330
2
100
AcDbSymbolTableRecord
100
AcDbLayerTableRecord
  2
가상선
 70
     0
 62
     4
  6
PHANTOM
370
    -3
390
F
  0
LAYER
  5
81
330
2
100
AcDbSymbolTableRecord
100
AcDbLayerTableRecord
  2
특수지정선
 70
     0
 62
     5
  6
CENTERX2
370
    70
390
F
  0
LAYER
  5
131
330
2
100
AcDbSymbolTableRecord
100
AcDbLayerTableRecord
  2
Defpoints
 70
     0
 62
     7
  6
Continuous
290
     0
370
    -3
390
F
  0
ENDTAB
  0
TABLE
  2
STYLE
  5
3
330
0
100
AcDbSymbolTable
 70
     2
  0
STYLE
  5
11
330
3
100
AcDbSymbolTableRecord
100
AcDbTextStyleTableRecord
  2
Standard
 70
     0
 40
0.0
 41
1.0
 50
0.0
 71
     0
 42
3.5
  3
txt
  4

  0
STYLE
  5
97
330
3
100
AcDbSymbolTableRecord
100
AcDbTextStyleTableRecord
  2
SLDTEXTSTYLE0
 70
     0
 40
0.0
 41
0.75
 50
0.0
 71
     0
 42
3.5
  3
TXT
  4

  0
ENDTAB
  0
TABLE
  2
VIEW
  5
6
330
0
100
AcDbSymbolTable
 70
     0
  0
ENDTAB
  0
TABLE
  2
UCS
  5
7
330
0
100
AcDbSymbolTable
 70
     0
  0
ENDTAB
  0
TABLE
  2
APPID
  5
9
330
0
100
AcDbSymbolTable
 70
     1
  0
APPID
  5
12
330
9
100
AcDbSymbolTableRecord
100
AcDbRegAppTableRecord
  2
ACAD
 70
     0
  0
ENDTAB
  0
TABLE
  2
DIMSTYLE
  5
A
330
0
100
AcDbSymbolTable
 70
     4
100
AcDbDimStyleTable
  0
DIMSTYLE
105
27
330
A
100
AcDbSymbolTableRecord
100
AcDbDimStyleTableRecord
  2
ISO-25
 70
     0
 41
2.5
 42
0.625
 43
3.75
 44
1.25
 73
     0
 74
     0
 77
     1
 78
     8
140
2.5
141
2.5
143
0.03937007874016
147
0.625
171
     3
172
     1
178
     0
271
     2
272
     2
274
     3
278
    44
283
     0
284
     8
340
11
  0
DIMSTYLE
105
D6
102
{ACAD_REACTORS
330
D5
102
}
330
A
100
AcDbSymbolTableRecord
100
AcDbDimStyleTableRecord
  2
SLDDIMSTYLE0
 70
     0
 41
3.302
 44
0.0
 45
0.000000001
 73
     0
 74
     0
 77
     1
 78
    12
 79
     3
140
3.5
147
0.875
172
     1
173
     1
178
     0
271
     1
272
     1
276
     2
284
    12
289
     0
340
97
  0
DIMSTYLE
105
E4
102
{ACAD_REACTORS
330
E3
330
FC
102
}
330
A
100
AcDbSymbolTableRecord
100
AcDbDimStyleTableRecord
  2
SLDDIMSTYLE1
 70
     0
 41
3.302
 44
0.0
 45
0.000000001
 73
     0
 74
     0
 77
     1
 78
    12
 79
     3
140
3.5
147
0.875
173
     1
178
     0
271
     2
272
     2
276
     2
284
    12
340
97
  0
DIMSTYLE
105
EF
102
{ACAD_REACTORS
330
EE
102
}
330
A
100
AcDbSymbolTableRecord
100
AcDbDimStyleTableRecord
  2
SLDDIMSTYLE2
 70
     0
 41
3.302
 44
0.0
 45
0.000000001
 73
     0
 74
     0
 77
     1
 78
    12
 79
     3
140
3.5
147
0.875
172
     1
173
     1
178
     0
271
     2
272
     2
276
     2
284
    12
289
     0
340
97
  0
ENDTAB
  0
TABLE
  2
BLOCK_RECORD
  5
1
330
0
100
AcDbSymbolTable
 70
     7
  0
BLOCK_RECORD
  5
1F
330
1
100
AcDbSymbolTableRecord
100
AcDbBlockTableRecord
  2
*Model_Space
340
22
  0
BLOCK_RECORD
  5
1B
330
1
100
AcDbSymbolTableRecord
100
AcDbBlockTableRecord
  2
*Paper_Space
340
1E
  0
BLOCK_RECORD
  5
23
330
1
100
AcDbSymbolTableRecord
100
AcDbBlockTableRecord
  2
*Paper_Space0
340
26
  0
BLOCK_RECORD
  5
82
330
1
100
AcDbSymbolTableRecord
100
AcDbBlockTableRecord
  2
블럭10
340
0
102
{BLKREFS
331
CE
102
}
  0
BLOCK_RECORD
  5
D7
330
1
100
AcDbSymbolTableRecord
100
AcDbBlockTableRecord
  2
_D
340
0
  0
BLOCK_RECORD
  5
E5
330
1
100
AcDbSymbolTableRecord
100
AcDbBlockTableRecord
  2
_D_1
340
0
  0
BLOCK_RECORD
  5
F0
330
1
100
AcDbSymbolTableRecord
100
AcDbBlockTableRecord
  2
_D_2
340
0
  0
BLOCK_RECORD
  5
FD
330
1
100
AcDbSymbolTableRecord
100
AcDbBlockTableRecord
  2
_D_3
340
0
  0
BLOCK_RECORD
  5
106
330
1
100
AcDbSymbolTableRecord
100
AcDbBlockTableRecord
  2
SW_DOWELSYMBOL_0
340
0
102
{BLKREFS
331
10C
102
}
  0
ENDTAB
  0
ENDSEC
  0
SECTION
  2
BLOCKS
  0
BLOCK
  5
20
330
1F
100
AcDbEntity
  8
0
100
AcDbBlockBegin
  2
*Model_Space
 70
     0
 10
0.0
 20
0.0
 30
0.0
  3
*Model_Space
  1

  0
ENDBLK
  5
21
330
1F
100
AcDbEntity
  8
0
100
AcDbBlockEnd
  0
BLOCK
  5
1C
330
1B
100
AcDbEntity
 67
     1
  8
0
100
AcDbBlockBegin
  2
*Paper_Space
 70
     0
 10
0.0
 20
0.0
 30
0.0
  3
*Paper_Space
  1

  0
ENDBLK
  5
1D
330
1B
100
AcDbEntity
 67
     1
  8
0
100
AcDbBlockEnd
  0
BLOCK
  5
24
330
23
100
AcDbEntity
  8
0
100
AcDbBlockBegin
  2
*Paper_Space0
 70
     0
 10
0.0
 20
0.0
 30
0.0
  3
*Paper_Space0
  1

  0
ENDBLK
  5
25
330
23
100
AcDbEntity
  8
0
100
AcDbBlockEnd
  0
BLOCK
  5
83
330
82
100
AcDbEntity
  8
0
100
AcDbBlockBegin
  2
블럭10
 70
     2
 10
0.0
 20
0.0
 30
0.0
  3
블럭10
  1

  0
ELLIPSE
  5
85
330
82
100
AcDbEntity
  8
중심선
100
AcDbEllipse
 10
20.54032771741204
 20
12.0471743016438
 30
0.0
 11
6.600054785286829
 21
-1.261213355974178E-13
 31
0.0
210
0.0
220
0.0
230
1.0
 40
0.636358354079598
 41
0.9219305317359503
 42
6.513795318482858
  0
ELLIPSE
  5
86
330
82
100
AcDbEntity
  8
중심선
100
AcDbEllipse
 10
20.54032771746488
 20
12.04717430159265
 30
0.0
 11
3.960054785062283
 21
1.540847449632565E-10
 31
0.0
210
0.0
220
0.0
230
1.0
 40
0.3939339440162632
 41
1.131841032648279
 42
5.62031148352944
  0
LINE
  5
87
330
82
100
AcDbEntity
  8
중심선
100
AcDbLine
 10
2.268634060543552
 20
16.24717430164393
 30
0.0
 11
5.714909304380834
 21
16.24717430164393
 31
0.0
  0
LINE
  5
88
330
82
100
AcDbEntity
  8
중심선
100
AcDbLine
 10
5.245725140726316
 20
7.84717430164391
 30
0.0
 11
8.692000384563599
 21
7.84717430164391
 31
0.0
  0
LINE
  5
89
330
82
100
AcDbEntity
  8
중심선
100
AcDbLine
 10
15.74043728645272
 20
16.24717430164393
 30
0.0
 11
8.692000384563599
 21
7.84717430164391
 31
0.0
  0
LINE
  5
8A
330
82
100
AcDbEntity
  8
중심선
100
AcDbLine
 10
0.1404042013395286
 20
13.71084872107135
 30
0.0
 11
3.58671253028996
 21
13.71088815037384
 31
0.0
  0
LINE
  5
8B
330
82
100
AcDbEntity
  8
중심선
100
AcDbLine
 10
2.750260043222114
 20
10.84717430164391
 30
0.0
 11
6.196535287059397
 21
10.84717430164391
 31
0.0
  0
LINE
  5
8C
330
82
100
AcDbEntity
  8
중심선
100
AcDbLine
 10
12.29416204261559
 20
16.24717430164393
 30
0.0
 11
5.245725140726316
 21
7.84717430164391
 31
0.0
  0
LINE
  5
8D
330
82
100
AcDbEntity
  8
중심선
100
AcDbLine
 10
10.72767329541681
 20
16.24717430164393
 30
0.0
 11
6.196535287059397
 21
10.84717430164391
 31
0.0
  0
LINE
  5
8E
330
82
100
AcDbEntity
  8
중심선
100
AcDbLine
 10
7.28139805157953
 20
16.24717430164393
 30
0.0
 11
2.750260043222114
 21
10.84717430164391
 31
0.0
  0
LINE
  5
8F
330
82
100
AcDbEntity
  8
중심선
100
AcDbLine
 10
5.714909304380834
 20
16.24717430164393
 30
0.0
 11
3.58671253028996
 21
13.71088815037384
 31
0.0
  0
LINE
  5
90
330
82
100
AcDbEntity
  8
중심선
100
AcDbLine
 10
2.268634060543552
 20
16.24717430164393
 30
0.0
 11
0.1404042013395286
 21
13.71084872107135
 31
0.0
  0
LINE
  5
91
330
82
100
AcDbEntity
  8
중심선
100
AcDbLine
 10
7.28139805157953
 20
16.24717430164393
 30
0.0
 11
10.72767329541681
 21
16.24717430164393
 31
0.0
  0
LINE
  5
92
330
82
100
AcDbEntity
  8
중심선
100
AcDbLine
 10
12.29416204261559
 20
16.24717430164393
 30
0.0
 11
15.74043728645272
 21
16.24717430164393
 31
0.0
  0
LINE
  5
93
330
82
100
AcDbEntity
  8
중심선
100
AcDbLine
 10
19.22036997980202
 20
11.08717430171403
 30
0.0
 11
23.66174974927406
 21
11.08717430171406
 31
0.0
  0
LINE
  5
94
330
82
100
AcDbEntity
  8
중심선
100
AcDbLine
 10
19.22039502424796
 20
13.00717430171391
 30
0.0
 11
19.22036997980202
 21
11.08717430171403
 31
0.0
  0
LINE
  5
95
330
82
100
AcDbEntity
  8
중심선
100
AcDbLine
 10
19.22039502424796
 20
13.00717430171391
 30
0.0
 11
26.96566020931264
 21
13.00717430171391
 31
0.0
  0
LINE
  5
96
330
82
100
AcDbEntity
  8
중심선
100
AcDbLine
 10
22.22332737316547
 20
13.45928029700563
 30
0.0
 11
24.52862924686651
 21
15.39360700705356
 31
0.0
  0
ATTDEF
  5
98
330
82
100
AcDbEntity
  8
FORMAT
 62
     2
100
AcDbText
 10
-16.11926103943555
 20
2.075366912832191
 30
0.0
 40
4.233333333333333
  1
SEME7216040E [ 4 FLUTE ]
 41
0.75
  7
SLDTEXTSTYLE0
 11
-16.11926103943555
 21
-0.0412997538344756
 31
0.0
100
AcDbAttributeDefinition
  3

  2
AUTOATTR0
 70
     0
 74
     1
  0
ENDBLK
  5
84
330
82
100
AcDbEntity
  8
0
100
AcDbBlockEnd
  0
BLOCK
  5
D8
330
D7
100
AcDbEntity
  8
0
100
AcDbBlockBegin
  2
_D
 70
     0
 10
0.0
 20
0.0
 30
0.0
  3
_D
  1

  0
LINE
  5
DA
330
D7
100
AcDbEntity
  8
치수문자_일반주서
 62
     0
370
    -2
100
AcDbLine
 10
52.06250000000004
 20
-8.000000000000021
 30
0.0
 11
66.80206636509958
 21
-7.999999999999964
 31
0.0
  0
LINE
  5
DB
330
D7
100
AcDbEntity
  8
치수문자_일반주서
 62
     0
370
    -2
100
AcDbLine
 10
52.06250000000004
 20
8.000000000000004
 30
0.0
 11
66.80206636509952
 21
8.000000000000062
 31
0.0
  0
LINE
  5
DC
330
D7
100
AcDbEntity
  8
치수문자_일반주서
 62
     0
370
    -2
100
AcDbLine
 10
66.80206636509958
 20
-7.999999999999964
 30
0.0
 11
66.80206636509946
 21
22.47900000000006
 31
0.0
  0
LINE
  5
DD
330
D7
100
AcDbEntity
  8
치수문자_일반주서
 62
     0
370
    -2
100
AcDbLine
 10
66.80206636509958
 20
-7.999999999999964
 30
0.0
 11
66.80206636509952
 21
8.000000000000062
 31
0.0
  0
LINE
  5
DE
330
D7
100
AcDbEntity
  8
치수문자_일반주서
 62
     0
370
    -2
100
AcDbLine
 10
66.80206636509959
 20
-11.30199999999996
 30
0.0
 11
66.8020663650996
 21
-14.60399999999996
 31
0.0
  0
LINE
  5
DF
330
D7
100
AcDbEntity
  8
치수문자_일반주서
 62
     0
370
    -2
100
AcDbLine
 10
66.8020663650995
 20
11.30200000000006
 30
0.0
 11
66.80206636509949
 21
14.60400000000006
 31
0.0
  0
SOLID
  5
E0
330
D7
100
AcDbEntity
  8
치수문자_일반주서
 62
     0
100
AcDbTrace
 10
67.35239969843292
 20
-11.30199999999996
 30
0.0
 11
66.25173303176626
 21
-11.30199999999997
 31
0.0
 12
66.80206636509958
 22
-7.999999999999964
 32
0.0
 13
66.80206636509958
 23
-7.999999999999964
 33
0.0
  0
SOLID
  5
E1
330
D7
100
AcDbEntity
  8
치수문자_일반주서
 62
     0
100
AcDbTrace
 10
66.25173303176618
 20
11.30200000000006
 30
0.0
 11
67.35239969843283
 21
11.30200000000006
 31
0.0
 12
66.80206636509952
 22
8.000000000000062
 32
0.0
 13
66.80206636509952
 23
8.000000000000062
 33
0.0
  0
MTEXT
  5
E2
330
D7
100
AcDbEntity
  8
치수문자_일반주서
 62
     0
100
AcDbMText
 10
62.42706636509948
 20
18.54150000000005
 30
0.0
 40
3.5
 41
0.0
 71
     2
 72
     1
  1
\A1;%%c16
  7
SLDTEXTSTYLE0
 11
-3.552713678800496E-15
 21
1.0
 31
0.0
 73
     1
 44
1.0
  0
POINT
  5
141
330
D7
100
AcDbEntity
  8
Defpoints
 62
     0
100
AcDbPoint
 10
52.00000000000004
 20
-8.000000000000021
 30
0.0
  0
POINT
  5
142
330
D7
100
AcDbEntity
  8
Defpoints
 62
     0
100
AcDbPoint
 10
52.00000000000004
 20
8.000000000000004
 30
0.0
  0
POINT
  5
143
330
D7
100
AcDbEntity
  8
Defpoints
 62
     0
100
AcDbPoint
 10
66.80206636509952
 20
8.000000000000059
 30
0.0
  0
ENDBLK
  5
D9
330
D7
100
AcDbEntity
  8
0
100
AcDbBlockEnd
  0
BLOCK
  5
E6
330
E5
100
AcDbEntity
  8
0
100
AcDbBlockBegin
  2
_D_1
 70
     0
 10
0.0
 20
0.0
 30
0.0
  3
_D_1
  1

  0
LINE
  5
E8
330
E5
100
AcDbEntity
  8
치수문자_일반주서
 62
     0
370
    -2
100
AcDbLine
 10
-97.99999999999997
 20
7.562499999999976
 30
0.0
 11
-97.99999999999997
 21
25.38913260158163
 31
0.0
  0
LINE
  5
E9
330
E5
100
AcDbEntity
  8
치수문자_일반주서
 62
     0
370
    -2
100
AcDbLine
 10
51.99999999999999
 20
8.062499999999993
 30
0.0
 11
51.99999999999999
 21
25.38913260158163
 31
0.0
  0
LINE
  5
EA
330
E5
100
AcDbEntity
  8
치수문자_일반주서
 62
     0
370
    -2
100
AcDbLine
 10
-94.69799999999998
 20
25.38913260158163
 30
0.0
 11
48.69799999999999
 21
25.38913260158163
 31
0.0
  0
SOLID
  5
EB
330
E5
100
AcDbEntity
  8
치수문자_일반주서
 62
     0
100
AcDbTrace
 10
-94.69799999999998
 20
25.93946593491496
 30
0.0
 11
-94.69799999999998
 21
24.83879926824829
 31
0.0
 12
-97.99999999999997
 22
25.38913260158163
 32
0.0
 13
-97.99999999999997
 23
25.38913260158163
 33
0.0
  0
SOLID
  5
EC
330
E5
100
AcDbEntity
  8
치수문자_일반주서
 62
     0
100
AcDbTrace
 10
48.69799999999999
 20
24.83879926824829
 30
0.0
 11
48.69799999999999
 21
25.93946593491496
 31
0.0
 12
51.99999999999999
 22
25.38913260158163
 32
0.0
 13
51.99999999999999
 23
25.38913260158163
 33
0.0
  0
MTEXT
  5
ED
330
E5
100
AcDbEntity
  8
치수문자_일반주서
 62
     0
100
AcDbMText
 10
-22.99999999999999
 20
29.76413260158163
 30
0.0
 40
3.5
 41
0.0
 71
     2
 72
     1
  1
\A1;150
  7
SLDTEXTSTYLE0
 73
     1
 44
1.0
  0
POINT
  5
138
330
E5
100
AcDbEntity
  8
Defpoints
 62
     0
100
AcDbPoint
 10
-97.99999999999997
 20
7.499999999999976
 30
0.0
  0
POINT
  5
139
330
E5
100
AcDbEntity
  8
Defpoints
 62
     0
100
AcDbPoint
 10
51.99999999999999
 20
7.999999999999994
 30
0.0
  0
POINT
  5
13A
330
E5
100
AcDbEntity
  8
Defpoints
 62
     0
100
AcDbPoint
 10
51.99999999999999
 20
25.38913260158163
 30
0.0
  0
ENDBLK
  5
E7
330
E5
100
AcDbEntity
  8
0
100
AcDbBlockEnd
  0
BLOCK
  5
F1
330
F0
100
AcDbEntity
  8
0
100
AcDbBlockBegin
  2
_D_2
 70
     0
 10
0.0
 20
0.0
 30
0.0
  3
_D_2
  1

  0
LINE
  5
F3
330
F0
100
AcDbEntity
  8
치수문자_일반주서
 62
     0
370
    -2
100
AcDbLine
 10
-97.56249999999997
 20
7.99999999999997
 30
0.0
 11
-110.5849165868707
 21
7.99999999999992
 31
0.0
  0
LINE
  5
F4
330
F0
100
AcDbEntity
  8
치수문자_일반주서
 62
     0
370
    -2
100
AcDbLine
 10
-97.56249999999997
 20
-8.000000000000016
 30
0.0
 11
-110.5849165868706
 21
-8.000000000000064
 31
0.0
  0
LINE
  5
F5
330
F0
100
AcDbEntity
  8
치수문자_일반주서
 62
     0
370
    -2
100
AcDbLine
 10
-110.5849165868707
 20
7.99999999999992
 30
0.0
 11
-110.5849165868707
 21
22.47899999999992
 31
0.0
  0
LINE
  5
F6
330
F0
100
AcDbEntity
  8
치수문자_일반주서
 62
     0
370
    -2
100
AcDbLine
 10
-110.5849165868707
 20
7.99999999999992
 30
0.0
 11
-110.5849165868706
 21
-8.000000000000064
 31
0.0
  0
LINE
  5
F7
330
F0
100
AcDbEntity
  8
치수문자_일반주서
 62
     0
370
    -2
100
AcDbLine
 10
-110.5849165868707
 20
11.30199999999992
 30
0.0
 11
-110.5849165868707
 21
14.60399999999992
 31
0.0
  0
LINE
  5
F8
330
F0
100
AcDbEntity
  8
치수문자_일반주서
 62
     0
370
    -2
100
AcDbLine
 10
-110.5849165868706
 20
-11.30200000000006
 30
0.0
 11
-110.5849165868706
 21
-14.60400000000006
 31
0.0
  0
SOLID
  5
F9
330
F0
100
AcDbEntity
  8
치수문자_일반주서
 62
     0
100
AcDbTrace
 10
-111.135249920204
 20
11.30199999999992
 30
0.0
 11
-110.0345832535374
 21
11.30199999999992
 31
0.0
 12
-110.5849165868707
 22
7.99999999999992
 32
0.0
 13
-110.5849165868707
 23
7.99999999999992
 33
0.0
  0
SOLID
  5
FA
330
F0
100
AcDbEntity
  8
치수문자_일반주서
 62
     0
100
AcDbTrace
 10
-110.0345832535373
 20
-11.30200000000006
 30
0.0
 11
-111.1352499202039
 21
-11.30200000000007
 31
0.0
 12
-110.5849165868706
 22
-8.000000000000064
 32
0.0
 13
-110.5849165868706
 23
-8.000000000000064
 33
0.0
  0
MTEXT
  5
FB
330
F0
100
AcDbEntity
  8
치수문자_일반주서
 62
     0
100
AcDbMText
 10
-114.9599165868707
 20
18.5414999999999
 30
0.0
 40
3.5
 41
0.0
 71
     2
 72
     1
  1
\A1;%%c16
  7
SLDTEXTSTYLE0
 11
-3.552713678800504E-15
 21
1.0
 31
0.0
 73
     1
 44
1.0
  0
POINT
  5
13E
330
F0
100
AcDbEntity
  8
Defpoints
 62
     0
100
AcDbPoint
 10
-97.49999999999997
 20
7.99999999999997
 30
0.0
  0
POINT
  5
13F
330
F0
100
AcDbEntity
  8
Defpoints
 62
     0
100
AcDbPoint
 10
-97.49999999999997
 20
-8.000000000000016
 30
0.0
  0
POINT
  5
140
330
F0
100
AcDbEntity
  8
Defpoints
 62
     0
100
AcDbPoint
 10
-110.5849165868706
 20
-8.000000000000066
 30
0.0
  0
ENDBLK
  5
F2
330
F0
100
AcDbEntity
  8
0
100
AcDbBlockEnd
  0
BLOCK
  5
FE
330
FD
100
AcDbEntity
  8
0
100
AcDbBlockBegin
  2
_D_3
 70
     0
 10
0.0
 20
0.0
 30
0.0
  3
_D_3
  1

  0
LINE
  5
100
330
FD
100
AcDbEntity
  8
치수문자_일반주서
 62
     0
370
    -2
100
AcDbLine
 10
11.99999999999999
 20
8.058514608228554
 30
0.0
 11
11.99999999999999
 21
18.8419329108162
 31
0.0
  0
LINE
  5
101
330
FD
100
AcDbEntity
  8
치수문자_일반주서
 62
     0
370
    -2
100
AcDbLine
 10
51.99999999999999
 20
8.062499999999993
 30
0.0
 11
51.99999999999999
 21
18.8419329108162
 31
0.0
  0
LINE
  5
102
330
FD
100
AcDbEntity
  8
치수문자_일반주서
 62
     0
370
    -2
100
AcDbLine
 10
15.30199999999999
 20
18.8419329108162
 30
0.0
 11
48.69799999999999
 21
18.8419329108162
 31
0.0
  0
SOLID
  5
103
330
FD
100
AcDbEntity
  8
치수문자_일반주서
 62
     0
100
AcDbTrace
 10
15.30199999999999
 20
19.39226624414953
 30
0.0
 11
15.30199999999999
 21
18.29159957748286
 31
0.0
 12
11.99999999999999
 22
18.8419329108162
 32
0.0
 13
11.99999999999999
 23
18.8419329108162
 33
0.0
  0
SOLID
  5
104
330
FD
100
AcDbEntity
  8
치수문자_일반주서
 62
     0
100
AcDbTrace
 10
48.69799999999999
 20
18.29159957748286
 30
0.0
 11
48.69799999999999
 21
19.39226624414953
 31
0.0
 12
51.99999999999999
 22
18.8419329108162
 32
0.0
 13
51.99999999999999
 23
18.8419329108162
 33
0.0
  0
MTEXT
  5
105
330
FD
100
AcDbEntity
  8
치수문자_일반주서
 62
     0
100
AcDbMText
 10
32.0
 20
23.2169329108162
 30
0.0
 40
3.5
 41
0.0
 71
     2
 72
     1
  1
\A1;40
  7
SLDTEXTSTYLE0
 73
     1
 44
1.0
  0
POINT
  5
13B
330
FD
100
AcDbEntity
  8
Defpoints
 62
     0
100
AcDbPoint
 10
11.99999999999999
 20
7.996014608228554
 30
0.0
  0
POINT
  5
13C
330
FD
100
AcDbEntity
  8
Defpoints
 62
     0
100
AcDbPoint
 10
51.99999999999999
 20
7.999999999999994
 30
0.0
  0
POINT
  5
13D
330
FD
100
AcDbEntity
  8
Defpoints
 62
     0
100
AcDbPoint
 10
51.99999999999999
 20
18.8419329108162
 30
0.0
  0
ENDBLK
  5
FF
330
FD
100
AcDbEntity
  8
0
100
AcDbBlockEnd
  0
BLOCK
  5
107
330
106
100
AcDbEntity
  8
0
100
AcDbBlockBegin
  2
SW_DOWELSYMBOL_0
 70
     0
 10
0.0
 20
0.0
 30
0.0
  3
SW_DOWELSYMBOL_0
  1

  0
CIRCLE
  5
109
330
106
100
AcDbEntity
  8
해칭선
 62
     0
100
AcDbCircle
 10
0.0
 20
0.0
 30
0.0
 40
3.000000000000003
  0
HATCH
  5
10A
330
106
100
AcDbEntity
  8
0
  6
Continuous
 62
     0
370
    18
100
AcDbHatch
 10
0.0
 20
0.0
 30
0.0
210
0.0
220
0.0
230
1.0
  2
SOLID
 70
     1
 71
     0
 91
        1
 92
        0
 93
        3
 72
     2
 10
0.0
 20
0.0
 40
3.000000000000003
 50
0.0
 51
90.0
 73
     1
 72
     1
 10
0.0
 20
3.000000000000003
 11
0.0
 21
0.0
 72
     1
 10
0.0
 20
0.0
 11
3.000000000000003
 21
0.0
 97
        0
 75
     0
 76
     1
 98
        1
 10
0.0
 20
0.0
  0
HATCH
  5
10B
330
106
100
AcDbEntity
  8
0
  6
Continuous
 62
     0
370
    18
100
AcDbHatch
 10
0.0
 20
0.0
 30
0.0
210
0.0
220
0.0
230
1.0
  2
SOLID
 70
     1
 71
     0
 91
        1
 92
        0
 93
        3
 72
     2
 10
0.0
 20
0.0
 40
3.000000000000003
 50
180.0
 51
270.0000000000008
 73
     1
 72
     1
 10
0.0
 20
-3.000000000000003
 11
0.0
 21
0.0
 72
     1
 10
0.0
 20
0.0
 11
-3.000000000000003
 21
0.0
 97
        0
 75
     0
 76
     1
 98
        1
 10
0.0
 20
0.0
  0
ENDBLK
  5
108
330
106
100
AcDbEntity
  8
0
100
AcDbBlockEnd
  0
ENDSEC
  0
SECTION
  2
ENTITIES
  0
LINE
  5
99
330
1F
100
AcDbEntity
  8
0
  6
Continuous
 62
     4
370
    25
100
AcDbLine
 10
11.56262690835191
 20
7.99999999999999
 30
0.0
 11
-97.49999999999997
 21
7.999999999999983
 31
0.0
  0
LINE
  5
9A
330
1F
100
AcDbEntity
  8
0
  6
Continuous
 62
     4
370
    25
100
AcDbLine
 10
-97.49999999999997
 20
-8.000000000000016
 30
0.0
 11
11.562626908352
 21
-8.000000000000009
 31
0.0
  0
LINE
  5
9B
330
1F
100
AcDbEntity
  8
0
  6
Continuous
 62
     4
370
    25
100
AcDbLine
 10
-97.49999999999997
 20
7.999999999999977
 30
0.0
 11
-97.99999999999997
 21
7.499999999999975
 31
0.0
  0
LINE
  5
9C
330
1F
100
AcDbEntity
  8
0
  6
Continuous
 62
     4
370
    25
100
AcDbLine
 10
-97.99999999999997
 20
-7.500000000000009
 30
0.0
 11
-97.49999999999997
 21
-8.000000000000005
 31
0.0
  0
LINE
  5
9D
330
1F
100
AcDbEntity
  8
0
  6
Continuous
 62
     1
370
    25
100
AcDbLine
 10
33.3290578756426
 20
7.999999999999994
 30
0.0
 11
27.13938655751756
 21
7.999999999999994
 31
0.0
  0
LINE
  5
9E
330
1F
100
AcDbEntity
  8
0
  6
Continuous
 62
     1
370
    25
100
AcDbLine
 10
48.90494084447255
 20
-8.000000000000012
 30
0.0
 11
51.99999999999999
 21
-8.000000000000012
 31
0.0
  0
LINE
  5
9F
330
1F
100
AcDbEntity
  8
0
  6
Continuous
 62
     1
370
    25
100
AcDbLine
 10
27.13938655751744
 20
-8.000000000000012
 30
0.0
 11
33.32905787564263
 21
-8.000000000000012
 31
0.0
  0
LINE
  5
A0
330
1F
100
AcDbEntity
  8
0
  6
Continuous
 62
     1
370
    25
100
AcDbLine
 10
51.99999999999999
 20
7.999999999999994
 30
0.0
 11
48.90494084447258
 21
7.999999999999994
 31
0.0
  0
SPLINE
  5
A1
330
1F
100
AcDbEntity
  8
0
  6
Continuous
 62
     4
370
    25
100
AcDbSpline
210
0.0
220
0.0
230
1.0
 70
    24
 71
     3
 72
    18
 73
    14
 74
     0
 42
0.000000001
 43
0.00000001
 40
0.0
 40
0.0
 40
0.0
 40
0.0
 40
0.2500000000000003
 40
0.2500000000000003
 40
0.3750000000000003
 40
0.3750000000000003
 40
0.5000000000000002
 40
0.5000000000000002
 40
0.6250000000000001
 40
0.6250000000000001
 40
0.7500000000000001
 40
0.7500000000000001
 40
1.0
 40
1.0
 40
1.0
 40
1.0
 10
11.99999999999999
 20
6.956507903625675
 30
0.0
 10
11.99999999999999
 20
6.557312830078073
 30
0.0
 10
11.99999999999999
 20
6.145334760813062
 30
0.0
 10
11.99999999999999
 20
5.507717181537672
 30
0.0
 10
11.99999999999999
 20
5.290664205094025
 30
0.0
 10
11.99999999999999
 20
4.860644757885258
 30
0.0
 10
11.99999999999999
 20
4.646640010933012
 30
0.0
 10
11.99999999999999
 20
4.220653417871541
 30
0.0
 10
11.99999999999999
 20
4.008671194239287
 30
0.0
 10
11.99999999999999
 20
3.586839624426625
 30
0.0
 10
11.99999999999999
 20
3.376830876186546
 30
0.0
 10
11.99999999999999
 20
2.770216439940782
 30
0.0
 10
11.99999999999999
 20
2.389809400061901
 30
0.0
 10
11.99999999999999
 20
2.034474470007837
 30
0.0
  0
SPLINE
  5
A2
330
1F
100
AcDbEntity
  8
0
  6
Continuous
 62
     4
370
    25
100
AcDbSpline
210
0.0
220
0.0
230
1.0
 70
     8
 71
     3
 72
    14
 73
    10
 74
     0
 42
0.000000001
 43
0.00000001
 40
0.0
 40
0.0
 40
0.0
 40
0.0
 40
0.2499999999999999
 40
0.2499999999999999
 40
0.4999999999999999
 40
0.4999999999999999
 40
0.7499999999999999
 40
0.7499999999999999
 40
1.0
 40
1.0
 40
1.0
 40
1.0
 10
11.30490863740891
 20
0.1490108181510898
 30
0.0
 10
11.17888009317993
 20
0.2219380001736002
 30
0.0
 10
11.06564808679859
 20
0.3102307775633345
 30
0.0
 10
10.86402242783234
 20
0.5165196815778563
 30
0.0
 10
10.77716715537019
 20
0.6338920880992828
 30
0.0
 10
10.63873711312863
 20
0.8845874032222045
 30
0.0
 10
10.58576302737738
 20
1.020873090070953
 30
0.0
 10
10.51702656404256
 20
1.297036703170934
 30
0.0
 10
10.5001871518478
 20
1.439539028400102
 30
0.0
 10
10.5001871518478
 20
1.582124912412425
 30
0.0
  0
SPLINE
  5
A3
330
1F
100
AcDbEntity
  8
0
  6
Continuous
 62
     4
370
    25
100
AcDbSpline
210
0.0
220
0.0
230
1.0
 70
     8
 71
     3
 72
    18
 73
    14
 74
     0
 42
0.000000001
 43
0.00000001
 40
0.0
 40
0.0
 40
0.0
 40
0.0
 40
0.2500000000000004
 40
0.2500000000000004
 40
0.3750000000000003
 40
0.3750000000000003
 40
0.5000000000000002
 40
0.5000000000000002
 40
0.6250000000000001
 40
0.6250000000000001
 40
0.7499999999999999
 40
0.7499999999999999
 40
1.0
 40
1.0
 40
1.0
 40
1.0
 10
10.5001871518478
 20
5.997431750979205
 30
0.0
 10
10.5001871518478
 20
6.134435044235091
 30
0.0
 10
10.53376312206916
 20
6.262715600997262
 30
0.0
 10
10.63974354577909
 20
6.438158578832319
 30
0.0
 10
10.68351444539056
 20
6.492435606631156
 30
0.0
 10
10.78797751624169
 20
6.593350655271708
 30
0.0
 10
10.84947809587245
 20
6.640447875065732
 30
0.0
 10
10.9866810378956
 20
6.724706390538696
 30
0.0
 10
11.061871833683
 20
6.761813195506465
 30
0.0
 10
11.2253460199257
 20
6.827010770020013
 30
0.0
 10
11.3144669578237
 20
6.855205524396879
 30
0.0
 10
11.59091526506913
 20
6.923745511456918
 30
0.0
 10
11.79309797707169
 20
6.950056909265476
 30
0.0
 10
11.99999999999999
 20
6.956507903625675
 30
0.0
  0
SPLINE
  5
A4
330
1F
100
AcDbEntity
  8
0
  6
Continuous
 62
     4
370
    25
100
AcDbSpline
210
0.0
220
0.0
230
1.0
 70
     8
 71
     3
 72
     8
 73
     4
 74
     0
 42
0.000000001
 43
0.00000001
 40
0.0
 40
0.0
 40
0.0
 40
0.0
 40
1.0
 40
1.0
 40
1.0
 40
1.0
 10
11.99999999999999
 20
-0.2524883858620175
 30
0.0
 10
11.76781039223723
 20
-0.1186104533232469
 30
0.0
 10
11.53596810941046
 20
0.0153068523093024
 30
0.0
 10
11.30490863740891
 20
0.1490108181510896
 30
0.0
  0
SPLINE
  5
A5
330
1F
100
AcDbEntity
  8
0
  6
Continuous
 62
     4
370
    25
100
AcDbSpline
210
0.0
220
0.0
230
1.0
 70
    24
 71
     3
 72
    12
 73
     8
 74
     0
 42
0.000000001
 43
0.00000001
 40
0.0
 40
0.0
 40
0.0
 40
0.0
 40
0.5
 40
0.5
 40
0.75
 40
0.75
 40
1.0
 40
1.0
 40
1.0
 40
1.0
 10
11.99999999999999
 20
2.034474470007539
 30
0.0
 10
11.99999999999999
 20
1.488334491572676
 30
0.0
 10
11.99999999999999
 20
0.9750635442105612
 30
0.0
 10
11.99999999999999
 20
0.37008718215863
 30
0.0
 10
11.99999999999999
 20
0.1959899725064218
 30
0.0
 10
11.99999999999999
 20
-0.0824266660528963
 30
0.0
 10
11.99999999999999
 20
-0.1866554565347948
 30
0.0
 10
11.99999999999999
 20
-0.2524883858620209
 30
0.0
  0
SPLINE
  5
A6
330
1F
100
AcDbEntity
  8
0
  6
Continuous
 62
     4
370
    25
100
AcDbSpline
210
0.0
220
0.0
230
1.0
 70
     8
 71
     3
 72
    14
 73
    10
 74
     0
 42
0.000000001
 43
0.00000001
 40
0.0
 40
0.0
 40
0.0
 40
0.0
 40
0.2500000000000001
 40
0.2500000000000001
 40
0.5000000000000001
 40
0.5000000000000001
 40
0.7500000000000001
 40
0.7500000000000001
 40
1.0
 40
1.0
 40
1.0
 40
1.0
 10
11.30490863740891
 20
-7.998612115613791
 30
0.0
 10
11.17888009317993
 20
-7.997253512533463
 30
0.0
 10
11.06564808679859
 20
-7.994649718659641
 30
0.0
 10
10.86402242783234
 20
-7.983976119575696
 30
0.0
 10
10.77716715537019
 20
-7.97584074939385
 30
0.0
 10
10.63873711312863
 20
-7.951940641447655
 30
0.0
 10
10.58576302737738
 20
-7.935823426104278
 30
0.0
 10
10.51702656404256
 20
-7.895389230871643
 30
0.0
 10
10.50018715184781
 20
-7.870761440024725
 30
0.0
 10
10.50018715184781
 20
-7.841994692775834
 30
0.0
  0
SPLINE
  5
A7
330
1F
100
AcDbEntity
  8
0
  6
Continuous
 62
     4
370
    25
100
AcDbSpline
210
0.0
220
0.0
230
1.0
 70
     8
 71
     3
 72
     8
 73
     4
 74
     0
 42
0.000000001
 43
0.00000001
 40
0.0
 40
0.0
 40
0.0
 40
0.0
 40
1.0
 40
1.0
 40
1.0
 40
1.0
 10
11.99999999999999
 20
-7.996014608226683
 30
0.0
 10
11.76781039223723
 20
-8.000242042110367
 30
0.0
 10
11.53596810941046
 20
-8.001102964907663
 30
0.0
 10
11.30490863740891
 20
-7.998612115613795
 30
0.0
  0
SPLINE
  5
A8
330
1F
100
AcDbEntity
  8
0
  6
Continuous
 62
     4
370
    25
100
AcDbSpline
210
0.0
220
0.0
230
1.0
 70
     8
 71
     3
 72
     9
 73
     5
 74
     0
 42
0.000000001
 43
0.00000001
 40
0.0
 40
0.0
 40
0.0
 40
0.0
 40
0.890904601850991
 40
1.0
 40
1.0
 40
1.0
 40
1.0
 10
11.99999999999999
 20
7.996014608226667
 30
0.0
 10
11.87008409546057
 20
7.998165751810932
 30
0.0
 10
11.72425938620495
 20
8.000580312898393
 30
0.0
 10
11.5785257747205
 20
7.999825480158687
 30
0.0
 10
11.56262690835191
 20
7.999743131380411
 30
0.0
  0
LINE
  5
A9
330
1F
100
AcDbEntity
  8
0
  6
Continuous
 62
     4
370
    25
100
AcDbLine
 10
11.99999999999999
 20
7.996014608226667
 30
0.0
 11
11.99999999999999
 21
6.956507903625675
 31
0.0
  0
LINE
  5
AA
330
1F
100
AcDbEntity
  8
0
  6
Continuous
 62
     4
370
    25
100
AcDbLine
 10
10.5001871518478
 20
5.997431750979205
 30
0.0
 11
10.5001871518478
 21
1.582124912412426
 31
0.0
  0
LINE
  5
AB
330
1F
100
AcDbEntity
  8
0
  6
Continuous
 62
     4
370
    25
100
AcDbLine
 10
11.99999999999999
 20
-0.2524883858620175
 30
0.0
 11
11.99999999999999
 21
-3.950569299075012
 31
0.0
  0
SPLINE
  5
AC
330
1F
100
AcDbEntity
  8
0
  6
Continuous
 62
     4
370
    25
100
AcDbSpline
210
0.0
220
0.0
230
1.0
 70
     8
 71
     3
 72
    18
 73
    14
 74
     0
 42
0.000000001
 43
0.00000001
 40
0.0
 40
0.0
 40
0.0
 40
0.0
 40
0.2499999999999999
 40
0.2499999999999999
 40
0.375
 40
0.375
 40
0.5000000000000001
 40
0.5000000000000001
 40
0.6250000000000002
 40
0.6250000000000002
 40
0.7500000000000002
 40
0.7500000000000002
 40
1.0
 40
1.0
 40
1.0
 40
1.0
 10
10.5001871518478
 20
-5.294413318994574
 30
0.0
 10
10.5001871518478
 20
-5.139218049669133
 30
0.0
 10
10.53376312206916
 20
-4.981563009661294
 30
0.0
 10
10.63974354577909
 20
-4.749685073071512
 30
0.0
 10
10.68351444539056
 20
-4.675036817373559
 30
0.0
 10
10.78797751624169
 20
-4.531601977963025
 30
0.0
 10
10.84947809587246
 20
-4.462098663071661
 30
0.0
 10
10.98668103789561
 20
-4.334073882791911
 30
0.0
 10
11.061871833683
 20
-4.275709938668157
 30
0.0
 10
11.2253460199257
 20
-4.170819717583311
 30
0.0
 10
11.3144669578237
 20
-4.124094869575929
 30
0.0
 10
11.59091526506913
 20
-4.008709666777393
 30
0.0
 10
11.79309797707169
 20
-3.961928774091307
 30
0.0
 10
11.99999999999999
 20
-3.950569299075012
 30
0.0
  0
LINE
  5
AD
330
1F
100
AcDbEntity
  8
0
  6
Continuous
 62
     4
370
    25
100
AcDbLine
 10
10.5001871518478
 20
-5.294413318994577
 30
0.0
 11
10.5001871518478
 21
-7.841994692775834
 31
0.0
  0
LINE
  5
AE
330
1F
100
AcDbEntity
  8
0
  6
Continuous
 62
     4
370
    25
100
AcDbLine
 10
-97.49999999999997
 20
7.999999999999977
 30
0.0
 11
-97.49999999999997
 21
-8.000000000000005
 31
0.0
  0
LINE
  5
AF
330
1F
100
AcDbEntity
  8
0
  6
Continuous
 62
     4
370
    25
100
AcDbLine
 10
-97.99999999999997
 20
7.499999999999976
 30
0.0
 11
-97.99999999999997
 21
-7.500000000000009
 31
0.0
  0
LINE
  5
B0
330
1F
100
AcDbEntity
  8
0
  6
Continuous
 62
     4
370
    25
100
AcDbLine
 10
11.99999999999999
 20
-4.05418391301273
 30
0.0
 11
11.99999999999999
 21
-4.394229546654594
 31
0.0
  0
SPLINE
  5
B1
330
1F
100
AcDbEntity
  8
0
  6
Continuous
 62
     4
370
    25
100
AcDbSpline
210
0.0
220
0.0
230
1.0
 70
    24
 71
     3
 72
    12
 73
     8
 74
     0
 42
0.000000001
 43
0.00000001
 40
0.0
 40
0.0
 40
0.0
 40
0.0
 40
0.5
 40
0.5
 40
0.75
 40
0.75
 40
1.0
 40
1.0
 40
1.0
 40
1.0
 10
11.99999999999999
 20
-4.394229546654724
 30
0.0
 10
11.99999999999999
 20
-4.779411849709573
 30
0.0
 10
11.99999999999999
 20
-5.292696652203894
 30
0.0
 10
11.99999999999999
 20
-6.220127564312524
 30
0.0
 10
11.99999999999999
 20
-6.554477730939062
 30
0.0
 10
11.99999999999999
 20
-7.256221014744606
 30
0.0
 10
11.99999999999999
 20
-7.623487392790132
 30
0.0
 10
11.99999999999999
 20
-7.996014608226687
 30
0.0
  0
SPLINE
  5
B2
330
1F
100
AcDbEntity
  8
0
  6
Continuous
 62
     1
370
    25
100
AcDbSpline
210
0.0
220
0.0
230
1.0
 70
     8
 71
     3
 72
    19
 73
    15
 74
     0
 42
0.000000001
 43
0.00000001
 40
0.0
 40
0.0
 40
0.0
 40
0.0
 40
0.0269804148451524
 40
0.1131951777801545
 40
0.1994099491669676
 40
0.2856247288586526
 40
0.3718395167082539
 40
0.4580543125687991
 40
0.5483770694184108
 40
0.6387011735992839
 40
0.7290260721382791
 40
0.8193512116766307
 40
0.9096760387385583
 40
1.0
 40
1.0
 40
1.0
 40
1.0
 10
19.33471757645261
 20
6.73649871070347
 30
0.0
 10
19.61946025141908
 20
6.832087278550696
 30
0.0
 10
20.81408597898515
 20
7.233125031058084
 30
0.0
 10
22.91859465710443
 20
7.66964703853388
 30
0.0
 10
25.64824515169902
 20
8.00845902432081
 30
0.0
 10
28.37789133288369
 20
8.018923927969217
 30
0.0
 10
31.1075550743942
 20
7.724173821022144
 30
0.0
 10
33.8805079694369
 20
7.119877923835357
 30
0.0
 10
36.6970823036285
 20
6.215119506083979
 30
0.0
 10
39.55697752639568
 20
5.032607649625353
 30
0.0
 10
42.41692104370107
 20
3.636261091378664
 30
0.0
 10
45.27686870286798
 20
2.086553090033532
 30
0.0
 10
48.13680642708262
 20
0.4446269464586823
 30
0.0
 10
50.0434208581775
 20
-0.6534606153651865
 30
0.0
 10
50.99672350478287
 20
-1.20250176485968
 30
0.0
  0
SPLINE
  5
B3
330
1F
100
AcDbEntity
  8
0
  6
Continuous
 62
     1
370
    25
100
AcDbSpline
210
0.0
220
0.0
230
1.0
 70
     8
 71
     3
 72
    14
 73
    10
 74
     0
 42
0.000000001
 43
0.00000001
 40
0.0
 40
0.0
 40
0.0
 40
0.0
 40
0.149944247120629
 40
0.2998912900178535
 40
0.4498409579605631
 40
0.599793079806756
 40
0.7497474840299886
 40
0.8997039987459514
 40
1.0
 40
1.0
 40
1.0
 40
1.0
 10
52.00000000000001
 20
1.771812373837184
 30
0.0
 10
51.06680957350046
 20
2.290253143580336
 30
0.0
 10
49.20041132075447
 20
3.327144349623362
 30
0.0
 10
46.40077552291998
 20
4.728000453686781
 30
0.0
 10
43.60108170185983
 20
5.940762583474076
 30
0.0
 10
40.8013327730246
 20
6.913785793230728
 30
0.0
 10
38.00153250946856
 20
7.593265033493164
 30
0.0
 10
35.51076954663405
 20
7.964588545867458
 30
0.0
 10
33.95327091816952
 20
7.964072356317986
 30
0.0
 10
33.3290578756426
 20
7.963865478287206
 30
0.0
  0
LINE
  5
B4
330
1F
100
AcDbEntity
  8
0
  6
Continuous
 62
     1
370
    25
100
AcDbLine
 10
51.99999999999999
 20
-0.5000000000000341
 30
0.0
 11
51.99999999999999
 21
1.771812373837338
 31
0.0
  0
LINE
  5
B5
330
1F
100
AcDbEntity
  8
0
  6
Continuous
 62
     1
370
    25
100
AcDbLine
 10
51.99999999999999
 20
-0.5000000000000338
 30
0.0
 11
50.99672350478286
 21
-1.202501764859695
 31
0.0
  0
SPLINE
  5
B6
330
1F
100
AcDbEntity
  8
0
  6
Continuous
 62
     1
370
    25
100
AcDbSpline
210
0.0
220
0.0
230
1.0
 70
     8
 71
     3
 72
    21
 73
    17
 74
     0
 42
0.000000001
 43
0.00000001
 40
0.0
 40
0.0
 40
0.0
 40
0.0
 40
0.0739660063231583
 40
0.1479320202754601
 40
0.2218980417308865
 40
0.2958640705634036
 40
0.3698301066469632
 40
0.4437961498555019
 40
0.5177622000629425
 40
0.5917282571431934
 40
0.6692186475350053
 40
0.746710193839558
 40
0.8242024216459064
 40
0.9016948562122659
 40
0.9791870226964617
 40
1.0
 40
1.0
 40
1.0
 40
1.0
 10
11.99999999999999
 20
7.102512787392592
 30
0.0
 10
12.90988272916627
 20
6.834153436708392
 30
0.0
 10
14.72964828134769
 20
6.297434707660361
 30
0.0
 10
17.4592967983522
 20
5.175146073442282
 30
0.0
 10
20.18894573196226
 20
3.872399304232816
 30
0.0
 10
22.91859466163984
 20
2.414576972120921
 30
0.0
 10
25.64824515050405
 20
0.8647686699385925
 30
0.0
 10
28.37789133312813
 20
-0.7188612385402039
 30
0.0
 10
31.10755507461136
 20
-2.274614901034096
 30
0.0
 10
33.88050796830271
 20
-3.765600690453715
 30
0.0
 10
36.69708230817657
 20
-5.12745416227272
 30
0.0
 10
39.55697750942478
 20
-6.290747207549138
 30
0.0
 10
42.41692110703721
 20
-7.194101386309702
 30
0.0
 10
45.27686846649423
 20
-7.765805160616998
 30
0.0
 10
47.43954448160401
 20
-8.023137363492324
 30
0.0
 10
48.6488986826112
 20
-7.976461306193317
 30
0.0
 10
48.90494084447255
 20
-7.966579140482019
 30
0.0
  0
LINE
  5
B7
330
1F
100
AcDbEntity
  8
0
  6
Continuous
 62
     4
370
    25
100
AcDbLine
 10
11.99999999999999
 20
7.102512787392652
 30
0.0
 11
11.99999999999999
 21
7.996014608228554
 31
0.0
  0
SPLINE
  5
B8
330
1F
100
AcDbEntity
  8
0
  6
Continuous
 62
     1
370
    25
100
AcDbSpline
210
0.0
220
0.0
230
1.0
 70
     8
 71
     3
 72
    62
 73
    58
 74
     0
 42
0.000000001
 43
0.00000001
 40
0.0
 40
0.0
 40
0.0
 40
0.0
 40
0.0625000000000004
 40
0.0625000000000004
 40
0.0937500000000004
 40
0.0937500000000004
 40
0.1250000000000004
 40
0.1250000000000004
 40
0.1562500000000005
 40
0.1562500000000005
 40
0.1875000000000005
 40
0.1875000000000005
 40
0.2187500000000006
 40
0.2187500000000006
 40
0.2500000000000006
 40
0.2500000000000006
 40
0.2812500000000006
 40
0.2812500000000006
 40
0.3125000000000006
 40
0.3125000000000006
 40
0.3437500000000007
 40
0.3437500000000007
 40
0.3750000000000007
 40
0.3750000000000007
 40
0.4375000000000007
 40
0.4375000000000007
 40
0.4687500000000007
 40
0.4687500000000007
 40
0.5000000000000007
 40
0.5000000000000007
 40
0.5312500000000007
 40
0.5312500000000007
 40
0.5625000000000007
 40
0.5625000000000007
 40
0.5937500000000006
 40
0.5937500000000006
 40
0.6250000000000006
 40
0.6250000000000006
 40
0.6562500000000006
 40
0.6562500000000006
 40
0.6875000000000006
 40
0.6875000000000006
 40
0.7500000000000003
 40
0.7500000000000003
 40
0.8125000000000002
 40
0.8125000000000002
 40
0.8437500000000002
 40
0.8437500000000002
 40
0.8750000000000002
 40
0.8750000000000002
 40
0.9062500000000002
 40
0.9062500000000002
 40
0.9375000000000001
 40
0.9375000000000001
 40
0.9687500000000001
 40
0.9687500000000001
 40
1.0
 40
1.0
 40
1.0
 40
1.0
 10
51.99999999999999
 20
-7.801325586840182
 30
0.0
 10
51.17070237582718
 20
-7.694941671901178
 30
0.0
 10
50.33033949455486
 20
-7.54555939563894
 30
0.0
 10
49.08370587301445
 20
-7.262279922670556
 30
0.0
 10
48.6683372056143
 20
-7.157911906330884
 30
0.0
 10
47.83337412880712
 20
-6.929668498482416
 30
0.0
 10
47.41521767500373
 20
-6.805900469806698
 30
0.0
 10
46.58265031834969
 20
-6.540633996161686
 30
0.0
 10
46.1684487679558
 20
-6.399194255246743
 30
0.0
 10
45.33412227287953
 20
-6.098673061920485
 30
0.0
 10
44.91583281314569
 20
-5.939778396712838
 30
0.0
 10
44.08210223137124
 20
-5.606670238802359
 30
0.0
 10
43.66819099030272
 20
-5.432695410866656
 30
0.0
 10
42.834818357189
 20
-5.069729805567418
 30
0.0
 10
42.41655596147007
 20
-4.88088179855222
 30
0.0
 10
41.58197867883656
 20
-4.490738716728466
 30
0.0
 10
41.16748057210385
 20
-4.289751339411926
 30
0.0
 10
40.33537787144096
 20
-3.876217330265582
 30
0.0
 10
39.91730257509584
 20
-3.663572036073187
 30
0.0
 10
39.0821961901791
 20
-3.229079939934856
 30
0.0
 10
38.6662347852559
 20
-3.007429329630726
 30
0.0
 10
37.83571647955514
 20
-2.556851787241611
 30
0.0
 10
37.41798807891367
 20
-2.327344520681492
 30
0.0
 10
36.16501225399914
 20
-1.630302737377067
 30
0.0
 10
35.3361327302185
 20
-1.155429257777502
 30
0.0
 10
34.08331846553445
 20
-0.435793982973409
 30
0.0
 10
33.66533800918207
 20
-0.19492510859109
 30
0.0
 10
32.83371395907438
 20
0.2858547050189249
 30
0.0
 10
32.41883795176758
 20
0.5260037332232363
 30
0.0
 10
31.58405455042865
 20
1.005189559391934
 30
0.0
 10
31.16583522069335
 20
1.243898227940639
 30
0.0
 10
30.3328392280319
 20
1.716643109130161
 30
0.0
 10
29.91883398776526
 20
1.950542090650518
 30
0.0
 10
29.08479455518272
 20
2.413546911884084
 30
0.0
 10
28.66649633239274
 20
2.642318002974345
 30
0.0
 10
27.83244399045428
 20
3.091607593211121
 30
0.0
 10
27.41843246117517
 20
3.311829079427302
 30
0.0
 10
26.58545391333332
 20
3.743582001905816
 30
0.0
 10
26.16723687863342
 20
3.95496343010318
 30
0.0
 10
25.33244511977939
 20
4.366136284094822
 30
0.0
 10
24.91755025339248
 20
4.565668276517421
 30
0.0
 10
23.67014711551105
 20
5.145368463273718
 30
0.0
 10
22.83106075647612
 20
5.507010752869732
 30
0.0
 10
21.17123714341403
 20
6.164302547632812
 30
0.0
 10
20.33083868422088
 20
6.462487034466684
 30
0.0
 10
19.08502382975672
 20
6.853206655998714
 30
0.0
 10
18.66908959174663
 20
6.974416610846982
 30
0.0
 10
17.83398854534336
 20
7.197873964990877
 30
0.0
 10
17.41590943633944
 20
7.300005313976201
 30
0.0
 10
16.58378630069195
 20
7.483898579172486
 30
0.0
 10
16.16930280481577
 20
7.565730030048273
 30
0.0
 10
15.33473542020878
 20
7.709010792571385
 30
0.0
 10
14.9164715052533
 20
7.770317224205603
 30
0.0
 10
14.0830829586299
 20
7.871544231740889
 30
0.0
 10
13.66917375387948
 20
7.911462405030414
 30
0.0
 10
12.83545761707806
 20
7.969941499052763
 30
0.0
 10
12.41716893347134
 20
7.988419289462969
 30
0.0
 10
12.0000000000001
 20
7.996014608226671
 30
0.0
  0
LINE
  5
B9
330
1F
100
AcDbEntity
  8
0
  6
Continuous
 62
     1
370
    25
100
AcDbLine
 10
51.99999999999999
 20
-8.000000000000016
 30
0.0
 11
51.99999999999999
 21
-7.801325586842099
 31
0.0
  0
SPLINE
  5
BA
330
1F
100
AcDbEntity
  8
0
  6
Continuous
 62
     1
370
    25
100
AcDbSpline
210
0.0
220
0.0
230
1.0
 70
     8
 71
     3
 72
     8
 73
     4
 74
     0
 42
0.000000001
 43
0.00000001
 40
0.0
 40
0.0
 40
0.0
 40
0.0
 40
1.0
 40
1.0
 40
1.0
 40
1.0
 10
51.99999999999999
 20
-5.86933421927576
 30
0.0
 10
50.6637391539341
 20
-5.118291190075197
 30
0.0
 10
49.40235313831812
 20
-4.197643585156674
 30
0.0
 10
48.18880970275948
 20
-3.168624175679541
 30
0.0
  0
LINE
  5
BB
330
1F
100
AcDbEntity
  8
0
  6
Continuous
 62
     1
370
    25
100
AcDbLine
 10
51.99999999999999
 20
-7.801325586842099
 30
0.0
 11
51.99999999999999
 21
-5.869334219275758
 31
0.0
  0
LINE
  5
BC
330
1F
100
AcDbEntity
  8
0
  6
Continuous
 62
     1
370
    25
100
AcDbLine
 10
50.99672350478287
 20
-1.202501764859688
 30
0.0
 11
50.99102569058346
 21
-1.206491417313422
 31
0.0
  0
SPLINE
  5
BD
330
1F
100
AcDbEntity
  8
0
  6
Continuous
 62
     1
370
    25
100
AcDbSpline
210
0.0
220
0.0
230
1.0
 70
    24
 71
     3
 72
    14
 73
    10
 74
     0
 42
0.000000001
 43
0.00000001
 40
0.0
 40
0.0
 40
0.0
 40
0.0
 40
0.1578936035581538
 40
0.2841556914156843
 40
0.4103355092462357
 40
0.536916101800872
 40
0.6635194660611456
 40
0.9052456031134573
 40
1.0
 40
1.0
 40
1.0
 40
1.0
 10
50.90614137623773
 20
-1.26592805409407
 30
0.0
 10
50.86017035930981
 20
-1.298117306686172
 30
0.0
 10
50.77743790019897
 20
-1.356047198210205
 30
0.0
 10
50.53190718470262
 20
-1.527969656062789
 30
0.0
 10
50.24265899656451
 20
-1.73050341781057
 30
0.0
 10
49.88127556404275
 20
-1.983546821446416
 30
0.0
 10
49.33938221288263
 20
-2.362984630834457
 30
0.0
 10
48.75370228796549
 20
-2.773082129239511
 30
0.0
 10
48.31293243120921
 20
-3.081712505555886
 30
0.0
 10
48.18880970275947
 20
-3.16862417567954
 30
0.0
  0
SPLINE
  5
BE
330
1F
100
AcDbEntity
  8
0
  6
Continuous
 62
     1
370
    25
100
AcDbSpline
210
0.0
220
0.0
230
1.0
 70
     8
 71
     3
 72
    18
 73
    14
 74
     0
 42
0.000000001
 43
0.00000001
 40
0.0
 40
0.0
 40
0.0
 40
0.0
 40
0.0120055246766526
 40
0.1080535437897709
 40
0.2041029147047729
 40
0.3001535271150909
 40
0.396205270519209
 40
0.4968318906917621
 40
0.5974637119722545
 40
0.6980985858235165
 40
0.7987343602329915
 40
0.8993688821624122
 40
1.0
 40
1.0
 40
1.0
 40
1.0
 10
41.15130566311885
 20
-6.74435115845532
 30
0.0
 10
41.03465230308903
 20
-6.785084814733974
 30
0.0
 10
39.9847349287389
 20
-7.151700687922973
 30
0.0
 10
38.00153137041836
 20
-7.58459749952155
 30
0.0
 10
35.20168817795034
 20
-7.985669011065059
 30
0.0
 10
32.40178447830404
 20
-8.03538142430055
 30
0.0
 10
29.55745951134849
 20
-7.760911515742559
 30
0.0
 10
26.6683768293716
 20
-7.146328260548096
 30
0.0
 10
23.73478422531858
 20
-6.20374182260171
 30
0.0
 10
20.80106957644779
 20
-4.984067236765306
 30
0.0
 10
17.86732811056058
 20
-3.541672028410492
 30
0.0
 10
14.9336270398755
 20
-1.941954008547439
 30
0.0
 10
12.97786465374338
 20
-0.8156372434648413
 30
0.0
 10
12.00000000000012
 20
-0.2524883858620908
 30
0.0
  0
SPLINE
  5
BF
330
1F
100
AcDbEntity
  8
0
  6
Continuous
 62
     4
370
    25
100
AcDbSpline
210
0.0
220
0.0
230
1.0
 70
    24
 71
     3
 72
    24
 73
    20
 74
     0
 42
0.000000001
 43
0.00000001
 40
0.0
 40
0.0
 40
0.0
 40
0.0
 40
0.0625
 40
0.0625
 40
0.125
 40
0.125
 40
0.25
 40
0.25
 40
0.375
 40
0.375
 40
0.5
 40
0.5
 40
0.625
 40
0.625
 40
0.75
 40
0.75
 40
0.875
 40
0.875
 40
1.0
 40
1.0
 40
1.0
 40
1.0
 10
11.99999999999999
 20
7.102512787392663
 30
0.0
 10
11.99999999999999
 20
6.969606862300254
 30
0.0
 10
11.99999999999999
 20
6.839598182470885
 30
0.0
 10
11.99999999999999
 20
6.586070318144111
 30
0.0
 10
11.99999999999999
 20
6.457087233715445
 30
0.0
 10
11.99999999999999
 20
6.048391268889723
 30
0.0
 10
11.99999999999999
 20
5.752794084812663
 30
0.0
 10
11.99999999999999
 20
5.116005522225691
 30
0.0
 10
11.99999999999999
 20
4.774651469145166
 30
0.0
 10
11.99999999999999
 20
4.055569022415548
 30
0.0
 10
11.99999999999999
 20
3.677694544781914
 30
0.0
 10
11.99999999999999
 20
2.90852332294357
 30
0.0
 10
11.99999999999999
 20
2.517242471228504
 30
0.0
 10
11.99999999999999
 20
1.760541214497116
 30
0.0
 10
11.99999999999999
 20
1.395467620734003
 30
0.0
 10
11.99999999999999
 20
0.7419277180619435
 30
0.0
 10
11.99999999999999
 20
0.4541084193304584
 30
0.0
 10
11.99999999999999
 20
0.0019057785239297
 30
0.0
 10
11.99999999999999
 20
-0.1619243551914574
 30
0.0
 10
11.99999999999999
 20
-0.2524883858623543
 30
0.0
  0
SPLINE
  5
C0
330
1F
100
AcDbEntity
  8
0
  6
Continuous
 62
     1
370
    25
100
AcDbSpline
210
0.0
220
0.0
230
1.0
 70
     8
 71
     3
 72
    13
 73
     9
 74
     0
 42
0.000000001
 43
0.00000001
 40
0.0
 40
0.0
 40
0.0
 40
0.0
 40
0.180301118014537
 40
0.3606022546260371
 40
0.5409034095273142
 40
0.7212045824111454
 40
0.9015057729702726
 40
1.0
 40
1.0
 40
1.0
 40
1.0
 10
11.99999999999999
 20
-3.681618136760627
 30
0.0
 10
12.90988272792836
 20
-4.13426359732969
 30
0.0
 10
14.72964827763395
 20
-5.039554565155441
 30
0.0
 10
17.45929681320713
 20
-6.163398598305072
 30
0.0
 10
20.18894567625626
 20
-7.063037915416404
 30
0.0
 10
22.91859486960898
 20
-7.671799100272121
 30
0.0
 10
25.23540852574773
 20
-7.984541870731689
 30
0.0
 10
26.64233913733096
 20
-7.967557604763603
 30
0.0
 10
27.13938655751744
 20
-7.961557319096565
 30
0.0
  0
LINE
  5
C1
330
1F
100
AcDbEntity
  8
0
  6
Continuous
 62
     4
370
    25
100
AcDbLine
 10
11.99999999999999
 20
-3.681618136760648
 30
0.0
 11
11.99999999999999
 21
-0.252488385862354
 31
0.0
  0
SPLINE
  5
C2
330
1F
100
AcDbEntity
  8
0
  6
Continuous
 62
     1
370
    25
100
AcDbSpline
210
0.0
220
0.0
230
1.0
 70
     8
 71
     3
 72
    11
 73
     7
 74
     0
 42
0.000000001
 43
0.00000001
 40
0.0
 40
0.0
 40
0.0
 40
0.0
 40
0.1285482903132073
 40
0.4190337916289016
 40
0.7095182880209264
 40
1.0
 40
1.0
 40
1.0
 40
1.0
 10
41.15130566311884
 20
6.744351158455306
 30
0.0
 10
41.57317637295114
 20
6.881779387803537
 30
0.0
 10
42.94836450410005
 20
7.329759457241445
 30
0.0
 10
45.27686902976504
 20
7.767841104937424
 30
0.0
 10
48.1368063453594
 20
8.062287042611011
 30
0.0
 10
50.04342083093651
 20
7.960167524041936
 30
0.0
 10
50.99672350478287
 20
7.909108009472932
 30
0.0
  0
SPLINE
  5
C3
330
1F
100
AcDbEntity
  8
0
  6
Continuous
 62
     1
370
    25
100
AcDbSpline
210
0.0
220
0.0
230
1.0
 70
     8
 71
     3
 72
    20
 73
    16
 74
     0
 42
0.000000001
 43
0.00000001
 40
0.0
 40
0.0
 40
0.0
 40
0.0
 40
0.25
 40
0.25
 40
0.375
 40
0.375
 40
0.5
 40
0.5
 40
0.625
 40
0.625
 40
0.75
 40
0.75
 40
0.875
 40
0.875
 40
1.0
 40
1.0
 40
1.0
 40
1.0
 10
50.99672350478287
 20
7.909108009472942
 30
0.0
 10
50.99966505198191
 20
7.413100832431152
 30
0.0
 10
50.95239375729003
 20
6.927723577167948
 30
0.0
 10
50.781453429105
 20
6.220834489490258
 30
0.0
 10
50.70640116497742
 20
5.986906706860466
 30
0.0
 10
50.52287088977302
 20
5.547875627028886
 30
0.0
 10
50.41421349725766
 20
5.340637516351545
 30
0.0
 10
50.15958373356873
 20
4.9532821271396
 30
0.0
 10
50.01561625912308
 20
4.777003447864919
 30
0.0
 10
49.70285223432519
 20
4.46786502890815
 30
0.0
 10
49.53121629518983
 20
4.332295677425324
 30
0.0
 10
49.16918409057971
 20
4.107026517678905
 30
0.0
 10
48.98095212259631
 20
4.018045592823286
 30
0.0
 10
48.59152745728679
 20
3.882569098898111
 30
0.0
 10
48.38983040537713
 20
3.836445033137181
 30
0.0
 10
48.18880970275947
 20
3.81119029724051
 30
0.0
  0
SPLINE
  5
C4
330
1F
100
AcDbEntity
  8
0
  6
Continuous
 62
     1
370
    25
100
AcDbSpline
210
0.0
220
0.0
230
1.0
 70
     8
 71
     3
 72
     8
 73
     4
 74
     0
 42
0.000000001
 43
0.00000001
 40
0.0
 40
0.0
 40
0.0
 40
0.0
 40
1.0
 40
1.0
 40
1.0
 40
1.0
 10
51.99999999999999
 20
1.954277833643302
 30
0.0
 10
50.6637391539341
 20
2.676629013086646
 30
0.0
 10
49.40235313831811
 20
3.281456547503824
 30
0.0
 10
48.18880970275948
 20
3.811190297240506
 30
0.0
  0
LINE
  5
C5
330
1F
100
AcDbEntity
  8
0
  6
Continuous
 62
     1
370
    25
100
AcDbLine
 10
51.99999999999999
 20
1.778446975756897
 30
0.0
 11
51.99999999999999
 21
1.954277833643303
 31
0.0
  0
SPLINE
  5
C6
330
1F
100
AcDbEntity
  8
0
  6
Continuous
 62
     1
370
    25
100
AcDbSpline
210
0.0
220
0.0
230
1.0
 70
     8
 71
     3
 72
    10
 73
     6
 74
     0
 42
0.000000001
 43
0.00000001
 40
0.0
 40
0.0
 40
0.0
 40
0.0
 40
0.2000614315528202
 40
0.6000374806279537
 40
1.0
 40
1.0
 40
1.0
 40
1.0
 10
19.33471757645253
 20
-6.736498710703485
 30
0.0
 10
18.84558384305875
 20
-6.893504598336985
 30
0.0
 10
17.37854159109799
 20
-7.36440704329169
 30
0.0
 10
14.93362709019144
 20
-7.829832464106175
 30
0.0
 10
12.97786467051518
 20
-7.94062118479219
 30
0.0
 10
12.00000000000012
 20
-7.996014608226687
 30
0.0
  0
SPLINE
  5
C7
330
1F
100
AcDbEntity
  8
0
  6
Continuous
 62
     4
370
    25
100
AcDbSpline
210
0.0
220
0.0
230
1.0
 70
    24
 71
     3
 72
    13
 73
     9
 74
     0
 42
0.000000001
 43
0.00000001
 40
0.0
 40
0.0
 40
0.0
 40
0.0
 40
0.1564683971007159
 40
0.3465855126907924
 40
0.531344602169516
 40
0.721461717759593
 40
0.859635330747767
 40
1.0
 40
1.0
 40
1.0
 40
1.0
 10
11.99999999999999
 20
-4.05419391301273
 30
0.0
 10
11.99999999999999
 20
-4.185254203428126
 30
0.0
 10
11.99999999999999
 20
-4.475559458602345
 30
0.0
 10
11.99999999999999
 20
-5.078640924538983
 30
0.0
 10
12.0
 20
-5.816215457871185
 30
0.0
 10
11.99999999999999
 20
-6.572091526062934
 30
0.0
 10
11.99999999999999
 20
-7.307816740747226
 30
0.0
 10
11.99999999999999
 20
-7.765415454642017
 30
0.0
 10
11.99999999999999
 20
-7.996014608228567
 30
0.0
  0
LINE
  5
C8
330
1F
100
AcDbEntity
  8
0
  6
Continuous
 62
     1
370
    25
100
AcDbLine
 10
51.99999999999999
 20
-0.5000000000000062
 30
0.0
 11
51.99999999999999
 21
-5.869334219275759
 31
0.0
  0
ELLIPSE
  5
C9
330
1F
100
AcDbEntity
  8
0
  6
Continuous
 62
     1
370
    25
100
AcDbEllipse
 10
52.71407400337105
 20
-0.0000000000000086
 30
0.0
 11
11.42518405393689
 21
-5.350968460038310E-17
 31
0.0
210
0.0
220
0.0
230
1.0
 40
0.700207538209712
 41
1.633337088591388
 42
1.721680906384338
  0
LINE
  5
CA
330
1F
100
AcDbEntity
  8
0
  6
Continuous
 62
     1
370
    25
100
AcDbLine
 10
51.99999999999999
 20
1.954277833643303
 30
0.0
 11
51.99999999999999
 21
7.984359711335654
 31
0.0
  0
LINE
  5
CB
330
1F
100
AcDbEntity
  8
0
  6
Continuous
 62
     1
370
    25
100
AcDbLine
 10
51.99999999999999
 20
7.984359711335654
 30
0.0
 11
51.99999999999999
 21
7.999999999999997
 31
0.0
  0
LINE
  5
CC
330
1F
100
AcDbEntity
  8
중심선
100
AcDbLine
 10
-101.0
 20
-0.0000000000000138
 30
0.0
 11
59.0
 21
0.0000000000000058
 31
0.0
  0
CIRCLE
  5
CD
330
1F
100
AcDbEntity
  8
해칭선
100
AcDbCircle
 10
0.0003608350312347
 20
-0.0000000000000035
 30
0.0
 40
3.000000000000003
  0
INSERT
  5
CE
330
1F
100
AcDbEntity
  8
0
  6
Continuous
 62
     7
100
AcDbBlockReference
 66
     1
  2
블럭10
 10
-37.44009924894177
 20
-52.04717430164394
 30
0.0
  0
ATTRIB
  5
CF
330
CE
100
AcDbEntity
  8
FORMAT
 62
     2
100
AcDbText
 10
-53.55936028837732
 20
-49.97180738881175
 30
0.0
 40
4.233333333333333
  1
SEME7216040E [ 4 FLUTE ]
 41
0.75
  7
SLDTEXTSTYLE0
 11
-53.55936028837732
 21
-52.08847405547841
 31
0.0
100
AcDbAttribute
  2
AUTOATTR0
 70
     0
 74
     1
  0
SEQEND
  5
D0
330
CE
100
AcDbEntity
  8
0
  6
Continuous
 62
     7
  0
HATCH
  5
D1
330
1F
100
AcDbEntity
  8
중심선
100
AcDbHatch
 10
0.0
 20
0.0
 30
0.0
210
0.0
220
0.0
230
1.0
  2
SOLID
 70
     1
 71
     0
 91
        1
 92
        0
 93
        4
 72
     1
 10
-31.72518994456092
 20
-35.8
 11
-35.1714651883982
 21
-35.8
 72
     1
 10
-35.1714651883982
 20
-35.8
 11
-37.29969504760222
 21
-38.33632558057259
 72
     1
 10
-37.29969504760222
 20
-38.33632558057259
 11
-33.85338671865179
 21
-38.3362861512701
 72
     1
 10
-33.85338671865179
 20
-38.3362861512701
 11
-31.72518994456092
 21
-35.8
 97
        0
 75
     0
 76
     1
 98
        1
 10
0.0
 20
0.0
  0
HATCH
  5
D2
330
1F
100
AcDbEntity
  8
중심선
100
AcDbHatch
 10
0.0
 20
0.0
 30
0.0
210
0.0
220
0.0
230
1.0
  2
SOLID
 70
     1
 71
     0
 91
        1
 92
        0
 93
        4
 72
     1
 10
-26.71242595352494
 20
-35.8
 11
-30.15870119736222
 21
-35.8
 72
     1
 10
-30.15870119736222
 20
-35.8
 11
-34.68983920571964
 21
-41.20000000000002
 72
     1
 10
-34.68983920571964
 20
-41.20000000000002
 11
-31.24356396188236
 21
-41.20000000000002
 72
     1
 10
-31.24356396188236
 20
-41.20000000000002
 11
-26.71242595352494
 21
-35.8
 97
        0
 75
     0
 76
     1
 98
        1
 10
0.0
 20
0.0
  0
HATCH
  5
D3
330
1F
100
AcDbEntity
  8
중심선
100
AcDbHatch
 10
0.0
 20
0.0
 30
0.0
210
0.0
220
0.0
230
1.0
  2
SOLID
 70
     1
 71
     0
 91
        1
 92
        0
 93
        4
 72
     1
 10
-21.6996619624891
 20
-35.8
 11
-25.14593720632616
 21
-35.79999999999997
 72
     1
 10
-25.14593720632616
 20
-35.79999999999997
 11
-32.19437410821543
 21
-44.20000000000002
 72
     1
 10
-32.19437410821543
 20
-44.20000000000002
 11
-28.74809886437815
 21
-44.20000000000002
 72
     1
 10
-28.74809886437815
 20
-44.20000000000002
 11
-21.6996619624891
 21
-35.8
 97
        0
 75
     0
 76
     1
 98
        1
 10
0.0
 20
0.0
  0
HATCH
  5
D4
330
1F
100
AcDbEntity
  8
중심선
100
AcDbHatch
 10
0.0
 20
0.0
 30
0.0
210
0.0
220
0.0
230
1.0
  2
SOLID
 70
     1
 71
     0
 91
        1
 92
        0
 93
        6
 72
     3
 10
-16.89977153147687
 20
-40.00000000005127
 11
3.960054785062284
 21
1.540850780301639E-10
 40
0.3939339440162633
 50
17.09539180608434
 51
320.0019657685081
 73
     0
 72
     1
 10
-15.2167718757763
 20
-38.58789400463833
 11
-12.91147000207521
 21
-36.65356729459038
 72
     3
 10
-16.89977153152972
 20
-40.00000000000015
 11
6.600054785286829
 21
-1.249000902703301E-13
 40
0.6363583540795982
 50
39.99873849337388
 51
368.4976242363725
 73
     1
 72
     1
 10
-10.47443903962911
 20
-39.03999999993002
 11
-18.2197042246938
 21
-39.03999999993002
 72
     1
 10
-18.2197042246938
 20
-39.03999999993002
 11
-18.21972926913973
 21
-40.95999999992991
 72
     1
 10
-18.21972926913973
 20
-40.95999999992991
 11
-13.77834949966769
 21
-40.95999999992988
 97
        0
 75
     0
 76
     1
 98
        1
 10
0.0
 20
0.0
  0
DIMENSION
  5
D5
330
1F
100
AcDbEntity
  8
치수문자_일반주서
100
AcDbDimension
  2
_D
 10
66.80206636509952
 20
8.000000000000062
 30
0.0
 11
66.80206636509948
 21
18.54150000000006
 31
0.0
 70
   160
  1
%%c<>
 71
     2
 42
16.00000000000002
 52
-270.0
  3
SLDDIMSTYLE0
100
AcDbAlignedDimension
 13
52.00000000000004
 23
-8.000000000000021
 33
0.0
 14
52.00000000000004
 24
8.000000000000004
 34
0.0
 50
90.0000000000002
100
AcDbRotatedDimension
  0
DIMENSION
  5
E3
330
1F
100
AcDbEntity
  8
치수문자_일반주서
100
AcDbDimension
  2
_D_1
 10
51.99999999999999
 20
25.38913260158163
 30
0.0
 11
-22.99999999999999
 21
25.38913260158163
 31
0.0
 70
   160
  1
<>
 71
     2
 42
150.0
  3
SLDDIMSTYLE1
100
AcDbAlignedDimension
 13
-97.99999999999997
 23
7.499999999999976
 33
0.0
 14
51.99999999999999
 24
7.999999999999994
 34
0.0
 50
-0.0000000000000027
100
AcDbRotatedDimension
  0
DIMENSION
  5
EE
330
1F
100
AcDbEntity
  8
치수문자_일반주서
100
AcDbDimension
  2
_D_2
 10
-110.5849165868706
 20
-8.000000000000064
 30
0.0
 11
-110.5849165868707
 21
18.54149999999992
 31
0.0
 70
   160
  1
%%c<>
 71
     2
 42
15.99999999999999
 52
-270.0
  3
SLDDIMSTYLE2
100
AcDbAlignedDimension
 13
-97.49999999999997
 23
7.99999999999997
 33
0.0
 14
-97.49999999999997
 24
-8.000000000000016
 34
0.0
 50
90.0000000000002
100
AcDbRotatedDimension
  0
DIMENSION
  5
FC
330
1F
100
AcDbEntity
  8
치수문자_일반주서
100
AcDbDimension
  2
_D_3
 10
51.99999999999999
 20
18.8419329108162
 30
0.0
 11
32.0
 21
18.8419329108162
 31
0.0
 70
   160
  1
<>
 71
     2
 42
40.0
  3
SLDDIMSTYLE1
100
AcDbAlignedDimension
 13
11.99999999999999
 23
7.996014608228554
 33
0.0
 14
51.99999999999999
 24
7.999999999999994
 34
0.0
 50
-0.0000000000000204
100
AcDbRotatedDimension
  0
INSERT
  5
10C
330
1F
100
AcDbEntity
  8
해칭선
100
AcDbBlockReference
  2
SW_DOWELSYMBOL_0
 10
0.0003608350312347
 20
-0.0000000000000035
 30
0.0
  0
ENDSEC
  0
SECTION
  2
OBJECTS
  0
DICTIONARY
  5
C
330
0
100
AcDbDictionary
281
     1
  3
ACAD_GROUP
350
D
  3
ACAD_IMAGE_VARS
350
130
  3
ACAD_LAYOUT
350
1A
  3
ACAD_MLINESTYLE
350
17
  3
ACAD_PLOTSETTINGS
350
19
  3
ACAD_PLOTSTYLENAME
350
E
  3
ACAD_SCALELIST
350
47
  3
APPDATA
350
12E
  3
DWGPROPS
350
145
  0
DICTIONARY
  5
D
102
{ACAD_REACTORS
330
C
102
}
330
C
100
AcDbDictionary
281
     1
  0
RASTERVARIABLES
  5
130
102
{ACAD_REACTORS
330
C
102
}
330
C
100
AcDbRasterVariables
 90
        0
 70
     1
 71
     1
 72
     1
  0
DICTIONARY
  5
1A
102
{ACAD_REACTORS
330
C
102
}
330
C
100
AcDbDictionary
281
     1
  3
Layout1
350
1E
  3
Layout2
350
26
  3
Model
350
22
  0
DICTIONARY
  5
17
102
{ACAD_REACTORS
330
C
102
}
330
C
100
AcDbDictionary
281
     1
  3
Standard
350
18
  0
DICTIONARY
  5
19
102
{ACAD_REACTORS
330
C
102
}
330
C
100
AcDbDictionary
281
     1
  0
ACDBDICTIONARYWDFLT
  5
E
102
{ACAD_REACTORS
330
C
102
}
330
C
100
AcDbDictionary
281
     1
  3
Normal
350
F
100
AcDbDictionaryWithDefault
340
F
  0
DICTIONARY
  5
47
102
{ACAD_REACTORS
330
C
102
}
330
C
100
AcDbDictionary
281
     1
  3
A0
350
48
  3
A1
350
49
  3
A2
350
4A
  3
A3
350
4B
  3
A4
350
4C
  3
A5
350
4D
  3
A6
350
4E
  3
A7
350
4F
  3
A8
350
50
  3
A9
350
51
  3
B0
350
52
  3
B1
350
53
  3
B2
350
54
  3
B3
350
55
  3
B4
350
56
  3
B5
350
57
  3
B6
350
58
  3
B7
350
59
  3
B8
350
5A
  3
B9
350
5B
  3
C0
350
5C
  3
C1
350
5D
  3
C2
350
5E
  3
C3
350
5F
  3
C4
350
60
  3
C5
350
61
  3
C6
350
62
  3
C7
350
63
  3
C8
350
64
  3
C9
350
65
  3
D0
350
66
  3
D1
350
67
  3
D2
350
68
  0
DICTIONARY
  5
12E
102
{ACAD_REACTORS
330
C
102
}
330
C
100
AcDbDictionary
281
     1
  0
XRECORD
  5
145
102
{ACAD_REACTORS
330
C
102
}
330
C
100
AcDbXrecord
280
     1
  1
DWGPROPS COOKIE
  2

  3

  4

  6

  7

  8
12014102
  9

300
=
301
=
302
=
303
=
304
=
305
=
306
=
307
=
308
=
309
=
 40
0.0
 41
2458260.208073935
 42
2458268.218039989
  1

 90
        0
  0
LAYOUT
  5
1E
102
{ACAD_REACTORS
330
1A
102
}
330
1A
100
AcDbPlotSettings
  1

  2
none_device
  4

  6

 40
0.0
 41
0.0
 42
0.0
 43
0.0
 44
0.0
 45
0.0
 46
0.0
 47
0.0
 48
0.0
 49
0.0
140
0.0
141
0.0
142
1.0
143
1.0
 70
   688
 72
     1
 73
     0
 74
     5
  7

 75
    16
147
1.0
148
0.0
149
0.0
100
AcDbLayout
  1
Layout1
 70
     1
 71
     1
 10
0.0
 20
0.0
 11
420.0
 21
297.0
 12
0.0
 22
0.0
 32
0.0
 14
1.000000000000000E+20
 24
1.000000000000000E+20
 34
1.000000000000000E+20
 15
-1.000000000000000E+20
 25
-1.000000000000000E+20
 35
-1.000000000000000E+20
146
0.0
 13
0.0
 23
0.0
 33
0.0
 16
1.0
 26
0.0
 36
0.0
 17
0.0
 27
1.0
 37
0.0
 76
     0
330
1B
  0
LAYOUT
  5
26
102
{ACAD_REACTORS
330
1A
102
}
330
1A
100
AcDbPlotSettings
  1

  2
none_device
  4

  6

 40
0.0
 41
0.0
 42
0.0
 43
0.0
 44
0.0
 45
0.0
 46
0.0
 47
0.0
 48
0.0
 49
0.0
140
0.0
141
0.0
142
1.0
143
1.0
 70
   688
 72
     1
 73
     0
 74
     5
  7

 75
    16
147
1.0
148
0.0
149
0.0
100
AcDbLayout
  1
Layout2
 70
     1
 71
     2
 10
0.0
 20
0.0
 11
0.0
 21
0.0
 12
0.0
 22
0.0
 32
0.0
 14
0.0
 24
0.0
 34
0.0
 15
0.0
 25
0.0
 35
0.0
146
0.0
 13
0.0
 23
0.0
 33
0.0
 16
1.0
 26
0.0
 36
0.0
 17
0.0
 27
1.0
 37
0.0
 76
     0
330
23
  0
LAYOUT
  5
22
102
{ACAD_REACTORS
330
1A
102
}
330
1A
100
AcDbPlotSettings
  1

  2
none_device
  4
ANSI_A_(11.00_x_8.50_Inches)
  6

 40
6.35
 41
19.05
 42
6.35000508
 43
19.05000254
 44
279.4
 45
215.9
 46
169.4496787319489
 47
104.4724395649713
 48
0.0
 49
0.0
140
0.0
141
0.0
142
0.0589085814011888
143
1.0
 70
  1696
 72
     0
 73
     0
 74
     0
  7

 75
     0
147
0.0235690232323232
148
0.0
149
0.0
100
AcDbLayout
  1
Model
 70
     1
 71
     0
 10
0.0
 20
0.0
 11
420.0
 21
297.0
 12
0.0
 22
0.0
 32
0.0
 14
-114.9599165868708
 24
-49.97180738881175
 34
0.0
 15
67.3523996984329
 25
29.76413260158162
 35
0.0
146
0.0
 13
0.0
 23
0.0
 33
0.0
 16
1.0
 26
0.0
 36
0.0
 17
0.0
 27
1.0
 37
0.0
 76
     0
330
1F
331
29
  0
MLINESTYLE
  5
18
102
{ACAD_REACTORS
330
17
102
}
330
17
100
AcDbMlineStyle
  2
Standard
 70
     0
  3

 62
   256
 51
90.0
 52
90.0
 71
     2
 49
0.5
 62
   256
  6
BYLAYER
 49
-0.5
 62
   256
  6
BYLAYER
  0
ACDBPLACEHOLDER
  5
F
102
{ACAD_REACTORS
330
E
102
}
330
E
  0
SCALE
  5
48
102
{ACAD_REACTORS
330
47
102
}
330
47
100
AcDbScale
 70
     0
300
1:1
140
1.0
141
1.0
290
     1
  0
SCALE
  5
49
102
{ACAD_REACTORS
330
47
102
}
330
47
100
AcDbScale
 70
     0
300
1:2
140
1.0
141
2.0
290
     0
  0
SCALE
  5
4A
102
{ACAD_REACTORS
330
47
102
}
330
47
100
AcDbScale
 70
     0
300
1:4
140
1.0
141
4.0
290
     0
  0
SCALE
  5
4B
102
{ACAD_REACTORS
330
47
102
}
330
47
100
AcDbScale
 70
     0
300
1:5
140
1.0
141
5.0
290
     0
  0
SCALE
  5
4C
102
{ACAD_REACTORS
330
47
102
}
330
47
100
AcDbScale
 70
     0
300
1:8
140
1.0
141
8.0
290
     0
  0
SCALE
  5
4D
102
{ACAD_REACTORS
330
47
102
}
330
47
100
AcDbScale
 70
     0
300
1:10
140
1.0
141
10.0
290
     0
  0
SCALE
  5
4E
102
{ACAD_REACTORS
330
47
102
}
330
47
100
AcDbScale
 70
     0
300
1:16
140
1.0
141
16.0
290
     0
  0
SCALE
  5
4F
102
{ACAD_REACTORS
330
47
102
}
330
47
100
AcDbScale
 70
     0
300
1:20
140
1.0
141
20.0
290
     0
  0
SCALE
  5
50
102
{ACAD_REACTORS
330
47
102
}
330
47
100
AcDbScale
 70
     0
300
1:30
140
1.0
141
30.0
290
     0
  0
SCALE
  5
51
102
{ACAD_REACTORS
330
47
102
}
330
47
100
AcDbScale
 70
     0
300
1:40
140
1.0
141
40.0
290
     0
  0
SCALE
  5
52
102
{ACAD_REACTORS
330
47
102
}
330
47
100
AcDbScale
 70
     0
300
1:50
140
1.0
141
50.0
290
     0
  0
SCALE
  5
53
102
{ACAD_REACTORS
330
47
102
}
330
47
100
AcDbScale
 70
     0
300
1:100
140
1.0
141
100.0
290
     0
  0
SCALE
  5
54
102
{ACAD_REACTORS
330
47
102
}
330
47
100
AcDbScale
 70
     0
300
2:1
140
2.0
141
1.0
290
     0
  0
SCALE
  5
55
102
{ACAD_REACTORS
330
47
102
}
330
47
100
AcDbScale
 70
     0
300
4:1
140
4.0
141
1.0
290
     0
  0
SCALE
  5
56
102
{ACAD_REACTORS
330
47
102
}
330
47
100
AcDbScale
 70
     0
300
8:1
140
8.0
141
1.0
290
     0
  0
SCALE
  5
57
102
{ACAD_REACTORS
330
47
102
}
330
47
100
AcDbScale
 70
     0
300
10:1
140
10.0
141
1.0
290
     0
  0
SCALE
  5
58
102
{ACAD_REACTORS
330
47
102
}
330
47
100
AcDbScale
 70
     0
300
100:1
140
100.0
141
1.0
290
     0
  0
SCALE
  5
59
102
{ACAD_REACTORS
330
47
102
}
330
47
100
AcDbScale
 70
     0
300
1/128" = 1'-0"
140
0.0078125
141
12.0
290
     0
  0
SCALE
  5
5A
102
{ACAD_REACTORS
330
47
102
}
330
47
100
AcDbScale
 70
     0
300
1/64" = 1'-0"
140
0.015625
141
12.0
290
     0
  0
SCALE
  5
5B
102
{ACAD_REACTORS
330
47
102
}
330
47
100
AcDbScale
 70
     0
300
1/32" = 1'-0"
140
0.03125
141
12.0
290
     0
  0
SCALE
  5
5C
102
{ACAD_REACTORS
330
47
102
}
330
47
100
AcDbScale
 70
     0
300
1/16" = 1'-0"
140
0.0625
141
12.0
290
     0
  0
SCALE
  5
5D
102
{ACAD_REACTORS
330
47
102
}
330
47
100
AcDbScale
 70
     0
300
3/32" = 1'-0"
140
0.09375
141
12.0
290
     0
  0
SCALE
  5
5E
102
{ACAD_REACTORS
330
47
102
}
330
47
100
AcDbScale
 70
     0
300
1/8" = 1'-0"
140
0.125
141
12.0
290
     0
  0
SCALE
  5
5F
102
{ACAD_REACTORS
330
47
102
}
330
47
100
AcDbScale
 70
     0
300
3/16" = 1'-0"
140
0.1875
141
12.0
290
     0
  0
SCALE
  5
60
102
{ACAD_REACTORS
330
47
102
}
330
47
100
AcDbScale
 70
     0
300
1/4" = 1'-0"
140
0.25
141
12.0
290
     0
  0
SCALE
  5
61
102
{ACAD_REACTORS
330
47
102
}
330
47
100
AcDbScale
 70
     0
300
3/8" = 1'-0"
140
0.375
141
12.0
290
     0
  0
SCALE
  5
62
102
{ACAD_REACTORS
330
47
102
}
330
47
100
AcDbScale
 70
     0
300
1/2" = 1'-0"
140
0.5
141
12.0
290
     0
  0
SCALE
  5
63
102
{ACAD_REACTORS
330
47
102
}
330
47
100
AcDbScale
 70
     0
300
3/4" = 1'-0"
140
0.75
141
12.0
290
     0
  0
SCALE
  5
64
102
{ACAD_REACTORS
330
47
102
}
330
47
100
AcDbScale
 70
     0
300
1" = 1'-0"
140
1.0
141
12.0
290
     0
  0
SCALE
  5
65
102
{ACAD_REACTORS
330
47
102
}
330
47
100
AcDbScale
 70
     0
300
1-1/2" = 1'-0"
140
1.5
141
12.0
290
     0
  0
SCALE
  5
66
102
{ACAD_REACTORS
330
47
102
}
330
47
100
AcDbScale
 70
     0
300
3" = 1'-0"
140
3.0
141
12.0
290
     0
  0
SCALE
  5
67
102
{ACAD_REACTORS
330
47
102
}
330
47
100
AcDbScale
 70
     0
300
6" = 1'-0"
140
6.0
141
12.0
290
     0
  0
SCALE
  5
68
102
{ACAD_REACTORS
330
47
102
}
330
47
100
AcDbScale
 70
     0
300
1'-0" = 1'-0"
140
12.0
141
12.0
290
     0
  0
ENDSEC
  0
EOF
