  0
SECTION
  2
HEADER
  9
$ACADVER
  1
AC1015
  9
$ACADMAINTVER
 70
     6
  9
$DWGCODEPAGE
  3
ANSI_949
  9
$INSBASE
 10
0.0
 20
0.0
 30
0.0
  9
$EXTMIN
 10
-134.7186498570749
 20
-49.97180738881174
 30
0.0
  9
$EXTMAX
 10
146.5183965485419
 20
29.76413260158163
 30
0.0
  9
$LIMMIN
 10
0.0
 20
0.0
  9
$LIMMAX
 10
420.0
 20
297.0
  9
$ORTHOMODE
 70
     0
  9
$REGENMODE
 70
     1
  9
$FILLMODE
 70
     1
  9
$QTEXTMODE
 70
     0
  9
$MIRRTEXT
 70
     1
  9
$LTSCALE
 40
1.0
  9
$ATTMODE
 70
     1
  9
$TEXTSIZE
 40
3.5
  9
$TRACEWID
 40
1.0
  9
$TEXTSTYLE
  7
Standard
  9
$CLAYER
  8
0
  9
$CELTYPE
  6
ByLayer
  9
$CECOLOR
 62
   256
  9
$CELTSCALE
 40
1.0
  9
$DISPSILH
 70
     0
  9
$DIMSCALE
 40
1.0
  9
$DIMASZ
 40
3.302
  9
$DIMEXO
 40
1.0
  9
$DIMDLI
 40
3.75
  9
$DIMRND
 40
0.0
  9
$DIMDLE
 40
0.0
  9
$DIMEXE
 40
1.0
  9
$DIMTP
 40
0.0
  9
$DIMTM
 40
0.0
  9
$DIMTXT
 40
3.5
  9
$DIMCEN
 40
2.5
  9
$DIMTSZ
 40
0.0
  9
$DIMTOL
 70
     0
  9
$DIMLIM
 70
     0
  9
$DIMTIH
 70
     1
  9
$DIMTOH
 70
     1
  9
$DIMSE1
 70
     0
  9
$DIMSE2
 70
     0
  9
$DIMTAD
 70
     1
  9
$DIMZIN
 70
     0
  9
$DIMBLK
  1

  9
$DIMASO
 70
     1
  9
$DIMSHO
 70
     1
  9
$DIMPOST
  1

  9
$DIMAPOST
  1

  9
$DIMALT
 70
     0
  9
$DIMALTD
 70
     3
  9
$DIMALTF
 40
0.0393700787401575
  9
$DIMLFAC
 40
1.0
  9
$DIMTOFL
 70
     1
  9
$DIMTVP
 40
0.0
  9
$DIMTIX
 70
     0
  9
$DIMSOXD
 70
     0
  9
$DIMSAH
 70
     0
  9
$DIMBLK1
  1

  9
$DIMBLK2
  1

  9
$DIMSTYLE
  2
ISO-25
  9
$DIMCLRD
 70
     0
  9
$DIMCLRE
 70
     0
  9
$DIMCLRT
 70
     0
  9
$DIMTFAC
 40
1.0
  9
$DIMGAP
 40
1.524
  9
$DIMJUST
 70
     0
  9
$DIMSD1
 70
     0
  9
$DIMSD2
 70
     0
  9
$DIMTOLJ
 70
     0
  9
$DIMTZIN
 70
     0
  9
$DIMALTZ
 70
     0
  9
$DIMALTTZ
 70
     0
  9
$DIMUPT
 70
     0
  9
$DIMDEC
 70
     2
  9
$DIMTDEC
 70
     2
  9
$DIMALTU
 70
     2
  9
$DIMALTTD
 70
     3
  9
$DIMTXSTY
  7
Standard
  9
$DIMAUNIT
 70
     0
  9
$DIMADEC
 70
     2
  9
$DIMALTRND
 40
0.0
  9
$DIMAZIN
 70
     0
  9
$DIMDSEP
 70
    44
  9
$DIMATFIT
 70
     3
  9
$DIMFRAC
 70
     0
  9
$DIMLDRBLK
  1

  9
$DIMLUNIT
 70
     2
  9
$DIMLWD
 70
    -2
  9
$DIMLWE
 70
    -2
  9
$DIMTMOVE
 70
     0
  9
$LUNITS
 70
     2
  9
$LUPREC
 70
     2
  9
$SKETCHINC
 40
1.0
  9
$FILLETRAD
 40
10.0
  9
$AUNITS
 70
     0
  9
$AUPREC
 70
     2
  9
$MENU
  1
.
  9
$ELEVATION
 40
0.0
  9
$PELEVATION
 40
0.0
  9
$THICKNESS
 40
0.0
  9
$LIMCHECK
 70
     0
  9
$CHAMFERA
 40
0.0
  9
$CHAMFERB
 40
0.0
  9
$CHAMFERC
 40
0.0
  9
$CHAMFERD
 40
0.0
  9
$SKPOLY
 70
     0
  9
$TDCREATE
 40
2458260.582884711
  9
$TDUCREATE
 40
2458260.207884711
  9
$TDUPDATE
 40
2458268.611057419
  9
$TDUUPDATE
 40
2458268.236057419
  9
$TDINDWG
 40
0.000603588
  9
$TDUSRTIMER
 40
2458268.235453866
  9
$USRTIMER
 70
     1
  9
$ANGBASE
 50
0.0
  9
$ANGDIR
 70
     0
  9
$PDMODE
 70
     0
  9
$PDSIZE
 40
-1.0
  9
$PLINEWID
 40
0.0
  9
$SPLFRAME
 70
     0
  9
$SPLINETYPE
 70
     6
  9
$SPLINESEGS
 70
     8
  9
$HANDSEED
  5
154
  9
$SURFTAB1
 70
     6
  9
$SURFTAB2
 70
     6
  9
$SURFTYPE
 70
     6
  9
$SURFU
 70
     6
  9
$SURFV
 70
     6
  9
$UCSBASE
  2

  9
$UCSNAME
  2

  9
$UCSORG
 10
0.0
 20
0.0
 30
0.0
  9
$UCSXDIR
 10
1.0
 20
0.0
 30
0.0
  9
$UCSYDIR
 10
0.0
 20
1.0
 30
0.0
  9
$UCSORTHOREF
  2

  9
$UCSORTHOVIEW
 70
     0
  9
$UCSORGTOP
 10
0.0
 20
0.0
 30
0.0
  9
$UCSORGBOTTOM
 10
0.0
 20
0.0
 30
0.0
  9
$UCSORGLEFT
 10
0.0
 20
0.0
 30
0.0
  9
$UCSORGRIGHT
 10
0.0
 20
0.0
 30
0.0
  9
$UCSORGFRONT
 10
0.0
 20
0.0
 30
0.0
  9
$UCSORGBACK
 10
0.0
 20
0.0
 30
0.0
  9
$PUCSBASE
  2

  9
$PUCSNAME
  2

  9
$PUCSORG
 10
0.0
 20
0.0
 30
0.0
  9
$PUCSXDIR
 10
1.0
 20
0.0
 30
0.0
  9
$PUCSYDIR
 10
0.0
 20
1.0
 30
0.0
  9
$PUCSORTHOREF
  2

  9
$PUCSORTHOVIEW
 70
     0
  9
$PUCSORGTOP
 10
0.0
 20
0.0
 30
0.0
  9
$PUCSORGBOTTOM
 10
0.0
 20
0.0
 30
0.0
  9
$PUCSORGLEFT
 10
0.0
 20
0.0
 30
0.0
  9
$PUCSORGRIGHT
 10
0.0
 20
0.0
 30
0.0
  9
$PUCSORGFRONT
 10
0.0
 20
0.0
 30
0.0
  9
$PUCSORGBACK
 10
0.0
 20
0.0
 30
0.0
  9
$USERI1
 70
     0
  9
$USERI2
 70
     0
  9
$USERI3
 70
     0
  9
$USERI4
 70
     0
  9
$USERI5
 70
     0
  9
$USERR1
 40
0.0
  9
$USERR2
 40
0.0
  9
$USERR3
 40
0.0
  9
$USERR4
 40
0.0
  9
$USERR5
 40
0.0
  9
$WORLDVIEW
 70
     1
  9
$SHADEDGE
 70
     3
  9
$SHADEDIF
 70
    70
  9
$TILEMODE
 70
     1
  9
$MAXACTVP
 70
    64
  9
$PINSBASE
 10
0.0
 20
0.0
 30
0.0
  9
$PLIMCHECK
 70
     0
  9
$PEXTMIN
 10
1.000000000000000E+20
 20
1.000000000000000E+20
 30
1.000000000000000E+20
  9
$PEXTMAX
 10
-1.000000000000000E+20
 20
-1.000000000000000E+20
 30
-1.000000000000000E+20
  9
$PLIMMIN
 10
0.0
 20
0.0
  9
$PLIMMAX
 10
0.0
 20
0.0
  9
$UNITMODE
 70
     0
  9
$VISRETAIN
 70
     1
  9
$PLINEGEN
 70
     0
  9
$PSLTSCALE
 70
     1
  9
$TREEDEPTH
 70
  3020
  9
$CMLSTYLE
  2
Standard
  9
$CMLJUST
 70
     0
  9
$CMLSCALE
 40
20.0
  9
$PROXYGRAPHICS
 70
     1
  9
$MEASUREMENT
 70
     1
  9
$CELWEIGHT
370
    -1
  9
$ENDCAPS
280
     0
  9
$JOINSTYLE
280
     0
  9
$LWDISPLAY
290
     1
  9
$INSUNITS
 70
     4
  9
$HYPERLINKBASE
  1

  9
$STYLESHEET
  1

  9
$XEDIT
290
     1
  9
$CEPSNTYPE
380
     0
  9
$PSTYLEMODE
290
     1
  9
$FINGERPRINTGUID
  2
{C61C88D8-7631-4124-BC01-143611E5EEE0}
  9
$VERSIONGUID
  2
{FAEB1C32-E019-11D5-929B-00C0DF256EC4}
  9
$EXTNAMES
290
     1
  9
$PSVPSCALE
 40
0.0
  9
$OLESTARTUP
290
     0
  0
ENDSEC
  0
SECTION
  2
CLASSES
  0
CLASS
  1
ACDBDICTIONARYWDFLT
  2
AcDbDictionaryWithDefault
  3
ObjectDBX Classes
 90
        0
280
     0
281
     0
  0
CLASS
  1
VISUALSTYLE
  2
AcDbVisualStyle
  3
ObjectDBX Classes
 90
     4095
280
     0
281
     0
  0
CLASS
  1
MATERIAL
  2
AcDbMaterial
  3
ObjectDBX Classes
 90
     1153
280
     0
281
     0
  0
CLASS
  1
SCALE
  2
AcDbScale
  3
ObjectDBX Classes
 90
     1153
280
     0
281
     0
  0
CLASS
  1
TABLESTYLE
  2
AcDbTableStyle
  3
ObjectDBX Classes
 90
     4095
280
     0
281
     0
  0
CLASS
  1
MLEADERSTYLE
  2
AcDbMLeaderStyle
  3
ACDB_MLEADERSTYLE_CLASS
 90
     4095
280
     0
281
     0
  0
CLASS
  1
SUN
  2
AcDbSun
  3
SCENEOE
 90
     1153
280
     0
281
     0
  0
CLASS
  1
ACDBPLACEHOLDER
  2
AcDbPlaceHolder
  3
ObjectDBX Classes
 90
        0
280
     0
281
     0
  0
CLASS
  1
LAYOUT
  2
AcDbLayout
  3
ObjectDBX Classes
 90
        0
280
     0
281
     0
  0
CLASS
  1
RASTERVARIABLES
  2
AcDbRasterVariables
  3
ISM
 90
        0
280
     0
281
     0
  0
ENDSEC
  0
SECTION
  2
TABLES
  0
TABLE
  2
VPORT
  5
8
330
0
100
AcDbSymbolTable
 70
     1
  0
VPORT
  5
29
330
8
100
AcDbSymbolTableRecord
100
AcDbViewportTableRecord
  2
*Active
 70
     0
 10
0.0
 20
0.0
 11
1.0
 21
1.0
 12
5.899873345733511
 22
-10.10383739361506
 13
0.0
 23
0.0
 14
10.0
 24
10.0
 15
10.0
 25
10.0
 16
0.0
 26
0.0
 36
1.0
 17
0.0
 27
0.0
 37
0.0
 40
164.9561838011192
 41
1.739018087855297
 42
50.0
 43
0.0
 44
0.0
 50
0.0
 51
0.0
 71
    16
 72
  2000
 73
     1
 74
     3
 75
     0
 76
     0
 77
     0
 78
     0
281
     0
 65
     1
110
0.0
120
0.0
130
0.0
111
1.0
121
0.0
131
0.0
112
0.0
122
1.0
132
0.0
 79
     0
146
0.0
  0
ENDTAB
  0
TABLE
  2
LTYPE
  5
5
330
0
100
AcDbSymbolTable
 70
     6
  0
LTYPE
  5
14
330
5
100
AcDbSymbolTableRecord
100
AcDbLinetypeTableRecord
  2
ByBlock
 70
     0
  3

 72
    65
 73
     0
 40
0.0
  0
LTYPE
  5
15
330
5
100
AcDbSymbolTableRecord
100
AcDbLinetypeTableRecord
  2
ByLayer
 70
     0
  3

 72
    65
 73
     0
 40
0.0
  0
LTYPE
  5
16
330
5
100
AcDbSymbolTableRecord
100
AcDbLinetypeTableRecord
  2
Continuous
 70
     0
  3
Solid line
 72
    65
 73
     0
 40
0.0
  0
LTYPE
  5
6E
330
5
100
AcDbSymbolTableRecord
100
AcDbLinetypeTableRecord
  2
HIDDEN
 70
     0
  3
Hidden __ __ __ __ __ __ __ __ __ __ __ __ __ __
 72
    65
 73
     2
 40
1.905
 49
1.27
 74
     0
 49
-0.635
 74
     0
  0
LTYPE
  5
6F
330
5
100
AcDbSymbolTableRecord
100
AcDbLinetypeTableRecord
  2
PHANTOM
 70
     0
  3
Phantom ______  __  __  ______  __  __  ______
 72
    65
 73
     6
 40
12.7
 49
6.35
 74
     0
 49
-1.27
 74
     0
 49
1.27
 74
     0
 49
-1.27
 74
     0
 49
1.27
 74
     0
 49
-1.27
 74
     0
  0
LTYPE
  5
70
330
5
100
AcDbSymbolTableRecord
100
AcDbLinetypeTableRecord
  2
CENTER
 70
     0
  3
Center ____ _ ____ _ ____ _ ____ _ ____ _ ____
 72
    65
 73
     4
 40
10.16
 49
6.35
 74
     0
 49
-1.27
 74
     0
 49
1.27
 74
     0
 49
-1.27
 74
     0
  0
LTYPE
  5
71
330
5
100
AcDbSymbolTableRecord
100
AcDbLinetypeTableRecord
  2
CENTERX2
 70
     0
  3
Center (2x) ________  __  ________  __  _____
 72
    65
 73
     4
 40
20.32
 49
12.7
 74
     0
 49
-2.54
 74
     0
 49
2.54
 74
     0
 49
-2.54
 74
     0
  0
LTYPE
  5
72
330
5
100
AcDbSymbolTableRecord
100
AcDbLinetypeTableRecord
  2
DOT2
 70
     0
  3
Dot (.5x) ........................................
 72
    65
 73
     2
 40
0.635
 49
0.0
 74
     0
 49
-0.635
 74
     0
  0
ENDTAB
  0
TABLE
  2
LAYER
  5
2
330
0
100
AcDbSymbolTable
 70
    17
  0
LAYER
  5
10
330
2
100
AcDbSymbolTableRecord
100
AcDbLayerTableRecord
  2
0
 70
     0
 62
     7
  6
Continuous
370
    -3
390
F
  0
LAYER
  5
73
330
2
100
AcDbSymbolTableRecord
100
AcDbLayerTableRecord
  2
FORMAT
 70
     0
 62
     2
  6
Continuous
370
    -3
390
F
  0
LAYER
  5
74
330
2
100
AcDbSymbolTableRecord
100
AcDbLayerTableRecord
  2
외형선
 70
     0
 62
   100
  6
Continuous
370
    35
390
F
  0
LAYER
  5
75
330
2
100
AcDbSymbolTableRecord
100
AcDbLayerTableRecord
  2
숨은선
 70
     0
 62
     2
  6
HIDDEN
370
    25
390
F
  0
LAYER
  5
76
330
2
100
AcDbSymbolTableRecord
100
AcDbLayerTableRecord
  2
중심선
 70
     0
 62
     1
  6
CENTERX2
370
    -3
390
F
  0
LAYER
  5
77
330
2
100
AcDbSymbolTableRecord
100
AcDbLayerTableRecord
  2
파단선
 70
     0
 62
     4
  6
Continuous
370
    -3
390
F
  0
LAYER
  5
78
330
2
100
AcDbSymbolTableRecord
100
AcDbLayerTableRecord
  2
해칭선
 70
     0
 62
   100
  6
Continuous
370
    -3
390
F
  0
LAYER
  5
79
330
2
100
AcDbSymbolTableRecord
100
AcDbLayerTableRecord
  2
가는실선
 70
     0
 62
     4
  6
Continuous
370
    -3
390
F
  0
LAYER
  5
7A
330
2
100
AcDbSymbolTableRecord
100
AcDbLayerTableRecord
  2
치수_보조선
 70
     0
 62
     4
  6
Continuous
370
    -3
390
F
  0
LAYER
  5
7B
330
2
100
AcDbSymbolTableRecord
100
AcDbLayerTableRecord
  2
치수문자_일반주서
 70
     0
 62
     7
  6
Continuous
370
    25
390
F
  0
LAYER
  5
7C
330
2
100
AcDbSymbolTableRecord
100
AcDbLayerTableRecord
  2
개별주서
 70
     0
 62
   100
  6
Continuous
370
    35
390
F
  0
LAYER
  5
7D
330
2
100
AcDbSymbolTableRecord
100
AcDbLayerTableRecord
  2
중간선
 70
     0
 62
     2
  6
Continuous
370
    25
390
F
  0
LAYER
  5
7E
330
2
100
AcDbSymbolTableRecord
100
AcDbLayerTableRecord
  2
윤곽선
 70
     0
 62
     3
  6
Continuous
370
    50
390
F
  0
LAYER
  5
7F
330
2
100
AcDbSymbolTableRecord
100
AcDbLayerTableRecord
  2
중심마크
 70
     0
 62
   100
  6
Continuous
370
    35
390
F
  0
LAYER
  5
80
330
2
100
AcDbSymbolTableRecord
100
AcDbLayerTableRecord
  2
가상선
 70
     0
 62
     4
  6
PHANTOM
370
    -3
390
F
  0
LAYER
  5
81
330
2
100
AcDbSymbolTableRecord
100
AcDbLayerTableRecord
  2
특수지정선
 70
     0
 62
     5
  6
CENTERX2
370
    70
390
F
  0
LAYER
  5
145
330
2
100
AcDbSymbolTableRecord
100
AcDbLayerTableRecord
  2
Defpoints
 70
     0
 62
     7
  6
Continuous
290
     0
370
    -3
390
F
  0
ENDTAB
  0
TABLE
  2
STYLE
  5
3
330
0
100
AcDbSymbolTable
 70
     2
  0
STYLE
  5
11
330
3
100
AcDbSymbolTableRecord
100
AcDbTextStyleTableRecord
  2
Standard
 70
     0
 40
0.0
 41
1.0
 50
0.0
 71
     0
 42
3.5
  3
txt
  4

  0
STYLE
  5
97
330
3
100
AcDbSymbolTableRecord
100
AcDbTextStyleTableRecord
  2
SLDTEXTSTYLE0
 70
     0
 40
0.0
 41
0.75
 50
0.0
 71
     0
 42
3.5
  3
TXT
  4

  0
ENDTAB
  0
TABLE
  2
VIEW
  5
6
330
0
100
AcDbSymbolTable
 70
     0
  0
ENDTAB
  0
TABLE
  2
UCS
  5
7
330
0
100
AcDbSymbolTable
 70
     0
  0
ENDTAB
  0
TABLE
  2
APPID
  5
9
330
0
100
AcDbSymbolTable
 70
     1
  0
APPID
  5
12
330
9
100
AcDbSymbolTableRecord
100
AcDbRegAppTableRecord
  2
ACAD
 70
     0
  0
ENDTAB
  0
TABLE
  2
DIMSTYLE
  5
A
330
0
100
AcDbSymbolTable
 70
     4
100
AcDbDimStyleTable
  0
DIMSTYLE
105
27
330
A
100
AcDbSymbolTableRecord
100
AcDbDimStyleTableRecord
  2
ISO-25
 70
     0
 41
2.5
 42
0.625
 43
3.75
 44
1.25
 73
     0
 74
     0
 77
     1
 78
     8
140
2.5
141
2.5
143
0.03937007874016
147
0.625
171
     3
172
     1
178
     0
271
     2
272
     2
274
     3
278
    44
283
     0
284
     8
340
11
  0
DIMSTYLE
105
EA
102
{ACAD_REACTORS
330
E9
102
}
330
A
100
AcDbSymbolTableRecord
100
AcDbDimStyleTableRecord
  2
SLDDIMSTYLE0
 70
     0
 41
3.302
 44
0.0
 45
0.000000001
 73
     0
 74
     0
 77
     1
 78
    12
 79
     3
140
3.5
147
0.875
172
     1
173
     1
178
     0
271
     1
272
     1
276
     2
284
    12
289
     0
340
97
  0
DIMSTYLE
105
F8
102
{ACAD_REACTORS
330
F7
330
110
102
}
330
A
100
AcDbSymbolTableRecord
100
AcDbDimStyleTableRecord
  2
SLDDIMSTYLE1
 70
     0
 41
3.302
 44
0.0
 45
0.000000001
 73
     0
 74
     0
 77
     1
 78
    12
 79
     3
140
3.5
147
0.875
173
     1
178
     0
271
     2
272
     2
276
     2
284
    12
340
97
  0
DIMSTYLE
105
103
102
{ACAD_REACTORS
330
102
102
}
330
A
100
AcDbSymbolTableRecord
100
AcDbDimStyleTableRecord
  2
SLDDIMSTYLE2
 70
     0
 41
3.302
 44
0.0
 45
0.000000001
 73
     0
 74
     0
 77
     1
 78
    12
 79
     3
140
3.5
147
0.875
172
     1
173
     1
178
     0
271
     2
272
     2
276
     2
284
    12
289
     0
340
97
  0
ENDTAB
  0
TABLE
  2
BLOCK_RECORD
  5
1
330
0
100
AcDbSymbolTable
 70
     7
  0
BLOCK_RECORD
  5
1F
330
1
100
AcDbSymbolTableRecord
100
AcDbBlockTableRecord
  2
*Model_Space
340
22
  0
BLOCK_RECORD
  5
1B
330
1
100
AcDbSymbolTableRecord
100
AcDbBlockTableRecord
  2
*Paper_Space
340
1E
  0
BLOCK_RECORD
  5
23
330
1
100
AcDbSymbolTableRecord
100
AcDbBlockTableRecord
  2
*Paper_Space0
340
26
  0
BLOCK_RECORD
  5
82
330
1
100
AcDbSymbolTableRecord
100
AcDbBlockTableRecord
  2
블럭10
340
0
102
{BLKREFS
331
E2
102
}
  0
BLOCK_RECORD
  5
EB
330
1
100
AcDbSymbolTableRecord
100
AcDbBlockTableRecord
  2
_D
340
0
  0
BLOCK_RECORD
  5
F9
330
1
100
AcDbSymbolTableRecord
100
AcDbBlockTableRecord
  2
_D_1
340
0
  0
BLOCK_RECORD
  5
104
330
1
100
AcDbSymbolTableRecord
100
AcDbBlockTableRecord
  2
_D_2
340
0
  0
BLOCK_RECORD
  5
111
330
1
100
AcDbSymbolTableRecord
100
AcDbBlockTableRecord
  2
_D_3
340
0
  0
BLOCK_RECORD
  5
11A
330
1
100
AcDbSymbolTableRecord
100
AcDbBlockTableRecord
  2
SW_DOWELSYMBOL_0
340
0
102
{BLKREFS
331
120
102
}
  0
ENDTAB
  0
ENDSEC
  0
SECTION
  2
BLOCKS
  0
BLOCK
  5
20
330
1F
100
AcDbEntity
  8
0
100
AcDbBlockBegin
  2
*Model_Space
 70
     0
 10
0.0
 20
0.0
 30
0.0
  3
*Model_Space
  1

  0
ENDBLK
  5
21
330
1F
100
AcDbEntity
  8
0
100
AcDbBlockEnd
  0
BLOCK
  5
1C
330
1B
100
AcDbEntity
 67
     1
  8
0
100
AcDbBlockBegin
  2
*Paper_Space
 70
     0
 10
0.0
 20
0.0
 30
0.0
  3
*Paper_Space
  1

  0
ENDBLK
  5
1D
330
1B
100
AcDbEntity
 67
     1
  8
0
100
AcDbBlockEnd
  0
BLOCK
  5
24
330
23
100
AcDbEntity
  8
0
100
AcDbBlockBegin
  2
*Paper_Space0
 70
     0
 10
0.0
 20
0.0
 30
0.0
  3
*Paper_Space0
  1

  0
ENDBLK
  5
25
330
23
100
AcDbEntity
  8
0
100
AcDbBlockEnd
  0
BLOCK
  5
83
330
82
100
AcDbEntity
  8
0
100
AcDbBlockBegin
  2
블럭10
 70
     2
 10
0.0
 20
0.0
 30
0.0
  3
블럭10
  1

  0
ELLIPSE
  5
85
330
82
100
AcDbEntity
  8
중심선
100
AcDbEllipse
 10
20.54032771741204
 20
12.0471743016438
 30
0.0
 11
6.600054785286829
 21
-1.261213355974178E-13
 31
0.0
210
0.0
220
0.0
230
1.0
 40
0.636358354079598
 41
0.9219305317359503
 42
6.513795318482858
  0
ELLIPSE
  5
86
330
82
100
AcDbEntity
  8
중심선
100
AcDbEllipse
 10
20.54032771746488
 20
12.04717430159265
 30
0.0
 11
3.960054785062283
 21
1.540847449632565E-10
 31
0.0
210
0.0
220
0.0
230
1.0
 40
0.3939339440162632
 41
1.131841032648279
 42
5.62031148352944
  0
LINE
  5
87
330
82
100
AcDbEntity
  8
중심선
100
AcDbLine
 10
2.268634060543552
 20
16.24717430164393
 30
0.0
 11
5.714909304380834
 21
16.24717430164393
 31
0.0
  0
LINE
  5
88
330
82
100
AcDbEntity
  8
중심선
100
AcDbLine
 10
5.245725140726316
 20
7.84717430164391
 30
0.0
 11
8.692000384563599
 21
7.84717430164391
 31
0.0
  0
LINE
  5
89
330
82
100
AcDbEntity
  8
중심선
100
AcDbLine
 10
15.74043728645272
 20
16.24717430164393
 30
0.0
 11
8.692000384563599
 21
7.84717430164391
 31
0.0
  0
LINE
  5
8A
330
82
100
AcDbEntity
  8
중심선
100
AcDbLine
 10
0.1404042013395286
 20
13.71084872107135
 30
0.0
 11
3.58671253028996
 21
13.71088815037384
 31
0.0
  0
LINE
  5
8B
330
82
100
AcDbEntity
  8
중심선
100
AcDbLine
 10
2.750260043222114
 20
10.84717430164391
 30
0.0
 11
6.196535287059397
 21
10.84717430164391
 31
0.0
  0
LINE
  5
8C
330
82
100
AcDbEntity
  8
중심선
100
AcDbLine
 10
12.29416204261559
 20
16.24717430164393
 30
0.0
 11
5.245725140726316
 21
7.84717430164391
 31
0.0
  0
LINE
  5
8D
330
82
100
AcDbEntity
  8
중심선
100
AcDbLine
 10
10.72767329541681
 20
16.24717430164393
 30
0.0
 11
6.196535287059397
 21
10.84717430164391
 31
0.0
  0
LINE
  5
8E
330
82
100
AcDbEntity
  8
중심선
100
AcDbLine
 10
7.28139805157953
 20
16.24717430164393
 30
0.0
 11
2.750260043222114
 21
10.84717430164391
 31
0.0
  0
LINE
  5
8F
330
82
100
AcDbEntity
  8
중심선
100
AcDbLine
 10
5.714909304380834
 20
16.24717430164393
 30
0.0
 11
3.58671253028996
 21
13.71088815037384
 31
0.0
  0
LINE
  5
90
330
82
100
AcDbEntity
  8
중심선
100
AcDbLine
 10
2.268634060543552
 20
16.24717430164393
 30
0.0
 11
0.1404042013395286
 21
13.71084872107135
 31
0.0
  0
LINE
  5
91
330
82
100
AcDbEntity
  8
중심선
100
AcDbLine
 10
7.28139805157953
 20
16.24717430164393
 30
0.0
 11
10.72767329541681
 21
16.24717430164393
 31
0.0
  0
LINE
  5
92
330
82
100
AcDbEntity
  8
중심선
100
AcDbLine
 10
12.29416204261559
 20
16.24717430164393
 30
0.0
 11
15.74043728645272
 21
16.24717430164393
 31
0.0
  0
LINE
  5
93
330
82
100
AcDbEntity
  8
중심선
100
AcDbLine
 10
19.22036997980202
 20
11.08717430171403
 30
0.0
 11
23.66174974927406
 21
11.08717430171406
 31
0.0
  0
LINE
  5
94
330
82
100
AcDbEntity
  8
중심선
100
AcDbLine
 10
19.22039502424796
 20
13.00717430171391
 30
0.0
 11
19.22036997980202
 21
11.08717430171403
 31
0.0
  0
LINE
  5
95
330
82
100
AcDbEntity
  8
중심선
100
AcDbLine
 10
19.22039502424796
 20
13.00717430171391
 30
0.0
 11
26.96566020931264
 21
13.00717430171391
 31
0.0
  0
LINE
  5
96
330
82
100
AcDbEntity
  8
중심선
100
AcDbLine
 10
22.22332737316547
 20
13.45928029700563
 30
0.0
 11
24.52862924686651
 21
15.39360700705356
 31
0.0
  0
ATTDEF
  5
98
330
82
100
AcDbEntity
  8
FORMAT
 62
     2
100
AcDbText
 10
-17.69892196172445
 20
2.075366912832191
 30
0.0
 40
4.233333333333333
  1
SEME72160120E [ 4 FLUTE ]
 41
0.75
  7
SLDTEXTSTYLE0
 11
-17.69892196172445
 21
-0.0412997538344756
 31
0.0
100
AcDbAttributeDefinition
  3

  2
AUTOATTR0
 70
     0
 74
     1
  0
ENDBLK
  5
84
330
82
100
AcDbEntity
  8
0
100
AcDbBlockEnd
  0
BLOCK
  5
EC
330
EB
100
AcDbEntity
  8
0
100
AcDbBlockBegin
  2
_D
 70
     0
 10
0.0
 20
0.0
 30
0.0
  3
_D
  1

  0
LINE
  5
EE
330
EB
100
AcDbEntity
  8
치수문자_일반주서
 62
     0
370
    -2
100
AcDbLine
 10
132.0625
 20
-8.000000000000025
 30
0.0
 11
145.9680632152086
 21
-7.999999999999975
 31
0.0
  0
LINE
  5
EF
330
EB
100
AcDbEntity
  8
치수문자_일반주서
 62
     0
370
    -2
100
AcDbLine
 10
132.0625
 20
8.0
 30
0.0
 11
145.9680632152085
 21
8.000000000000052
 31
0.0
  0
LINE
  5
F0
330
EB
100
AcDbEntity
  8
치수문자_일반주서
 62
     0
370
    -2
100
AcDbLine
 10
145.9680632152086
 20
-7.999999999999975
 30
0.0
 11
145.9680632152085
 21
22.47900000000006
 31
0.0
  0
LINE
  5
F1
330
EB
100
AcDbEntity
  8
치수문자_일반주서
 62
     0
370
    -2
100
AcDbLine
 10
145.9680632152086
 20
-7.999999999999975
 30
0.0
 11
145.9680632152085
 21
8.000000000000052
 31
0.0
  0
LINE
  5
F2
330
EB
100
AcDbEntity
  8
치수문자_일반주서
 62
     0
370
    -2
100
AcDbLine
 10
145.9680632152086
 20
-11.30199999999997
 30
0.0
 11
145.9680632152086
 21
-14.60399999999997
 31
0.0
  0
LINE
  5
F3
330
EB
100
AcDbEntity
  8
치수문자_일반주서
 62
     0
370
    -2
100
AcDbLine
 10
145.9680632152085
 20
11.30200000000005
 30
0.0
 11
145.9680632152085
 21
14.60400000000005
 31
0.0
  0
SOLID
  5
F4
330
EB
100
AcDbEntity
  8
치수문자_일반주서
 62
     0
100
AcDbTrace
 10
146.5183965485419
 20
-11.30199999999997
 30
0.0
 11
145.4177298818753
 21
-11.30199999999998
 31
0.0
 12
145.9680632152086
 22
-7.999999999999975
 32
0.0
 13
145.9680632152086
 23
-7.999999999999975
 33
0.0
  0
SOLID
  5
F5
330
EB
100
AcDbEntity
  8
치수문자_일반주서
 62
     0
100
AcDbTrace
 10
145.4177298818752
 20
11.30200000000005
 30
0.0
 11
146.5183965485419
 21
11.30200000000005
 31
0.0
 12
145.9680632152085
 22
8.000000000000052
 32
0.0
 13
145.9680632152085
 23
8.000000000000052
 33
0.0
  0
MTEXT
  5
F6
330
EB
100
AcDbEntity
  8
치수문자_일반주서
 62
     0
100
AcDbMText
 10
141.5930632152085
 20
18.54150000000004
 30
0.0
 40
3.5
 41
0.0
 71
     2
 72
     1
  1
\A1;%%c16
  7
SLDTEXTSTYLE0
 11
-3.552713678800495E-15
 21
1.0
 31
0.0
 73
     1
 44
1.0
  0
POINT
  5
14F
330
EB
100
AcDbEntity
  8
Defpoints
 62
     0
100
AcDbPoint
 10
132.0
 20
-8.000000000000025
 30
0.0
  0
POINT
  5
150
330
EB
100
AcDbEntity
  8
Defpoints
 62
     0
100
AcDbPoint
 10
132.0
 20
8.0
 30
0.0
  0
POINT
  5
151
330
EB
100
AcDbEntity
  8
Defpoints
 62
     0
100
AcDbPoint
 10
145.9680632152086
 20
8.000000000000052
 30
0.0
  0
ENDBLK
  5
ED
330
EB
100
AcDbEntity
  8
0
100
AcDbBlockEnd
  0
BLOCK
  5
FA
330
F9
100
AcDbEntity
  8
0
100
AcDbBlockBegin
  2
_D_1
 70
     0
 10
0.0
 20
0.0
 30
0.0
  3
_D_1
  1

  0
LINE
  5
FC
330
F9
100
AcDbEntity
  8
치수문자_일반주서
 62
     0
370
    -2
100
AcDbLine
 10
-118.0
 20
7.562499999999974
 30
0.0
 11
-118.0
 21
25.38913260158163
 31
0.0
  0
LINE
  5
FD
330
F9
100
AcDbEntity
  8
치수문자_일반주서
 62
     0
370
    -2
100
AcDbLine
 10
132.0
 20
8.0625
 30
0.0
 11
132.0
 21
25.38913260158163
 31
0.0
  0
LINE
  5
FE
330
F9
100
AcDbEntity
  8
치수문자_일반주서
 62
     0
370
    -2
100
AcDbLine
 10
-114.698
 20
25.38913260158163
 30
0.0
 11
128.698
 21
25.38913260158163
 31
0.0
  0
SOLID
  5
FF
330
F9
100
AcDbEntity
  8
치수문자_일반주서
 62
     0
100
AcDbTrace
 10
-114.698
 20
25.93946593491496
 30
0.0
 11
-114.698
 21
24.83879926824829
 31
0.0
 12
-118.0
 22
25.38913260158163
 32
0.0
 13
-118.0
 23
25.38913260158163
 33
0.0
  0
SOLID
  5
100
330
F9
100
AcDbEntity
  8
치수문자_일반주서
 62
     0
100
AcDbTrace
 10
128.698
 20
24.83879926824829
 30
0.0
 11
128.698
 21
25.93946593491496
 31
0.0
 12
132.0
 22
25.38913260158163
 32
0.0
 13
132.0
 23
25.38913260158163
 33
0.0
  0
MTEXT
  5
101
330
F9
100
AcDbEntity
  8
치수문자_일반주서
 62
     0
100
AcDbMText
 10
6.999999999999992
 20
29.76413260158163
 30
0.0
 40
3.5
 41
0.0
 71
     2
 72
     1
  1
\A1;250
  7
SLDTEXTSTYLE0
 73
     1
 44
1.0
  0
POINT
  5
146
330
F9
100
AcDbEntity
  8
Defpoints
 62
     0
100
AcDbPoint
 10
-118.0
 20
7.499999999999974
 30
0.0
  0
POINT
  5
147
330
F9
100
AcDbEntity
  8
Defpoints
 62
     0
100
AcDbPoint
 10
132.0
 20
8.0
 30
0.0
  0
POINT
  5
148
330
F9
100
AcDbEntity
  8
Defpoints
 62
     0
100
AcDbPoint
 10
132.0
 20
25.38913260158163
 30
0.0
  0
ENDBLK
  5
FB
330
F9
100
AcDbEntity
  8
0
100
AcDbBlockEnd
  0
BLOCK
  5
105
330
104
100
AcDbEntity
  8
0
100
AcDbBlockBegin
  2
_D_2
 70
     0
 10
0.0
 20
0.0
 30
0.0
  3
_D_2
  1

  0
LINE
  5
107
330
104
100
AcDbEntity
  8
치수문자_일반주서
 62
     0
370
    -2
100
AcDbLine
 10
-117.5625
 20
7.999999999999968
 30
0.0
 11
-130.3436498570749
 21
7.99999999999992
 31
0.0
  0
LINE
  5
108
330
104
100
AcDbEntity
  8
치수문자_일반주서
 62
     0
370
    -2
100
AcDbLine
 10
-117.5625
 20
-8.00000000000002
 30
0.0
 11
-130.3436498570748
 21
-8.000000000000068
 31
0.0
  0
LINE
  5
109
330
104
100
AcDbEntity
  8
치수문자_일반주서
 62
     0
370
    -2
100
AcDbLine
 10
-130.3436498570749
 20
7.99999999999992
 30
0.0
 11
-130.3436498570749
 21
22.47899999999992
 31
0.0
  0
LINE
  5
10A
330
104
100
AcDbEntity
  8
치수문자_일반주서
 62
     0
370
    -2
100
AcDbLine
 10
-130.3436498570749
 20
7.99999999999992
 30
0.0
 11
-130.3436498570748
 21
-8.000000000000068
 31
0.0
  0
LINE
  5
10B
330
104
100
AcDbEntity
  8
치수문자_일반주서
 62
     0
370
    -2
100
AcDbLine
 10
-130.3436498570749
 20
11.30199999999992
 30
0.0
 11
-130.3436498570749
 21
14.60399999999992
 31
0.0
  0
LINE
  5
10C
330
104
100
AcDbEntity
  8
치수문자_일반주서
 62
     0
370
    -2
100
AcDbLine
 10
-130.3436498570748
 20
-11.30200000000007
 30
0.0
 11
-130.3436498570748
 21
-14.60400000000007
 31
0.0
  0
SOLID
  5
10D
330
104
100
AcDbEntity
  8
치수문자_일반주서
 62
     0
100
AcDbTrace
 10
-130.8939831904082
 20
11.30199999999992
 30
0.0
 11
-129.7933165237415
 21
11.30199999999992
 31
0.0
 12
-130.3436498570749
 22
7.99999999999992
 32
0.0
 13
-130.3436498570749
 23
7.99999999999992
 33
0.0
  0
SOLID
  5
10E
330
104
100
AcDbEntity
  8
치수문자_일반주서
 62
     0
100
AcDbTrace
 10
-129.7933165237415
 20
-11.30200000000007
 30
0.0
 11
-130.8939831904081
 21
-11.30200000000007
 31
0.0
 12
-130.3436498570748
 22
-8.000000000000068
 32
0.0
 13
-130.3436498570748
 23
-8.000000000000068
 33
0.0
  0
MTEXT
  5
10F
330
104
100
AcDbEntity
  8
치수문자_일반주서
 62
     0
100
AcDbMText
 10
-134.7186498570749
 20
18.5414999999999
 30
0.0
 40
3.5
 41
0.0
 71
     2
 72
     1
  1
\A1;%%c16
  7
SLDTEXTSTYLE0
 11
-3.552713678800504E-15
 21
1.0
 31
0.0
 73
     1
 44
1.0
  0
POINT
  5
14C
330
104
100
AcDbEntity
  8
Defpoints
 62
     0
100
AcDbPoint
 10
-117.5
 20
7.999999999999968
 30
0.0
  0
POINT
  5
14D
330
104
100
AcDbEntity
  8
Defpoints
 62
     0
100
AcDbPoint
 10
-117.5
 20
-8.00000000000002
 30
0.0
  0
POINT
  5
14E
330
104
100
AcDbEntity
  8
Defpoints
 62
     0
100
AcDbPoint
 10
-130.3436498570748
 20
-8.000000000000068
 30
0.0
  0
ENDBLK
  5
106
330
104
100
AcDbEntity
  8
0
100
AcDbBlockEnd
  0
BLOCK
  5
112
330
111
100
AcDbEntity
  8
0
100
AcDbBlockBegin
  2
_D_3
 70
     0
 10
0.0
 20
0.0
 30
0.0
  3
_D_3
  1

  0
LINE
  5
114
330
111
100
AcDbEntity
  8
치수문자_일반주서
 62
     0
370
    -2
100
AcDbLine
 10
11.99999999999999
 20
6.919442003722728
 30
0.0
 11
12.0
 21
17.7028603063104
 31
0.0
  0
LINE
  5
115
330
111
100
AcDbEntity
  8
치수문자_일반주서
 62
     0
370
    -2
100
AcDbLine
 10
132.0
 20
8.0625
 30
0.0
 11
132.0
 21
17.7028603063104
 31
0.0
  0
LINE
  5
116
330
111
100
AcDbEntity
  8
치수문자_일반주서
 62
     0
370
    -2
100
AcDbLine
 10
15.302
 20
17.7028603063104
 30
0.0
 11
128.698
 21
17.7028603063104
 31
0.0
  0
SOLID
  5
117
330
111
100
AcDbEntity
  8
치수문자_일반주서
 62
     0
100
AcDbTrace
 10
15.302
 20
18.25319363964373
 30
0.0
 11
15.302
 21
17.15252697297706
 31
0.0
 12
12.0
 22
17.7028603063104
 32
0.0
 13
12.0
 23
17.7028603063104
 33
0.0
  0
SOLID
  5
118
330
111
100
AcDbEntity
  8
치수문자_일반주서
 62
     0
100
AcDbTrace
 10
128.698
 20
17.15252697297706
 30
0.0
 11
128.698
 21
18.25319363964373
 31
0.0
 12
132.0
 22
17.7028603063104
 32
0.0
 13
132.0
 23
17.7028603063104
 33
0.0
  0
MTEXT
  5
119
330
111
100
AcDbEntity
  8
치수문자_일반주서
 62
     0
100
AcDbMText
 10
72.0
 20
22.0778603063104
 30
0.0
 40
3.5
 41
0.0
 71
     2
 72
     1
  1
\A1;120
  7
SLDTEXTSTYLE0
 73
     1
 44
1.0
  0
POINT
  5
149
330
111
100
AcDbEntity
  8
Defpoints
 62
     0
100
AcDbPoint
 10
11.99999999999999
 20
6.856942003722728
 30
0.0
  0
POINT
  5
14A
330
111
100
AcDbEntity
  8
Defpoints
 62
     0
100
AcDbPoint
 10
132.0
 20
8.0
 30
0.0
  0
POINT
  5
14B
330
111
100
AcDbEntity
  8
Defpoints
 62
     0
100
AcDbPoint
 10
132.0
 20
17.7028603063104
 30
0.0
  0
ENDBLK
  5
113
330
111
100
AcDbEntity
  8
0
100
AcDbBlockEnd
  0
BLOCK
  5
11B
330
11A
100
AcDbEntity
  8
0
100
AcDbBlockBegin
  2
SW_DOWELSYMBOL_0
 70
     0
 10
0.0
 20
0.0
 30
0.0
  3
SW_DOWELSYMBOL_0
  1

  0
CIRCLE
  5
11D
330
11A
100
AcDbEntity
  8
해칭선
 62
     0
100
AcDbCircle
 10
0.0
 20
0.0
 30
0.0
 40
3.0
  0
HATCH
  5
11E
330
11A
100
AcDbEntity
  8
0
  6
Continuous
 62
     0
370
    18
100
AcDbHatch
 10
0.0
 20
0.0
 30
0.0
210
0.0
220
0.0
230
1.0
  2
SOLID
 70
     1
 71
     0
 91
        1
 92
        0
 93
        3
 72
     2
 10
0.0
 20
0.0
 40
3.0
 50
0.0
 51
90.0
 73
     1
 72
     1
 10
0.0
 20
3.0
 11
0.0
 21
0.0
 72
     1
 10
0.0
 20
0.0
 11
3.0
 21
0.0
 97
        0
 75
     0
 76
     1
 98
        1
 10
0.0
 20
0.0
  0
HATCH
  5
11F
330
11A
100
AcDbEntity
  8
0
  6
Continuous
 62
     0
370
    18
100
AcDbHatch
 10
0.0
 20
0.0
 30
0.0
210
0.0
220
0.0
230
1.0
  2
SOLID
 70
     1
 71
     0
 91
        1
 92
        0
 93
        3
 72
     2
 10
0.0
 20
0.0
 40
3.0
 50
180.0
 51
270.0000000000008
 73
     1
 72
     1
 10
0.0
 20
-3.0
 11
0.0
 21
0.0
 72
     1
 10
0.0
 20
0.0
 11
-3.0
 21
0.0
 97
        0
 75
     0
 76
     1
 98
        1
 10
0.0
 20
0.0
  0
ENDBLK
  5
11C
330
11A
100
AcDbEntity
  8
0
100
AcDbBlockEnd
  0
ENDSEC
  0
SECTION
  2
ENTITIES
  0
LINE
  5
99
330
1F
100
AcDbEntity
  8
0
  6
Continuous
 62
     4
370
    25
100
AcDbLine
 10
10.49985775684294
 20
7.999999999999988
 30
0.0
 11
-117.5
 21
7.999999999999981
 31
0.0
  0
LINE
  5
9A
330
1F
100
AcDbEntity
  8
0
  6
Continuous
 62
     4
370
    25
100
AcDbLine
 10
-117.5
 20
-8.00000000000002
 30
0.0
 11
10.49985775684294
 21
-8.000000000000012
 31
0.0
  0
LINE
  5
9B
330
1F
100
AcDbEntity
  8
0
  6
Continuous
 62
     4
370
    25
100
AcDbLine
 10
-117.5
 20
7.999999999999975
 30
0.0
 11
-118.0
 21
7.499999999999973
 31
0.0
  0
LINE
  5
9C
330
1F
100
AcDbEntity
  8
0
  6
Continuous
 62
     4
370
    25
100
AcDbLine
 10
-118.0
 20
-7.500000000000012
 30
0.0
 11
-117.5
 21
-8.000000000000012
 31
0.0
  0
LINE
  5
9D
330
1F
100
AcDbEntity
  8
0
  6
Continuous
 62
     1
370
    25
100
AcDbLine
 10
107.1387456452556
 20
-8.000000000000023
 30
0.0
 11
113.3272365914884
 21
-8.000000000000023
 31
0.0
  0
LINE
  5
9E
330
1F
100
AcDbEntity
  8
0
  6
Continuous
 62
     1
370
    25
100
AcDbLine
 10
20.07637616201317
 20
-8.000000000000023
 30
0.0
 11
26.264867108246
 21
-8.000000000000023
 31
0.0
  0
LINE
  5
9F
330
1F
100
AcDbEntity
  8
0
  6
Continuous
 62
     1
370
    25
100
AcDbLine
 10
69.79918181045835
 20
7.999999999999999
 30
0.0
 11
63.60967705803632
 21
7.999999999999999
 31
0.0
  0
LINE
  5
A0
330
1F
100
AcDbEntity
  8
0
  6
Continuous
 62
     1
370
    25
100
AcDbLine
 10
128.9046737054191
 20
-8.000000000000023
 30
0.0
 11
132.0
 21
-8.000000000000023
 31
0.0
  0
LINE
  5
A1
330
1F
100
AcDbEntity
  8
0
  6
Continuous
 62
     1
370
    25
100
AcDbLine
 10
41.84106515630884
 20
-8.000000000000023
 30
0.0
 11
48.03374577618265
 21
-8.000000000000023
 31
0.0
  0
LINE
  5
A2
330
1F
100
AcDbEntity
  8
0
  6
Continuous
 62
     1
370
    25
100
AcDbLine
 10
91.56198707540938
 20
7.999999999999999
 30
0.0
 11
85.37602166644905
 21
7.999999999999999
 31
0.0
  0
LINE
  5
A3
330
1F
100
AcDbEntity
  8
0
  6
Continuous
 62
     1
370
    25
100
AcDbLine
 10
63.60967705803647
 20
-8.000000000000023
 30
0.0
 11
69.79918181045838
 21
-8.000000000000023
 31
0.0
  0
LINE
  5
A4
330
1F
100
AcDbEntity
  8
0
  6
Continuous
 62
     1
370
    25
100
AcDbLine
 10
26.26486710824611
 20
7.999999999999999
 30
0.0
 11
20.07637616201342
 21
7.999999999999999
 31
0.0
  0
LINE
  5
A5
330
1F
100
AcDbEntity
  8
0
  6
Continuous
 62
     1
370
    25
100
AcDbLine
 10
113.3272365914885
 20
7.999999999999999
 30
0.0
 11
107.1387456452558
 21
7.999999999999999
 31
0.0
  0
LINE
  5
A6
330
1F
100
AcDbEntity
  8
0
  6
Continuous
 62
     1
370
    25
100
AcDbLine
 10
89.19073972502619
 20
1.350653772707383
 30
0.0
 11
89.57604177495625
 21
1.143215676356355
 31
0.0
  0
LINE
  5
A7
330
1F
100
AcDbEntity
  8
0
  6
Continuous
 62
     1
370
    25
100
AcDbLine
 10
44.82590820519953
 20
1.831991288397183
 30
0.0
 11
44.93763051675756
 21
1.777666294451255
 31
0.0
  0
LINE
  5
A8
330
1F
100
AcDbEntity
  8
0
  6
Continuous
 62
     1
370
    25
100
AcDbLine
 10
46.06664384881206
 20
1.131066025665713
 30
0.0
 11
46.1411882804824
 21
1.088224784616159
 31
0.0
  0
SPLINE
  5
A9
330
1F
100
AcDbEntity
  8
0
  6
Continuous
 62
     1
370
    25
100
AcDbSpline
210
0.0
220
0.0
230
1.0
 70
     8
 71
     3
 72
     9
 73
     5
 74
     0
 42
0.000000001
 43
0.00000001
 40
0.0
 40
0.0
 40
0.0
 40
0.0
 40
0.5345477200801075
 40
1.0
 40
1.0
 40
1.0
 40
1.0
 10
44.93763051675754
 20
1.777666294451245
 30
0.0
 10
45.13732812993928
 20
1.663849935731719
 30
0.0
 10
45.51091051684352
 20
1.450929078633181
 30
0.0
 10
45.89013360010824
 20
1.232659908527585
 30
0.0
 10
46.06664384881206
 20
1.131066025665713
 30
0.0
  0
LINE
  5
AA
330
1F
100
AcDbEntity
  8
0
  6
Continuous
 62
     1
370
    25
100
AcDbLine
 10
65.74377787508456
 20
-1.222030158816212
 30
0.0
 11
65.59599637099078
 21
-1.1432156763564
 31
0.0
  0
LINE
  5
AB
330
1F
100
AcDbEntity
  8
0
  6
Continuous
 62
     1
370
    25
100
AcDbLine
 10
131.8820104304441
 20
1.835038743717838
 30
0.0
 11
132.0
 21
1.777666294451255
 31
0.0
  0
LINE
  5
AC
330
1F
100
AcDbEntity
  8
0
  6
Continuous
 62
     1
370
    25
100
AcDbLine
 10
85.37602166644902
 20
-8.000000000000023
 30
0.0
 11
91.56198707540926
 21
-8.000000000000023
 31
0.0
  0
LINE
  5
AD
330
1F
100
AcDbEntity
  8
0
  6
Continuous
 62
     1
370
    25
100
AcDbLine
 10
48.03374577618248
 20
7.999999999999999
 30
0.0
 11
41.84106515630879
 21
7.999999999999999
 31
0.0
  0
LINE
  5
AE
330
1F
100
AcDbEntity
  8
0
  6
Continuous
 62
     1
370
    25
100
AcDbLine
 10
132.0
 20
7.999999999999999
 30
0.0
 11
128.9046737054192
 21
7.999999999999999
 31
0.0
  0
SPLINE
  5
AF
330
1F
100
AcDbEntity
  8
0
  6
Continuous
 62
     4
370
    25
100
AcDbSpline
210
0.0
220
0.0
230
1.0
 70
     8
 71
     3
 72
    14
 73
    10
 74
     0
 42
0.000000001
 43
0.00000001
 40
0.0
 40
0.0
 40
0.0
 40
0.0
 40
0.25
 40
0.25
 40
0.5
 40
0.5
 40
0.75
 40
0.75
 40
1.0
 40
1.0
 40
1.0
 40
1.0
 10
11.30677503678023
 20
-7.054419229542042
 30
0.0
 10
11.18044138185491
 20
-7.088776047836724
 30
0.0
 10
11.06691740947868
 20
-7.129577432031166
 30
0.0
 10
10.86473755444195
 20
-7.220960131948896
 30
0.0
 10
10.77764641146392
 20
-7.271168765624582
 30
0.0
 10
10.63881356013895
 20
-7.372744930967786
 30
0.0
 10
10.58568611810919
 20
-7.425240982975001
 30
0.0
 10
10.51674947155552
 20
-7.524819696915538
 30
0.0
 10
10.49985775684292
 20
-7.572923458932742
 30
0.0
 10
10.49985775684292
 20
-7.617433799130213
 30
0.0
  0
SPLINE
  5
B0
330
1F
100
AcDbEntity
  8
0
  6
Continuous
 62
     4
370
    25
100
AcDbSpline
210
0.0
220
0.0
230
1.0
 70
     8
 71
     3
 72
     8
 73
     4
 74
     0
 42
0.000000001
 43
0.00000001
 40
0.0
 40
0.0
 40
0.0
 40
0.0
 40
1.0
 40
1.0
 40
1.0
 40
1.0
 10
11.99999999999999
 20
-6.856942003721231
 30
0.0
 10
11.76945017168161
 20
-6.925603364857857
 30
0.0
 10
11.53823113418068
 20
-6.991474046120602
 30
0.0
 10
11.30677503677198
 20
-7.054419229544289
 30
0.0
  0
LINE
  5
B1
330
1F
100
AcDbEntity
  8
0
  6
Continuous
 62
     4
370
    25
100
AcDbLine
 10
10.49985775684294
 20
7.999999999999988
 30
0.0
 11
10.49985775684293
 21
7.617433799130208
 31
0.0
  0
SPLINE
  5
B2
330
1F
100
AcDbEntity
  8
0
  6
Continuous
 62
     4
370
    25
100
AcDbSpline
210
0.0
220
0.0
230
1.0
 70
     8
 71
     3
 72
    14
 73
    10
 74
     0
 42
0.000000001
 43
0.00000001
 40
0.0
 40
0.0
 40
0.0
 40
0.0
 40
0.25
 40
0.25
 40
0.5
 40
0.5
 40
0.75
 40
0.75
 40
1.0
 40
1.0
 40
1.0
 40
1.0
 10
11.30677503678023
 20
7.054419229542044
 30
0.0
 10
11.18044138185491
 20
7.088776047836729
 30
0.0
 10
11.06691740947868
 20
7.129577432031171
 30
0.0
 10
10.86473755444195
 20
7.220960131948901
 30
0.0
 10
10.77764641146392
 20
7.271168765624583
 30
0.0
 10
10.63881356013895
 20
7.372744930967785
 30
0.0
 10
10.58568611810919
 20
7.425240982975001
 30
0.0
 10
10.51674947155552
 20
7.524819696915535
 30
0.0
 10
10.49985775684292
 20
7.572923458932737
 30
0.0
 10
10.49985775684292
 20
7.617433799130209
 30
0.0
  0
SPLINE
  5
B3
330
1F
100
AcDbEntity
  8
0
  6
Continuous
 62
     4
370
    25
100
AcDbSpline
210
0.0
220
0.0
230
1.0
 70
     8
 71
     3
 72
     8
 73
     4
 74
     0
 42
0.000000001
 43
0.00000001
 40
0.0
 40
0.0
 40
0.0
 40
0.0
 40
1.0
 40
1.0
 40
1.0
 40
1.0
 10
11.99999999999999
 20
6.856942003721239
 30
0.0
 10
11.76945017168161
 20
6.925603364857865
 30
0.0
 10
11.53823113418068
 20
6.991474046120608
 30
0.0
 10
11.30677503677198
 20
7.054419229544293
 30
0.0
  0
LINE
  5
B4
330
1F
100
AcDbEntity
  8
0
  6
Continuous
 62
     4
370
    25
100
AcDbLine
 10
11.99999999999999
 20
6.856942003721238
 30
0.0
 11
11.99999999999999
 21
4.144356910575292
 31
0.0
  0
SPLINE
  5
B5
330
1F
100
AcDbEntity
  8
0
  6
Continuous
 62
     4
370
    25
100
AcDbSpline
210
0.0
220
0.0
230
1.0
 70
     8
 71
     3
 72
    18
 73
    14
 74
     0
 42
0.000000001
 43
0.00000001
 40
0.0
 40
0.0
 40
0.0
 40
0.0
 40
0.2499999999999996
 40
0.2499999999999996
 40
0.3749999999999996
 40
0.3749999999999996
 40
0.4999999999999996
 40
0.4999999999999996
 40
0.6249999999999996
 40
0.6249999999999996
 40
0.7499999999999996
 40
0.7499999999999996
 40
1.0
 40
1.0
 40
1.0
 40
1.0
 10
10.49985775684294
 20
2.651481375329988
 30
0.0
 10
10.49985775684294
 20
2.846819720775951
 30
0.0
 10
10.53344590059761
 20
3.03574533131502
 30
0.0
 10
10.63945701474177
 20
3.302053158605721
 30
0.0
 10
10.68324025820262
 20
3.385861438233337
 30
0.0
 10
10.78773262666878
 20
3.543947563616948
 30
0.0
 10
10.84925116689479
 20
3.618976435254799
 30
0.0
 10
10.98648671954928
 20
3.7549928557516
 30
0.0
 10
11.06169521374367
 20
3.815859725577994
 30
0.0
 10
11.22520850614823
 20
3.923944150109496
 30
0.0
 10
11.31434852110751
 20
3.971347622642913
 30
0.0
 10
11.59084863685156
 20
4.08745014338462
 30
0.0
 10
11.79307040888188
 20
4.133218539898842
 30
0.0
 10
11.99999999999999
 20
4.144356910575291
 30
0.0
  0
SPLINE
  5
B6
330
1F
100
AcDbEntity
  8
0
  6
Continuous
 62
     4
370
    25
100
AcDbSpline
210
0.0
220
0.0
230
1.0
 70
     8
 71
     3
 72
    14
 73
    10
 74
     0
 42
0.000000001
 43
0.00000001
 40
0.0
 40
0.0
 40
0.0
 40
0.0
 40
0.25
 40
0.25
 40
0.5
 40
0.5
 40
0.75
 40
0.75
 40
1.0
 40
1.0
 40
1.0
 40
1.0
 10
11.30677503678023
 20
-3.772952336544509
 30
0.0
 10
11.18044138185491
 20
-3.708714207348877
 30
0.0
 10
11.06691740947868
 20
-3.63039962107062
 30
0.0
 10
10.86473755444195
 20
-3.445055956120655
 30
0.0
 10
10.77764641146392
 20
-3.338561828058546
 30
0.0
 10
10.63881356013895
 20
-3.107816352497835
 30
0.0
 10
10.58568611810919
 20
-2.980826340554227
 30
0.0
 10
10.51674947155552
 20
-2.719672380399054
 30
0.0
 10
10.49985775684292
 20
-2.583031600076775
 30
0.0
 10
10.49985775684292
 20
-2.444320420048991
 30
0.0
  0
SPLINE
  5
B7
330
1F
100
AcDbEntity
  8
0
  6
Continuous
 62
     4
370
    25
100
AcDbSpline
210
0.0
220
0.0
230
1.0
 70
     8
 71
     3
 72
     8
 73
     4
 74
     0
 42
0.000000001
 43
0.00000001
 40
0.0
 40
0.0
 40
0.0
 40
0.0
 40
1.0
 40
1.0
 40
1.0
 40
1.0
 10
11.99999999999999
 20
-4.120964250945728
 30
0.0
 10
11.76945017168161
 20
-4.006717452735246
 30
0.0
 10
11.53823113418068
 20
-3.890643118915376
 30
0.0
 10
11.30677503677198
 20
-3.772952336540316
 30
0.0
  0
LINE
  5
B8
330
1F
100
AcDbEntity
  8
0
  6
Continuous
 62
     4
370
    25
100
AcDbLine
 10
11.99999999999999
 20
-4.120964250945728
 30
0.0
 11
11.99999999999999
 21
-6.842828786238004
 31
0.0
  0
SPLINE
  5
B9
330
1F
100
AcDbEntity
  8
0
  6
Continuous
 62
     4
370
    25
100
AcDbSpline
210
0.0
220
0.0
230
1.0
 70
     8
 71
     3
 72
    18
 73
    14
 74
     0
 42
0.000000001
 43
0.00000001
 40
0.0
 40
0.0
 40
0.0
 40
0.0
 40
0.2499999999999997
 40
0.2499999999999997
 40
0.3749999999999995
 40
0.3749999999999995
 40
0.4999999999999993
 40
0.4999999999999993
 40
0.6249999999999996
 40
0.6249999999999996
 40
0.7499999999999998
 40
0.7499999999999998
 40
1.0
 40
1.0
 40
1.0
 40
1.0
 10
10.49985775684294
 20
-7.547823959014859
 30
0.0
 10
10.49985775684294
 20
-7.479203388682249
 30
0.0
 10
10.53344590059761
 20
-7.404176765609206
 30
0.0
 10
10.63945701474177
 20
-7.287375437082237
 30
0.0
 10
10.68324025820262
 20
-7.248698693622996
 30
0.0
 10
10.78773262666878
 20
-7.172734910491307
 30
0.0
 10
10.84925116689479
 20
-7.135046041139563
 30
0.0
 10
10.98648671954928
 20
-7.064410881408681
 30
0.0
 10
11.06169521374367
 20
-7.031573601130544
 30
0.0
 10
11.22520850614823
 20
-6.971834411417527
 30
0.0
 10
11.31434852110751
 20
-6.944810898875776
 30
0.0
 10
11.59084863685156
 20
-6.877554272370674
 30
0.0
 10
11.79307040888188
 20
-6.849574736623075
 30
0.0
 10
11.99999999999999
 20
-6.842828786238006
 30
0.0
  0
LINE
  5
BA
330
1F
100
AcDbEntity
  8
0
  6
Continuous
 62
     4
370
    25
100
AcDbLine
 10
10.49985775684294
 20
-7.547823959014859
 30
0.0
 11
10.49985775684294
 21
-8.000000000000012
 31
0.0
  0
LINE
  5
BB
330
1F
100
AcDbEntity
  8
0
  6
Continuous
 62
     4
370
    25
100
AcDbLine
 10
-117.5
 20
7.999999999999975
 30
0.0
 11
-117.5
 21
-8.00000000000002
 31
0.0
  0
LINE
  5
BC
330
1F
100
AcDbEntity
  8
0
  6
Continuous
 62
     4
370
    25
100
AcDbLine
 10
10.49985775684294
 20
2.651481375329987
 30
0.0
 11
10.49985775684293
 21
-2.44432042004899
 31
0.0
  0
LINE
  5
BD
330
1F
100
AcDbEntity
  8
0
  6
Continuous
 62
     4
370
    25
100
AcDbLine
 10
-118.0
 20
7.499999999999974
 30
0.0
 11
-118.0
 21
-7.500000000000012
 31
0.0
  0
SPLINE
  5
BE
330
1F
100
AcDbEntity
  8
0
  6
Continuous
 62
     4
370
    25
100
AcDbSpline
210
0.0
220
0.0
230
1.0
 70
    24
 71
     3
 72
    18
 73
    14
 74
     0
 42
0.000000001
 43
0.00000001
 40
0.0
 40
0.0
 40
0.0
 40
0.0
 40
0.2499999999999999
 40
0.2499999999999999
 40
0.3749999999999999
 40
0.3749999999999999
 40
0.4999999999999999
 40
0.4999999999999999
 40
0.6249999999999999
 40
0.6249999999999999
 40
0.7499999999999999
 40
0.7499999999999999
 40
1.0
 40
1.0
 40
1.0
 40
1.0
 10
11.99999999999999
 20
4.144356910575293
 30
0.0
 10
11.99999999999999
 20
3.879409897333789
 30
0.0
 10
11.99999999999999
 20
3.579494706624894
 30
0.0
 10
11.99999999999999
 20
3.075869207413982
 30
0.0
 10
11.99999999999999
 20
2.897847373970052
 30
0.0
 10
11.99999999999999
 20
2.531964929806078
 30
0.0
 10
11.99999999999999
 20
2.343360860132901
 30
0.0
 10
11.99999999999999
 20
1.954752705584944
 30
0.0
 10
11.99999999999999
 20
1.754750780686891
 30
0.0
 10
11.99999999999999
 20
1.342724433463572
 30
0.0
 10
11.99999999999999
 20
1.130346916702888
 30
0.0
 10
11.99999999999999
 20
0.4949779515466886
 30
0.0
 10
11.99999999999999
 20
0.067186450113583
 30
0.0
 10
11.99999999999999
 20
-0.3649999527502208
 30
0.0
  0
SPLINE
  5
BF
330
1F
100
AcDbEntity
  8
0
  6
Continuous
 62
     4
370
    25
100
AcDbSpline
210
0.0
220
0.0
230
1.0
 70
    24
 71
     3
 72
    12
 73
     8
 74
     0
 42
0.000000001
 43
0.00000001
 40
0.0
 40
0.0
 40
0.0
 40
0.0
 40
0.4999999999999999
 40
0.4999999999999999
 40
0.75
 40
0.75
 40
1.0
 40
1.0
 40
1.0
 40
1.0
 10
11.99999999999999
 20
-0.3649999527501506
 30
0.0
 10
11.99999999999999
 20
-1.029996659995167
 30
0.0
 10
11.99999999999999
 20
-1.728918423156607
 30
0.0
 10
11.99999999999999
 20
-2.710165736469592
 30
0.0
 10
11.99999999999999
 20
-3.025483482228444
 30
0.0
 10
11.99999999999999
 20
-3.61128035458428
 30
0.0
 10
11.99999999999999
 20
-3.881618060494306
 30
0.0
 10
11.99999999999999
 20
-4.120964250945729
 30
0.0
  0
SPLINE
  5
C0
330
1F
100
AcDbEntity
  8
0
  6
Continuous
 62
     1
370
    25
100
AcDbSpline
210
0.0
220
0.0
230
1.0
 70
     8
 71
     3
 72
    10
 73
     6
 74
     0
 42
0.000000001
 43
0.00000001
 40
0.0
 40
0.0
 40
0.0
 40
0.0
 40
0.4235097936826558
 40
0.8473038551338752
 40
1.0
 40
1.0
 40
1.0
 40
1.0
 10
11.99999999999999
 20
-6.678556678387559
 30
0.0
 10
13.14000857728999
 20
-6.995622634347527
 30
0.0
 10
15.42079092714823
 20
-7.62996736692269
 30
0.0
 10
18.11312278885174
 20
-8.013625428045993
 30
0.0
 10
19.66525872819037
 20
-7.958451748809486
 30
0.0
 10
20.07637616201318
 20
-7.943837783081752
 30
0.0
  0
SPLINE
  5
C1
330
1F
100
AcDbEntity
  8
0
  6
Continuous
 62
     1
370
    25
100
AcDbSpline
210
0.0
220
0.0
230
1.0
 70
     8
 71
     3
 72
    23
 73
    19
 74
     0
 42
0.000000001
 43
0.00000001
 40
0.0
 40
0.0
 40
0.0
 40
0.0
 40
0.0047544497000751
 40
0.0787440423700637
 40
0.1527397617691062
 40
0.2266806077768741
 40
0.3006928362758676
 40
0.3746422218781309
 40
0.4486267575276696
 40
0.522626343556726
 40
0.5965648855301625
 40
0.6580762253824476
 40
0.7195932430858086
 40
0.7811054559480003
 40
0.8426153643129681
 40
0.9092692989016029
 40
0.9759679728694306
 40
1.0
 40
1.0
 40
1.0
 40
1.0
 10
55.81811796246996
 20
6.754233216738465
 30
0.0
 10
55.89945099175458
 20
6.784024087940098
 30
0.0
 10
57.24650310253244
 20
7.277425800467493
 30
0.0
 10
59.85982721079815
 20
7.772865696643429
 30
0.0
 10
63.65702856207899
 20
8.10963026851128
 30
0.0
 10
67.45328213827699
 20
7.788213723685393
 30
0.0
 10
71.25058682975737
 20
6.900823851669121
 30
0.0
 10
75.04698801733636
 20
5.493350904923119
 30
0.0
 10
78.84406900818644
 20
3.677743086816175
 30
0.0
 10
82.64119239515628
 20
1.588420080056704
 30
0.0
 10
86.22406494509639
 20
-0.4976636947313777
 30
0.0
 10
89.59304157867999
 20
-2.419127732611497
 30
0.0
 10
92.74965835984253
 20
-4.095378040935088
 30
0.0
 10
95.90617838025179
 20
-5.557994874308654
 30
0.0
 10
99.15036943238255
 20
-6.774286497972789
 30
0.0
 10
102.4831548171082
 20
-7.609669327669504
 30
0.0
 10
105.1754926970738
 20
-8.015167680452446
 30
0.0
 10
106.7276283004262
 20
-7.958774706029529
 30
0.0
 10
107.1387456452557
 20
-7.943837783081749
 30
0.0
  0
LINE
  5
C2
330
1F
100
AcDbEntity
  8
0
  6
Continuous
 62
     4
370
    25
100
AcDbLine
 10
11.99999999999999
 20
-6.678556678387572
 30
0.0
 11
11.99999999999999
 21
-4.120964250946944
 31
0.0
  0
SPLINE
  5
C3
330
1F
100
AcDbEntity
  8
0
  6
Continuous
 62
     1
370
    25
100
AcDbSpline
210
0.0
220
0.0
230
1.0
 70
     8
 71
     3
 72
    22
 73
    18
 74
     0
 42
0.000000001
 43
0.00000001
 40
0.0
 40
0.0
 40
0.0
 40
0.0
 40
0.0103290259198548
 40
0.0843104591843568
 40
0.1582590107029019
 40
0.232194583679505
 40
0.306180230242785
 40
0.3800928798762693
 40
0.4540714523287868
 40
0.5280260600676274
 40
0.6019559760856514
 40
0.6759429747379394
 40
0.7498571600010501
 40
0.8238323692107502
 40
0.8977925329988029
 40
0.9717175583186497
 40
1.0
 40
1.0
 40
1.0
 40
1.0
 10
121.1409479091847
 20
-6.732981123073826
 30
0.0
 10
120.9642001702213
 20
-6.796855467000938
 30
0.0
 10
119.5215004280163
 20
-7.318228470455463
 30
0.0
 10
116.8124665421005
 20
-7.816547244503551
 30
0.0
 10
113.0156524251234
 20
-8.106614951639056
 30
0.0
 10
109.2190364561862
 20
-7.744615551732196
 30
0.0
 10
105.4217332510611
 20
-6.818378000877645
 30
0.0
 10
101.6255508414295
 20
-5.378085227588305
 30
0.0
 10
97.82826464910511
 20
-3.539446500607569
 30
0.0
 10
94.03131114557226
 20
-1.435594709746596
 30
0.0
 10
90.23480956793176
 20
0.7762730221353843
 30
0.0
 10
86.43750580198096
 20
2.928149508541007
 30
0.0
 10
82.64129581928233
 20
4.862109085682751
 30
0.0
 10
78.84404211253724
 20
6.441028542649931
 30
0.0
 10
75.04699215860924
 20
7.502269348828767
 30
0.0
 10
72.03264698956289
 20
8.01316890567876
 30
0.0
 10
70.28326406105614
 20
7.947385437305224
 30
0.0
 10
69.79918181045835
 20
7.929182098914597
 30
0.0
  0
SPLINE
  5
C4
330
1F
100
AcDbEntity
  8
0
  6
Continuous
 62
     1
370
    25
100
AcDbSpline
210
0.0
220
0.0
230
1.0
 70
     8
 71
     3
 72
    14
 73
    10
 74
     0
 42
0.000000001
 43
0.00000001
 40
0.0
 40
0.0
 40
0.0
 40
0.0
 40
0.0240179724013999
 40
0.1960462000532671
 40
0.3679979681364359
 40
0.5399195573562164
 40
0.7119575821462214
 40
0.8838258679638566
 40
1.0
 40
1.0
 40
1.0
 40
1.0
 10
34.07857842594225
 20
-6.732981123073835
 30
0.0
 10
33.90183069575128
 20
-6.79685529610157
 30
0.0
 10
32.45913102515127
 20
-7.318226904593478
 30
0.0
 10
29.75009398230068
 20
-7.816607180069925
 30
0.0
 10
25.95329389219949
 20
-8.106401624382114
 30
0.0
 10
22.15662624219369
 20
-7.745409042726112
 30
0.0
 10
18.35951579152741
 20
-6.815416370077283
 30
0.0
 10
14.97361612163778
 20
-5.543520452385044
 30
0.0
 10
12.85463416090714
 20
-4.5298149821199
 30
0.0
 10
11.99999999999999
 20
-4.120964250946944
 30
0.0
  0
SPLINE
  5
C5
330
1F
100
AcDbEntity
  8
0
  6
Continuous
 62
     1
370
    25
100
AcDbSpline
210
0.0
220
0.0
230
1.0
 70
     8
 71
     3
 72
    16
 73
    12
 74
     0
 42
0.000000001
 43
0.00000001
 40
0.0
 40
0.0
 40
0.0
 40
0.0
 40
0.1146323750474166
 40
0.229341693509002
 40
0.3440776570865087
 40
0.4587647296267101
 40
0.5859411229543388
 40
0.7132287184990517
 40
0.8403950428034764
 40
0.9676512208189131
 40
0.9999999999999999
 40
0.9999999999999999
 40
0.9999999999999999
 40
0.9999999999999999
 10
11.99999999999999
 20
4.404188993851797
 30
0.0
 10
13.14001008154168
 20
3.828453974745237
 30
0.0
 10
15.42079544091298
 20
2.676597492318535
 30
0.0
 10
18.84325531084425
 20
0.7153667909332906
 30
0.0
 10
22.26647465272131
 20
-1.269897789650388
 30
0.0
 10
25.81314579689595
 20
-3.253906475967951
 30
0.0
 10
29.4848904659737
 20
-5.085435899985544
 30
0.0
 10
33.28213349632004
 20
-6.610507954395271
 30
0.0
 10
37.07839148761321
 20
-7.597163366286929
 30
0.0
 10
39.9315010088623
 20
-8.044004682544786
 30
0.0
 10
41.51925808912912
 20
-7.960191511870726
 30
0.0
 10
41.84106515630884
 20
-7.943204234042858
 30
0.0
  0
SPLINE
  5
C6
330
1F
100
AcDbEntity
  8
0
  6
Continuous
 62
     1
370
    25
100
AcDbSpline
210
0.0
220
0.0
230
1.0
 70
     8
 71
     3
 72
    23
 73
    19
 74
     0
 42
0.000000001
 43
0.00000001
 40
0.0
 40
0.0
 40
0.0
 40
0.0
 40
0.024579922372987
 40
0.0985752612489426
 40
0.1725095595728584
 40
0.2340173690259642
 40
0.2955308560042698
 40
0.3570395384171766
 40
0.4185459164651243
 40
0.485196025499048
 40
0.5518908713443799
 40
0.6186012093216742
 40
0.6852831208359743
 40
0.7592266335506105
 40
0.8332348019952744
 40
0.9071724603298182
 40
0.9811623618429021
 40
1.0
 40
1.0
 40
1.0
 40
1.0
 10
77.58219357260512
 20
6.712963158834946
 30
0.0
 10
78.00274107540216
 20
6.857557112621116
 30
0.0
 10
79.68930376371111
 20
7.437436355248567
 30
0.0
 10
82.64121491087465
 20
7.921713427601315
 30
0.0
 10
86.22406002445283
 20
8.074027885422645
 30
0.0
 10
89.59304281432063
 20
7.697049123067116
 30
0.0
 10
92.74965794999292
 20
6.953544646001752
 30
0.0
 10
95.90617878402452
 20
5.848871185880092
 30
0.0
 10
99.15036818230232
 20
4.403485027690429
 30
0.0
 10
102.483159823549
 20
2.664474630063994
 30
0.0
 10
105.9056262963274
 20
0.718623742755299
 30
0.0
 10
109.3288432305632
 20
-1.270795662303456
 30
0.0
 10
112.8755175087709
 20
-3.253526035708374
 30
0.0
 10
116.5472510391976
 20
-5.086010695556723
 30
0.0
 10
120.3445360318624
 20
-6.608620809737409
 30
0.0
 10
124.1406377742397
 20
-7.604131405380515
 30
0.0
 10
126.994686248629
 20
-8.026270716454517
 30
0.0
 10
128.582463565287
 20
-7.96946909113545
 30
0.0
 10
128.9046737054192
 20
-7.957942248257813
 30
0.0
  0
LINE
  5
C7
330
1F
100
AcDbEntity
  8
0
  6
Continuous
 62
     4
370
    25
100
AcDbLine
 10
11.99999999999999
 20
4.404188993851807
 30
0.0
 11
11.99999999999999
 21
6.856942003722728
 31
0.0
  0
SPLINE
  5
C8
330
1F
100
AcDbEntity
  8
0
  6
Continuous
 62
     1
370
    25
100
AcDbSpline
210
0.0
220
0.0
230
1.0
 70
     8
 71
     3
 72
    18
 73
    14
 74
     0
 42
0.000000001
 43
0.00000001
 40
0.0
 40
0.0
 40
0.0
 40
0.0
 40
0.0938794233593348
 40
0.1878119120182231
 40
0.2816531016683031
 40
0.3755825963842941
 40
0.4694703432502254
 40
0.5633416120914287
 40
0.6572764561634382
 40
0.7511186207018274
 40
0.8450444832277899
 40
0.9389399192893364
 40
1.0
 40
1.0
 40
1.0
 40
1.0
 10
132.0
 20
-7.801325586840183
 30
0.0
 10
130.7346627248911
 20
-7.582719206908273
 30
0.0
 10
128.2032729433783
 20
-7.145382879891818
 30
0.0
 10
124.4059649764855
 20
-5.801592254626497
 30
0.0
 10
120.6097966432919
 20
-4.06428327015862
 30
0.0
 10
116.8124926824609
 20
-2.015139236975208
 30
0.0
 10
113.0156453477994
 20
0.1827055219156606
 30
0.0
 10
109.2190386370393
 20
2.368724856362728
 30
0.0
 10
105.4217316099836
 20
4.37379214681062
 30
0.0
 10
101.6255552232772
 20
6.061839965137255
 30
0.0
 10
97.82824874817481
 20
7.271537265752039
 30
0.0
 10
94.47354031466313
 20
7.940320341362001
 30
0.0
 10
92.38498170104666
 20
7.93426043441828
 30
0.0
 10
91.5619870754094
 20
7.931872533588478
 30
0.0
  0
SPLINE
  5
C9
330
1F
100
AcDbEntity
  8
0
  6
Continuous
 62
     1
370
    25
100
AcDbSpline
210
0.0
220
0.0
230
1.0
 70
     8
 71
     3
 72
    19
 73
    15
 74
     0
 42
0.000000001
 43
0.00000001
 40
0.0
 40
0.0
 40
0.0
 40
0.0
 40
0.0790193897616287
 40
0.1636851073824071
 40
0.2483119530468423
 40
0.3349462232923205
 40
0.4216294635179887
 40
0.508228450744233
 40
0.5949089280848219
 40
0.681550879469511
 40
0.7681776245225429
 40
0.8548630383821086
 40
0.9414629252595673
 40
1.0
 40
1.0
 40
1.0
 40
1.0
 10
55.81811796247005
 20
-6.754233216738487
 30
0.0
 10
54.66412395292124
 20
-7.07481826794527
 30
0.0
 10
52.27367733037124
 20
-7.738895764497365
 30
0.0
 10
48.64608112089231
 20
-8.081180362114708
 30
0.0
 10
44.90835796843341
 20
-7.895489519351066
 30
0.0
 10
41.14089081293722
 20
-7.118515173472529
 30
0.0
 10
37.34359868272669
 20
-5.808780045250735
 30
0.0
 10
33.54742703705343
 20
-4.062375069879231
 30
0.0
 10
29.75012049670961
 20
-2.01557944219775
 30
0.0
 10
25.95328679025052
 20
0.1825584552182526
 30
0.0
 10
22.15662814763384
 20
2.369753249534532
 30
0.0
 10
18.35951527718979
 20
4.369824198072103
 30
0.0
 10
14.97361620291761
 20
5.891911449392819
 30
0.0
 10
12.85463418426742
 20
6.579586741875667
 30
0.0
 10
11.99999999999999
 20
6.856942003722729
 30
0.0
  0
LINE
  5
CA
330
1F
100
AcDbEntity
  8
0
  6
Continuous
 62
     1
370
    25
100
AcDbLine
 10
132.0
 20
-8.000000000000034
 30
0.0
 11
132.0
 21
-7.801325586842119
 31
0.0
  0
SPLINE
  5
CB
330
1F
100
AcDbEntity
  8
0
  6
Continuous
 62
     1
370
    25
100
AcDbSpline
210
0.0
220
0.0
230
1.0
 70
     8
 71
     3
 72
    21
 73
    17
 74
     0
 42
0.000000001
 43
0.00000001
 40
0.0
 40
0.0
 40
0.0
 40
0.0
 40
0.0608436061129607
 40
0.1275578846380675
 40
0.1942876598090331
 40
0.2609890002344706
 40
0.3349540576514868
 40
0.4089837896370792
 40
0.4829429909682296
 40
0.5569544506998602
 40
0.6309631122777983
 40
0.7049243296413988
 40
0.778954219498832
 40
0.852916779674823
 40
0.9269236826565194
 40
1.0
 40
1.0
 40
1.0
 40
1.0
 10
12.29886886994947
 20
6.754925327967453
 30
0.0
 10
13.33926044099223
 20
7.048582228793984
 30
0.0
 10
15.52042879171597
 20
7.664230371168373
 30
0.0
 10
18.84325667305328
 20
8.04357022940214
 30
0.0
 10
22.2664743918557
 20
7.982799991298434
 30
0.0
 10
25.81314547678413
 20
7.407830647347837
 30
0.0
 10
29.48489224338225
 20
6.303908077878006
 30
0.0
 10
33.28212677400808
 20
4.693400962928421
 30
0.0
 10
37.07841657853348
 20
2.730164051338777
 30
0.0
 10
40.87560042613354
 20
0.5652359867706706
 30
0.0
 10
44.6727521118981
 20
-1.642173199653939
 30
0.0
 10
48.46905918402541
 20
-3.72815381813371
 30
0.0
 10
52.26636707309332
 20
-5.536199010904429
 30
0.0
 10
56.06268036677191
 20
-6.921889895899158
 30
0.0
 10
59.84385780475503
 20
-7.830033862329105
 30
0.0
 10
62.35970984914293
 20
-7.941091396647706
 30
0.0
 10
63.60967705803646
 20
-7.996268837033556
 30
0.0
  0
SPLINE
  5
CC
330
1F
100
AcDbEntity
  8
0
  6
Continuous
 62
     1
370
    25
100
AcDbSpline
210
0.0
220
0.0
230
1.0
 70
     8
 71
     3
 72
    16
 73
    12
 74
     0
 42
0.000000001
 43
0.00000001
 40
0.0
 40
0.0
 40
0.0
 40
0.0
 40
0.101099624160234
 40
0.2090100353420083
 40
0.316945512363713
 40
0.4248349961565371
 40
0.5444735493329762
 40
0.6642167136877473
 40
0.7838457946395344
 40
0.9035594036055368
 40
1.0
 40
1.0
 40
1.0
 40
1.0
 10
99.27608126831538
 20
6.73316551211482
 30
0.0
 10
100.3448572722262
 20
7.035208610992835
 30
0.0
 10
102.5544096044489
 20
7.659642572005867
 30
0.0
 10
105.9056258619872
 20
8.043939870669302
 30
0.0
 10
109.3288435506499
 20
7.982705456032731
 30
0.0
 10
112.8755166207144
 20
7.407843035500179
 30
0.0
 10
116.5472546414265
 20
6.303972481526425
 30
0.0
 10
120.3445226557393
 20
4.693132541243289
 30
0.0
 10
124.1406876349894
 20
2.731172487996922
 30
0.0
 10
127.692229388436
 20
0.7020759934481545
 30
0.0
 10
129.9772331563402
 20
-0.6149084528159404
 30
0.0
 10
130.9967235047829
 20
-1.202501764859692
 30
0.0
  0
SPLINE
  5
CD
330
1F
100
AcDbEntity
  8
0
  6
Continuous
 62
     1
370
    25
100
AcDbSpline
210
0.0
220
0.0
230
1.0
 70
     8
 71
     3
 72
    12
 73
     8
 74
     0
 42
0.000000001
 43
0.00000001
 40
0.0
 40
0.0
 40
0.0
 40
0.0
 40
0.203307537700068
 40
0.4067299948894496
 40
0.6099547327489606
 40
0.8133707061835782
 40
1.0
 40
1.0
 40
1.0
 40
1.0
 10
132.0
 20
1.771812373837182
 30
0.0
 10
130.7346628511876
 20
2.47130614014891
 30
0.0
 10
128.2032733223391
 20
3.8706890612922
 30
0.0
 10
124.4059634602567
 20
5.647143100416423
 30
0.0
 10
120.6098023251286
 20
7.000197529525579
 30
0.0
 10
116.9164136891254
 20
7.854484350759683
 30
0.0
 10
114.4888026329558
 20
7.937670179090214
 30
0.0
 10
113.3272365914885
 20
7.977473026862929
 30
0.0
  0
SPLINE
  5
CE
330
1F
100
AcDbEntity
  8
0
  6
Continuous
 62
     1
370
    25
100
AcDbSpline
210
0.0
220
0.0
230
1.0
 70
     8
 71
     3
 72
    21
 73
    17
 74
     0
 42
0.000000001
 43
0.00000001
 40
0.0
 40
0.0
 40
0.0
 40
0.0
 40
0.0494099297121608
 40
0.1233693850464162
 40
0.1973916918347569
 40
0.2713426064116754
 40
0.3453484018520113
 40
0.4193480697290123
 40
0.4915775063308416
 40
0.5638730058065601
 40
0.6361353127743969
 40
0.71011174639024
 40
0.7841299951501183
 40
0.8580763008278748
 40
0.9320921903783537
 40
1.0
 40
1.0
 40
1.0
 40
1.0
 10
77.58219357260512
 20
-6.71296315883496
 30
0.0
 10
76.73694553758645
 20
-6.973702282206807
 30
0.0
 10
74.62648452500414
 20
-7.62472982859915
 30
0.0
 10
71.25059872683173
 20
-8.043904110599197
 30
0.0
 10
67.45327928096162
 20
-7.988566676529343
 30
0.0
 10
63.65702810458735
 20
-7.316960592118911
 30
0.0
 10
59.85983190369955
 20
-6.105315213228111
 30
0.0
 10
56.0921797172189
 20
-4.449928607560333
 30
0.0
 10
52.35508336913077
 20
-2.484036578968901
 30
0.0
 10
48.64606804467879
 20
-0.359367832245099
 30
0.0
 10
44.90836147890701
 20
1.810296193732847
 30
0.0
 10
41.14089018956197
 20
3.864657368530402
 30
0.0
 10
37.34359763069202
 20
5.648757650834916
 30
0.0
 10
33.54743186414547
 20
6.999765468543862
 30
0.0
 10
29.85404442701656
 20
7.85458206907184
 30
0.0
 10
27.42643322127892
 20
7.937701803685473
 30
0.0
 10
26.2648671082461
 20
7.977473026862926
 30
0.0
  0
LINE
  5
CF
330
1F
100
AcDbEntity
  8
0
  6
Continuous
 62
     1
370
    25
100
AcDbLine
 10
132.0
 20
-0.5000000000000316
 30
0.0
 11
132.0
 21
1.771812373837337
 31
0.0
  0
LINE
  5
D0
330
1F
100
AcDbEntity
  8
0
  6
Continuous
 62
     1
370
    25
100
AcDbLine
 10
132.0
 20
-0.5000000000000211
 30
0.0
 11
130.9967235047829
 21
-1.202501764859678
 31
0.0
  0
SPLINE
  5
D1
330
1F
100
AcDbEntity
  8
0
  6
Continuous
 62
     1
370
    25
100
AcDbSpline
210
0.0
220
0.0
230
1.0
 70
     8
 71
     3
 72
     8
 73
     4
 74
     0
 42
0.000000001
 43
0.00000001
 40
0.0
 40
0.0
 40
0.0
 40
0.0
 40
1.0
 40
1.0
 40
1.0
 40
1.0
 10
132.0
 20
-5.869334219275759
 30
0.0
 10
130.6637391539341
 20
-5.118291190075188
 30
0.0
 10
129.4023531383181
 20
-4.19764358515667
 30
0.0
 10
128.1888097027595
 20
-3.168624175679535
 30
0.0
  0
LINE
  5
D2
330
1F
100
AcDbEntity
  8
0
  6
Continuous
 62
     1
370
    25
100
AcDbLine
 10
132.0
 20
-7.801325586842119
 30
0.0
 11
132.0
 21
-5.869334219275758
 31
0.0
  0
LINE
  5
D3
330
1F
100
AcDbEntity
  8
0
  6
Continuous
 62
     1
370
    25
100
AcDbLine
 10
130.9967235047829
 20
-1.202501764859683
 30
0.0
 11
130.9865512758785
 21
-1.209624436218919
 31
0.0
  0
SPLINE
  5
D4
330
1F
100
AcDbEntity
  8
0
  6
Continuous
 62
     1
370
    25
100
AcDbSpline
210
0.0
220
0.0
230
1.0
 70
    24
 71
     3
 72
    12
 73
     8
 74
     0
 42
0.000000001
 43
0.00000001
 40
0.0
 40
0.0
 40
0.0
 40
0.0
 40
0.1067802047913091
 40
0.374213618051869
 40
0.6423241165444281
 40
0.899276899555061
 40
1.0
 40
1.0
 40
1.0
 40
1.0
 10
130.846163645838
 20
-1.307924913044644
 30
0.0
 10
130.8151590511541
 20
-1.32963456396147
 30
0.0
 10
130.7065027550215
 20
-1.405716521587473
 30
0.0
 10
130.2696619840346
 20
-1.711595722429786
 30
0.0
 10
129.4987118673986
 20
-2.251420805682064
 30
0.0
 10
128.7536649982373
 20
-2.773108239788264
 30
0.0
 10
128.3129242376111
 20
-3.081718242775039
 30
0.0
 10
128.1888097027594
 20
-3.168624175679545
 30
0.0
  0
SPLINE
  5
D5
330
1F
100
AcDbEntity
  8
0
  6
Continuous
 62
     4
370
    25
100
AcDbSpline
210
0.0
220
0.0
230
1.0
 70
    24
 71
     3
 72
    24
 73
    20
 74
     0
 42
0.000000001
 43
0.00000001
 40
0.0
 40
0.0
 40
0.0
 40
0.0
 40
0.0624999999999998
 40
0.0624999999999998
 40
0.1249999999999996
 40
0.1249999999999996
 40
0.2499999999999997
 40
0.2499999999999997
 40
0.3749999999999999
 40
0.3749999999999999
 40
0.4999999999999999
 40
0.4999999999999999
 40
0.6249999999999999
 40
0.6249999999999999
 40
0.75
 40
0.75
 40
0.875
 40
0.875
 40
1.0
 40
1.0
 40
1.0
 40
1.0
 10
11.99999999999999
 20
4.404188993851823
 30
0.0
 10
11.99999999999999
 20
4.31072970235733
 30
0.0
 10
11.99999999999999
 20
4.216574188940878
 30
0.0
 10
11.99999999999999
 20
4.028429680417942
 30
0.0
 10
11.99999999999999
 20
3.930444631027683
 30
0.0
 10
11.99999999999999
 20
3.612060731507611
 30
0.0
 10
11.99999999999999
 20
3.371623452505766
 30
0.0
 10
11.99999999999999
 20
2.825303858729801
 30
0.0
 10
11.99999999999999
 20
2.519242118697584
 30
0.0
 10
11.99999999999999
 20
1.837850618369736
 30
0.0
 10
11.99999999999999
 20
1.46228472782966
 30
0.0
 10
11.99999999999999
 20
0.6499161471542221
 30
0.0
 10
11.99999999999999
 20
0.2129416132724096
 30
0.0
 10
11.99999999999999
 20
-0.6956404135002935
 30
0.0
 10
11.99999999999999
 20
-1.167131871544014
 30
0.0
 10
11.99999999999999
 20
-2.097828234260054
 30
0.0
 10
11.99999999999999
 20
-2.5564925453748
 30
0.0
 10
11.99999999999999
 20
-3.403898124910499
 30
0.0
 10
11.99999999999999
 20
-3.791916085606737
 30
0.0
 10
11.99999999999999
 20
-4.120964250946945
 30
0.0
  0
SPLINE
  5
D6
330
1F
100
AcDbEntity
  8
0
  6
Continuous
 62
     1
370
    25
100
AcDbSpline
210
0.0
220
0.0
230
1.0
 70
     8
 71
     3
 72
    21
 73
    17
 74
     0
 42
0.000000001
 43
0.00000001
 40
0.0
 40
0.0
 40
0.0
 40
0.0
 40
0.0584712477397744
 40
0.1325044544118762
 40
0.2065348621080982
 40
0.280517811649351
 40
0.3545694538626173
 40
0.4285537466108219
 40
0.5025823951940702
 40
0.5766171737404083
 40
0.6505970499301764
 40
0.7246483462909071
 40
0.798636766582854
 40
0.8726603554762695
 40
0.9466990026936487
 40
0.9999999999999999
 40
0.9999999999999999
 40
0.9999999999999999
 40
0.9999999999999999
 10
34.07857842594223
 20
6.732981123073822
 30
0.0
 10
35.07826541168032
 20
7.02662214045616
 30
0.0
 10
37.34370327641346
 20
7.692055910133144
 30
0.0
 10
40.87558416407503
 20
8.07107005532877
 30
0.0
 10
44.67275617744723
 20
7.935280419737215
 30
0.0
 10
48.46905917021688
 20
7.190847225781838
 30
0.0
 10
52.26636305611281
 20
5.91577401215003
 30
0.0
 10
56.0626964342013
 20
4.19605069003653
 30
0.0
 10
59.85982079648688
 20
2.164904714678912
 30
0.0
 10
63.65703021571922
 20
-0.0272775798650773
 30
0.0
 10
67.45328193228048
 20
-2.2202528608367
 30
0.0
 10
71.25058599794195
 20
-4.242729385415765
 30
0.0
 10
75.04699154738077
 20
-5.957044822119852
 30
0.0
 10
78.84405571053875
 20
-7.204555580768588
 30
0.0
 10
82.28764417644962
 20
-7.91919191511718
 30
0.0
 10
84.46474500906041
 20
-7.933643892005194
 30
0.0
 10
85.37602166644905
 20
-7.939693106168312
 30
0.0
  0
SPLINE
  5
D7
330
1F
100
AcDbEntity
  8
0
  6
Continuous
 62
     1
370
    25
100
AcDbSpline
210
0.0
220
0.0
230
1.0
 70
     8
 71
     3
 72
    10
 73
     6
 74
     0
 42
0.000000001
 43
0.00000001
 40
0.0
 40
0.0
 40
0.0
 40
0.0
 40
0.3043076463228883
 40
0.6896059209960688
 40
1.0
 40
1.0
 40
1.0
 40
1.0
 10
121.1409479091847
 20
6.732981123073819
 30
0.0
 10
122.1406135072073
 20
7.025252207918165
 30
0.0
 10
124.406002904229
 20
7.68758150880844
 30
0.0
 10
127.6922183875973
 20
8.066292440796705
 30
0.0
 10
129.977229762402
 20
7.957601971034951
 30
0.0
 10
130.9967235047829
 20
7.909108009472937
 30
0.0
  0
SPLINE
  5
D8
330
1F
100
AcDbEntity
  8
0
  6
Continuous
 62
     1
370
    25
100
AcDbSpline
210
0.0
220
0.0
230
1.0
 70
     8
 71
     3
 72
    20
 73
    16
 74
     0
 42
0.000000001
 43
0.00000001
 40
0.0
 40
0.0
 40
0.0
 40
0.0
 40
0.2499999999999988
 40
0.2499999999999988
 40
0.374999999999999
 40
0.374999999999999
 40
0.4999999999999992
 40
0.4999999999999992
 40
0.6249999999999994
 40
0.6249999999999994
 40
0.7499999999999996
 40
0.7499999999999996
 40
0.8749999999999999
 40
0.8749999999999999
 40
1.0
 40
1.0
 40
1.0
 40
1.0
 10
130.9967235047829
 20
7.909108009472947
 30
0.0
 10
130.9996650519819
 20
7.413100832431155
 30
0.0
 10
130.95239375729
 20
6.927723577167947
 30
0.0
 10
130.781453429105
 20
6.220834489490256
 30
0.0
 10
130.7064011649775
 20
5.98690670686047
 30
0.0
 10
130.522870889773
 20
5.547875627028888
 30
0.0
 10
130.4142134972577
 20
5.34063751635154
 30
0.0
 10
130.1595837335688
 20
4.953282127139595
 30
0.0
 10
130.015616259123
 20
4.777003447864906
 30
0.0
 10
129.7028522343251
 20
4.467865028908141
 30
0.0
 10
129.5312162951898
 20
4.332295677425315
 30
0.0
 10
129.1691840905797
 20
4.107026517678899
 30
0.0
 10
128.9809521225962
 20
4.018045592823281
 30
0.0
 10
128.5915274572867
 20
3.882569098898108
 30
0.0
 10
128.3898304053772
 20
3.836445033137176
 30
0.0
 10
128.1888097027594
 20
3.811190297240505
 30
0.0
  0
LINE
  5
D9
330
1F
100
AcDbEntity
  8
0
  6
Continuous
 62
     1
370
    25
100
AcDbLine
 10
132.0
 20
1.779128885541678
 30
0.0
 11
132.0
 21
1.954277833643299
 31
0.0
  0
SPLINE
  5
DA
330
1F
100
AcDbEntity
  8
0
  6
Continuous
 62
     1
370
    25
100
AcDbSpline
210
0.0
220
0.0
230
1.0
 70
     8
 71
     3
 72
    22
 73
    18
 74
     0
 42
0.000000001
 43
0.00000001
 40
0.0
 40
0.0
 40
0.0
 40
0.0
 40
0.0282582139993185
 40
0.1023559499547647
 40
0.1764289464022169
 40
0.2505591359589377
 40
0.3246163712069246
 40
0.3987347485043333
 40
0.472838051261904
 40
0.5469061475459551
 40
0.6210371876082119
 40
0.6950967305891875
 40
0.769211235049495
 40
0.843319602945532
 40
0.9156551392280603
 40
0.9880568354259355
 40
1.0
 40
1.0
 40
1.0
 40
1.0
 10
99.27608126831527
 20
-6.733165512114836
 30
0.0
 10
98.79337161869469
 20
-6.895526371836501
 30
0.0
 10
97.04491700155435
 20
-7.483624403533901
 30
0.0
 10
94.03129578576232
 20
-7.952445282140846
 30
0.0
 10
90.23481370262752
 20
-8.068800483185605
 30
0.0
 10
86.4375046353619
 20
-7.551736550439911
 30
0.0
 10
82.64129635430095
 20
-6.478509704801001
 30
0.0
 10
78.84404113881197
 20
-4.920914573308385
 30
0.0
 10
75.04699551672044
 20
-2.996562282096574
 30
0.0
 10
71.25058468220917
 20
-0.8467440250412118
 30
0.0
 10
67.45328322321521
 20
1.362778692581982
 30
0.0
 10
63.65702637003038
 20
3.475140920426489
 30
0.0
 10
59.85983490054982
 20
5.321898697676858
 30
0.0
 10
56.09216957200217
 20
6.775347487767464
 30
0.0
 10
52.35512000227479
 20
7.672616020420657
 30
0.0
 10
49.67828004471366
 20
8.061308878188447
 30
0.0
 10
48.2377269394287
 20
7.973138279634715
 30
0.0
 10
48.03374577618251
 20
7.960653393662017
 30
0.0
  0
LINE
  5
DB
330
1F
100
AcDbEntity
  8
0
  6
Continuous
 62
     1
370
    25
100
AcDbLine
 10
12.29886886994937
 20
-6.754925327967483
 30
0.0
 11
11.99999999999999
 21
-6.856942003722721
 31
0.0
  0
LINE
  5
DC
330
1F
100
AcDbEntity
  8
0
  6
Continuous
 62
     1
370
    25
100
AcDbLine
 10
132.0
 20
7.984359711335666
 30
0.0
 11
132.0
 21
8.000000000000012
 31
0.0
  0
ELLIPSE
  5
DD
330
1F
100
AcDbEntity
  8
0
  6
Continuous
 62
     1
370
    25
100
AcDbEllipse
 10
132.7140740033711
 20
-0.0000000000000111
 30
0.0
 11
11.42518405393687
 21
5.350968460038300E-17
 31
0.0
210
0.0
220
0.0
230
1.0
 40
0.7002075382097133
 41
1.633337088591388
 42
1.721680906384337
  0
LINE
  5
DE
330
1F
100
AcDbEntity
  8
0
  6
Continuous
 62
     1
370
    25
100
AcDbLine
 10
132.0
 20
-0.5000000000000038
 30
0.0
 11
132.0
 21
-5.869334219275759
 31
0.0
  0
LINE
  5
DF
330
1F
100
AcDbEntity
  8
0
  6
Continuous
 62
     1
370
    25
100
AcDbLine
 10
132.0
 20
1.954277833643299
 30
0.0
 11
132.0
 21
7.984359711335666
 31
0.0
  0
LINE
  5
E0
330
1F
100
AcDbEntity
  8
중심선
100
AcDbLine
 10
-121.0
 20
-0.0000000000000163
 30
0.0
 11
139.0
 21
0.0000000000000156
 31
0.0
  0
CIRCLE
  5
E1
330
1F
100
AcDbEntity
  8
해칭선
100
AcDbCircle
 10
0.0000314400263688
 20
-0.0000000000000035
 30
0.0
 40
2.999999999999999
  0
INSERT
  5
E2
330
1F
100
AcDbEntity
  8
0
  6
Continuous
 62
     7
100
AcDbBlockReference
 66
     1
  2
블럭10
 10
-7.440099248941779
 20
-52.04717430164393
 30
0.0
  0
ATTRIB
  5
E3
330
E2
100
AcDbEntity
  8
FORMAT
 62
     2
100
AcDbText
 10
-25.13902121066623
 20
-49.97180738881174
 30
0.0
 40
4.233333333333333
  1
SEME72160120E [ 4 FLUTE ]
 41
0.75
  7
SLDTEXTSTYLE0
 11
-25.13902121066623
 21
-52.08847405547841
 31
0.0
100
AcDbAttribute
  2
AUTOATTR0
 70
     0
 74
     1
  0
SEQEND
  5
E4
330
E2
100
AcDbEntity
  8
0
  6
Continuous
 62
     7
  0
HATCH
  5
E5
330
1F
100
AcDbEntity
  8
중심선
100
AcDbHatch
 10
0.0
 20
0.0
 30
0.0
210
0.0
220
0.0
230
1.0
  2
SOLID
 70
     1
 71
     0
 91
        1
 92
        0
 93
        4
 72
     1
 10
-1.725189944560945
 20
-35.8
 11
-5.171465188398228
 21
-35.8
 72
     1
 10
-5.171465188398228
 20
-35.8
 11
-7.299695047602251
 21
-38.33632558057259
 72
     1
 10
-7.299695047602251
 20
-38.33632558057259
 11
-3.853386718651819
 21
-38.3362861512701
 72
     1
 10
-3.853386718651819
 20
-38.3362861512701
 11
-1.725189944560945
 21
-35.8
 97
        0
 75
     0
 76
     1
 98
        1
 10
0.0
 20
0.0
  0
HATCH
  5
E6
330
1F
100
AcDbEntity
  8
중심선
100
AcDbHatch
 10
0.0
 20
0.0
 30
0.0
210
0.0
220
0.0
230
1.0
  2
SOLID
 70
     1
 71
     0
 91
        1
 92
        0
 93
        4
 72
     1
 10
3.287574046475034
 20
-35.8
 11
-0.158701197362249
 21
-35.79999999999997
 72
     1
 10
-0.1587011973622487
 20
-35.79999999999997
 11
-4.689839205719665
 21
-41.20000000000002
 72
     1
 10
-4.689839205719665
 20
-41.20000000000002
 11
-1.243563961882383
 21
-41.20000000000002
 72
     1
 10
-1.243563961882382
 20
-41.20000000000002
 11
3.287574046475034
 21
-35.8
 97
        0
 75
     0
 76
     1
 98
        1
 10
0.0
 20
0.0
  0
HATCH
  5
E7
330
1F
100
AcDbEntity
  8
중심선
100
AcDbHatch
 10
0.0
 20
0.0
 30
0.0
210
0.0
220
0.0
230
1.0
  2
SOLID
 70
     1
 71
     0
 91
        1
 92
        0
 93
        4
 72
     1
 10
8.30033803751093
 20
-35.79999999999997
 11
4.854062793673814
 21
-35.79999999999997
 72
     1
 10
4.854062793673814
 20
-35.79999999999997
 11
-2.194374108215463
 21
-44.20000000000002
 72
     1
 10
-2.194374108215463
 20
-44.20000000000002
 11
1.251901135621819
 21
-44.20000000000002
 72
     1
 10
1.251901135621819
 20
-44.20000000000002
 11
8.30033803751093
 21
-35.79999999999997
 97
        0
 75
     0
 76
     1
 98
        1
 10
0.0
 20
0.0
  0
HATCH
  5
E8
330
1F
100
AcDbEntity
  8
중심선
100
AcDbHatch
 10
0.0
 20
0.0
 30
0.0
210
0.0
220
0.0
230
1.0
  2
SOLID
 70
     1
 71
     0
 91
        1
 92
        0
 93
        6
 72
     3
 10
13.1002284685231
 20
-40.00000000005127
 11
3.960054785062284
 21
1.540850780301639E-10
 40
0.3939339440162633
 50
17.09539180608433
 51
320.0019657685081
 73
     0
 72
     1
 10
14.78322812422367
 20
-38.58789400463833
 11
17.08852999792473
 21
-36.65356729459038
 72
     3
 10
13.10022846847025
 20
-40.00000000000015
 11
6.600054785286829
 21
-1.249000902703301E-13
 40
0.6363583540795982
 50
39.99873849337408
 51
368.4976242363725
 73
     1
 72
     1
 10
19.52556096037086
 20
-39.03999999993002
 11
11.78029577530618
 21
-39.03999999993002
 72
     1
 10
11.78029577530618
 20
-39.03999999993002
 11
11.78027073086024
 21
-40.95999999992991
 72
     1
 10
11.78027073086024
 20
-40.95999999992991
 11
16.22165050033228
 21
-40.95999999992988
 97
        0
 75
     0
 76
     1
 98
        1
 10
0.0
 20
0.0
  0
DIMENSION
  5
E9
330
1F
100
AcDbEntity
  8
치수문자_일반주서
100
AcDbDimension
  2
_D
 10
145.9680632152085
 20
8.000000000000052
 30
0.0
 11
145.9680632152085
 21
18.54150000000006
 31
0.0
 70
   160
  1
%%c<>
 71
     2
 42
16.00000000000002
 52
-270.0
  3
SLDDIMSTYLE0
100
AcDbAlignedDimension
 13
132.0
 23
-8.000000000000025
 33
0.0
 14
132.0
 24
8.0
 34
0.0
 50
90.0000000000002
100
AcDbRotatedDimension
  0
DIMENSION
  5
F7
330
1F
100
AcDbEntity
  8
치수문자_일반주서
100
AcDbDimension
  2
_D_1
 10
132.0
 20
25.38913260158163
 30
0.0
 11
6.999999999999992
 21
25.38913260158163
 31
0.0
 70
   160
  1
<>
 71
     2
 42
250.0
  3
SLDDIMSTYLE1
100
AcDbAlignedDimension
 13
-118.0
 23
7.499999999999974
 33
0.0
 14
132.0
 24
8.0
 34
0.0
 50
-0.0000000000000033
100
AcDbRotatedDimension
  0
DIMENSION
  5
102
330
1F
100
AcDbEntity
  8
치수문자_일반주서
100
AcDbDimension
  2
_D_2
 10
-130.3436498570748
 20
-8.000000000000068
 30
0.0
 11
-130.3436498570749
 21
18.54149999999992
 31
0.0
 70
   160
  1
%%c<>
 71
     2
 42
15.99999999999999
 52
-270.0
  3
SLDDIMSTYLE2
100
AcDbAlignedDimension
 13
-117.5
 23
7.999999999999968
 33
0.0
 14
-117.5
 24
-8.00000000000002
 34
0.0
 50
90.0000000000002
100
AcDbRotatedDimension
  0
DIMENSION
  5
110
330
1F
100
AcDbEntity
  8
치수문자_일반주서
100
AcDbDimension
  2
_D_3
 10
132.0
 20
17.7028603063104
 30
0.0
 11
72.0
 21
17.7028603063104
 31
0.0
 70
   160
  1
<>
 71
     2
 42
120.0
  3
SLDDIMSTYLE1
100
AcDbAlignedDimension
 13
11.99999999999999
 23
6.856942003722728
 33
0.0
 14
132.0
 24
8.0
 34
0.0
 50
0.0000000000000102
100
AcDbRotatedDimension
  0
INSERT
  5
120
330
1F
100
AcDbEntity
  8
해칭선
100
AcDbBlockReference
  2
SW_DOWELSYMBOL_0
 10
0.0000314400263688
 20
-0.0000000000000035
 30
0.0
  0
ENDSEC
  0
SECTION
  2
OBJECTS
  0
DICTIONARY
  5
C
330
0
100
AcDbDictionary
281
     1
  3
ACAD_GROUP
350
D
  3
ACAD_IMAGE_VARS
350
144
  3
ACAD_LAYOUT
350
1A
  3
ACAD_MLINESTYLE
350
17
  3
ACAD_PLOTSETTINGS
350
19
  3
ACAD_PLOTSTYLENAME
350
E
  3
ACAD_SCALELIST
350
47
  3
APPDATA
350
142
  3
DWGPROPS
350
153
  0
DICTIONARY
  5
D
102
{ACAD_REACTORS
330
C
102
}
330
C
100
AcDbDictionary
281
     1
  0
RASTERVARIABLES
  5
144
102
{ACAD_REACTORS
330
C
102
}
330
C
100
AcDbRasterVariables
 90
        0
 70
     1
 71
     1
 72
     1
  0
DICTIONARY
  5
1A
102
{ACAD_REACTORS
330
C
102
}
330
C
100
AcDbDictionary
281
     1
  3
Layout1
350
1E
  3
Layout2
350
26
  3
Model
350
22
  0
DICTIONARY
  5
17
102
{ACAD_REACTORS
330
C
102
}
330
C
100
AcDbDictionary
281
     1
  3
Standard
350
18
  0
DICTIONARY
  5
19
102
{ACAD_REACTORS
330
C
102
}
330
C
100
AcDbDictionary
281
     1
  0
ACDBDICTIONARYWDFLT
  5
E
102
{ACAD_REACTORS
330
C
102
}
330
C
100
AcDbDictionary
281
     1
  3
Normal
350
F
100
AcDbDictionaryWithDefault
340
F
  0
DICTIONARY
  5
47
102
{ACAD_REACTORS
330
C
102
}
330
C
100
AcDbDictionary
281
     1
  3
A0
350
48
  3
A1
350
49
  3
A2
350
4A
  3
A3
350
4B
  3
A4
350
4C
  3
A5
350
4D
  3
A6
350
4E
  3
A7
350
4F
  3
A8
350
50
  3
A9
350
51
  3
B0
350
52
  3
B1
350
53
  3
B2
350
54
  3
B3
350
55
  3
B4
350
56
  3
B5
350
57
  3
B6
350
58
  3
B7
350
59
  3
B8
350
5A
  3
B9
350
5B
  3
C0
350
5C
  3
C1
350
5D
  3
C2
350
5E
  3
C3
350
5F
  3
C4
350
60
  3
C5
350
61
  3
C6
350
62
  3
C7
350
63
  3
C8
350
64
  3
C9
350
65
  3
D0
350
66
  3
D1
350
67
  3
D2
350
68
  0
DICTIONARY
  5
142
102
{ACAD_REACTORS
330
C
102
}
330
C
100
AcDbDictionary
281
     1
  0
XRECORD
  5
153
102
{ACAD_REACTORS
330
C
102
}
330
C
100
AcDbXrecord
280
     1
  1
DWGPROPS COOKIE
  2

  3

  4

  6

  7

  8
12014102
  9

300
=
301
=
302
=
303
=
304
=
305
=
306
=
307
=
308
=
309
=
 40
0.0
 41
2458260.207884711
 42
2458268.236057419
  1

 90
        0
  0
LAYOUT
  5
1E
102
{ACAD_REACTORS
330
1A
102
}
330
1A
100
AcDbPlotSettings
  1

  2
none_device
  4

  6

 40
0.0
 41
0.0
 42
0.0
 43
0.0
 44
0.0
 45
0.0
 46
0.0
 47
0.0
 48
0.0
 49
0.0
140
0.0
141
0.0
142
1.0
143
1.0
 70
   688
 72
     1
 73
     0
 74
     5
  7

 75
    16
147
1.0
148
0.0
149
0.0
100
AcDbLayout
  1
Layout1
 70
     1
 71
     1
 10
0.0
 20
0.0
 11
420.0
 21
297.0
 12
0.0
 22
0.0
 32
0.0
 14
1.000000000000000E+20
 24
1.000000000000000E+20
 34
1.000000000000000E+20
 15
-1.000000000000000E+20
 25
-1.000000000000000E+20
 35
-1.000000000000000E+20
146
0.0
 13
0.0
 23
0.0
 33
0.0
 16
1.0
 26
0.0
 36
0.0
 17
0.0
 27
1.0
 37
0.0
 76
     0
330
1B
  0
LAYOUT
  5
26
102
{ACAD_REACTORS
330
1A
102
}
330
1A
100
AcDbPlotSettings
  1

  2
none_device
  4

  6

 40
0.0
 41
0.0
 42
0.0
 43
0.0
 44
0.0
 45
0.0
 46
0.0
 47
0.0
 48
0.0
 49
0.0
140
0.0
141
0.0
142
1.0
143
1.0
 70
   688
 72
     1
 73
     0
 74
     5
  7

 75
    16
147
1.0
148
0.0
149
0.0
100
AcDbLayout
  1
Layout2
 70
     1
 71
     2
 10
0.0
 20
0.0
 11
0.0
 21
0.0
 12
0.0
 22
0.0
 32
0.0
 14
0.0
 24
0.0
 34
0.0
 15
0.0
 25
0.0
 35
0.0
146
0.0
 13
0.0
 23
0.0
 33
0.0
 16
1.0
 26
0.0
 36
0.0
 17
0.0
 27
1.0
 37
0.0
 76
     0
330
23
  0
LAYOUT
  5
22
102
{ACAD_REACTORS
330
1A
102
}
330
1A
100
AcDbPlotSettings
  1

  2
none_device
  4
ANSI_A_(11.00_x_8.50_Inches)
  6

 40
6.35
 41
19.05
 42
6.35000508
 43
19.05000254
 44
279.4
 45
215.9
 46
127.646565480477
 47
99.00579184718299
 48
0.0
 49
0.0
140
0.0
141
0.0
142
0.0382289419350518
143
1.0
 70
  1696
 72
     0
 73
     0
 74
     0
  7

 75
     0
147
0.0235690232323232
148
0.0
149
0.0
100
AcDbLayout
  1
Model
 70
     1
 71
     0
 10
0.0
 20
0.0
 11
420.0
 21
297.0
 12
0.0
 22
0.0
 32
0.0
 14
-134.7186498570749
 24
-49.97180738881174
 34
0.0
 15
146.5183965485419
 25
29.76413260158163
 35
0.0
146
0.0
 13
0.0
 23
0.0
 33
0.0
 16
1.0
 26
0.0
 36
0.0
 17
0.0
 27
1.0
 37
0.0
 76
     0
330
1F
331
29
  0
MLINESTYLE
  5
18
102
{ACAD_REACTORS
330
17
102
}
330
17
100
AcDbMlineStyle
  2
Standard
 70
     0
  3

 62
   256
 51
90.0
 52
90.0
 71
     2
 49
0.5
 62
   256
  6
BYLAYER
 49
-0.5
 62
   256
  6
BYLAYER
  0
ACDBPLACEHOLDER
  5
F
102
{ACAD_REACTORS
330
E
102
}
330
E
  0
SCALE
  5
48
102
{ACAD_REACTORS
330
47
102
}
330
47
100
AcDbScale
 70
     0
300
1:1
140
1.0
141
1.0
290
     1
  0
SCALE
  5
49
102
{ACAD_REACTORS
330
47
102
}
330
47
100
AcDbScale
 70
     0
300
1:2
140
1.0
141
2.0
290
     0
  0
SCALE
  5
4A
102
{ACAD_REACTORS
330
47
102
}
330
47
100
AcDbScale
 70
     0
300
1:4
140
1.0
141
4.0
290
     0
  0
SCALE
  5
4B
102
{ACAD_REACTORS
330
47
102
}
330
47
100
AcDbScale
 70
     0
300
1:5
140
1.0
141
5.0
290
     0
  0
SCALE
  5
4C
102
{ACAD_REACTORS
330
47
102
}
330
47
100
AcDbScale
 70
     0
300
1:8
140
1.0
141
8.0
290
     0
  0
SCALE
  5
4D
102
{ACAD_REACTORS
330
47
102
}
330
47
100
AcDbScale
 70
     0
300
1:10
140
1.0
141
10.0
290
     0
  0
SCALE
  5
4E
102
{ACAD_REACTORS
330
47
102
}
330
47
100
AcDbScale
 70
     0
300
1:16
140
1.0
141
16.0
290
     0
  0
SCALE
  5
4F
102
{ACAD_REACTORS
330
47
102
}
330
47
100
AcDbScale
 70
     0
300
1:20
140
1.0
141
20.0
290
     0
  0
SCALE
  5
50
102
{ACAD_REACTORS
330
47
102
}
330
47
100
AcDbScale
 70
     0
300
1:30
140
1.0
141
30.0
290
     0
  0
SCALE
  5
51
102
{ACAD_REACTORS
330
47
102
}
330
47
100
AcDbScale
 70
     0
300
1:40
140
1.0
141
40.0
290
     0
  0
SCALE
  5
52
102
{ACAD_REACTORS
330
47
102
}
330
47
100
AcDbScale
 70
     0
300
1:50
140
1.0
141
50.0
290
     0
  0
SCALE
  5
53
102
{ACAD_REACTORS
330
47
102
}
330
47
100
AcDbScale
 70
     0
300
1:100
140
1.0
141
100.0
290
     0
  0
SCALE
  5
54
102
{ACAD_REACTORS
330
47
102
}
330
47
100
AcDbScale
 70
     0
300
2:1
140
2.0
141
1.0
290
     0
  0
SCALE
  5
55
102
{ACAD_REACTORS
330
47
102
}
330
47
100
AcDbScale
 70
     0
300
4:1
140
4.0
141
1.0
290
     0
  0
SCALE
  5
56
102
{ACAD_REACTORS
330
47
102
}
330
47
100
AcDbScale
 70
     0
300
8:1
140
8.0
141
1.0
290
     0
  0
SCALE
  5
57
102
{ACAD_REACTORS
330
47
102
}
330
47
100
AcDbScale
 70
     0
300
10:1
140
10.0
141
1.0
290
     0
  0
SCALE
  5
58
102
{ACAD_REACTORS
330
47
102
}
330
47
100
AcDbScale
 70
     0
300
100:1
140
100.0
141
1.0
290
     0
  0
SCALE
  5
59
102
{ACAD_REACTORS
330
47
102
}
330
47
100
AcDbScale
 70
     0
300
1/128" = 1'-0"
140
0.0078125
141
12.0
290
     0
  0
SCALE
  5
5A
102
{ACAD_REACTORS
330
47
102
}
330
47
100
AcDbScale
 70
     0
300
1/64" = 1'-0"
140
0.015625
141
12.0
290
     0
  0
SCALE
  5
5B
102
{ACAD_REACTORS
330
47
102
}
330
47
100
AcDbScale
 70
     0
300
1/32" = 1'-0"
140
0.03125
141
12.0
290
     0
  0
SCALE
  5
5C
102
{ACAD_REACTORS
330
47
102
}
330
47
100
AcDbScale
 70
     0
300
1/16" = 1'-0"
140
0.0625
141
12.0
290
     0
  0
SCALE
  5
5D
102
{ACAD_REACTORS
330
47
102
}
330
47
100
AcDbScale
 70
     0
300
3/32" = 1'-0"
140
0.09375
141
12.0
290
     0
  0
SCALE
  5
5E
102
{ACAD_REACTORS
330
47
102
}
330
47
100
AcDbScale
 70
     0
300
1/8" = 1'-0"
140
0.125
141
12.0
290
     0
  0
SCALE
  5
5F
102
{ACAD_REACTORS
330
47
102
}
330
47
100
AcDbScale
 70
     0
300
3/16" = 1'-0"
140
0.1875
141
12.0
290
     0
  0
SCALE
  5
60
102
{ACAD_REACTORS
330
47
102
}
330
47
100
AcDbScale
 70
     0
300
1/4" = 1'-0"
140
0.25
141
12.0
290
     0
  0
SCALE
  5
61
102
{ACAD_REACTORS
330
47
102
}
330
47
100
AcDbScale
 70
     0
300
3/8" = 1'-0"
140
0.375
141
12.0
290
     0
  0
SCALE
  5
62
102
{ACAD_REACTORS
330
47
102
}
330
47
100
AcDbScale
 70
     0
300
1/2" = 1'-0"
140
0.5
141
12.0
290
     0
  0
SCALE
  5
63
102
{ACAD_REACTORS
330
47
102
}
330
47
100
AcDbScale
 70
     0
300
3/4" = 1'-0"
140
0.75
141
12.0
290
     0
  0
SCALE
  5
64
102
{ACAD_REACTORS
330
47
102
}
330
47
100
AcDbScale
 70
     0
300
1" = 1'-0"
140
1.0
141
12.0
290
     0
  0
SCALE
  5
65
102
{ACAD_REACTORS
330
47
102
}
330
47
100
AcDbScale
 70
     0
300
1-1/2" = 1'-0"
140
1.5
141
12.0
290
     0
  0
SCALE
  5
66
102
{ACAD_REACTORS
330
47
102
}
330
47
100
AcDbScale
 70
     0
300
3" = 1'-0"
140
3.0
141
12.0
290
     0
  0
SCALE
  5
67
102
{ACAD_REACTORS
330
47
102
}
330
47
100
AcDbScale
 70
     0
300
6" = 1'-0"
140
6.0
141
12.0
290
     0
  0
SCALE
  5
68
102
{ACAD_REACTORS
330
47
102
}
330
47
100
AcDbScale
 70
     0
300
1'-0" = 1'-0"
140
12.0
141
12.0
290
     0
  0
ENDSEC
  0
EOF
