  0
SECTION
  2
HEADER
  9
$ACADVER
  1
AC1015
  9
$ACADMAINTVER
 70
     6
  9
$DWGCODEPAGE
  3
ANSI_949
  9
$INSBASE
 10
0.0
 20
0.0
 30
0.0
  9
$EXTMIN
 10
-97.87319220300475
 20
-49.97180738881174
 30
0.0
  9
$EXTMAX
 10
136.4219088556981
 20
29.76413260158163
 30
0.0
  9
$LIMMIN
 10
0.0
 20
0.0
  9
$LIMMAX
 10
420.0
 20
297.0
  9
$ORTHOMODE
 70
     0
  9
$REGENMODE
 70
     1
  9
$FILLMODE
 70
     1
  9
$QTEXTMODE
 70
     0
  9
$MIRRTEXT
 70
     1
  9
$LTSCALE
 40
1.0
  9
$ATTMODE
 70
     1
  9
$TEXTSIZE
 40
3.5
  9
$TRACEWID
 40
1.0
  9
$TEXTSTYLE
  7
Standard
  9
$CLAYER
  8
0
  9
$CELTYPE
  6
ByLayer
  9
$CECOLOR
 62
   256
  9
$CELTSCALE
 40
1.0
  9
$DISPSILH
 70
     0
  9
$DIMSCALE
 40
1.0
  9
$DIMASZ
 40
3.302
  9
$DIMEXO
 40
1.0
  9
$DIMDLI
 40
3.75
  9
$DIMRND
 40
0.0
  9
$DIMDLE
 40
0.0
  9
$DIMEXE
 40
1.0
  9
$DIMTP
 40
0.0
  9
$DIMTM
 40
0.0
  9
$DIMTXT
 40
3.5
  9
$DIMCEN
 40
2.5
  9
$DIMTSZ
 40
0.0
  9
$DIMTOL
 70
     0
  9
$DIMLIM
 70
     0
  9
$DIMTIH
 70
     1
  9
$DIMTOH
 70
     1
  9
$DIMSE1
 70
     0
  9
$DIMSE2
 70
     0
  9
$DIMTAD
 70
     1
  9
$DIMZIN
 70
     0
  9
$DIMBLK
  1

  9
$DIMASO
 70
     1
  9
$DIMSHO
 70
     1
  9
$DIMPOST
  1

  9
$DIMAPOST
  1

  9
$DIMALT
 70
     0
  9
$DIMALTD
 70
     3
  9
$DIMALTF
 40
0.0393700787401575
  9
$DIMLFAC
 40
1.0
  9
$DIMTOFL
 70
     1
  9
$DIMTVP
 40
0.0
  9
$DIMTIX
 70
     0
  9
$DIMSOXD
 70
     0
  9
$DIMSAH
 70
     0
  9
$DIMBLK1
  1

  9
$DIMBLK2
  1

  9
$DIMSTYLE
  2
ISO-25
  9
$DIMCLRD
 70
     0
  9
$DIMCLRE
 70
     0
  9
$DIMCLRT
 70
     0
  9
$DIMTFAC
 40
1.0
  9
$DIMGAP
 40
1.524
  9
$DIMJUST
 70
     0
  9
$DIMSD1
 70
     0
  9
$DIMSD2
 70
     0
  9
$DIMTOLJ
 70
     0
  9
$DIMTZIN
 70
     0
  9
$DIMALTZ
 70
     0
  9
$DIMALTTZ
 70
     0
  9
$DIMUPT
 70
     0
  9
$DIMDEC
 70
     2
  9
$DIMTDEC
 70
     2
  9
$DIMALTU
 70
     2
  9
$DIMALTTD
 70
     3
  9
$DIMTXSTY
  7
Standard
  9
$DIMAUNIT
 70
     0
  9
$DIMADEC
 70
     2
  9
$DIMALTRND
 40
0.0
  9
$DIMAZIN
 70
     0
  9
$DIMDSEP
 70
    44
  9
$DIMATFIT
 70
     3
  9
$DIMFRAC
 70
     0
  9
$DIMLDRBLK
  1

  9
$DIMLUNIT
 70
     2
  9
$DIMLWD
 70
    -2
  9
$DIMLWE
 70
    -2
  9
$DIMTMOVE
 70
     0
  9
$LUNITS
 70
     2
  9
$LUPREC
 70
     2
  9
$SKETCHINC
 40
1.0
  9
$FILLETRAD
 40
10.0
  9
$AUNITS
 70
     0
  9
$AUPREC
 70
     2
  9
$MENU
  1
.
  9
$ELEVATION
 40
0.0
  9
$PELEVATION
 40
0.0
  9
$THICKNESS
 40
0.0
  9
$LIMCHECK
 70
     0
  9
$CHAMFERA
 40
0.0
  9
$CHAMFERB
 40
0.0
  9
$CHAMFERC
 40
0.0
  9
$CHAMFERD
 40
0.0
  9
$SKPOLY
 70
     0
  9
$TDCREATE
 40
2458260.582695671
  9
$TDUCREATE
 40
2458260.207695671
  9
$TDUPDATE
 40
2458268.610336944
  9
$TDUUPDATE
 40
2458268.235336944
  9
$TDINDWG
 40
0.0007541204
  9
$TDUSRTIMER
 40
2458268.234582859
  9
$USRTIMER
 70
     1
  9
$ANGBASE
 50
0.0
  9
$ANGDIR
 70
     0
  9
$PDMODE
 70
     0
  9
$PDSIZE
 40
-1.0
  9
$PLINEWID
 40
0.0
  9
$SPLFRAME
 70
     0
  9
$SPLINETYPE
 70
     6
  9
$SPLINESEGS
 70
     8
  9
$HANDSEED
  5
14C
  9
$SURFTAB1
 70
     6
  9
$SURFTAB2
 70
     6
  9
$SURFTYPE
 70
     6
  9
$SURFU
 70
     6
  9
$SURFV
 70
     6
  9
$UCSBASE
  2

  9
$UCSNAME
  2

  9
$UCSORG
 10
0.0
 20
0.0
 30
0.0
  9
$UCSXDIR
 10
1.0
 20
0.0
 30
0.0
  9
$UCSYDIR
 10
0.0
 20
1.0
 30
0.0
  9
$UCSORTHOREF
  2

  9
$UCSORTHOVIEW
 70
     0
  9
$UCSORGTOP
 10
0.0
 20
0.0
 30
0.0
  9
$UCSORGBOTTOM
 10
0.0
 20
0.0
 30
0.0
  9
$UCSORGLEFT
 10
0.0
 20
0.0
 30
0.0
  9
$UCSORGRIGHT
 10
0.0
 20
0.0
 30
0.0
  9
$UCSORGFRONT
 10
0.0
 20
0.0
 30
0.0
  9
$UCSORGBACK
 10
0.0
 20
0.0
 30
0.0
  9
$PUCSBASE
  2

  9
$PUCSNAME
  2

  9
$PUCSORG
 10
0.0
 20
0.0
 30
0.0
  9
$PUCSXDIR
 10
1.0
 20
0.0
 30
0.0
  9
$PUCSYDIR
 10
0.0
 20
1.0
 30
0.0
  9
$PUCSORTHOREF
  2

  9
$PUCSORTHOVIEW
 70
     0
  9
$PUCSORGTOP
 10
0.0
 20
0.0
 30
0.0
  9
$PUCSORGBOTTOM
 10
0.0
 20
0.0
 30
0.0
  9
$PUCSORGLEFT
 10
0.0
 20
0.0
 30
0.0
  9
$PUCSORGRIGHT
 10
0.0
 20
0.0
 30
0.0
  9
$PUCSORGFRONT
 10
0.0
 20
0.0
 30
0.0
  9
$PUCSORGBACK
 10
0.0
 20
0.0
 30
0.0
  9
$USERI1
 70
     0
  9
$USERI2
 70
     0
  9
$USERI3
 70
     0
  9
$USERI4
 70
     0
  9
$USERI5
 70
     0
  9
$USERR1
 40
0.0
  9
$USERR2
 40
0.0
  9
$USERR3
 40
0.0
  9
$USERR4
 40
0.0
  9
$USERR5
 40
0.0
  9
$WORLDVIEW
 70
     1
  9
$SHADEDGE
 70
     3
  9
$SHADEDIF
 70
    70
  9
$TILEMODE
 70
     1
  9
$MAXACTVP
 70
    64
  9
$PINSBASE
 10
0.0
 20
0.0
 30
0.0
  9
$PLIMCHECK
 70
     0
  9
$PEXTMIN
 10
1.000000000000000E+20
 20
1.000000000000000E+20
 30
1.000000000000000E+20
  9
$PEXTMAX
 10
-1.000000000000000E+20
 20
-1.000000000000000E+20
 30
-1.000000000000000E+20
  9
$PLIMMIN
 10
0.0
 20
0.0
  9
$PLIMMAX
 10
0.0
 20
0.0
  9
$UNITMODE
 70
     0
  9
$VISRETAIN
 70
     1
  9
$PLINEGEN
 70
     0
  9
$PSLTSCALE
 70
     1
  9
$TREEDEPTH
 70
  3020
  9
$CMLSTYLE
  2
Standard
  9
$CMLJUST
 70
     0
  9
$CMLSCALE
 40
20.0
  9
$PROXYGRAPHICS
 70
     1
  9
$MEASUREMENT
 70
     1
  9
$CELWEIGHT
370
    -1
  9
$ENDCAPS
280
     0
  9
$JOINSTYLE
280
     0
  9
$LWDISPLAY
290
     1
  9
$INSUNITS
 70
     4
  9
$HYPERLINKBASE
  1

  9
$STYLESHEET
  1

  9
$XEDIT
290
     1
  9
$CEPSNTYPE
380
     0
  9
$PSTYLEMODE
290
     1
  9
$FINGERPRINTGUID
  2
{0D6E5704-19CE-4F7E-B5F0-66C819F3A5F9}
  9
$VERSIONGUID
  2
{FAEB1C32-E019-11D5-929B-00C0DF256EC4}
  9
$EXTNAMES
290
     1
  9
$PSVPSCALE
 40
0.0
  9
$OLESTARTUP
290
     0
  0
ENDSEC
  0
SECTION
  2
CLASSES
  0
CLASS
  1
ACDBDICTIONARYWDFLT
  2
AcDbDictionaryWithDefault
  3
ObjectDBX Classes
 90
        0
280
     0
281
     0
  0
CLASS
  1
VISUALSTYLE
  2
AcDbVisualStyle
  3
ObjectDBX Classes
 90
     4095
280
     0
281
     0
  0
CLASS
  1
MATERIAL
  2
AcDbMaterial
  3
ObjectDBX Classes
 90
     1153
280
     0
281
     0
  0
CLASS
  1
SCALE
  2
AcDbScale
  3
ObjectDBX Classes
 90
     1153
280
     0
281
     0
  0
CLASS
  1
TABLESTYLE
  2
AcDbTableStyle
  3
ObjectDBX Classes
 90
     4095
280
     0
281
     0
  0
CLASS
  1
MLEADERSTYLE
  2
AcDbMLeaderStyle
  3
ACDB_MLEADERSTYLE_CLASS
 90
     4095
280
     0
281
     0
  0
CLASS
  1
SUN
  2
AcDbSun
  3
SCENEOE
 90
     1153
280
     0
281
     0
  0
CLASS
  1
ACDBPLACEHOLDER
  2
AcDbPlaceHolder
  3
ObjectDBX Classes
 90
        0
280
     0
281
     0
  0
CLASS
  1
LAYOUT
  2
AcDbLayout
  3
ObjectDBX Classes
 90
        0
280
     0
281
     0
  0
CLASS
  1
RASTERVARIABLES
  2
AcDbRasterVariables
  3
ISM
 90
        0
280
     0
281
     0
  0
ENDSEC
  0
SECTION
  2
TABLES
  0
TABLE
  2
VPORT
  5
8
330
0
100
AcDbSymbolTable
 70
     1
  0
VPORT
  5
29
330
8
100
AcDbSymbolTableRecord
100
AcDbViewportTableRecord
  2
*Active
 70
     0
 10
0.0
 20
0.0
 11
1.0
 21
1.0
 12
19.27435832634667
 22
-10.10383739361505
 13
0.0
 23
0.0
 14
10.0
 24
10.0
 15
10.0
 25
10.0
 16
0.0
 26
0.0
 36
1.0
 17
0.0
 27
0.0
 37
0.0
 40
137.4229542227524
 41
1.739018087855297
 42
50.0
 43
0.0
 44
0.0
 50
0.0
 51
0.0
 71
    16
 72
  2000
 73
     1
 74
     3
 75
     0
 76
     0
 77
     0
 78
     0
281
     0
 65
     1
110
0.0
120
0.0
130
0.0
111
1.0
121
0.0
131
0.0
112
0.0
122
1.0
132
0.0
 79
     0
146
0.0
  0
ENDTAB
  0
TABLE
  2
LTYPE
  5
5
330
0
100
AcDbSymbolTable
 70
     6
  0
LTYPE
  5
14
330
5
100
AcDbSymbolTableRecord
100
AcDbLinetypeTableRecord
  2
ByBlock
 70
     0
  3

 72
    65
 73
     0
 40
0.0
  0
LTYPE
  5
15
330
5
100
AcDbSymbolTableRecord
100
AcDbLinetypeTableRecord
  2
ByLayer
 70
     0
  3

 72
    65
 73
     0
 40
0.0
  0
LTYPE
  5
16
330
5
100
AcDbSymbolTableRecord
100
AcDbLinetypeTableRecord
  2
Continuous
 70
     0
  3
Solid line
 72
    65
 73
     0
 40
0.0
  0
LTYPE
  5
6E
330
5
100
AcDbSymbolTableRecord
100
AcDbLinetypeTableRecord
  2
HIDDEN
 70
     0
  3
Hidden __ __ __ __ __ __ __ __ __ __ __ __ __ __
 72
    65
 73
     2
 40
1.905
 49
1.27
 74
     0
 49
-0.635
 74
     0
  0
LTYPE
  5
6F
330
5
100
AcDbSymbolTableRecord
100
AcDbLinetypeTableRecord
  2
PHANTOM
 70
     0
  3
Phantom ______  __  __  ______  __  __  ______
 72
    65
 73
     6
 40
12.7
 49
6.35
 74
     0
 49
-1.27
 74
     0
 49
1.27
 74
     0
 49
-1.27
 74
     0
 49
1.27
 74
     0
 49
-1.27
 74
     0
  0
LTYPE
  5
70
330
5
100
AcDbSymbolTableRecord
100
AcDbLinetypeTableRecord
  2
CENTER
 70
     0
  3
Center ____ _ ____ _ ____ _ ____ _ ____ _ ____
 72
    65
 73
     4
 40
10.16
 49
6.35
 74
     0
 49
-1.27
 74
     0
 49
1.27
 74
     0
 49
-1.27
 74
     0
  0
LTYPE
  5
71
330
5
100
AcDbSymbolTableRecord
100
AcDbLinetypeTableRecord
  2
CENTERX2
 70
     0
  3
Center (2x) ________  __  ________  __  _____
 72
    65
 73
     4
 40
20.32
 49
12.7
 74
     0
 49
-2.54
 74
     0
 49
2.54
 74
     0
 49
-2.54
 74
     0
  0
LTYPE
  5
72
330
5
100
AcDbSymbolTableRecord
100
AcDbLinetypeTableRecord
  2
DOT2
 70
     0
  3
Dot (.5x) ........................................
 72
    65
 73
     2
 40
0.635
 49
0.0
 74
     0
 49
-0.635
 74
     0
  0
ENDTAB
  0
TABLE
  2
LAYER
  5
2
330
0
100
AcDbSymbolTable
 70
    17
  0
LAYER
  5
10
330
2
100
AcDbSymbolTableRecord
100
AcDbLayerTableRecord
  2
0
 70
     0
 62
     7
  6
Continuous
370
    -3
390
F
  0
LAYER
  5
73
330
2
100
AcDbSymbolTableRecord
100
AcDbLayerTableRecord
  2
FORMAT
 70
     0
 62
     2
  6
Continuous
370
    -3
390
F
  0
LAYER
  5
74
330
2
100
AcDbSymbolTableRecord
100
AcDbLayerTableRecord
  2
외형선
 70
     0
 62
   100
  6
Continuous
370
    35
390
F
  0
LAYER
  5
75
330
2
100
AcDbSymbolTableRecord
100
AcDbLayerTableRecord
  2
숨은선
 70
     0
 62
     2
  6
HIDDEN
370
    25
390
F
  0
LAYER
  5
76
330
2
100
AcDbSymbolTableRecord
100
AcDbLayerTableRecord
  2
중심선
 70
     0
 62
     1
  6
CENTERX2
370
    -3
390
F
  0
LAYER
  5
77
330
2
100
AcDbSymbolTableRecord
100
AcDbLayerTableRecord
  2
파단선
 70
     0
 62
     4
  6
Continuous
370
    -3
390
F
  0
LAYER
  5
78
330
2
100
AcDbSymbolTableRecord
100
AcDbLayerTableRecord
  2
해칭선
 70
     0
 62
   100
  6
Continuous
370
    -3
390
F
  0
LAYER
  5
79
330
2
100
AcDbSymbolTableRecord
100
AcDbLayerTableRecord
  2
가는실선
 70
     0
 62
     4
  6
Continuous
370
    -3
390
F
  0
LAYER
  5
7A
330
2
100
AcDbSymbolTableRecord
100
AcDbLayerTableRecord
  2
치수_보조선
 70
     0
 62
     4
  6
Continuous
370
    -3
390
F
  0
LAYER
  5
7B
330
2
100
AcDbSymbolTableRecord
100
AcDbLayerTableRecord
  2
치수문자_일반주서
 70
     0
 62
     7
  6
Continuous
370
    25
390
F
  0
LAYER
  5
7C
330
2
100
AcDbSymbolTableRecord
100
AcDbLayerTableRecord
  2
개별주서
 70
     0
 62
   100
  6
Continuous
370
    35
390
F
  0
LAYER
  5
7D
330
2
100
AcDbSymbolTableRecord
100
AcDbLayerTableRecord
  2
중간선
 70
     0
 62
     2
  6
Continuous
370
    25
390
F
  0
LAYER
  5
7E
330
2
100
AcDbSymbolTableRecord
100
AcDbLayerTableRecord
  2
윤곽선
 70
     0
 62
     3
  6
Continuous
370
    50
390
F
  0
LAYER
  5
7F
330
2
100
AcDbSymbolTableRecord
100
AcDbLayerTableRecord
  2
중심마크
 70
     0
 62
   100
  6
Continuous
370
    35
390
F
  0
LAYER
  5
80
330
2
100
AcDbSymbolTableRecord
100
AcDbLayerTableRecord
  2
가상선
 70
     0
 62
     4
  6
PHANTOM
370
    -3
390
F
  0
LAYER
  5
81
330
2
100
AcDbSymbolTableRecord
100
AcDbLayerTableRecord
  2
특수지정선
 70
     0
 62
     5
  6
CENTERX2
370
    70
390
F
  0
LAYER
  5
13D
330
2
100
AcDbSymbolTableRecord
100
AcDbLayerTableRecord
  2
Defpoints
 70
     0
 62
     7
  6
Continuous
290
     0
370
    -3
390
F
  0
ENDTAB
  0
TABLE
  2
STYLE
  5
3
330
0
100
AcDbSymbolTable
 70
     2
  0
STYLE
  5
11
330
3
100
AcDbSymbolTableRecord
100
AcDbTextStyleTableRecord
  2
Standard
 70
     0
 40
0.0
 41
1.0
 50
0.0
 71
     0
 42
3.5
  3
txt
  4

  0
STYLE
  5
97
330
3
100
AcDbSymbolTableRecord
100
AcDbTextStyleTableRecord
  2
SLDTEXTSTYLE0
 70
     0
 40
0.0
 41
0.75
 50
0.0
 71
     0
 42
3.5
  3
TXT
  4

  0
ENDTAB
  0
TABLE
  2
VIEW
  5
6
330
0
100
AcDbSymbolTable
 70
     0
  0
ENDTAB
  0
TABLE
  2
UCS
  5
7
330
0
100
AcDbSymbolTable
 70
     0
  0
ENDTAB
  0
TABLE
  2
APPID
  5
9
330
0
100
AcDbSymbolTable
 70
     1
  0
APPID
  5
12
330
9
100
AcDbSymbolTableRecord
100
AcDbRegAppTableRecord
  2
ACAD
 70
     0
  0
ENDTAB
  0
TABLE
  2
DIMSTYLE
  5
A
330
0
100
AcDbSymbolTable
 70
     4
100
AcDbDimStyleTable
  0
DIMSTYLE
105
27
330
A
100
AcDbSymbolTableRecord
100
AcDbDimStyleTableRecord
  2
ISO-25
 70
     0
 41
2.5
 42
0.625
 43
3.75
 44
1.25
 73
     0
 74
     0
 77
     1
 78
     8
140
2.5
141
2.5
143
0.03937007874016
147
0.625
171
     3
172
     1
178
     0
271
     2
272
     2
274
     3
278
    44
283
     0
284
     8
340
11
  0
DIMSTYLE
105
E2
102
{ACAD_REACTORS
330
E1
102
}
330
A
100
AcDbSymbolTableRecord
100
AcDbDimStyleTableRecord
  2
SLDDIMSTYLE0
 70
     0
 41
3.302
 44
0.0
 45
0.000000001
 73
     0
 74
     0
 77
     1
 78
    12
 79
     3
140
3.5
147
0.875
172
     1
173
     1
178
     0
271
     1
272
     1
276
     2
284
    12
289
     0
340
97
  0
DIMSTYLE
105
F0
102
{ACAD_REACTORS
330
EF
330
108
102
}
330
A
100
AcDbSymbolTableRecord
100
AcDbDimStyleTableRecord
  2
SLDDIMSTYLE1
 70
     0
 41
3.302
 44
0.0
 45
0.000000001
 73
     0
 74
     0
 77
     1
 78
    12
 79
     3
140
3.5
147
0.875
173
     1
178
     0
271
     2
272
     2
276
     2
284
    12
340
97
  0
DIMSTYLE
105
FB
102
{ACAD_REACTORS
330
FA
102
}
330
A
100
AcDbSymbolTableRecord
100
AcDbDimStyleTableRecord
  2
SLDDIMSTYLE2
 70
     0
 41
3.302
 44
0.0
 45
0.000000001
 73
     0
 74
     0
 77
     1
 78
    12
 79
     3
140
3.5
147
0.875
172
     1
173
     1
178
     0
271
     2
272
     2
276
     2
284
    12
289
     0
340
97
  0
ENDTAB
  0
TABLE
  2
BLOCK_RECORD
  5
1
330
0
100
AcDbSymbolTable
 70
     7
  0
BLOCK_RECORD
  5
1F
330
1
100
AcDbSymbolTableRecord
100
AcDbBlockTableRecord
  2
*Model_Space
340
22
  0
BLOCK_RECORD
  5
1B
330
1
100
AcDbSymbolTableRecord
100
AcDbBlockTableRecord
  2
*Paper_Space
340
1E
  0
BLOCK_RECORD
  5
23
330
1
100
AcDbSymbolTableRecord
100
AcDbBlockTableRecord
  2
*Paper_Space0
340
26
  0
BLOCK_RECORD
  5
82
330
1
100
AcDbSymbolTableRecord
100
AcDbBlockTableRecord
  2
블럭10
340
0
102
{BLKREFS
331
DA
102
}
  0
BLOCK_RECORD
  5
E3
330
1
100
AcDbSymbolTableRecord
100
AcDbBlockTableRecord
  2
_D
340
0
  0
BLOCK_RECORD
  5
F1
330
1
100
AcDbSymbolTableRecord
100
AcDbBlockTableRecord
  2
_D_1
340
0
  0
BLOCK_RECORD
  5
FC
330
1
100
AcDbSymbolTableRecord
100
AcDbBlockTableRecord
  2
_D_2
340
0
  0
BLOCK_RECORD
  5
109
330
1
100
AcDbSymbolTableRecord
100
AcDbBlockTableRecord
  2
_D_3
340
0
  0
BLOCK_RECORD
  5
112
330
1
100
AcDbSymbolTableRecord
100
AcDbBlockTableRecord
  2
SW_DOWELSYMBOL_0
340
0
102
{BLKREFS
331
118
102
}
  0
ENDTAB
  0
ENDSEC
  0
SECTION
  2
BLOCKS
  0
BLOCK
  5
20
330
1F
100
AcDbEntity
  8
0
100
AcDbBlockBegin
  2
*Model_Space
 70
     0
 10
0.0
 20
0.0
 30
0.0
  3
*Model_Space
  1

  0
ENDBLK
  5
21
330
1F
100
AcDbEntity
  8
0
100
AcDbBlockEnd
  0
BLOCK
  5
1C
330
1B
100
AcDbEntity
 67
     1
  8
0
100
AcDbBlockBegin
  2
*Paper_Space
 70
     0
 10
0.0
 20
0.0
 30
0.0
  3
*Paper_Space
  1

  0
ENDBLK
  5
1D
330
1B
100
AcDbEntity
 67
     1
  8
0
100
AcDbBlockEnd
  0
BLOCK
  5
24
330
23
100
AcDbEntity
  8
0
100
AcDbBlockBegin
  2
*Paper_Space0
 70
     0
 10
0.0
 20
0.0
 30
0.0
  3
*Paper_Space0
  1

  0
ENDBLK
  5
25
330
23
100
AcDbEntity
  8
0
100
AcDbBlockEnd
  0
BLOCK
  5
83
330
82
100
AcDbEntity
  8
0
100
AcDbBlockBegin
  2
블럭10
 70
     2
 10
0.0
 20
0.0
 30
0.0
  3
블럭10
  1

  0
ELLIPSE
  5
85
330
82
100
AcDbEntity
  8
중심선
100
AcDbEllipse
 10
20.54032771741204
 20
12.0471743016438
 30
0.0
 11
6.600054785286829
 21
-1.261213355974178E-13
 31
0.0
210
0.0
220
0.0
230
1.0
 40
0.636358354079598
 41
0.9219305317359503
 42
6.513795318482858
  0
ELLIPSE
  5
86
330
82
100
AcDbEntity
  8
중심선
100
AcDbEllipse
 10
20.54032771746488
 20
12.04717430159265
 30
0.0
 11
3.960054785062283
 21
1.540847449632565E-10
 31
0.0
210
0.0
220
0.0
230
1.0
 40
0.3939339440162632
 41
1.131841032648279
 42
5.62031148352944
  0
LINE
  5
87
330
82
100
AcDbEntity
  8
중심선
100
AcDbLine
 10
2.268634060543552
 20
16.24717430164393
 30
0.0
 11
5.714909304380834
 21
16.24717430164393
 31
0.0
  0
LINE
  5
88
330
82
100
AcDbEntity
  8
중심선
100
AcDbLine
 10
5.245725140726316
 20
7.84717430164391
 30
0.0
 11
8.692000384563599
 21
7.84717430164391
 31
0.0
  0
LINE
  5
89
330
82
100
AcDbEntity
  8
중심선
100
AcDbLine
 10
15.74043728645272
 20
16.24717430164393
 30
0.0
 11
8.692000384563599
 21
7.84717430164391
 31
0.0
  0
LINE
  5
8A
330
82
100
AcDbEntity
  8
중심선
100
AcDbLine
 10
0.1404042013395286
 20
13.71084872107135
 30
0.0
 11
3.58671253028996
 21
13.71088815037384
 31
0.0
  0
LINE
  5
8B
330
82
100
AcDbEntity
  8
중심선
100
AcDbLine
 10
2.750260043222114
 20
10.84717430164391
 30
0.0
 11
6.196535287059397
 21
10.84717430164391
 31
0.0
  0
LINE
  5
8C
330
82
100
AcDbEntity
  8
중심선
100
AcDbLine
 10
12.29416204261559
 20
16.24717430164393
 30
0.0
 11
5.245725140726316
 21
7.84717430164391
 31
0.0
  0
LINE
  5
8D
330
82
100
AcDbEntity
  8
중심선
100
AcDbLine
 10
10.72767329541681
 20
16.24717430164393
 30
0.0
 11
6.196535287059397
 21
10.84717430164391
 31
0.0
  0
LINE
  5
8E
330
82
100
AcDbEntity
  8
중심선
100
AcDbLine
 10
7.28139805157953
 20
16.24717430164393
 30
0.0
 11
2.750260043222114
 21
10.84717430164391
 31
0.0
  0
LINE
  5
8F
330
82
100
AcDbEntity
  8
중심선
100
AcDbLine
 10
5.714909304380834
 20
16.24717430164393
 30
0.0
 11
3.58671253028996
 21
13.71088815037384
 31
0.0
  0
LINE
  5
90
330
82
100
AcDbEntity
  8
중심선
100
AcDbLine
 10
2.268634060543552
 20
16.24717430164393
 30
0.0
 11
0.1404042013395286
 21
13.71084872107135
 31
0.0
  0
LINE
  5
91
330
82
100
AcDbEntity
  8
중심선
100
AcDbLine
 10
7.28139805157953
 20
16.24717430164393
 30
0.0
 11
10.72767329541681
 21
16.24717430164393
 31
0.0
  0
LINE
  5
92
330
82
100
AcDbEntity
  8
중심선
100
AcDbLine
 10
12.29416204261559
 20
16.24717430164393
 30
0.0
 11
15.74043728645272
 21
16.24717430164393
 31
0.0
  0
LINE
  5
93
330
82
100
AcDbEntity
  8
중심선
100
AcDbLine
 10
19.22036997980202
 20
11.08717430171403
 30
0.0
 11
23.66174974927406
 21
11.08717430171406
 31
0.0
  0
LINE
  5
94
330
82
100
AcDbEntity
  8
중심선
100
AcDbLine
 10
19.22039502424796
 20
13.00717430171391
 30
0.0
 11
19.22036997980202
 21
11.08717430171403
 31
0.0
  0
LINE
  5
95
330
82
100
AcDbEntity
  8
중심선
100
AcDbLine
 10
19.22039502424796
 20
13.00717430171391
 30
0.0
 11
26.96566020931264
 21
13.00717430171391
 31
0.0
  0
LINE
  5
96
330
82
100
AcDbEntity
  8
중심선
100
AcDbLine
 10
22.22332737316547
 20
13.45928029700563
 30
0.0
 11
24.52862924686651
 21
15.39360700705356
 31
0.0
  0
ATTDEF
  5
98
330
82
100
AcDbEntity
  8
FORMAT
 62
     2
100
AcDbText
 10
-17.69892196172445
 20
2.075366912832191
 30
0.0
 40
4.233333333333333
  1
SEME72160110E [ 4 FLUTE ]
 41
0.75
  7
SLDTEXTSTYLE0
 11
-17.69892196172445
 21
-0.0412997538344756
 31
0.0
100
AcDbAttributeDefinition
  3

  2
AUTOATTR0
 70
     0
 74
     1
  0
ENDBLK
  5
84
330
82
100
AcDbEntity
  8
0
100
AcDbBlockEnd
  0
BLOCK
  5
E4
330
E3
100
AcDbEntity
  8
0
100
AcDbBlockBegin
  2
_D
 70
     0
 10
0.0
 20
0.0
 30
0.0
  3
_D
  1

  0
LINE
  5
E6
330
E3
100
AcDbEntity
  8
치수문자_일반주서
 62
     0
370
    -2
100
AcDbLine
 10
122.0625
 20
-8.00000000000002
 30
0.0
 11
135.8715755223648
 21
-7.999999999999972
 31
0.0
  0
LINE
  5
E7
330
E3
100
AcDbEntity
  8
치수문자_일반주서
 62
     0
370
    -2
100
AcDbLine
 10
122.0625
 20
8.000000000000005
 30
0.0
 11
135.8715755223647
 21
8.000000000000057
 31
0.0
  0
LINE
  5
E8
330
E3
100
AcDbEntity
  8
치수문자_일반주서
 62
     0
370
    -2
100
AcDbLine
 10
135.8715755223648
 20
-7.999999999999972
 30
0.0
 11
135.8715755223647
 21
23.80814553160905
 31
0.0
  0
LINE
  5
E9
330
E3
100
AcDbEntity
  8
치수문자_일반주서
 62
     0
370
    -2
100
AcDbLine
 10
135.8715755223648
 20
-7.999999999999972
 30
0.0
 11
135.8715755223647
 21
8.000000000000057
 31
0.0
  0
LINE
  5
EA
330
E3
100
AcDbEntity
  8
치수문자_일반주서
 62
     0
370
    -2
100
AcDbLine
 10
135.8715755223648
 20
-11.30199999999997
 30
0.0
 11
135.8715755223648
 21
-14.60399999999997
 31
0.0
  0
LINE
  5
EB
330
E3
100
AcDbEntity
  8
치수문자_일반주서
 62
     0
370
    -2
100
AcDbLine
 10
135.8715755223647
 20
11.30200000000006
 30
0.0
 11
135.8715755223647
 21
14.60400000000006
 31
0.0
  0
SOLID
  5
EC
330
E3
100
AcDbEntity
  8
치수문자_일반주서
 62
     0
100
AcDbTrace
 10
136.4219088556981
 20
-11.30199999999997
 30
0.0
 11
135.3212421890314
 21
-11.30199999999997
 31
0.0
 12
135.8715755223648
 22
-7.999999999999972
 32
0.0
 13
135.8715755223648
 23
-7.999999999999972
 33
0.0
  0
SOLID
  5
ED
330
E3
100
AcDbEntity
  8
치수문자_일반주서
 62
     0
100
AcDbTrace
 10
135.3212421890314
 20
11.30200000000005
 30
0.0
 11
136.421908855698
 21
11.30200000000006
 31
0.0
 12
135.8715755223647
 22
8.000000000000057
 32
0.0
 13
135.8715755223647
 23
8.000000000000057
 33
0.0
  0
MTEXT
  5
EE
330
E3
100
AcDbEntity
  8
치수문자_일반주서
 62
     0
100
AcDbMText
 10
131.4965755223647
 20
19.87064553160903
 30
0.0
 40
3.5
 41
0.0
 71
     2
 72
     1
  1
\A1;%%c16
  7
SLDTEXTSTYLE0
 11
-3.552713678800495E-15
 21
1.0
 31
0.0
 73
     1
 44
1.0
  0
POINT
  5
147
330
E3
100
AcDbEntity
  8
Defpoints
 62
     0
100
AcDbPoint
 10
122.0
 20
-8.00000000000002
 30
0.0
  0
POINT
  5
148
330
E3
100
AcDbEntity
  8
Defpoints
 62
     0
100
AcDbPoint
 10
122.0
 20
8.000000000000005
 30
0.0
  0
POINT
  5
149
330
E3
100
AcDbEntity
  8
Defpoints
 62
     0
100
AcDbPoint
 10
135.8715755223647
 20
8.000000000000057
 30
0.0
  0
ENDBLK
  5
E5
330
E3
100
AcDbEntity
  8
0
100
AcDbBlockEnd
  0
BLOCK
  5
F2
330
F1
100
AcDbEntity
  8
0
100
AcDbBlockBegin
  2
_D_1
 70
     0
 10
0.0
 20
0.0
 30
0.0
  3
_D_1
  1

  0
LINE
  5
F4
330
F1
100
AcDbEntity
  8
치수문자_일반주서
 62
     0
370
    -2
100
AcDbLine
 10
-78.00000000000001
 20
7.562499999999984
 30
0.0
 11
-78.0
 21
25.38913260158163
 31
0.0
  0
LINE
  5
F5
330
F1
100
AcDbEntity
  8
치수문자_일반주서
 62
     0
370
    -2
100
AcDbLine
 10
122.0
 20
8.062500000000014
 30
0.0
 11
122.0
 21
25.38913260158163
 31
0.0
  0
LINE
  5
F6
330
F1
100
AcDbEntity
  8
치수문자_일반주서
 62
     0
370
    -2
100
AcDbLine
 10
-74.69800000000001
 20
25.38913260158163
 30
0.0
 11
118.698
 21
25.38913260158163
 31
0.0
  0
SOLID
  5
F7
330
F1
100
AcDbEntity
  8
치수문자_일반주서
 62
     0
100
AcDbTrace
 10
-74.69800000000001
 20
25.93946593491497
 30
0.0
 11
-74.69800000000001
 21
24.8387992682483
 31
0.0
 12
-78.0
 22
25.38913260158163
 32
0.0
 13
-78.0
 23
25.38913260158163
 33
0.0
  0
SOLID
  5
F8
330
F1
100
AcDbEntity
  8
치수문자_일반주서
 62
     0
100
AcDbTrace
 10
118.698
 20
24.8387992682483
 30
0.0
 11
118.698
 21
25.93946593491497
 31
0.0
 12
122.0
 22
25.38913260158163
 32
0.0
 13
122.0
 23
25.38913260158163
 33
0.0
  0
MTEXT
  5
F9
330
F1
100
AcDbEntity
  8
치수문자_일반주서
 62
     0
100
AcDbMText
 10
21.99999999999998
 20
29.76413260158163
 30
0.0
 40
3.5
 41
0.0
 71
     2
 72
     1
  1
\A1;200
  7
SLDTEXTSTYLE0
 73
     1
 44
1.0
  0
POINT
  5
13E
330
F1
100
AcDbEntity
  8
Defpoints
 62
     0
100
AcDbPoint
 10
-78.00000000000001
 20
7.499999999999984
 30
0.0
  0
POINT
  5
13F
330
F1
100
AcDbEntity
  8
Defpoints
 62
     0
100
AcDbPoint
 10
122.0
 20
8.000000000000014
 30
0.0
  0
POINT
  5
140
330
F1
100
AcDbEntity
  8
Defpoints
 62
     0
100
AcDbPoint
 10
122.0
 20
25.38913260158163
 30
0.0
  0
ENDBLK
  5
F3
330
F1
100
AcDbEntity
  8
0
100
AcDbBlockEnd
  0
BLOCK
  5
FD
330
FC
100
AcDbEntity
  8
0
100
AcDbBlockBegin
  2
_D_2
 70
     0
 10
0.0
 20
0.0
 30
0.0
  3
_D_2
  1

  0
LINE
  5
FF
330
FC
100
AcDbEntity
  8
치수문자_일반주서
 62
     0
370
    -2
100
AcDbLine
 10
-77.56250000000001
 20
8.0
 30
0.0
 11
-93.49819220300469
 21
7.99999999999994
 31
0.0
  0
LINE
  5
100
330
FC
100
AcDbEntity
  8
치수문자_일반주서
 62
     0
370
    -2
100
AcDbLine
 10
-77.56250000000001
 20
-8.000000000000014
 30
0.0
 11
-93.49819220300463
 21
-8.000000000000075
 31
0.0
  0
LINE
  5
101
330
FC
100
AcDbEntity
  8
치수문자_일반주서
 62
     0
370
    -2
100
AcDbLine
 10
-93.49819220300469
 20
7.99999999999994
 30
0.0
 11
-93.49819220300475
 21
22.47899999999994
 31
0.0
  0
LINE
  5
102
330
FC
100
AcDbEntity
  8
치수문자_일반주서
 62
     0
370
    -2
100
AcDbLine
 10
-93.49819220300469
 20
7.99999999999994
 30
0.0
 11
-93.49819220300463
 21
-8.000000000000075
 31
0.0
  0
LINE
  5
103
330
FC
100
AcDbEntity
  8
치수문자_일반주서
 62
     0
370
    -2
100
AcDbLine
 10
-93.4981922030047
 20
11.30199999999994
 30
0.0
 11
-93.49819220300472
 21
14.60399999999994
 31
0.0
  0
LINE
  5
104
330
FC
100
AcDbEntity
  8
치수문자_일반주서
 62
     0
370
    -2
100
AcDbLine
 10
-93.49819220300462
 20
-11.30200000000007
 30
0.0
 11
-93.4981922030046
 21
-14.60400000000007
 31
0.0
  0
SOLID
  5
105
330
FC
100
AcDbEntity
  8
치수문자_일반주서
 62
     0
100
AcDbTrace
 10
-94.04852553633803
 20
11.30199999999994
 30
0.0
 11
-92.94785886967138
 21
11.30199999999994
 31
0.0
 12
-93.49819220300469
 22
7.99999999999994
 32
0.0
 13
-93.49819220300469
 23
7.99999999999994
 33
0.0
  0
SOLID
  5
106
330
FC
100
AcDbEntity
  8
치수문자_일반주서
 62
     0
100
AcDbTrace
 10
-92.9478588696713
 20
-11.30200000000007
 30
0.0
 11
-94.04852553633795
 21
-11.30200000000008
 31
0.0
 12
-93.49819220300463
 22
-8.000000000000075
 32
0.0
 13
-93.49819220300463
 23
-8.000000000000075
 33
0.0
  0
MTEXT
  5
107
330
FC
100
AcDbEntity
  8
치수문자_일반주서
 62
     0
100
AcDbMText
 10
-97.87319220300473
 20
18.54149999999992
 30
0.0
 40
3.5
 41
0.0
 71
     2
 72
     1
  1
\A1;%%c16
  7
SLDTEXTSTYLE0
 11
-3.552713678800498E-15
 21
1.0
 31
0.0
 73
     1
 44
1.0
  0
POINT
  5
144
330
FC
100
AcDbEntity
  8
Defpoints
 62
     0
100
AcDbPoint
 10
-77.50000000000001
 20
8.0
 30
0.0
  0
POINT
  5
145
330
FC
100
AcDbEntity
  8
Defpoints
 62
     0
100
AcDbPoint
 10
-77.50000000000001
 20
-8.000000000000014
 30
0.0
  0
POINT
  5
146
330
FC
100
AcDbEntity
  8
Defpoints
 62
     0
100
AcDbPoint
 10
-93.49819220300465
 20
-8.000000000000075
 30
0.0
  0
ENDBLK
  5
FE
330
FC
100
AcDbEntity
  8
0
100
AcDbBlockEnd
  0
BLOCK
  5
10A
330
109
100
AcDbEntity
  8
0
100
AcDbBlockBegin
  2
_D_3
 70
     0
 10
0.0
 20
0.0
 30
0.0
  3
_D_3
  1

  0
LINE
  5
10C
330
109
100
AcDbEntity
  8
치수문자_일반주서
 62
     0
370
    -2
100
AcDbLine
 10
12.0
 20
7.985647758754103
 30
0.0
 11
12.0
 21
18.76906606134175
 31
0.0
  0
LINE
  5
10D
330
109
100
AcDbEntity
  8
치수문자_일반주서
 62
     0
370
    -2
100
AcDbLine
 10
122.0
 20
8.062500000000014
 30
0.0
 11
122.0
 21
18.76906606134175
 31
0.0
  0
LINE
  5
10E
330
109
100
AcDbEntity
  8
치수문자_일반주서
 62
     0
370
    -2
100
AcDbLine
 10
15.302
 20
18.76906606134175
 30
0.0
 11
118.698
 21
18.76906606134175
 31
0.0
  0
SOLID
  5
10F
330
109
100
AcDbEntity
  8
치수문자_일반주서
 62
     0
100
AcDbTrace
 10
15.302
 20
19.31939939467509
 30
0.0
 11
15.302
 21
18.21873272800842
 31
0.0
 12
12.0
 22
18.76906606134175
 32
0.0
 13
12.0
 23
18.76906606134175
 33
0.0
  0
SOLID
  5
110
330
109
100
AcDbEntity
  8
치수문자_일반주서
 62
     0
100
AcDbTrace
 10
118.698
 20
18.21873272800842
 30
0.0
 11
118.698
 21
19.31939939467509
 31
0.0
 12
122.0
 22
18.76906606134175
 32
0.0
 13
122.0
 23
18.76906606134175
 33
0.0
  0
MTEXT
  5
111
330
109
100
AcDbEntity
  8
치수문자_일반주서
 62
     0
100
AcDbMText
 10
67.0
 20
23.14406606134175
 30
0.0
 40
3.5
 41
0.0
 71
     2
 72
     1
  1
\A1;110
  7
SLDTEXTSTYLE0
 73
     1
 44
1.0
  0
POINT
  5
141
330
109
100
AcDbEntity
  8
Defpoints
 62
     0
100
AcDbPoint
 10
12.0
 20
7.923147758754103
 30
0.0
  0
POINT
  5
142
330
109
100
AcDbEntity
  8
Defpoints
 62
     0
100
AcDbPoint
 10
122.0
 20
8.000000000000014
 30
0.0
  0
POINT
  5
143
330
109
100
AcDbEntity
  8
Defpoints
 62
     0
100
AcDbPoint
 10
122.0
 20
18.76906606134175
 30
0.0
  0
ENDBLK
  5
10B
330
109
100
AcDbEntity
  8
0
100
AcDbBlockEnd
  0
BLOCK
  5
113
330
112
100
AcDbEntity
  8
0
100
AcDbBlockBegin
  2
SW_DOWELSYMBOL_0
 70
     0
 10
0.0
 20
0.0
 30
0.0
  3
SW_DOWELSYMBOL_0
  1

  0
CIRCLE
  5
115
330
112
100
AcDbEntity
  8
해칭선
 62
     0
100
AcDbCircle
 10
0.0
 20
0.0
 30
0.0
 40
3.0
  0
HATCH
  5
116
330
112
100
AcDbEntity
  8
0
  6
Continuous
 62
     0
370
    18
100
AcDbHatch
 10
0.0
 20
0.0
 30
0.0
210
0.0
220
0.0
230
1.0
  2
SOLID
 70
     1
 71
     0
 91
        1
 92
        0
 93
        3
 72
     2
 10
0.0
 20
0.0
 40
3.0
 50
0.0
 51
90.0
 73
     1
 72
     1
 10
0.0
 20
3.0
 11
0.0
 21
0.0
 72
     1
 10
0.0
 20
0.0
 11
3.0
 21
0.0
 97
        0
 75
     0
 76
     1
 98
        1
 10
0.0
 20
0.0
  0
HATCH
  5
117
330
112
100
AcDbEntity
  8
0
  6
Continuous
 62
     0
370
    18
100
AcDbHatch
 10
0.0
 20
0.0
 30
0.0
210
0.0
220
0.0
230
1.0
  2
SOLID
 70
     1
 71
     0
 91
        1
 92
        0
 93
        3
 72
     2
 10
0.0
 20
0.0
 40
3.0
 50
180.0
 51
270.0000000000008
 73
     1
 72
     1
 10
0.0
 20
-3.0
 11
0.0
 21
0.0
 72
     1
 10
0.0
 20
0.0
 11
-3.0
 21
0.0
 97
        0
 75
     0
 76
     1
 98
        1
 10
0.0
 20
0.0
  0
ENDBLK
  5
114
330
112
100
AcDbEntity
  8
0
100
AcDbBlockEnd
  0
ENDSEC
  0
SECTION
  2
ENTITIES
  0
LINE
  5
99
330
1F
100
AcDbEntity
  8
0
  6
Continuous
 62
     4
370
    25
100
AcDbLine
 10
12.0
 20
7.999999999999993
 30
0.0
 11
-77.50000000000001
 21
7.999999999999989
 31
0.0
  0
LINE
  5
9A
330
1F
100
AcDbEntity
  8
0
  6
Continuous
 62
     4
370
    25
100
AcDbLine
 10
-77.50000000000001
 20
-8.00000000000001
 30
0.0
 11
12.0
 21
-8.000000000000007
 31
0.0
  0
LINE
  5
9B
330
1F
100
AcDbEntity
  8
0
  6
Continuous
 62
     4
370
    25
100
AcDbLine
 10
-77.50000000000001
 20
7.999999999999986
 30
0.0
 11
-78.00000000000001
 21
7.499999999999984
 31
0.0
  0
LINE
  5
9C
330
1F
100
AcDbEntity
  8
0
  6
Continuous
 62
     4
370
    25
100
AcDbLine
 10
-78.00000000000001
 20
-7.500000000000007
 30
0.0
 11
-77.50000000000001
 21
-8.000000000000007
 31
0.0
  0
LINE
  5
9D
330
1F
100
AcDbEntity
  8
0
  6
Continuous
 62
     1
370
    25
100
AcDbLine
 10
97.13981097132562
 20
-8.000000000000018
 30
0.0
 11
103.3281668631778
 21
-8.000000000000018
 31
0.0
  0
LINE
  5
9E
330
1F
100
AcDbEntity
  8
0
  6
Continuous
 62
     1
370
    25
100
AcDbLine
 10
12.0
 20
-8.000000000000018
 30
0.0
 11
16.26579737993541
 21
-8.000000000000018
 31
0.0
  0
LINE
  5
9F
330
1F
100
AcDbEntity
  8
0
  6
Continuous
 62
     1
370
    25
100
AcDbLine
 10
59.79764657471219
 20
8.000000000000004
 30
0.0
 11
53.60984359597815
 21
8.000000000000004
 31
0.0
  0
LINE
  5
A0
330
1F
100
AcDbEntity
  8
0
  6
Continuous
 62
     1
370
    25
100
AcDbLine
 10
118.9057998482357
 20
-8.000000000000018
 30
0.0
 11
122.0
 21
-8.000000000000018
 31
0.0
  0
LINE
  5
A1
330
1F
100
AcDbEntity
  8
0
  6
Continuous
 62
     1
370
    25
100
AcDbLine
 10
31.84343036499321
 20
-8.000000000000018
 30
0.0
 11
38.03270328016277
 21
-8.000000000000018
 31
0.0
  0
LINE
  5
A2
330
1F
100
AcDbEntity
  8
0
  6
Continuous
 62
     1
370
    25
100
AcDbLine
 10
81.56284161741387
 20
8.000000000000004
 30
0.0
 11
75.37548623503437
 21
8.000000000000004
 31
0.0
  0
LINE
  5
A3
330
1F
100
AcDbEntity
  8
0
  6
Continuous
 62
     1
370
    25
100
AcDbLine
 10
53.60984359597831
 20
-8.000000000000018
 30
0.0
 11
59.79764657471223
 21
-8.000000000000018
 31
0.0
  0
LINE
  5
A4
330
1F
100
AcDbEntity
  8
0
  6
Continuous
 62
     1
370
    25
100
AcDbLine
 10
16.26579737993556
 20
8.000000000000004
 30
0.0
 11
12.0
 21
8.000000000000004
 31
0.0
  0
LINE
  5
A5
330
1F
100
AcDbEntity
  8
0
  6
Continuous
 62
     1
370
    25
100
AcDbLine
 10
103.3281668631779
 20
8.000000000000004
 30
0.0
 11
97.1398109713256
 21
8.000000000000004
 31
0.0
  0
LINE
  5
A6
330
1F
100
AcDbEntity
  8
0
  6
Continuous
 62
     1
370
    25
100
AcDbLine
 10
75.37548623503432
 20
-8.000000000000018
 30
0.0
 11
81.56284161741381
 21
-8.000000000000018
 31
0.0
  0
LINE
  5
A7
330
1F
100
AcDbEntity
  8
0
  6
Continuous
 62
     1
370
    25
100
AcDbLine
 10
38.03270328016272
 20
8.000000000000004
 30
0.0
 11
31.84343036499314
 21
8.000000000000004
 31
0.0
  0
LINE
  5
A8
330
1F
100
AcDbEntity
  8
0
  6
Continuous
 62
     1
370
    25
100
AcDbLine
 10
122.0
 20
8.000000000000004
 30
0.0
 11
118.9057998482357
 21
8.000000000000004
 31
0.0
  0
SPLINE
  5
A9
330
1F
100
AcDbEntity
  8
0
  6
Continuous
 62
     4
370
    25
100
AcDbSpline
210
0.0
220
0.0
230
1.0
 70
     8
 71
     3
 72
    18
 73
    14
 74
     0
 42
0.000000001
 43
0.00000001
 40
0.0
 40
0.0
 40
0.0
 40
0.0
 40
0.2499999999999999
 40
0.2499999999999999
 40
0.3749999999999998
 40
0.3749999999999998
 40
0.4999999999999997
 40
0.4999999999999997
 40
0.6249999999999998
 40
0.6249999999999998
 40
0.7499999999999999
 40
0.7499999999999999
 40
1.0
 40
1.0
 40
1.0
 40
1.0
 10
10.49996586351857
 20
7.418106764245325
 30
0.0
 10
10.49996586351857
 20
7.495620436566666
 30
0.0
 10
10.5335527220681
 20
7.564089418658217
 30
0.0
 10
10.63955751299066
 20
7.652312240061789
 30
0.0
 10
10.68333797012091
 20
7.678635997356688
 30
0.0
 10
10.78782308152072
 20
7.726031773497304
 30
0.0
 10
10.84933698634894
 20
7.747298201123858
 30
0.0
 10
10.98656214214706
 20
7.784116863162515
 30
0.0
 10
11.06176479630465
 20
7.799671159531568
 30
0.0
 10
11.22526497266607
 20
7.826219747976857
 30
0.0
 10
11.31439788536797
 20
7.837245609072626
 30
0.0
 10
11.59087702980242
 20
7.86344836501579
 30
0.0
 10
11.79308318277191
 20
7.872677676477592
 30
0.0
 10
12.0
 20
7.874973217733121
 30
0.0
  0
LINE
  5
AA
330
1F
100
AcDbEntity
  8
0
  6
Continuous
 62
     4
370
    25
100
AcDbLine
 10
10.49996586351857
 20
7.418106764245325
 30
0.0
 11
10.49996586351857
 21
4.10281577761528
 31
0.0
  0
SPLINE
  5
AB
330
1F
100
AcDbEntity
  8
0
  6
Continuous
 62
     4
370
    25
100
AcDbSpline
210
0.0
220
0.0
230
1.0
 70
     8
 71
     3
 72
    14
 73
    10
 74
     0
 42
0.000000001
 43
0.00000001
 40
0.0
 40
0.0
 40
0.0
 40
0.0
 40
0.25
 40
0.25
 40
0.5
 40
0.5
 40
0.75
 40
0.75
 40
1.0
 40
1.0
 40
1.0
 40
1.0
 10
11.30670870867461
 20
2.802437889497441
 30
0.0
 10
11.18039912500543
 20
2.870677450556194
 30
0.0
 10
11.06689821728946
 20
2.953050135277635
 30
0.0
 10
10.8647622126431
 20
3.144099187616928
 30
0.0
 10
10.7776897824537
 20
3.252144177189798
 30
0.0
 10
10.63888898268559
 20
3.480828637242297
 30
0.0
 10
10.585773811378
 20
3.604126284934791
 30
0.0
 10
10.5168532897875
 20
3.851396549922073
 30
0.0
 10
10.49996586351858
 20
3.97776966994154
 30
0.0
 10
10.49996586351858
 20
4.102815777615282
 30
0.0
  0
SPLINE
  5
AC
330
1F
100
AcDbEntity
  8
0
  6
Continuous
 62
     4
370
    25
100
AcDbSpline
210
0.0
220
0.0
230
1.0
 70
     8
 71
     3
 72
     8
 73
     4
 74
     0
 42
0.000000001
 43
0.00000001
 40
0.0
 40
0.0
 40
0.0
 40
0.0
 40
1.0
 40
1.0
 40
1.0
 40
1.0
 10
12.0
 20
2.424726255712172
 30
0.0
 10
11.7688761827788
 20
2.551696404690215
 30
0.0
 10
11.53763489982172
 20
2.6776785366195
 30
0.0
 10
11.30670870867461
 20
2.80243788949744
 30
0.0
  0
SPLINE
  5
AD
330
1F
100
AcDbEntity
  8
0
  6
Continuous
 62
     4
370
    25
100
AcDbSpline
210
0.0
220
0.0
230
1.0
 70
     8
 71
     3
 72
    18
 73
    14
 74
     0
 42
0.000000001
 43
0.00000001
 40
0.0
 40
0.0
 40
0.0
 40
0.0
 40
0.2500000000000001
 40
0.2500000000000001
 40
0.3750000000000001
 40
0.3750000000000001
 40
0.4999999999999999
 40
0.4999999999999999
 40
0.6249999999999998
 40
0.6249999999999998
 40
0.7499999999999999
 40
0.7499999999999999
 40
1.0
 40
1.0
 40
1.0
 40
1.0
 10
10.49996586351857
 20
-2.995278289951963
 30
0.0
 10
10.49996586351857
 20
-2.803307914812748
 30
0.0
 10
10.5335527220681
 20
-2.611920819145928
 30
0.0
 10
10.63955751299066
 20
-2.334847351613531
 30
0.0
 10
10.68333797012091
 20
-2.246383505515057
 30
0.0
 10
10.78782308152072
 20
-2.077528018742982
 30
0.0
 10
10.84933698634894
 20
-1.996307230319484
 30
0.0
 10
10.98656214214706
 20
-1.847537993003599
 30
0.0
 10
11.06176479630465
 20
-1.780152355323344
 30
0.0
 10
11.22526497266607
 20
-1.659547245898374
 30
0.0
 10
11.31439788536797
 20
-1.606107638286009
 30
0.0
 10
11.59087702980242
 20
-1.474510678661415
 30
0.0
 10
11.79308318277191
 20
-1.421659635155906
 30
0.0
 10
12.0
 20
-1.408828172626438
 30
0.0
  0
LINE
  5
AE
330
1F
100
AcDbEntity
  8
0
  6
Continuous
 62
     4
370
    25
100
AcDbLine
 10
10.49996586351857
 20
-2.995278289951963
 30
0.0
 11
10.49996586351857
 21
-6.867816443015274
 31
0.0
  0
SPLINE
  5
AF
330
1F
100
AcDbEntity
  8
0
  6
Continuous
 62
     4
370
    25
100
AcDbSpline
210
0.0
220
0.0
230
1.0
 70
     8
 71
     3
 72
    14
 73
    10
 74
     0
 42
0.000000001
 43
0.00000001
 40
0.0
 40
0.0
 40
0.0
 40
0.0
 40
0.25
 40
0.25
 40
0.5
 40
0.5
 40
0.75
 40
0.75
 40
1.0
 40
1.0
 40
1.0
 40
1.0
 10
11.30670870867461
 20
-7.493086271722664
 30
0.0
 10
11.18039912500543
 20
-7.467564460743999
 30
0.0
 10
11.06689821728946
 20
-7.43573601137795
 30
0.0
 10
10.8647622126431
 20
-7.356990922299188
 30
0.0
 10
10.7776897824537
 20
-7.310228846562596
 30
0.0
 10
10.63888898268559
 20
-7.20414599633429
 30
0.0
 10
10.585773811378
 20
-7.143514458376428
 30
0.0
 10
10.51685328978751
 20
-7.013292358802623
 30
0.0
 10
10.49996586351856
 20
-6.942518664274404
 30
0.0
 10
10.49996586351856
 20
-6.867816443015274
 30
0.0
  0
SPLINE
  5
B0
330
1F
100
AcDbEntity
  8
0
  6
Continuous
 62
     4
370
    25
100
AcDbSpline
210
0.0
220
0.0
230
1.0
 70
     8
 71
     3
 72
     8
 73
     4
 74
     0
 42
0.000000001
 43
0.00000001
 40
0.0
 40
0.0
 40
0.0
 40
0.0
 40
1.0
 40
1.0
 40
1.0
 40
1.0
 10
12.0
 20
-7.623693500189363
 30
0.0
 10
11.7688761827788
 20
-7.583310468800299
 30
0.0
 10
11.53763489982172
 20
-7.539746663034819
 30
0.0
 10
11.30670870867461
 20
-7.493086271722662
 30
0.0
  0
LINE
  5
B1
330
1F
100
AcDbEntity
  8
0
  6
Continuous
 62
     4
370
    25
100
AcDbLine
 10
-77.50000000000001
 20
7.999999999999986
 30
0.0
 11
-77.50000000000001
 21
-8.000000000000007
 31
0.0
  0
LINE
  5
B2
330
1F
100
AcDbEntity
  8
0
  6
Continuous
 62
     4
370
    25
100
AcDbLine
 10
12.0
 20
2.424726255712173
 30
0.0
 11
12.0
 21
-1.408828172626433
 31
0.0
  0
LINE
  5
B3
330
1F
100
AcDbEntity
  8
0
  6
Continuous
 62
     4
370
    25
100
AcDbLine
 10
12.0
 20
-7.623693500189363
 30
0.0
 11
12.0
 21
-8.000000000000007
 31
0.0
  0
LINE
  5
B4
330
1F
100
AcDbEntity
  8
0
  6
Continuous
 62
     4
370
    25
100
AcDbLine
 10
-78.00000000000001
 20
7.499999999999984
 30
0.0
 11
-78.00000000000001
 21
-7.500000000000014
 31
0.0
  0
SPLINE
  5
B5
330
1F
100
AcDbEntity
  8
0
  6
Continuous
 62
     4
370
    25
100
AcDbSpline
210
0.0
220
0.0
230
1.0
 70
    24
 71
     3
 72
    13
 73
     9
 74
     0
 42
0.000000001
 43
0.00000001
 40
0.0
 40
0.0
 40
0.0
 40
0.0
 40
0.0918442386969051
 40
0.2629129707738433
 40
0.450606138109051
 40
0.6445325573316323
 40
0.8194451822565819
 40
1.0
 40
1.0
 40
1.0
 40
1.0
 10
12.0
 20
-1.411668823141621
 30
0.0
 10
12.0
 20
-1.409539160162183
 30
0.0
 10
12.0
 20
-1.403442794961541
 30
0.0
 10
12.0
 20
-1.5312889093902
 30
0.0
 10
12.0
 20
-1.805687198673436
 30
0.0
 10
12.0
 20
-2.23941261723445
 30
0.0
 10
12.0
 20
-2.791668664300227
 30
0.0
 10
12.0
 20
-3.238401788135262
 30
0.0
 10
12.0
 20
-3.465313758324426
 30
0.0
  0
SPLINE
  5
B6
330
1F
100
AcDbEntity
  8
0
  6
Continuous
 62
     4
370
    25
100
AcDbSpline
210
0.0
220
0.0
230
1.0
 70
    24
 71
     3
 72
    11
 73
     7
 74
     0
 42
0.000000001
 43
0.00000001
 40
0.0
 40
0.0
 40
0.0
 40
0.0
 40
0.045172744141599
 40
0.4018142929606924
 40
0.7584558417797858
 40
0.9999999999999999
 40
0.9999999999999999
 40
0.9999999999999999
 40
0.9999999999999999
 10
12.0
 20
3.38211373425367
 30
0.0
 10
12.0
 20
3.359273887010803
 30
0.0
 10
12.0
 20
3.156112063534782
 30
0.0
 10
12.0
 20
2.833174883195076
 30
0.0
 10
12.0
 20
2.531136125377461
 30
0.0
 10
12.0
 20
2.455334530418088
 30
0.0
 10
12.0
 20
2.424726255712172
 30
0.0
  0
SPLINE
  5
B7
330
1F
100
AcDbEntity
  8
0
  6
Continuous
 62
     4
370
    25
100
AcDbSpline
210
0.0
220
0.0
230
1.0
 70
    24
 71
     3
 72
    18
 73
    14
 74
     0
 42
0.000000001
 43
0.00000001
 40
0.0
 40
0.0
 40
0.0
 40
0.0
 40
0.2499999999999998
 40
0.2499999999999998
 40
0.3749999999999999
 40
0.3749999999999999
 40
0.5
 40
0.5
 40
0.6250000000000001
 40
0.6250000000000001
 40
0.7500000000000002
 40
0.7500000000000002
 40
1.0
 40
1.0
 40
1.0
 40
1.0
 10
12.0
 20
7.874973217733121
 30
0.0
 10
12.0
 20
7.441785428476585
 30
0.0
 10
12.0
 20
7.012816704180807
 30
0.0
 10
12.0
 20
6.375850648524919
 30
0.0
 10
12.0
 20
6.163510218543388
 30
0.0
 10
12.0
 20
5.751825283563422
 30
0.0
 10
12.0
 20
5.551397519676952
 30
0.0
 10
12.0
 20
5.16144134546359
 30
0.0
 10
12.0
 20
4.971910916619077
 30
0.0
 10
12.0
 20
4.604341455377302
 30
0.0
 10
12.0
 20
4.426270357644073
 30
0.0
 10
12.0
 20
3.926859082302898
 30
0.0
 10
12.0
 20
3.633713419992808
 30
0.0
 10
12.0
 20
3.382113734253671
 30
0.0
  0
SPLINE
  5
B8
330
1F
100
AcDbEntity
  8
0
  6
Continuous
 62
     4
370
    25
100
AcDbSpline
210
0.0
220
0.0
230
1.0
 70
    24
 71
     3
 72
    12
 73
     8
 74
     0
 42
0.000000001
 43
0.00000001
 40
0.0
 40
0.0
 40
0.0
 40
0.0
 40
0.5000000000000002
 40
0.5000000000000002
 40
0.7500000000000001
 40
0.7500000000000001
 40
1.0
 40
1.0
 40
1.0
 40
1.0
 10
12.0
 20
-3.465313758324426
 30
0.0
 10
12.0
 20
-4.010406167956392
 30
0.0
 10
12.0
 20
-4.665390723356444
 30
0.0
 10
12.0
 20
-5.741513364718719
 30
0.0
 10
12.0
 20
-6.114818920752906
 30
0.0
 10
12.0
 20
-6.869356924867018
 30
0.0
 10
12.0
 20
-7.250439556663737
 30
0.0
 10
12.0
 20
-7.623693500189363
 30
0.0
  0
SPLINE
  5
B9
330
1F
100
AcDbEntity
  8
0
  6
Continuous
 62
     1
370
    25
100
AcDbSpline
210
0.0
220
0.0
230
1.0
 70
     8
 71
     3
 72
    25
 73
    21
 74
     0
 42
0.000000001
 43
0.00000001
 40
0.0
 40
0.0
 40
0.0
 40
0.0
 40
0.0374144892170872
 40
0.0982504814587806
 40
0.1590668315092565
 40
0.2187995043206549
 40
0.2785475026657785
 40
0.3383056194704737
 40
0.3980686171686823
 40
0.4589180962208972
 40
0.5197588518277052
 40
0.5805826969565019
 40
0.6413939769632444
 40
0.7022245220360255
 40
0.7619821248615807
 40
0.8217449597936266
 40
0.8815077750245081
 40
0.941265318806069
 40
0.9893686398799103
 40
1.0
 40
1.0
 40
1.0
 40
1.0
 10
45.82210787900017
 20
6.728524054601436
 30
0.0
 10
46.46215756777938
 20
6.928990704595877
 30
0.0
 10
48.14292861119058
 20
7.455416303088011
 30
0.0
 10
50.86398582037754
 20
7.900878701053577
 30
0.0
 10
53.96657701876133
 20
8.066485812247393
 30
0.0
 10
57.0504951253239
 20
7.817242713684495
 30
0.0
 10
60.11654032997272
 20
7.192166081750107
 30
0.0
 10
63.18319788232473
 20
6.215260116575399
 30
0.0
 10
66.2687182494097
 20
4.927707034556178
 30
0.0
 10
69.37288716107992
 20
3.386480935123052
 30
0.0
 10
72.49507971977872
 20
1.664940029013585
 30
0.0
 10
75.61645017741216
 20
-0.1406864223226463
 30
0.0
 10
78.73740490953607
 20
-1.939527851905449
 30
0.0
 10
81.84048015226477
 20
-3.629705970854496
 30
0.0
 10
84.92560682497502
 20
-5.130323125635464
 30
0.0
 10
87.99257597712251
 20
-6.36967583935032
 30
0.0
 10
91.05945014837718
 20
-7.30616423771389
 30
0.0
 10
93.9271229924404
 20
-7.821357574283226
 30
0.0
 10
95.95348932634171
 20
-8.021844873525295
 30
0.0
 10
96.95798983252097
 20
-7.984867523702192
 30
0.0
 10
97.1398109713256
 20
-7.978174382371298
 30
0.0
  0
SPLINE
  5
BA
330
1F
100
AcDbEntity
  8
0
  6
Continuous
 62
     1
370
    25
100
AcDbSpline
210
0.0
220
0.0
230
1.0
 70
     8
 71
     3
 72
    25
 73
    21
 74
     0
 42
0.000000001
 43
0.00000001
 40
0.0
 40
0.0
 40
0.0
 40
0.0
 40
0.0302560991319381
 40
0.0911652900300375
 40
0.150976377900949
 40
0.2107724329231369
 40
0.2705661740536702
 40
0.3303755509647381
 40
0.3912836338219251
 40
0.452197690097432
 40
0.5131094842053602
 40
0.5740107897844318
 40
0.6348934231908923
 40
0.6946862028605452
 40
0.754494689266156
 40
0.8143140437914661
 40
0.8741390267666918
 40
0.9350524979229875
 40
0.9959582372724173
 40
1.0
 40
1.0
 40
1.0
 40
1.0
 10
111.0626136574558
 20
-6.742945291680609
 30
0.0
 10
110.545558505295
 20
-6.909380574754774
 30
0.0
 10
108.9876087278727
 20
-7.410870234294896
 30
0.0
 10
106.4075484047035
 20
-7.857300161149331
 30
0.0
 10
103.3228905904797
 20
-8.06849376474461
 30
0.0
 10
100.2574605316122
 20
-7.867436253277546
 30
0.0
 10
97.19210306912524
 20
-7.287368595290509
 30
0.0
 10
94.1075451313213
 20
-6.34506975123808
 30
0.0
 10
91.00362765752085
 20
-5.080997160675675
 30
0.0
 10
87.88082879136383
 20
-3.552375823521232
 30
0.0
 10
84.75816589525742
 20
-1.84419990583295
 30
0.0
 10
81.63614048991563
 20
-0.042961576531304
 30
0.0
 10
78.5334585841204
 20
1.749900883564719
 30
0.0
 10
75.44960434019734
 20
3.444636556836504
 30
0.0
 10
72.38366224381387
 20
4.961886959712158
 30
0.0
 10
69.31707536269705
 20
6.234191967933288
 30
0.0
 10
66.2315713968112
 20
7.219988045029154
 30
0.0
 10
63.12738577465129
 20
7.808270525630702
 30
0.0
 10
60.9765267184352
 20
8.05798308052129
 30
0.0
 10
59.86671172330716
 20
7.991592245790065
 30
0.0
 10
59.79764657471219
 20
7.987460662700826
 30
0.0
  0
SPLINE
  5
BB
330
1F
100
AcDbEntity
  8
0
  6
Continuous
 62
     1
370
    25
100
AcDbSpline
210
0.0
220
0.0
230
1.0
 70
     8
 71
     3
 72
    12
 73
     8
 74
     0
 42
0.000000001
 43
0.00000001
 40
0.0
 40
0.0
 40
0.0
 40
0.0
 40
0.1292465290459892
 40
0.389435440916288
 40
0.6449335298163149
 40
0.900367402126135
 40
1.0
 40
1.0
 40
1.0
 40
1.0
 10
24.00024417421338
 20
-6.742945291680616
 30
0.0
 10
23.4831901283322
 20
-6.909361534884178
 30
0.0
 10
21.9252436842645
 20
-7.410793824988854
 30
0.0
 10
19.34513898156997
 20
-7.857987555461694
 30
0.0
 10
16.26066460595867
 20
-8.066024048318692
 30
0.0
 10
13.81786079949451
 20
-7.915143014009619
 30
0.0
 10
12.39832541289435
 20
-7.687555237007382
 30
0.0
 10
12.0
 20
-7.623693500202609
 30
0.0
  0
SPLINE
  5
BC
330
1F
100
AcDbEntity
  8
0
  6
Continuous
 62
     1
370
    25
100
AcDbSpline
210
0.0
220
0.0
230
1.0
 70
     8
 71
     3
 72
    14
 73
    10
 74
     0
 42
0.000000001
 43
0.00000001
 40
0.0
 40
0.0
 40
0.0
 40
0.0
 40
0.1488861774802471
 40
0.2977648044255193
 40
0.446631710155574
 40
0.5954827400586876
 40
0.7443137612490016
 40
0.8904941354160566
 40
1.0
 40
1.0
 40
1.0
 40
1.0
 10
11.99999999999998
 20
-1.106223120781133
 30
0.0
 10
12.98484846736557
 20
-1.664423718821895
 30
0.0
 10
14.95449545701169
 20
-2.780796606613089
 30
0.0
 10
17.90883012192717
 20
-4.31622769233514
 30
0.0
 10
20.86288587029176
 20
-5.658921198331921
 30
0.0
 10
23.816566854709
 20
-6.747574118320095
 30
0.0
 10
26.75238667718671
 20
-7.514522328295994
 30
0.0
 10
29.42792348260371
 20
-7.947685873858498
 30
0.0
 10
31.11912070126008
 20
-7.961272206315504
 30
0.0
 10
31.84343036499321
 20
-7.967090990656411
 30
0.0
  0
SPLINE
  5
BD
330
1F
100
AcDbEntity
  8
0
  6
Continuous
 62
     1
370
    25
100
AcDbSpline
210
0.0
220
0.0
230
1.0
 70
     8
 71
     3
 72
    25
 73
    21
 74
     0
 42
0.000000001
 43
0.00000001
 40
0.0
 40
0.0
 40
0.0
 40
0.0
 40
0.0347558015640626
 40
0.095596082793493
 40
0.1564194536767637
 40
0.2172302595359508
 40
0.2780603303109662
 40
0.3378174672045217
 40
0.3975798361637731
 40
0.4573421854220136
 40
0.5170992632720353
 40
0.5652022092826959
 40
0.613304982888869
 40
0.6708785258372041
 40
0.7284491490312879
 40
0.7860152396898524
 40
0.8435751912452466
 40
0.901127405531102
 40
0.9576546278209429
 40
1.0
 40
1.0
 40
1.0
 40
1.0
 10
67.58929564171243
 20
6.727816731670917
 30
0.0
 10
68.18387108193382
 20
6.916353445153259
 30
0.0
 10
69.81925511718941
 20
7.434925034948126
 30
0.0
 10
72.4950800852352
 20
7.88436401715224
 30
0.0
 10
75.61645007279122
 20
8.069405913254252
 30
0.0
 10
78.73740496269876
 20
7.830664188271539
 30
0.0
 10
81.8404800451708
 20
7.204148742190249
 30
0.0
 10
84.92560719354783
 20
6.223833324760282
 30
0.0
 10
87.99257460696644
 20
4.946104481172044
 30
0.0
 10
91.05945526018557
 20
3.427091474738327
 30
0.0
 10
93.92710548949998
 20
1.85040600811005
 30
0.0
 10
96.59435543749709
 20
0.3169480015983462
 30
0.0
 10
99.2242069756092
 20
-1.205912751448382
 30
0.0
 10
102.0169135292902
 20
-2.778531437619371
 30
0.0
 10
104.9711865870829
 20
-4.316834581641015
 30
0.0
 10
107.9252588414422
 20
-5.658758595787901
 30
0.0
 10
110.8789354026682
 20
-6.747617720225097
 30
0.0
 10
113.8147564072592
 20
-7.514510821344418
 30
0.0
 10
116.4902929221698
 20
-7.947687910005181
 30
0.0
 10
118.1814901714058
 20
-7.961272816870878
 30
0.0
 10
118.9057998482357
 20
-7.9670909906564
 30
0.0
  0
LINE
  5
BE
330
1F
100
AcDbEntity
  8
0
  6
Continuous
 62
     4
370
    25
100
AcDbLine
 10
12.0
 20
-1.106223120781143
 30
0.0
 11
12.0
 21
2.424726255714373
 31
0.0
  0
SPLINE
  5
BF
330
1F
100
AcDbEntity
  8
0
  6
Continuous
 62
     1
370
    25
100
AcDbSpline
210
0.0
220
0.0
230
1.0
 70
     8
 71
     3
 72
    21
 73
    17
 74
     0
 42
0.000000001
 43
0.00000001
 40
0.0
 40
0.0
 40
0.0
 40
0.0
 40
0.0771820584539613
 40
0.1543889795735162
 40
0.2316103972980296
 40
0.3088358865396632
 40
0.3860550056088317
 40
0.4618819776611651
 40
0.537689891451216
 40
0.6134948717484304
 40
0.6893196746895025
 40
0.7665373890126568
 40
0.8437626762832381
 40
0.9209850956354471
 40
0.9981942178982235
 40
0.9999999999999999
 40
0.9999999999999999
 40
0.9999999999999999
 40
0.9999999999999999
 10
122.0
 20
-7.801325586840179
 30
0.0
 10
120.959738055527
 20
-7.629999471887977
 30
0.0
 10
118.8788790668781
 20
-7.287292052681954
 30
0.0
 10
115.7569509315373
 20
-6.299300197924888
 30
0.0
 10
112.6343389504939
 20
-5.021111780366173
 30
0.0
 10
109.5115302438716
 20
-3.481470706210993
 30
0.0
 10
106.4075484330127
 20
-1.778061998530167
 30
0.0
 10
103.3228905879137
 20
0.0030238930623623
 30
0.0
 10
100.2574605137681
 20
1.773219843948482
 30
0.0
 10
97.19210314307303
 20
3.456789052823688
 30
0.0
 10
94.10754485113829
 20
4.981727747963792
 30
0.0
 10
91.00362872516982
 20
6.264900102926047
 30
0.0
 10
87.88082480874387
 20
7.251859662322655
 30
0.0
 10
84.758180756244
 20
7.824372553493355
 30
0.0
 10
82.65216999062855
 20
8.06410646251856
 30
0.0
 10
81.58718055544217
 20
7.996915284386366
 30
0.0
 10
81.56284161741387
 20
7.995379718054366
 30
0.0
  0
SPLINE
  5
C0
330
1F
100
AcDbEntity
  8
0
  6
Continuous
 62
     1
370
    25
100
AcDbSpline
210
0.0
220
0.0
230
1.0
 70
     8
 71
     3
 72
    19
 73
    15
 74
     0
 42
0.000000001
 43
0.00000001
 40
0.0
 40
0.0
 40
0.0
 40
0.0
 40
0.038859700152484
 40
0.129537997446947
 40
0.2202094219808628
 40
0.3218021520148144
 40
0.4140787143342719
 40
0.5063850017136334
 40
0.5987086208006183
 40
0.6910371076717848
 40
0.78335797855514
 40
0.8740144400727685
 40
0.9646481161016133
 40
1.0
 40
1.0
 40
1.0
 40
1.0
 10
45.82210787900028
 20
-6.728524054601442
 30
0.0
 10
45.38398802125057
 20
-6.872776559677245
 30
0.0
 10
43.92352464165828
 20
-7.353639267338428
 30
0.0
 10
41.44074618914079
 20
-7.810551193891136
 30
0.0
 10
38.25088214427193
 20
-8.076520852836746
 30
0.0
 10
35.04252515675518
 20
-7.886845747097404
 30
0.0
 10
31.8165426545812
 20
-7.269752451718771
 30
0.0
 10
28.69457328884242
 20
-6.30400588251635
 30
0.0
 10
25.57196902248215
 20
-5.019834488795075
 30
0.0
 10
22.44917070046938
 20
-3.481873502593835
 30
0.0
 10
19.34513993506524
 20
-1.777732470708985
 30
0.0
 10
16.26066434613023
 20
0.0021195968505831
 30
0.0
 10
13.81786082112285
 20
1.415799997918872
 30
0.0
 10
12.3983254176335
 20
2.203652690385227
 30
0.0
 10
12.0
 20
2.424726255714373
 30
0.0
  0
LINE
  5
C1
330
1F
100
AcDbEntity
  8
0
  6
Continuous
 62
     1
370
    25
100
AcDbLine
 10
122.0
 20
-8.000000000000028
 30
0.0
 11
122.0
 21
-7.801325586842111
 31
0.0
  0
SPLINE
  5
C2
330
1F
100
AcDbEntity
  8
0
  6
Continuous
 62
     1
370
    25
100
AcDbSpline
210
0.0
220
0.0
230
1.0
 70
     8
 71
     3
 72
    21
 73
    17
 74
     0
 42
0.000000001
 43
0.00000001
 40
0.0
 40
0.0
 40
0.0
 40
0.0
 40
0.071004907642382
 40
0.142006214379377
 40
0.2130019311830548
 40
0.2839900766886793
 40
0.3549686798927389
 40
0.4246831701330276
 40
0.4944036926290454
 40
0.5641293424881572
 40
0.6338592038557793
 40
0.7088991244201281
 40
0.7839451698946944
 40
0.8589871932457396
 40
0.9340150638398015
 40
1.0
 40
1.0
 40
1.0
 40
1.0
 10
11.99999999999998
 20
7.923147758754016
 30
0.0
 10
12.98484846507413
 20
7.809746525311931
 30
0.0
 10
14.95449545013749
 20
7.582949809398025
 30
0.0
 10
17.90883014942143
 20
6.803260747902046
 30
0.0
 10
20.86288576720181
 20
5.741305268321703
 30
0.0
 10
23.81656723951162
 20
4.412578149957541
 30
0.0
 10
26.75238525206635
 20
2.894917299688796
 30
0.0
 10
29.67058297067964
 20
1.258028052306106
 30
0.0
 10
32.57147187553387
 20
-0.4238606067371802
 30
0.0
 10
35.47264085026661
 20
-2.087271035812335
 30
0.0
 10
38.44750520371748
 20
-3.699611256709722
 30
0.0
 10
41.49666422777381
 20
-5.176780105026907
 30
0.0
 10
44.61945561914482
 20
-6.430554743946095
 30
0.0
 10
47.74206840336862
 20
-7.348949116548905
 30
0.0
 10
50.73889745216134
 20
-7.910700606054679
 30
0.0
 10
52.6946684092739
 20
-7.956946441457349
 30
0.0
 10
53.60984359597831
 20
-7.978586522007182
 30
0.0
  0
SPLINE
  5
C3
330
1F
100
AcDbEntity
  8
0
  6
Continuous
 62
     1
370
    25
100
AcDbSpline
210
0.0
220
0.0
230
1.0
 70
     8
 71
     3
 72
    19
 73
    15
 74
     0
 42
0.000000001
 43
0.00000001
 40
0.0
 40
0.0
 40
0.0
 40
0.0
 40
0.0540386256137368
 40
0.15093118802443
 40
0.2289272659145484
 40
0.306923064261001
 40
0.4002751541561443
 40
0.4936225098427017
 40
0.5869625162913699
 40
0.6802925685478575
 40
0.7736100752800549
 40
0.8652656181994707
 40
0.9569290918901219
 40
1.0
 40
1.0
 40
1.0
 40
1.0
 10
89.34920432360855
 20
6.727357747079042
 30
0.0
 10
89.91932633007993
 20
6.908872970261179
 30
0.0
 10
91.51169088003483
 20
7.415849377752108
 30
0.0
 10
93.92710702510867
 20
7.830323978494677
 30
0.0
 10
96.59435506842826
 20
8.03803649503354
 30
0.0
 10
99.22420708827464
 20
7.959915262366867
 30
0.0
 10
102.0169135345567
 20
7.566990007955736
 30
0.0
 10
104.9711864471401
 20
6.807539635652287
 30
0.0
 10
107.9252593958743
 20
5.740148010292494
 30
0.0
 10
110.8789333252233
 20
4.412928858134244
 30
0.0
 10
113.8147641032065
 20
2.894675069367759
 30
0.0
 10
116.7329190158273
 20
1.258640618920489
 30
0.0
 10
119.1212591288651
 20
-0.1283316071589358
 30
0.0
 10
120.5424178210813
 20
-0.9422986844000703
 30
0.0
 10
120.9967235047829
 20
-1.202501764859681
 30
0.0
  0
SPLINE
  5
C4
330
1F
100
AcDbEntity
  8
0
  6
Continuous
 62
     1
370
    25
100
AcDbSpline
210
0.0
220
0.0
230
1.0
 70
     8
 71
     3
 72
    13
 73
     9
 74
     0
 42
0.000000001
 43
0.00000001
 40
0.0
 40
0.0
 40
0.0
 40
0.0
 40
0.1671526920221895
 40
0.3343592289607759
 40
0.5015971611043174
 40
0.6688439109065334
 40
0.8360768648668464
 40
1.0
 40
1.0
 40
1.0
 40
1.0
 10
122.0
 20
1.771812373837188
 30
0.0
 10
120.9597380432334
 20
2.349000475400288
 30
0.0
 10
118.8788790299933
 20
3.503562608197726
 30
0.0
 10
115.7569510791433
 20
5.033547473679464
 30
0.0
 10
112.6343383968492
 20
6.317728943325706
 30
0.0
 10
109.5115323108467
 20
7.273064196849914
 30
0.0
 10
106.4093760126076
 20
7.886047306924212
 30
0.0
 10
104.3483701742025
 20
7.962035844503671
 30
0.0
 10
103.3281668631779
 20
7.999650370476324
 30
0.0
  0
SPLINE
  5
C5
330
1F
100
AcDbEntity
  8
0
  6
Continuous
 62
     1
370
    25
100
AcDbSpline
210
0.0
220
0.0
230
1.0
 70
     8
 71
     3
 72
    24
 73
    20
 74
     0
 42
0.000000001
 43
0.00000001
 40
0.0
 40
0.0
 40
0.0
 40
0.0
 40
0.0260917539138419
 40
0.086936465138673
 40
0.1477734532844038
 40
0.2085945259181809
 40
0.2693999065397578
 40
0.3302229087106292
 40
0.3899741748775032
 40
0.4497314141683169
 40
0.509489376501759
 40
0.5692428096129047
 40
0.6361934992030052
 40
0.697004735186396
 40
0.757835560300407
 40
0.8186778071940745
 40
0.8795232620092894
 40
0.9403636978075363
 40
1.0
 40
1.0
 40
1.0
 40
1.0
 10
67.58929564171243
 20
-6.727816731670922
 30
0.0
 10
67.14291699707675
 20
-6.87448290074631
 30
0.0
 10
65.65560489049477
 20
-7.363167499602691
 30
0.0
 10
63.12736924637879
 20
-7.823790081338384
 30
0.0
 10
60.00509171029514
 20
-8.070347295809313
 30
0.0
 10
56.88362450352671
 20
-7.889401454642321
 30
0.0
 10
53.76268857442915
 20
-7.314805586034696
 30
0.0
 10
50.65971434030639
 20
-6.374795919743425
 30
0.0
 10
47.57465615628789
 20
-5.125490334867102
 30
0.0
 10
44.50773963280893
 20
-3.633566945784424
 30
0.0
 10
41.44074827993389
 20
-1.964377633009523
 30
0.0
 10
38.25088151766202
 20
-0.1287147550367802
 30
0.0
 10
35.04252526907484
 20
1.729298491561272
 30
0.0
 10
31.81654277625464
 20
3.49951148939805
 30
0.0
 10
28.69457268921176
 20
5.034633317617887
 30
0.0
 10
25.57197129977657
 20
6.317438037462566
 30
0.0
 10
22.44916219091249
 20
7.273141818051542
 30
0.0
 10
19.34700668486266
 20
7.886028349710715
 30
0.0
 10
17.28600074244604
 20
7.962029567678227
 30
0.0
 10
16.26579737993552
 20
7.999650370476317
 30
0.0
  0
LINE
  5
C6
330
1F
100
AcDbEntity
  8
0
  6
Continuous
 62
     1
370
    25
100
AcDbLine
 10
122.0
 20
-0.5000000000000269
 30
0.0
 11
122.0
 21
1.771812373837343
 31
0.0
  0
LINE
  5
C7
330
1F
100
AcDbEntity
  8
0
  6
Continuous
 62
     1
370
    25
100
AcDbLine
 10
122.0
 20
-0.5000000000000234
 30
0.0
 11
120.9967235047829
 21
-1.202501764859681
 31
0.0
  0
SPLINE
  5
C8
330
1F
100
AcDbEntity
  8
0
  6
Continuous
 62
     4
370
    25
100
AcDbSpline
210
0.0
220
0.0
230
1.0
 70
    24
 71
     3
 72
    16
 73
    12
 74
     0
 42
0.000000001
 43
0.00000001
 40
0.0
 40
0.0
 40
0.0
 40
0.0
 40
0.1002227145727148
 40
0.2215418786663106
 40
0.3394419331915565
 40
0.4607610972851521
 40
0.5786611518103987
 40
0.6999803159039941
 40
0.8178803704292408
 40
0.9391995345228366
 40
1.0
 40
1.0
 40
1.0
 40
1.0
 10
12.0
 20
-1.408828172626433
 30
0.0
 10
12.0
 20
-1.499642605574165
 30
0.0
 10
12.0
 20
-1.700387518252208
 30
0.0
 10
12.0
 20
-2.182201750837145
 30
0.0
 10
12.0
 20
-2.807498668520127
 30
0.0
 10
12.0
 20
-3.541326277014304
 30
0.0
 10
12.0
 20
-4.370956137097313
 30
0.0
 10
12.0
 20
-5.259501906880088
 30
0.0
 10
12.0
 20
-6.196845676696146
 30
0.0
 10
12.0
 20
-6.990787269465548
 30
0.0
 10
12.0
 20
-7.465283413031274
 30
0.0
 10
12.0
 20
-7.623693500202609
 30
0.0
  0
SPLINE
  5
C9
330
1F
100
AcDbEntity
  8
0
  6
Continuous
 62
     1
370
    25
100
AcDbSpline
210
0.0
220
0.0
230
1.0
 70
     8
 71
     3
 72
    24
 73
    20
 74
     0
 42
0.000000001
 43
0.00000001
 40
0.0
 40
0.0
 40
0.0
 40
0.0
 40
0.0539147411633875
 40
0.110378846468209
 40
0.1668478374993915
 40
0.2233209813540211
 40
0.2797975362507341
 40
0.3405748862995794
 40
0.4013571971187652
 40
0.4621362502851266
 40
0.5229038406586324
 40
0.5836518109259156
 40
0.6433173224030186
 40
0.7029981421823512
 40
0.7626890690444124
 40
0.8223848713120803
 40
0.8831659333320082
 40
0.9439382817148669
 40
1.0
 40
1.0
 40
1.0
 40
1.0
 10
24.00024417421338
 20
6.742945291680611
 30
0.0
 10
24.92346963241507
 20
7.006618618613665
 30
0.0
 10
26.81357536059738
 20
7.546433093157953
 30
0.0
 10
29.6705817779124
 20
7.955668769731265
 30
0.0
 10
32.57147219328979
 20
8.04863485577876
 30
0.0
 10
35.47264077214142
 20
7.783351601407155
 30
0.0
 10
38.44750520027877
 20
7.1645844535068
 30
0.0
 10
41.49666433548094
 20
6.187752597387668
 30
0.0
 10
44.61945519440955
 20
4.874686191255577
 30
0.0
 10
47.74206999436857
 20
3.31516284459269
 30
0.0
 10
50.86398722497684
 20
1.588242704941178
 30
0.0
 10
53.96657665415855
 20
-0.2084380200501896
 30
0.0
 10
57.05049520679764
 20
-1.983325025548845
 30
0.0
 10
60.11654036611605
 20
-3.65092397575829
 30
0.0
 10
63.18319765620582
 20
-5.139948543869707
 30
0.0
 10
66.26871912443934
 20
-6.388293900261125
 30
0.0
 10
69.3728838226577
 20
-7.316975083475823
 30
0.0
 10
72.41470754477925
 20
-7.900755462556706
 30
0.0
 10
74.41544929207063
 20
-7.958071830159234
 30
0.0
 10
75.37548623503432
 20
-7.98557454529446
 30
0.0
  0
SPLINE
  5
CA
330
1F
100
AcDbEntity
  8
0
  6
Continuous
 62
     1
370
    25
100
AcDbSpline
210
0.0
220
0.0
230
1.0
 70
     8
 71
     3
 72
    11
 73
     7
 74
     0
 42
0.000000001
 43
0.00000001
 40
0.0
 40
0.0
 40
0.0
 40
0.0
 40
0.2787998432580373
 40
0.5707827660913896
 40
0.8627909536244188
 40
1.0
 40
1.0
 40
1.0
 40
1.0
 10
111.0626136574558
 20
6.742945291680607
 30
0.0
 10
111.9858417040642
 20
7.006833189939982
 30
0.0
 10
113.8759527314529
 20
7.547086953164388
 30
0.0
 10
116.732917961269
 20
7.952908306805094
 30
0.0
 10
119.1212592378559
 20
8.0402271625011
 30
0.0
 10
120.5424178474829
 20
7.940869837224897
 30
0.0
 10
120.9967235047829
 20
7.909108009472938
 30
0.0
  0
SPLINE
  5
CB
330
1F
100
AcDbEntity
  8
0
  6
Continuous
 62
     1
370
    25
100
AcDbSpline
210
0.0
220
0.0
230
1.0
 70
     8
 71
     3
 72
    20
 73
    16
 74
     0
 42
0.000000001
 43
0.00000001
 40
0.0
 40
0.0
 40
0.0
 40
0.0
 40
0.2500000000000009
 40
0.2500000000000009
 40
0.3750000000000008
 40
0.3750000000000008
 40
0.5000000000000007
 40
0.5000000000000007
 40
0.6250000000000006
 40
0.6250000000000006
 40
0.7500000000000003
 40
0.7500000000000003
 40
0.8750000000000002
 40
0.8750000000000002
 40
1.0
 40
1.0
 40
1.0
 40
1.0
 10
120.9967235047828
 20
7.909108009472952
 30
0.0
 10
120.9996650519819
 20
7.413100832431164
 30
0.0
 10
120.9523937572901
 20
6.927723577167953
 30
0.0
 10
120.781453429105
 20
6.220834489490256
 30
0.0
 10
120.7064011649774
 20
5.986906706860474
 30
0.0
 10
120.522870889773
 20
5.54787562702889
 30
0.0
 10
120.4142134972577
 20
5.340637516351549
 30
0.0
 10
120.1595837335688
 20
4.953282127139603
 30
0.0
 10
120.0156162591231
 20
4.777003447864917
 30
0.0
 10
119.7028522343252
 20
4.467865028908147
 30
0.0
 10
119.5312162951898
 20
4.33229567742532
 30
0.0
 10
119.1691840905797
 20
4.107026517678902
 30
0.0
 10
118.9809521225963
 20
4.018045592823285
 30
0.0
 10
118.5915274572868
 20
3.88256909889811
 30
0.0
 10
118.3898304053772
 20
3.836445033137176
 30
0.0
 10
118.1888097027595
 20
3.811190297240507
 30
0.0
  0
SPLINE
  5
CC
330
1F
100
AcDbEntity
  8
0
  6
Continuous
 62
     1
370
    25
100
AcDbSpline
210
0.0
220
0.0
230
1.0
 70
     8
 71
     3
 72
     8
 73
     4
 74
     0
 42
0.000000001
 43
0.00000001
 40
0.0
 40
0.0
 40
0.0
 40
0.0
 40
1.0
 40
1.0
 40
1.0
 40
1.0
 10
122.0
 20
1.954277833643304
 30
0.0
 10
120.6637391539341
 20
2.676629013086647
 30
0.0
 10
119.4023531383181
 20
3.281456547503832
 30
0.0
 10
118.1888097027595
 20
3.811190297240513
 30
0.0
  0
LINE
  5
CD
330
1F
100
AcDbEntity
  8
0
  6
Continuous
 62
     1
370
    25
100
AcDbLine
 10
122.0
 20
1.778871221332892
 30
0.0
 11
122.0
 21
1.954277833643304
 31
0.0
  0
SPLINE
  5
CE
330
1F
100
AcDbEntity
  8
0
  6
Continuous
 62
     4
370
    25
100
AcDbSpline
210
0.0
220
0.0
230
1.0
 70
    24
 71
     3
 72
    14
 73
    10
 74
     0
 42
0.000000001
 43
0.00000001
 40
0.0
 40
0.0
 40
0.0
 40
0.0
 40
0.2052054384490728
 40
0.3357778936838532
 40
0.4701369589660486
 40
0.6007094142008286
 40
0.735068479483024
 40
0.865640934717804
 40
1.0
 40
1.0
 40
1.0
 40
1.0
 10
12.0
 20
7.737541052919008
 30
0.0
 10
12.0
 20
7.248718908277338
 30
0.0
 10
12.0
 20
6.448858673800471
 30
0.0
 10
12.0
 20
5.41065942546485
 30
0.0
 10
12.0
 20
4.606936643656974
 30
0.0
 10
12.0
 20
3.890915872240591
 30
0.0
 10
12.0
 20
3.298877127368029
 30
0.0
 10
12.0
 20
2.823001310963142
 30
0.0
 10
12.0
 20
2.63194033311704
 30
0.0
 10
12.0
 20
2.535044447171828
 30
0.0
  0
SPLINE
  5
CF
330
1F
100
AcDbEntity
  8
0
  6
Continuous
 62
     1
370
    25
100
AcDbSpline
210
0.0
220
0.0
230
1.0
 70
     8
 71
     3
 72
     8
 73
     4
 74
     0
 42
0.000000001
 43
0.00000001
 40
0.0
 40
0.0
 40
0.0
 40
0.0
 40
1.0
 40
1.0
 40
1.0
 40
1.0
 10
122.0
 20
-5.869334219275755
 30
0.0
 10
120.6637391539341
 20
-5.118291190075182
 30
0.0
 10
119.4023531383181
 20
-4.197643585156662
 30
0.0
 10
118.1888097027595
 20
-3.168624175679525
 30
0.0
  0
LINE
  5
D0
330
1F
100
AcDbEntity
  8
0
  6
Continuous
 62
     1
370
    25
100
AcDbLine
 10
122.0
 20
-7.801325586842111
 30
0.0
 11
122.0
 21
-5.869334219275752
 31
0.0
  0
LINE
  5
D1
330
1F
100
AcDbEntity
  8
0
  6
Continuous
 62
     1
370
    25
100
AcDbLine
 10
120.9967235047828
 20
-1.202501764859682
 30
0.0
 11
120.9865512758785
 21
-1.209624436218923
 31
0.0
  0
SPLINE
  5
D2
330
1F
100
AcDbEntity
  8
0
  6
Continuous
 62
     1
370
    25
100
AcDbSpline
210
0.0
220
0.0
230
1.0
 70
    24
 71
     3
 72
    12
 73
     8
 74
     0
 42
0.000000001
 43
0.00000001
 40
0.0
 40
0.0
 40
0.0
 40
0.0
 40
0.131365136410629
 40
0.3914377273819804
 40
0.6521687675293243
 40
0.902049196530786
 40
1.0
 40
1.0
 40
1.0
 40
1.0
 10
120.8739652455995
 20
-1.288458023317379
 30
0.0
 10
120.8355808599339
 20
-1.315335059509958
 30
0.0
 10
120.7212042673126
 20
-1.395422411858151
 30
0.0
 10
120.2712121238085
 20
-1.710510302874865
 30
0.0
 10
119.4983050451107
 20
-2.251705665714721
 30
0.0
 10
118.7536984040521
 20
-2.773084848784951
 30
0.0
 10
118.3129315778046
 20
-3.081713103116214
 30
0.0
 10
118.1888097027594
 20
-3.168624175679535
 30
0.0
  0
SPLINE
  5
D3
330
1F
100
AcDbEntity
  8
0
  6
Continuous
 62
     1
370
    25
100
AcDbSpline
210
0.0
220
0.0
230
1.0
 70
     8
 71
     3
 72
    25
 73
    21
 74
     0
 42
0.000000001
 43
0.00000001
 40
0.0
 40
0.0
 40
0.0
 40
0.0
 40
0.0286132455652062
 40
0.0894639425252003
 40
0.1503041614767831
 40
0.2111257269847466
 40
0.2708585319260507
 40
0.3306070278487814
 40
0.3903663809900199
 40
0.4501313569355968
 40
0.5109837292618069
 40
0.5718283775364856
 40
0.6326571082952508
 40
0.6934701450659976
 40
0.7543008056048097
 40
0.8140595951948113
 40
0.8738243586608428
 40
0.9335898452605428
 40
0.9933508020676614
 40
0.9999999999999999
 40
0.9999999999999999
 40
0.9999999999999999
 40
0.9999999999999999
 10
89.34920432360843
 20
-6.727357747079045
 30
0.0
 10
88.85973389390087
 20
-6.886909239975772
 30
0.0
 10
87.32932538811461
 20
-7.385772801531335
 30
0.0
 10
84.75816555018073
 20
-7.84259108360072
 30
0.0
 10
81.63614057781498
 20
-8.071011562466305
 30
0.0
 10
78.53345857801791
 20
-7.873850211049477
 30
0.0
 10
75.44960427983105
 20
-7.29313347428042
 30
0.0
 10
72.38366249180586
 20
-6.359030412888824
 30
0.0
 10
69.31707443090062
 20
-5.115085675161712
 30
0.0
 10
66.23157490304283
 20
-3.61247321691385
 30
0.0
 10
63.12737242420275
 20
-1.920438571847529
 30
0.0
 10
60.00509085866382
 20
-0.1212796784972933
 30
0.0
 10
56.88362473320529
 20
1.683952526840113
 30
0.0
 10
53.76268850698707
 20
3.404149099954399
 30
0.0
 10
50.65971437972619
 20
4.943594852908646
 30
0.0
 10
47.57465606655209
 20
6.225572910398192
 30
0.0
 10
44.50773995313442
 20
7.208241860127941
 30
0.0
 10
41.44074708840406
 20
7.794673436266985
 30
0.0
 10
39.28249559472333
 20
8.057149506911692
 30
0.0
 10
38.14644801194484
 20
7.985266223549184
 30
0.0
 10
38.03270328016271
 20
7.978069038405152
 30
0.0
  0
LINE
  5
D4
330
1F
100
AcDbEntity
  8
0
  6
Continuous
 62
     1
370
    25
100
AcDbLine
 10
122.0
 20
7.984359711335671
 30
0.0
 11
122.0
 21
8.000000000000014
 31
0.0
  0
ELLIPSE
  5
D5
330
1F
100
AcDbEntity
  8
0
  6
Continuous
 62
     1
370
    25
100
AcDbEllipse
 10
122.7140740033711
 20
-0.0000000000000058
 30
0.0
 11
11.4251840539369
 21
5.350968460038300E-17
 31
0.0
210
0.0
220
0.0
230
1.0
 40
0.7002075382097115
 41
1.633337088591388
 42
1.721680906384336
  0
LINE
  5
D6
330
1F
100
AcDbEntity
  8
0
  6
Continuous
 62
     1
370
    25
100
AcDbLine
 10
122.0
 20
-0.499999999999999
 30
0.0
 11
122.0
 21
-5.869334219275755
 31
0.0
  0
LINE
  5
D7
330
1F
100
AcDbEntity
  8
0
  6
Continuous
 62
     1
370
    25
100
AcDbLine
 10
122.0
 20
1.954277833643304
 30
0.0
 11
122.0
 21
7.984359711335671
 31
0.0
  0
LINE
  5
D8
330
1F
100
AcDbEntity
  8
중심선
100
AcDbLine
 10
-80.99999999999999
 20
-0.000000000000011
 30
0.0
 11
129.0
 21
0.0000000000000147
 31
0.0
  0
CIRCLE
  5
D9
330
1F
100
AcDbEntity
  8
해칭선
100
AcDbCircle
 10
0.0001395467019941
 20
-0.0000000000000042
 30
0.0
 40
3.0
  0
INSERT
  5
DA
330
1F
100
AcDbEntity
  8
0
  6
Continuous
 62
     7
100
AcDbBlockReference
 66
     1
  2
블럭10
 10
7.559900751058214
 20
-52.04717430164393
 30
0.0
  0
ATTRIB
  5
DB
330
DA
100
AcDbEntity
  8
FORMAT
 62
     2
100
AcDbText
 10
-10.13902121066624
 20
-49.97180738881174
 30
0.0
 40
4.233333333333333
  1
SEME72160110E [ 4 FLUTE ]
 41
0.75
  7
SLDTEXTSTYLE0
 11
-10.13902121066624
 21
-52.08847405547841
 31
0.0
100
AcDbAttribute
  2
AUTOATTR0
 70
     0
 74
     1
  0
SEQEND
  5
DC
330
DA
100
AcDbEntity
  8
0
  6
Continuous
 62
     7
  0
HATCH
  5
DD
330
1F
100
AcDbEntity
  8
중심선
100
AcDbHatch
 10
0.0
 20
0.0
 30
0.0
210
0.0
220
0.0
230
1.0
  2
SOLID
 70
     1
 71
     0
 91
        1
 92
        0
 93
        4
 72
     1
 10
13.27481005543907
 20
-35.8
 11
9.828534811601786
 21
-35.8
 72
     1
 10
9.828534811601786
 20
-35.8
 11
7.700304952397763
 21
-38.33632558057257
 72
     1
 10
7.700304952397763
 20
-38.33632558057257
 11
11.14661328134819
 21
-38.33628615127008
 72
     1
 10
11.14661328134819
 20
-38.33628615127008
 11
13.27481005543907
 21
-35.8
 97
        0
 75
     0
 76
     1
 98
        1
 10
0.0
 20
0.0
  0
HATCH
  5
DE
330
1F
100
AcDbEntity
  8
중심선
100
AcDbHatch
 10
0.0
 20
0.0
 30
0.0
210
0.0
220
0.0
230
1.0
  2
SOLID
 70
     1
 71
     0
 91
        1
 92
        0
 93
        4
 72
     1
 10
18.28757404647508
 20
-35.8
 11
14.84129880263782
 21
-35.79999999999997
 72
     1
 10
14.84129880263782
 20
-35.79999999999997
 11
10.31016079428035
 21
-41.20000000000002
 72
     1
 10
10.31016079428035
 20
-41.20000000000002
 11
13.75643603811763
 21
-41.20000000000002
 72
     1
 10
13.75643603811763
 20
-41.20000000000002
 11
18.28757404647508
 21
-35.8
 97
        0
 75
     0
 76
     1
 98
        1
 10
0.0
 20
0.0
  0
HATCH
  5
DF
330
1F
100
AcDbEntity
  8
중심선
100
AcDbHatch
 10
0.0
 20
0.0
 30
0.0
210
0.0
220
0.0
230
1.0
  2
SOLID
 70
     1
 71
     0
 91
        1
 92
        0
 93
        4
 72
     1
 10
23.30033803751094
 20
-35.8
 11
19.85406279367383
 21
-35.79999999999997
 72
     1
 10
19.85406279367383
 20
-35.79999999999997
 11
12.80562589178455
 21
-44.20000000000002
 72
     1
 10
12.80562589178455
 20
-44.20000000000002
 11
16.25190113562183
 21
-44.20000000000002
 72
     1
 10
16.25190113562183
 20
-44.20000000000002
 11
23.30033803751094
 21
-35.8
 97
        0
 75
     0
 76
     1
 98
        1
 10
0.0
 20
0.0
  0
HATCH
  5
E0
330
1F
100
AcDbEntity
  8
중심선
100
AcDbHatch
 10
0.0
 20
0.0
 30
0.0
210
0.0
220
0.0
230
1.0
  2
SOLID
 70
     1
 71
     0
 91
        1
 92
        0
 93
        6
 72
     3
 10
28.10022846852308
 20
-40.00000000005127
 11
3.960054785062284
 21
1.540850780301639E-10
 40
0.3939339440162633
 50
17.09539180608419
 51
320.0019657685094
 73
     0
 72
     1
 10
29.78322812422376
 20
-38.5878940046383
 11
32.08852999792474
 21
-36.65356729459038
 72
     3
 10
28.10022846847024
 20
-40.00000000000015
 11
6.600054785286829
 21
-1.249000902703301E-13
 40
0.6363583540795982
 50
39.99873849337388
 51
368.4976242363725
 73
     1
 72
     1
 10
34.52556096037087
 20
-39.03999999993002
 11
26.78029577530619
 21
-39.03999999993002
 72
     1
 10
26.78029577530619
 20
-39.03999999993002
 11
26.78027073086023
 21
-40.95999999992991
 72
     1
 10
26.78027073086023
 20
-40.95999999992991
 11
31.22165050033229
 21
-40.95999999992988
 97
        0
 75
     0
 76
     1
 98
        1
 10
0.0
 20
0.0
  0
DIMENSION
  5
E1
330
1F
100
AcDbEntity
  8
치수문자_일반주서
100
AcDbDimension
  2
_D
 10
135.8715755223647
 20
8.000000000000057
 30
0.0
 11
135.8715755223647
 21
19.87064553160905
 31
0.0
 70
   160
  1
%%c<>
 71
     2
 42
16.00000000000002
 52
-270.0
  3
SLDDIMSTYLE0
100
AcDbAlignedDimension
 13
122.0
 23
-8.00000000000002
 33
0.0
 14
122.0
 24
8.000000000000005
 34
0.0
 50
90.0000000000002
100
AcDbRotatedDimension
  0
DIMENSION
  5
EF
330
1F
100
AcDbEntity
  8
치수문자_일반주서
100
AcDbDimension
  2
_D_1
 10
122.0
 20
25.38913260158163
 30
0.0
 11
21.99999999999998
 21
25.38913260158163
 31
0.0
 70
   160
  1
<>
 71
     2
 42
200.0
  3
SLDDIMSTYLE1
100
AcDbAlignedDimension
 13
-78.00000000000001
 23
7.499999999999984
 33
0.0
 14
122.0
 24
8.000000000000014
 34
0.0
 50
-0.0000000000000051
100
AcDbRotatedDimension
  0
DIMENSION
  5
FA
330
1F
100
AcDbEntity
  8
치수문자_일반주서
100
AcDbDimension
  2
_D_2
 10
-93.49819220300463
 20
-8.000000000000075
 30
0.0
 11
-93.49819220300473
 21
18.54149999999994
 31
0.0
 70
   160
  1
%%c<>
 71
     2
 42
16.00000000000001
 52
-270.0
  3
SLDDIMSTYLE2
100
AcDbAlignedDimension
 13
-77.50000000000001
 23
8.0
 33
0.0
 14
-77.50000000000001
 24
-8.000000000000014
 34
0.0
 50
90.0000000000002
100
AcDbRotatedDimension
  0
DIMENSION
  5
108
330
1F
100
AcDbEntity
  8
치수문자_일반주서
100
AcDbDimension
  2
_D_3
 10
122.0
 20
18.76906606134175
 30
0.0
 11
67.0
 21
18.76906606134175
 31
0.0
 70
   160
  1
<>
 71
     2
 42
110.0
  3
SLDDIMSTYLE1
100
AcDbAlignedDimension
 13
12.0
 23
7.923147758754103
 33
0.0
 14
122.0
 24
8.000000000000014
 34
0.0
 50
-0.0000000000000037
100
AcDbRotatedDimension
  0
INSERT
  5
118
330
1F
100
AcDbEntity
  8
해칭선
100
AcDbBlockReference
  2
SW_DOWELSYMBOL_0
 10
0.0001395467019941
 20
-0.0000000000000042
 30
0.0
  0
ENDSEC
  0
SECTION
  2
OBJECTS
  0
DICTIONARY
  5
C
330
0
100
AcDbDictionary
281
     1
  3
ACAD_GROUP
350
D
  3
ACAD_IMAGE_VARS
350
13C
  3
ACAD_LAYOUT
350
1A
  3
ACAD_MLINESTYLE
350
17
  3
ACAD_PLOTSETTINGS
350
19
  3
ACAD_PLOTSTYLENAME
350
E
  3
ACAD_SCALELIST
350
47
  3
APPDATA
350
13A
  3
DWGPROPS
350
14B
  0
DICTIONARY
  5
D
102
{ACAD_REACTORS
330
C
102
}
330
C
100
AcDbDictionary
281
     1
  0
RASTERVARIABLES
  5
13C
102
{ACAD_REACTORS
330
C
102
}
330
C
100
AcDbRasterVariables
 90
        0
 70
     1
 71
     1
 72
     1
  0
DICTIONARY
  5
1A
102
{ACAD_REACTORS
330
C
102
}
330
C
100
AcDbDictionary
281
     1
  3
Layout1
350
1E
  3
Layout2
350
26
  3
Model
350
22
  0
DICTIONARY
  5
17
102
{ACAD_REACTORS
330
C
102
}
330
C
100
AcDbDictionary
281
     1
  3
Standard
350
18
  0
DICTIONARY
  5
19
102
{ACAD_REACTORS
330
C
102
}
330
C
100
AcDbDictionary
281
     1
  0
ACDBDICTIONARYWDFLT
  5
E
102
{ACAD_REACTORS
330
C
102
}
330
C
100
AcDbDictionary
281
     1
  3
Normal
350
F
100
AcDbDictionaryWithDefault
340
F
  0
DICTIONARY
  5
47
102
{ACAD_REACTORS
330
C
102
}
330
C
100
AcDbDictionary
281
     1
  3
A0
350
48
  3
A1
350
49
  3
A2
350
4A
  3
A3
350
4B
  3
A4
350
4C
  3
A5
350
4D
  3
A6
350
4E
  3
A7
350
4F
  3
A8
350
50
  3
A9
350
51
  3
B0
350
52
  3
B1
350
53
  3
B2
350
54
  3
B3
350
55
  3
B4
350
56
  3
B5
350
57
  3
B6
350
58
  3
B7
350
59
  3
B8
350
5A
  3
B9
350
5B
  3
C0
350
5C
  3
C1
350
5D
  3
C2
350
5E
  3
C3
350
5F
  3
C4
350
60
  3
C5
350
61
  3
C6
350
62
  3
C7
350
63
  3
C8
350
64
  3
C9
350
65
  3
D0
350
66
  3
D1
350
67
  3
D2
350
68
  0
DICTIONARY
  5
13A
102
{ACAD_REACTORS
330
C
102
}
330
C
100
AcDbDictionary
281
     1
  0
XRECORD
  5
14B
102
{ACAD_REACTORS
330
C
102
}
330
C
100
AcDbXrecord
280
     1
  1
DWGPROPS COOKIE
  2

  3

  4

  6

  7

  8
12014102
  9

300
=
301
=
302
=
303
=
304
=
305
=
306
=
307
=
308
=
309
=
 40
0.0
 41
2458260.207695671
 42
2458268.235336944
  1

 90
        0
  0
LAYOUT
  5
1E
102
{ACAD_REACTORS
330
1A
102
}
330
1A
100
AcDbPlotSettings
  1

  2
none_device
  4

  6

 40
0.0
 41
0.0
 42
0.0
 43
0.0
 44
0.0
 45
0.0
 46
0.0
 47
0.0
 48
0.0
 49
0.0
140
0.0
141
0.0
142
1.0
143
1.0
 70
   688
 72
     1
 73
     0
 74
     5
  7

 75
    16
147
1.0
148
0.0
149
0.0
100
AcDbLayout
  1
Layout1
 70
     1
 71
     1
 10
0.0
 20
0.0
 11
420.0
 21
297.0
 12
0.0
 22
0.0
 32
0.0
 14
1.000000000000000E+20
 24
1.000000000000000E+20
 34
1.000000000000000E+20
 15
-1.000000000000000E+20
 25
-1.000000000000000E+20
 35
-1.000000000000000E+20
146
0.0
 13
0.0
 23
0.0
 33
0.0
 16
1.0
 26
0.0
 36
0.0
 17
0.0
 27
1.0
 37
0.0
 76
     0
330
1B
  0
LAYOUT
  5
26
102
{ACAD_REACTORS
330
1A
102
}
330
1A
100
AcDbPlotSettings
  1

  2
none_device
  4

  6

 40
0.0
 41
0.0
 42
0.0
 43
0.0
 44
0.0
 45
0.0
 46
0.0
 47
0.0
 48
0.0
 49
0.0
140
0.0
141
0.0
142
1.0
143
1.0
 70
   688
 72
     1
 73
     0
 74
     5
  7

 75
    16
147
1.0
148
0.0
149
0.0
100
AcDbLayout
  1
Layout2
 70
     1
 71
     2
 10
0.0
 20
0.0
 11
0.0
 21
0.0
 12
0.0
 22
0.0
 32
0.0
 14
0.0
 24
0.0
 34
0.0
 15
0.0
 25
0.0
 35
0.0
146
0.0
 13
0.0
 23
0.0
 33
0.0
 16
1.0
 26
0.0
 36
0.0
 17
0.0
 27
1.0
 37
0.0
 76
     0
330
23
  0
LAYOUT
  5
22
102
{ACAD_REACTORS
330
1A
102
}
330
1A
100
AcDbPlotSettings
  1

  2
none_device
  4
ANSI_A_(11.00_x_8.50_Inches)
  6

 40
6.35
 41
19.05
 42
6.35000508
 43
19.05000254
 44
279.4
 45
215.9
 46
108.7663371164187
 47
101.1572174858553
 48
0.0
 49
0.0
140
0.0
141
0.0
142
0.0463675140258003
143
1.0
 70
  1696
 72
     0
 73
     0
 74
     0
  7

 75
     0
147
0.0235690232323232
148
0.0
149
0.0
100
AcDbLayout
  1
Model
 70
     1
 71
     0
 10
0.0
 20
0.0
 11
420.0
 21
297.0
 12
0.0
 22
0.0
 32
0.0
 14
-97.87319220300475
 24
-49.97180738881174
 34
0.0
 15
136.4219088556981
 25
29.76413260158163
 35
0.0
146
0.0
 13
0.0
 23
0.0
 33
0.0
 16
1.0
 26
0.0
 36
0.0
 17
0.0
 27
1.0
 37
0.0
 76
     0
330
1F
331
29
  0
MLINESTYLE
  5
18
102
{ACAD_REACTORS
330
17
102
}
330
17
100
AcDbMlineStyle
  2
Standard
 70
     0
  3

 62
   256
 51
90.0
 52
90.0
 71
     2
 49
0.5
 62
   256
  6
BYLAYER
 49
-0.5
 62
   256
  6
BYLAYER
  0
ACDBPLACEHOLDER
  5
F
102
{ACAD_REACTORS
330
E
102
}
330
E
  0
SCALE
  5
48
102
{ACAD_REACTORS
330
47
102
}
330
47
100
AcDbScale
 70
     0
300
1:1
140
1.0
141
1.0
290
     1
  0
SCALE
  5
49
102
{ACAD_REACTORS
330
47
102
}
330
47
100
AcDbScale
 70
     0
300
1:2
140
1.0
141
2.0
290
     0
  0
SCALE
  5
4A
102
{ACAD_REACTORS
330
47
102
}
330
47
100
AcDbScale
 70
     0
300
1:4
140
1.0
141
4.0
290
     0
  0
SCALE
  5
4B
102
{ACAD_REACTORS
330
47
102
}
330
47
100
AcDbScale
 70
     0
300
1:5
140
1.0
141
5.0
290
     0
  0
SCALE
  5
4C
102
{ACAD_REACTORS
330
47
102
}
330
47
100
AcDbScale
 70
     0
300
1:8
140
1.0
141
8.0
290
     0
  0
SCALE
  5
4D
102
{ACAD_REACTORS
330
47
102
}
330
47
100
AcDbScale
 70
     0
300
1:10
140
1.0
141
10.0
290
     0
  0
SCALE
  5
4E
102
{ACAD_REACTORS
330
47
102
}
330
47
100
AcDbScale
 70
     0
300
1:16
140
1.0
141
16.0
290
     0
  0
SCALE
  5
4F
102
{ACAD_REACTORS
330
47
102
}
330
47
100
AcDbScale
 70
     0
300
1:20
140
1.0
141
20.0
290
     0
  0
SCALE
  5
50
102
{ACAD_REACTORS
330
47
102
}
330
47
100
AcDbScale
 70
     0
300
1:30
140
1.0
141
30.0
290
     0
  0
SCALE
  5
51
102
{ACAD_REACTORS
330
47
102
}
330
47
100
AcDbScale
 70
     0
300
1:40
140
1.0
141
40.0
290
     0
  0
SCALE
  5
52
102
{ACAD_REACTORS
330
47
102
}
330
47
100
AcDbScale
 70
     0
300
1:50
140
1.0
141
50.0
290
     0
  0
SCALE
  5
53
102
{ACAD_REACTORS
330
47
102
}
330
47
100
AcDbScale
 70
     0
300
1:100
140
1.0
141
100.0
290
     0
  0
SCALE
  5
54
102
{ACAD_REACTORS
330
47
102
}
330
47
100
AcDbScale
 70
     0
300
2:1
140
2.0
141
1.0
290
     0
  0
SCALE
  5
55
102
{ACAD_REACTORS
330
47
102
}
330
47
100
AcDbScale
 70
     0
300
4:1
140
4.0
141
1.0
290
     0
  0
SCALE
  5
56
102
{ACAD_REACTORS
330
47
102
}
330
47
100
AcDbScale
 70
     0
300
8:1
140
8.0
141
1.0
290
     0
  0
SCALE
  5
57
102
{ACAD_REACTORS
330
47
102
}
330
47
100
AcDbScale
 70
     0
300
10:1
140
10.0
141
1.0
290
     0
  0
SCALE
  5
58
102
{ACAD_REACTORS
330
47
102
}
330
47
100
AcDbScale
 70
     0
300
100:1
140
100.0
141
1.0
290
     0
  0
SCALE
  5
59
102
{ACAD_REACTORS
330
47
102
}
330
47
100
AcDbScale
 70
     0
300
1/128" = 1'-0"
140
0.0078125
141
12.0
290
     0
  0
SCALE
  5
5A
102
{ACAD_REACTORS
330
47
102
}
330
47
100
AcDbScale
 70
     0
300
1/64" = 1'-0"
140
0.015625
141
12.0
290
     0
  0
SCALE
  5
5B
102
{ACAD_REACTORS
330
47
102
}
330
47
100
AcDbScale
 70
     0
300
1/32" = 1'-0"
140
0.03125
141
12.0
290
     0
  0
SCALE
  5
5C
102
{ACAD_REACTORS
330
47
102
}
330
47
100
AcDbScale
 70
     0
300
1/16" = 1'-0"
140
0.0625
141
12.0
290
     0
  0
SCALE
  5
5D
102
{ACAD_REACTORS
330
47
102
}
330
47
100
AcDbScale
 70
     0
300
3/32" = 1'-0"
140
0.09375
141
12.0
290
     0
  0
SCALE
  5
5E
102
{ACAD_REACTORS
330
47
102
}
330
47
100
AcDbScale
 70
     0
300
1/8" = 1'-0"
140
0.125
141
12.0
290
     0
  0
SCALE
  5
5F
102
{ACAD_REACTORS
330
47
102
}
330
47
100
AcDbScale
 70
     0
300
3/16" = 1'-0"
140
0.1875
141
12.0
290
     0
  0
SCALE
  5
60
102
{ACAD_REACTORS
330
47
102
}
330
47
100
AcDbScale
 70
     0
300
1/4" = 1'-0"
140
0.25
141
12.0
290
     0
  0
SCALE
  5
61
102
{ACAD_REACTORS
330
47
102
}
330
47
100
AcDbScale
 70
     0
300
3/8" = 1'-0"
140
0.375
141
12.0
290
     0
  0
SCALE
  5
62
102
{ACAD_REACTORS
330
47
102
}
330
47
100
AcDbScale
 70
     0
300
1/2" = 1'-0"
140
0.5
141
12.0
290
     0
  0
SCALE
  5
63
102
{ACAD_REACTORS
330
47
102
}
330
47
100
AcDbScale
 70
     0
300
3/4" = 1'-0"
140
0.75
141
12.0
290
     0
  0
SCALE
  5
64
102
{ACAD_REACTORS
330
47
102
}
330
47
100
AcDbScale
 70
     0
300
1" = 1'-0"
140
1.0
141
12.0
290
     0
  0
SCALE
  5
65
102
{ACAD_REACTORS
330
47
102
}
330
47
100
AcDbScale
 70
     0
300
1-1/2" = 1'-0"
140
1.5
141
12.0
290
     0
  0
SCALE
  5
66
102
{ACAD_REACTORS
330
47
102
}
330
47
100
AcDbScale
 70
     0
300
3" = 1'-0"
140
3.0
141
12.0
290
     0
  0
SCALE
  5
67
102
{ACAD_REACTORS
330
47
102
}
330
47
100
AcDbScale
 70
     0
300
6" = 1'-0"
140
6.0
141
12.0
290
     0
  0
SCALE
  5
68
102
{ACAD_REACTORS
330
47
102
}
330
47
100
AcDbScale
 70
     0
300
1'-0" = 1'-0"
140
12.0
141
12.0
290
     0
  0
ENDSEC
  0
EOF
