  0
SECTION
  2
HEADER
  9
$ACADVER
  1
AC1015
  9
$ACADMAINTVER
 70
     6
  9
$DWGCODEPAGE
  3
ANSI_949
  9
$INSBASE
 10
0.0
 20
0.0
 30
0.0
  9
$EXTMIN
 10
-104.7028278943612
 20
-49.97180738881174
 30
0.0
  9
$EXTMAX
 10
80.58636767049182
 20
29.76413260158165
 30
0.0
  9
$LIMMIN
 10
0.0
 20
0.0
  9
$LIMMAX
 10
420.0
 20
297.0
  9
$ORTHOMODE
 70
     1
  9
$REGENMODE
 70
     1
  9
$FILLMODE
 70
     1
  9
$QTEXTMODE
 70
     0
  9
$MIRRTEXT
 70
     1
  9
$LTSCALE
 40
1.0
  9
$ATTMODE
 70
     1
  9
$TEXTSIZE
 40
3.5
  9
$TRACEWID
 40
1.0
  9
$TEXTSTYLE
  7
Standard
  9
$CLAYER
  8
0
  9
$CELTYPE
  6
ByLayer
  9
$CECOLOR
 62
   256
  9
$CELTSCALE
 40
1.0
  9
$DISPSILH
 70
     0
  9
$DIMSCALE
 40
1.0
  9
$DIMASZ
 40
3.302
  9
$DIMEXO
 40
1.0
  9
$DIMDLI
 40
3.75
  9
$DIMRND
 40
0.0
  9
$DIMDLE
 40
0.0
  9
$DIMEXE
 40
1.0
  9
$DIMTP
 40
0.0
  9
$DIMTM
 40
0.0
  9
$DIMTXT
 40
3.5
  9
$DIMCEN
 40
2.5
  9
$DIMTSZ
 40
0.0
  9
$DIMTOL
 70
     0
  9
$DIMLIM
 70
     0
  9
$DIMTIH
 70
     1
  9
$DIMTOH
 70
     1
  9
$DIMSE1
 70
     0
  9
$DIMSE2
 70
     0
  9
$DIMTAD
 70
     1
  9
$DIMZIN
 70
     0
  9
$DIMBLK
  1

  9
$DIMASO
 70
     1
  9
$DIMSHO
 70
     1
  9
$DIMPOST
  1

  9
$DIMAPOST
  1

  9
$DIMALT
 70
     0
  9
$DIMALTD
 70
     3
  9
$DIMALTF
 40
0.0393700787401575
  9
$DIMLFAC
 40
1.0
  9
$DIMTOFL
 70
     1
  9
$DIMTVP
 40
0.0
  9
$DIMTIX
 70
     0
  9
$DIMSOXD
 70
     0
  9
$DIMSAH
 70
     0
  9
$DIMBLK1
  1

  9
$DIMBLK2
  1

  9
$DIMSTYLE
  2
ISO-25
  9
$DIMCLRD
 70
     0
  9
$DIMCLRE
 70
     0
  9
$DIMCLRT
 70
     0
  9
$DIMTFAC
 40
1.0
  9
$DIMGAP
 40
1.524
  9
$DIMJUST
 70
     0
  9
$DIMSD1
 70
     0
  9
$DIMSD2
 70
     0
  9
$DIMTOLJ
 70
     0
  9
$DIMTZIN
 70
     0
  9
$DIMALTZ
 70
     0
  9
$DIMALTTZ
 70
     0
  9
$DIMUPT
 70
     0
  9
$DIMDEC
 70
     2
  9
$DIMTDEC
 70
     2
  9
$DIMALTU
 70
     2
  9
$DIMALTTD
 70
     3
  9
$DIMTXSTY
  7
Standard
  9
$DIMAUNIT
 70
     0
  9
$DIMADEC
 70
     2
  9
$DIMALTRND
 40
0.0
  9
$DIMAZIN
 70
     0
  9
$DIMDSEP
 70
    44
  9
$DIMATFIT
 70
     3
  9
$DIMFRAC
 70
     0
  9
$DIMLDRBLK
  1

  9
$DIMLUNIT
 70
     2
  9
$DIMLWD
 70
    -2
  9
$DIMLWE
 70
    -2
  9
$DIMTMOVE
 70
     0
  9
$LUNITS
 70
     2
  9
$LUPREC
 70
     2
  9
$SKETCHINC
 40
1.0
  9
$FILLETRAD
 40
10.0
  9
$AUNITS
 70
     0
  9
$AUPREC
 70
     2
  9
$MENU
  1
.
  9
$ELEVATION
 40
0.0
  9
$PELEVATION
 40
0.0
  9
$THICKNESS
 40
0.0
  9
$LIMCHECK
 70
     0
  9
$CHAMFERA
 40
0.0
  9
$CHAMFERB
 40
0.0
  9
$CHAMFERC
 40
0.0
  9
$CHAMFERD
 40
0.0
  9
$SKPOLY
 70
     0
  9
$TDCREATE
 40
2458260.582506806
  9
$TDUCREATE
 40
2458260.207506806
  9
$TDUPDATE
 40
2459677.587357755
  9
$TDUUPDATE
 40
2459677.212357755
  9
$TDINDWG
 40
0.0043034722
  9
$TDUSRTIMER
 40
0.0037545718
  9
$USRTIMER
 70
     1
  9
$ANGBASE
 50
0.0
  9
$ANGDIR
 70
     0
  9
$PDMODE
 70
     0
  9
$PDSIZE
 40
-1.0
  9
$PLINEWID
 40
0.0
  9
$SPLFRAME
 70
     0
  9
$SPLINETYPE
 70
     6
  9
$SPLINESEGS
 70
     8
  9
$HANDSEED
  5
17F
  9
$SURFTAB1
 70
     6
  9
$SURFTAB2
 70
     6
  9
$SURFTYPE
 70
     6
  9
$SURFU
 70
     6
  9
$SURFV
 70
     6
  9
$UCSBASE
  2

  9
$UCSNAME
  2

  9
$UCSORG
 10
0.0
 20
0.0
 30
0.0
  9
$UCSXDIR
 10
1.0
 20
0.0
 30
0.0
  9
$UCSYDIR
 10
0.0
 20
1.0
 30
0.0
  9
$UCSORTHOREF
  2

  9
$UCSORTHOVIEW
 70
     0
  9
$UCSORGTOP
 10
0.0
 20
0.0
 30
0.0
  9
$UCSORGBOTTOM
 10
0.0
 20
0.0
 30
0.0
  9
$UCSORGLEFT
 10
0.0
 20
0.0
 30
0.0
  9
$UCSORGRIGHT
 10
0.0
 20
0.0
 30
0.0
  9
$UCSORGFRONT
 10
0.0
 20
0.0
 30
0.0
  9
$UCSORGBACK
 10
0.0
 20
0.0
 30
0.0
  9
$PUCSBASE
  2

  9
$PUCSNAME
  2

  9
$PUCSORG
 10
0.0
 20
0.0
 30
0.0
  9
$PUCSXDIR
 10
1.0
 20
0.0
 30
0.0
  9
$PUCSYDIR
 10
0.0
 20
1.0
 30
0.0
  9
$PUCSORTHOREF
  2

  9
$PUCSORTHOVIEW
 70
     0
  9
$PUCSORGTOP
 10
0.0
 20
0.0
 30
0.0
  9
$PUCSORGBOTTOM
 10
0.0
 20
0.0
 30
0.0
  9
$PUCSORGLEFT
 10
0.0
 20
0.0
 30
0.0
  9
$PUCSORGRIGHT
 10
0.0
 20
0.0
 30
0.0
  9
$PUCSORGFRONT
 10
0.0
 20
0.0
 30
0.0
  9
$PUCSORGBACK
 10
0.0
 20
0.0
 30
0.0
  9
$USERI1
 70
     0
  9
$USERI2
 70
     0
  9
$USERI3
 70
     0
  9
$USERI4
 70
     0
  9
$USERI5
 70
     0
  9
$USERR1
 40
0.0
  9
$USERR2
 40
0.0
  9
$USERR3
 40
0.0
  9
$USERR4
 40
0.0
  9
$USERR5
 40
0.0
  9
$WORLDVIEW
 70
     1
  9
$SHADEDGE
 70
     3
  9
$SHADEDIF
 70
    70
  9
$TILEMODE
 70
     1
  9
$MAXACTVP
 70
    64
  9
$PINSBASE
 10
0.0
 20
0.0
 30
0.0
  9
$PLIMCHECK
 70
     0
  9
$PEXTMIN
 10
1.000000000000000E+20
 20
1.000000000000000E+20
 30
1.000000000000000E+20
  9
$PEXTMAX
 10
-1.000000000000000E+20
 20
-1.000000000000000E+20
 30
-1.000000000000000E+20
  9
$PLIMMIN
 10
0.0
 20
0.0
  9
$PLIMMAX
 10
0.0
 20
0.0
  9
$UNITMODE
 70
     0
  9
$VISRETAIN
 70
     1
  9
$PLINEGEN
 70
     0
  9
$PSLTSCALE
 70
     1
  9
$TREEDEPTH
 70
  3020
  9
$CMLSTYLE
  2
Standard
  9
$CMLJUST
 70
     0
  9
$CMLSCALE
 40
20.0
  9
$PROXYGRAPHICS
 70
     1
  9
$MEASUREMENT
 70
     1
  9
$CELWEIGHT
370
    -1
  9
$ENDCAPS
280
     0
  9
$JOINSTYLE
280
     0
  9
$LWDISPLAY
290
     1
  9
$INSUNITS
 70
     4
  9
$HYPERLINKBASE
  1

  9
$STYLESHEET
  1

  9
$XEDIT
290
     1
  9
$CEPSNTYPE
380
     0
  9
$PSTYLEMODE
290
     1
  9
$FINGERPRINTGUID
  2
{58200DCB-4946-45A2-92A7-5DFFDD783152}
  9
$VERSIONGUID
  2
{FAEB1C32-E019-11D5-929B-00C0DF256EC4}
  9
$EXTNAMES
290
     1
  9
$PSVPSCALE
 40
0.0
  9
$OLESTARTUP
290
     0
  0
ENDSEC
  0
SECTION
  2
CLASSES
  0
CLASS
  1
ACDBDICTIONARYWDFLT
  2
AcDbDictionaryWithDefault
  3
ObjectDBX Classes
 90
        0
280
     0
281
     0
  0
CLASS
  1
VISUALSTYLE
  2
AcDbVisualStyle
  3
ObjectDBX Classes
 90
     4095
280
     0
281
     0
  0
CLASS
  1
MATERIAL
  2
AcDbMaterial
  3
ObjectDBX Classes
 90
     1153
280
     0
281
     0
  0
CLASS
  1
SCALE
  2
AcDbScale
  3
ObjectDBX Classes
 90
     1153
280
     0
281
     0
  0
CLASS
  1
TABLESTYLE
  2
AcDbTableStyle
  3
ObjectDBX Classes
 90
     4095
280
     0
281
     0
  0
CLASS
  1
MLEADERSTYLE
  2
AcDbMLeaderStyle
  3
ACDB_MLEADERSTYLE_CLASS
 90
     4095
280
     0
281
     0
  0
CLASS
  1
SUN
  2
AcDbSun
  3
SCENEOE
 90
     1153
280
     0
281
     0
  0
CLASS
  1
ACDBPLACEHOLDER
  2
AcDbPlaceHolder
  3
ObjectDBX Classes
 90
        0
280
     0
281
     0
  0
CLASS
  1
LAYOUT
  2
AcDbLayout
  3
ObjectDBX Classes
 90
        0
280
     0
281
     0
  0
CLASS
  1
RASTERVARIABLES
  2
AcDbRasterVariables
  3
ISM
 90
        0
280
     0
281
     0
  0
ENDSEC
  0
SECTION
  2
TABLES
  0
TABLE
  2
VPORT
  5
8
330
0
100
AcDbSymbolTable
 70
     1
  0
VPORT
  5
29
330
8
100
AcDbSymbolTableRecord
100
AcDbViewportTableRecord
  2
*Active
 70
     0
 10
0.0
 20
0.0
 11
1.0
 21
1.0
 12
-42.28245954650922
 22
-17.83916409228308
 13
0.0
 23
0.0
 14
10.0
 24
10.0
 15
10.0
 25
10.0
 16
0.0
 26
0.0
 36
1.0
 17
0.0
 27
0.0
 37
0.0
 40
241.028588169591
 41
1.531481481481481
 42
50.0
 43
0.0
 44
0.0
 50
0.0
 51
0.0
 71
    16
 72
  2000
 73
     1
 74
     3
 75
     0
 76
     0
 77
     0
 78
     0
281
     0
 65
     1
110
0.0
120
0.0
130
0.0
111
1.0
121
0.0
131
0.0
112
0.0
122
1.0
132
0.0
 79
     0
146
0.0
  0
ENDTAB
  0
TABLE
  2
LTYPE
  5
5
330
0
100
AcDbSymbolTable
 70
     6
  0
LTYPE
  5
14
330
5
100
AcDbSymbolTableRecord
100
AcDbLinetypeTableRecord
  2
ByBlock
 70
     0
  3

 72
    65
 73
     0
 40
0.0
  0
LTYPE
  5
15
330
5
100
AcDbSymbolTableRecord
100
AcDbLinetypeTableRecord
  2
ByLayer
 70
     0
  3

 72
    65
 73
     0
 40
0.0
  0
LTYPE
  5
16
330
5
100
AcDbSymbolTableRecord
100
AcDbLinetypeTableRecord
  2
Continuous
 70
     0
  3
Solid line
 72
    65
 73
     0
 40
0.0
  0
LTYPE
  5
6E
330
5
100
AcDbSymbolTableRecord
100
AcDbLinetypeTableRecord
  2
HIDDEN
 70
     0
  3
Hidden __ __ __ __ __ __ __ __ __ __ __ __ __ __
 72
    65
 73
     2
 40
1.905
 49
1.27
 74
     0
 49
-0.635
 74
     0
  0
LTYPE
  5
6F
330
5
100
AcDbSymbolTableRecord
100
AcDbLinetypeTableRecord
  2
PHANTOM
 70
     0
  3
Phantom ______  __  __  ______  __  __  ______
 72
    65
 73
     6
 40
12.7
 49
6.35
 74
     0
 49
-1.27
 74
     0
 49
1.27
 74
     0
 49
-1.27
 74
     0
 49
1.27
 74
     0
 49
-1.27
 74
     0
  0
LTYPE
  5
70
330
5
100
AcDbSymbolTableRecord
100
AcDbLinetypeTableRecord
  2
CENTER
 70
     0
  3
Center ____ _ ____ _ ____ _ ____ _ ____ _ ____
 72
    65
 73
     4
 40
10.16
 49
6.35
 74
     0
 49
-1.27
 74
     0
 49
1.27
 74
     0
 49
-1.27
 74
     0
  0
LTYPE
  5
71
330
5
100
AcDbSymbolTableRecord
100
AcDbLinetypeTableRecord
  2
CENTERX2
 70
     0
  3
Center (2x) ________  __  ________  __  _____
 72
    65
 73
     4
 40
20.32
 49
12.7
 74
     0
 49
-2.54
 74
     0
 49
2.54
 74
     0
 49
-2.54
 74
     0
  0
LTYPE
  5
72
330
5
100
AcDbSymbolTableRecord
100
AcDbLinetypeTableRecord
  2
DOT2
 70
     0
  3
Dot (.5x) ........................................
 72
    65
 73
     2
 40
0.635
 49
0.0
 74
     0
 49
-0.635
 74
     0
  0
ENDTAB
  0
TABLE
  2
LAYER
  5
2
330
0
100
AcDbSymbolTable
 70
    17
  0
LAYER
  5
10
330
2
100
AcDbSymbolTableRecord
100
AcDbLayerTableRecord
  2
0
 70
     0
 62
     7
  6
Continuous
370
    -3
390
F
  0
LAYER
  5
73
330
2
100
AcDbSymbolTableRecord
100
AcDbLayerTableRecord
  2
FORMAT
 70
     0
 62
     2
  6
Continuous
370
    -3
390
F
  0
LAYER
  5
74
330
2
100
AcDbSymbolTableRecord
100
AcDbLayerTableRecord
  2
외형선
 70
     0
 62
   100
  6
Continuous
370
    35
390
F
  0
LAYER
  5
75
330
2
100
AcDbSymbolTableRecord
100
AcDbLayerTableRecord
  2
숨은선
 70
     0
 62
     2
  6
HIDDEN
370
    25
390
F
  0
LAYER
  5
76
330
2
100
AcDbSymbolTableRecord
100
AcDbLayerTableRecord
  2
중심선
 70
     0
 62
     1
  6
CENTERX2
370
    -3
390
F
  0
LAYER
  5
77
330
2
100
AcDbSymbolTableRecord
100
AcDbLayerTableRecord
  2
파단선
 70
     0
 62
     4
  6
Continuous
370
    -3
390
F
  0
LAYER
  5
78
330
2
100
AcDbSymbolTableRecord
100
AcDbLayerTableRecord
  2
해칭선
 70
     0
 62
   100
  6
Continuous
370
    -3
390
F
  0
LAYER
  5
79
330
2
100
AcDbSymbolTableRecord
100
AcDbLayerTableRecord
  2
가는실선
 70
     0
 62
     4
  6
Continuous
370
    -3
390
F
  0
LAYER
  5
7A
330
2
100
AcDbSymbolTableRecord
100
AcDbLayerTableRecord
  2
치수_보조선
 70
     0
 62
     4
  6
Continuous
370
    -3
390
F
  0
LAYER
  5
7B
330
2
100
AcDbSymbolTableRecord
100
AcDbLayerTableRecord
  2
치수문자_일반주서
 70
     0
 62
     7
  6
Continuous
370
    25
390
F
  0
LAYER
  5
7C
330
2
100
AcDbSymbolTableRecord
100
AcDbLayerTableRecord
  2
개별주서
 70
     0
 62
   100
  6
Continuous
370
    35
390
F
  0
LAYER
  5
7D
330
2
100
AcDbSymbolTableRecord
100
AcDbLayerTableRecord
  2
중간선
 70
     0
 62
     2
  6
Continuous
370
    25
390
F
  0
LAYER
  5
7E
330
2
100
AcDbSymbolTableRecord
100
AcDbLayerTableRecord
  2
윤곽선
 70
     0
 62
     3
  6
Continuous
370
    50
390
F
  0
LAYER
  5
7F
330
2
100
AcDbSymbolTableRecord
100
AcDbLayerTableRecord
  2
중심마크
 70
     0
 62
   100
  6
Continuous
370
    35
390
F
  0
LAYER
  5
80
330
2
100
AcDbSymbolTableRecord
100
AcDbLayerTableRecord
  2
가상선
 70
     0
 62
     4
  6
PHANTOM
370
    -3
390
F
  0
LAYER
  5
81
330
2
100
AcDbSymbolTableRecord
100
AcDbLayerTableRecord
  2
특수지정선
 70
     0
 62
     5
  6
CENTERX2
370
    70
390
F
  0
LAYER
  5
147
330
2
100
AcDbSymbolTableRecord
100
AcDbLayerTableRecord
  2
Defpoints
 70
     0
 62
     7
  6
Continuous
290
     0
370
    -3
390
F
  0
ENDTAB
  0
TABLE
  2
STYLE
  5
3
330
0
100
AcDbSymbolTable
 70
     2
  0
STYLE
  5
11
330
3
100
AcDbSymbolTableRecord
100
AcDbTextStyleTableRecord
  2
Standard
 70
     0
 40
0.0
 41
1.0
 50
0.0
 71
     0
 42
3.5
  3
txt
  4

  0
STYLE
  5
97
330
3
100
AcDbSymbolTableRecord
100
AcDbTextStyleTableRecord
  2
SLDTEXTSTYLE0
 70
     0
 40
0.0
 41
0.75
 50
0.0
 71
     0
 42
3.5
  3
TXT
  4

  0
ENDTAB
  0
TABLE
  2
VIEW
  5
6
330
0
100
AcDbSymbolTable
 70
     0
  0
ENDTAB
  0
TABLE
  2
UCS
  5
7
330
0
100
AcDbSymbolTable
 70
     0
  0
ENDTAB
  0
TABLE
  2
APPID
  5
9
330
0
100
AcDbSymbolTable
 70
     2
  0
APPID
  5
12
330
9
100
AcDbSymbolTableRecord
100
AcDbRegAppTableRecord
  2
ACAD
 70
     0
  0
APPID
  5
179
330
9
100
AcDbSymbolTableRecord
100
AcDbRegAppTableRecord
  2
PE_URL
 70
     0
  0
ENDTAB
  0
TABLE
  2
DIMSTYLE
  5
A
330
0
100
AcDbSymbolTable
 70
     4
100
AcDbDimStyleTable
  0
DIMSTYLE
105
27
330
A
100
AcDbSymbolTableRecord
100
AcDbDimStyleTableRecord
  2
ISO-25
 70
     0
 41
2.5
 42
0.625
 43
3.75
 44
1.25
 73
     0
 74
     0
 77
     1
 78
     8
140
2.5
141
2.5
143
0.03937007874016
147
0.625
171
     3
172
     1
178
     0
271
     2
272
     2
274
     3
278
    44
283
     0
284
     8
340
11
  0
DIMSTYLE
105
EC
102
{ACAD_REACTORS
330
EB
102
}
330
A
100
AcDbSymbolTableRecord
100
AcDbDimStyleTableRecord
  2
SLDDIMSTYLE0
 70
     0
 41
3.302
 44
0.0
 45
0.000000001
 73
     0
 74
     0
 77
     1
 78
    12
 79
     3
140
3.5
147
0.875
172
     1
173
     1
178
     0
271
     1
272
     1
276
     2
284
    12
289
     0
340
97
  0
DIMSTYLE
105
FA
102
{ACAD_REACTORS
330
F9
330
112
102
}
330
A
100
AcDbSymbolTableRecord
100
AcDbDimStyleTableRecord
  2
SLDDIMSTYLE1
 70
     0
 41
3.302
 44
0.0
 45
0.000000001
 73
     0
 74
     0
 77
     1
 78
    12
 79
     3
140
3.5
147
0.875
173
     1
178
     0
271
     2
272
     2
276
     2
284
    12
340
97
  0
DIMSTYLE
105
105
102
{ACAD_REACTORS
330
104
102
}
330
A
100
AcDbSymbolTableRecord
100
AcDbDimStyleTableRecord
  2
SLDDIMSTYLE2
 70
     0
 41
3.302
 44
0.0
 45
0.000000001
 73
     0
 74
     0
 77
     1
 78
    12
 79
     3
140
3.5
147
0.875
172
     1
173
     1
178
     0
271
     2
272
     2
276
     2
284
    12
289
     0
340
97
  0
ENDTAB
  0
TABLE
  2
BLOCK_RECORD
  5
1
330
0
100
AcDbSymbolTable
 70
     7
  0
BLOCK_RECORD
  5
1F
102
{ACAD_XDICTIONARY
360
17B
102
}
330
1
100
AcDbSymbolTableRecord
100
AcDbBlockTableRecord
  2
*Model_Space
340
22
  0
BLOCK_RECORD
  5
1B
330
1
100
AcDbSymbolTableRecord
100
AcDbBlockTableRecord
  2
*Paper_Space
340
1E
  0
BLOCK_RECORD
  5
23
330
1
100
AcDbSymbolTableRecord
100
AcDbBlockTableRecord
  2
*Paper_Space0
340
26
  0
BLOCK_RECORD
  5
82
330
1
100
AcDbSymbolTableRecord
100
AcDbBlockTableRecord
  2
블럭10
340
0
102
{BLKREFS
331
E4
102
}
  0
BLOCK_RECORD
  5
ED
330
1
100
AcDbSymbolTableRecord
100
AcDbBlockTableRecord
  2
_D
340
0
  0
BLOCK_RECORD
  5
FB
330
1
100
AcDbSymbolTableRecord
100
AcDbBlockTableRecord
  2
_D_1
340
0
  0
BLOCK_RECORD
  5
106
330
1
100
AcDbSymbolTableRecord
100
AcDbBlockTableRecord
  2
_D_2
340
0
  0
BLOCK_RECORD
  5
113
330
1
100
AcDbSymbolTableRecord
100
AcDbBlockTableRecord
  2
_D_3
340
0
  0
BLOCK_RECORD
  5
11C
330
1
100
AcDbSymbolTableRecord
100
AcDbBlockTableRecord
  2
SW_DOWELSYMBOL_0
340
0
102
{BLKREFS
331
122
102
}
  0
ENDTAB
  0
ENDSEC
  0
SECTION
  2
BLOCKS
  0
BLOCK
  5
20
330
1F
100
AcDbEntity
  8
0
100
AcDbBlockBegin
  2
*Model_Space
 70
     0
 10
0.0
 20
0.0
 30
0.0
  3
*Model_Space
  1

  0
ENDBLK
  5
21
330
1F
100
AcDbEntity
  8
0
100
AcDbBlockEnd
  0
BLOCK
  5
1C
330
1B
100
AcDbEntity
 67
     1
  8
0
100
AcDbBlockBegin
  2
*Paper_Space
 70
     0
 10
0.0
 20
0.0
 30
0.0
  3
*Paper_Space
  1

  0
ENDBLK
  5
1D
330
1B
100
AcDbEntity
 67
     1
  8
0
100
AcDbBlockEnd
  0
BLOCK
  5
24
330
23
100
AcDbEntity
  8
0
100
AcDbBlockBegin
  2
*Paper_Space0
 70
     0
 10
0.0
 20
0.0
 30
0.0
  3
*Paper_Space0
  1

  0
ENDBLK
  5
25
330
23
100
AcDbEntity
  8
0
100
AcDbBlockEnd
  0
BLOCK
  5
83
330
82
100
AcDbEntity
  8
0
100
AcDbBlockBegin
  2
블럭10
 70
     2
 10
0.0
 20
0.0
 30
0.0
  3
블럭10
  1

  0
ELLIPSE
  5
85
330
82
100
AcDbEntity
  8
중심선
100
AcDbEllipse
 10
20.54032771741204
 20
12.0471743016438
 30
0.0
 11
6.600054785286829
 21
-1.261213355974178E-13
 31
0.0
210
0.0
220
0.0
230
1.0
 40
0.636358354079598
 41
0.9219305317359503
 42
6.513795318482858
  0
ELLIPSE
  5
86
330
82
100
AcDbEntity
  8
중심선
100
AcDbEllipse
 10
20.54032771746488
 20
12.04717430159265
 30
0.0
 11
3.960054785062283
 21
1.540847449632565E-10
 31
0.0
210
0.0
220
0.0
230
1.0
 40
0.3939339440162632
 41
1.131841032648279
 42
5.62031148352944
  0
LINE
  5
87
330
82
100
AcDbEntity
  8
중심선
100
AcDbLine
 10
2.268634060543552
 20
16.24717430164393
 30
0.0
 11
5.714909304380834
 21
16.24717430164393
 31
0.0
  0
LINE
  5
88
330
82
100
AcDbEntity
  8
중심선
100
AcDbLine
 10
5.245725140726316
 20
7.84717430164391
 30
0.0
 11
8.692000384563599
 21
7.84717430164391
 31
0.0
  0
LINE
  5
89
330
82
100
AcDbEntity
  8
중심선
100
AcDbLine
 10
15.74043728645272
 20
16.24717430164393
 30
0.0
 11
8.692000384563599
 21
7.84717430164391
 31
0.0
  0
LINE
  5
8A
330
82
100
AcDbEntity
  8
중심선
100
AcDbLine
 10
0.1404042013395286
 20
13.71084872107135
 30
0.0
 11
3.58671253028996
 21
13.71088815037384
 31
0.0
  0
LINE
  5
8B
330
82
100
AcDbEntity
  8
중심선
100
AcDbLine
 10
2.750260043222114
 20
10.84717430164391
 30
0.0
 11
6.196535287059397
 21
10.84717430164391
 31
0.0
  0
LINE
  5
8C
330
82
100
AcDbEntity
  8
중심선
100
AcDbLine
 10
12.29416204261559
 20
16.24717430164393
 30
0.0
 11
5.245725140726316
 21
7.84717430164391
 31
0.0
  0
LINE
  5
8D
330
82
100
AcDbEntity
  8
중심선
100
AcDbLine
 10
10.72767329541681
 20
16.24717430164393
 30
0.0
 11
6.196535287059397
 21
10.84717430164391
 31
0.0
  0
LINE
  5
8E
330
82
100
AcDbEntity
  8
중심선
100
AcDbLine
 10
7.28139805157953
 20
16.24717430164393
 30
0.0
 11
2.750260043222114
 21
10.84717430164391
 31
0.0
  0
LINE
  5
8F
330
82
100
AcDbEntity
  8
중심선
100
AcDbLine
 10
5.714909304380834
 20
16.24717430164393
 30
0.0
 11
3.58671253028996
 21
13.71088815037384
 31
0.0
  0
LINE
  5
90
330
82
100
AcDbEntity
  8
중심선
100
AcDbLine
 10
2.268634060543552
 20
16.24717430164393
 30
0.0
 11
0.1404042013395286
 21
13.71084872107135
 31
0.0
  0
LINE
  5
91
330
82
100
AcDbEntity
  8
중심선
100
AcDbLine
 10
7.28139805157953
 20
16.24717430164393
 30
0.0
 11
10.72767329541681
 21
16.24717430164393
 31
0.0
  0
LINE
  5
92
330
82
100
AcDbEntity
  8
중심선
100
AcDbLine
 10
12.29416204261559
 20
16.24717430164393
 30
0.0
 11
15.74043728645272
 21
16.24717430164393
 31
0.0
  0
LINE
  5
93
330
82
100
AcDbEntity
  8
중심선
100
AcDbLine
 10
19.22036997980202
 20
11.08717430171403
 30
0.0
 11
23.66174974927406
 21
11.08717430171406
 31
0.0
  0
LINE
  5
94
330
82
100
AcDbEntity
  8
중심선
100
AcDbLine
 10
19.22039502424796
 20
13.00717430171391
 30
0.0
 11
19.22036997980202
 21
11.08717430171403
 31
0.0
  0
LINE
  5
95
330
82
100
AcDbEntity
  8
중심선
100
AcDbLine
 10
19.22039502424796
 20
13.00717430171391
 30
0.0
 11
26.96566020931264
 21
13.00717430171391
 31
0.0
  0
LINE
  5
96
330
82
100
AcDbEntity
  8
중심선
100
AcDbLine
 10
22.22332737316547
 20
13.45928029700563
 30
0.0
 11
24.52862924686651
 21
15.39360700705356
 31
0.0
  0
ATTDEF
  5
98
330
82
100
AcDbEntity
  8
FORMAT
 62
     2
100
AcDbText
 10
-16.11926103943555
 20
2.075366912832191
 30
0.0
 40
4.233333333333333
  1
SEME7214060E [ 4 FLUTE ]
 41
0.75
  7
SLDTEXTSTYLE0
 11
-16.11926103943555
 21
-0.0412997538344756
 31
0.0
100
AcDbAttributeDefinition
  3

  2
AUTOATTR0
 70
     0
 74
     1
  0
ENDBLK
  5
84
330
82
100
AcDbEntity
  8
0
100
AcDbBlockEnd
  0
BLOCK
  5
EE
330
ED
100
AcDbEntity
  8
0
100
AcDbBlockBegin
  2
_D
 70
     0
 10
0.0
 20
0.0
 30
0.0
  3
_D
  1

  0
LINE
  5
F0
330
ED
100
AcDbEntity
  8
치수문자_일반주서
 62
     0
370
    -2
100
AcDbLine
 10
64.06212144608264
 20
-6.999999999999996
 30
0.0
 11
80.03603433715847
 21
-6.999999999999936
 31
0.0
  0
LINE
  5
F1
330
ED
100
AcDbEntity
  8
치수문자_일반주서
 62
     0
370
    -2
100
AcDbLine
 10
64.06212144608264
 20
7.000000000000004
 30
0.0
 11
80.03603433715843
 21
7.000000000000062
 31
0.0
  0
LINE
  5
F2
330
ED
100
AcDbEntity
  8
치수문자_일반주서
 62
     0
370
    -2
100
AcDbLine
 10
80.03603433715843
 20
7.000000000000062
 30
0.0
 11
80.03603433715838
 21
21.47900000000006
 31
0.0
  0
LINE
  5
F3
330
ED
100
AcDbEntity
  8
치수문자_일반주서
 62
     0
370
    -2
100
AcDbLine
 10
80.03603433715847
 20
-6.999999999999936
 30
0.0
 11
80.03603433715843
 21
7.000000000000062
 31
0.0
  0
LINE
  5
F4
330
ED
100
AcDbEntity
  8
치수문자_일반주서
 62
     0
370
    -2
100
AcDbLine
 10
80.03603433715848
 20
-10.30199999999994
 30
0.0
 11
80.0360343371585
 21
-13.60399999999994
 31
0.0
  0
LINE
  5
F5
330
ED
100
AcDbEntity
  8
치수문자_일반주서
 62
     0
370
    -2
100
AcDbLine
 10
80.03603433715841
 20
10.30200000000006
 30
0.0
 11
80.0360343371584
 21
13.60400000000006
 31
0.0
  0
SOLID
  5
F6
330
ED
100
AcDbEntity
  8
치수문자_일반주서
 62
     0
100
AcDbTrace
 10
80.58636767049181
 20
-10.30199999999993
 30
0.0
 11
79.48570100382516
 21
-10.30199999999994
 31
0.0
 12
80.03603433715847
 22
-6.999999999999936
 32
0.0
 13
80.03603433715847
 23
-6.999999999999936
 33
0.0
  0
SOLID
  5
F7
330
ED
100
AcDbEntity
  8
치수문자_일반주서
 62
     0
100
AcDbTrace
 10
79.48570100382508
 20
10.30200000000006
 30
0.0
 11
80.58636767049174
 21
10.30200000000006
 31
0.0
 12
80.03603433715843
 22
7.000000000000062
 32
0.0
 13
80.03603433715843
 23
7.000000000000062
 33
0.0
  0
MTEXT
  5
F8
330
ED
100
AcDbEntity
  8
치수문자_일반주서
 62
     0
100
AcDbMText
 10
75.6610343371584
 20
17.54150000000005
 30
0.0
 40
3.5
 41
0.0
 71
     2
 72
     1
  1
\A1;%%c14
  7
SLDTEXTSTYLE0
 11
-3.045183153257572E-15
 21
1.0
 31
0.0
 73
     1
 44
1.0
  0
POINT
  5
151
330
ED
100
AcDbEntity
  8
Defpoints
 62
     0
100
AcDbPoint
 10
63.99962144608265
 20
-6.999999999999996
 30
0.0
  0
POINT
  5
152
330
ED
100
AcDbEntity
  8
Defpoints
 62
     0
100
AcDbPoint
 10
63.99962144608265
 20
7.000000000000004
 30
0.0
  0
POINT
  5
153
330
ED
100
AcDbEntity
  8
Defpoints
 62
     0
100
AcDbPoint
 10
80.03603433715843
 20
7.000000000000064
 30
0.0
  0
ENDBLK
  5
EF
330
ED
100
AcDbEntity
  8
0
100
AcDbBlockEnd
  0
BLOCK
  5
FC
330
FB
100
AcDbEntity
  8
0
100
AcDbBlockBegin
  2
_D_1
 70
     0
 10
0.0
 20
0.0
 30
0.0
  3
_D_1
  1

  0
LINE
  5
FE
330
FB
100
AcDbEntity
  8
치수문자_일반주서
 62
     0
370
    -2
100
AcDbLine
 10
-86.00037855391736
 20
7.562499999999994
 30
0.0
 11
-86.00037855391736
 21
25.38913260158164
 31
0.0
  0
LINE
  5
FF
330
FB
100
AcDbEntity
  8
치수문자_일반주서
 62
     0
370
    -2
100
AcDbLine
 10
63.99962144608265
 20
7.062500000000017
 30
0.0
 11
63.99962144608265
 21
25.38913260158164
 31
0.0
  0
LINE
  5
100
330
FB
100
AcDbEntity
  8
치수문자_일반주서
 62
     0
370
    -2
100
AcDbLine
 10
-82.69837855391735
 20
25.38913260158164
 30
0.0
 11
60.69762144608265
 21
25.38913260158164
 31
0.0
  0
SOLID
  5
101
330
FB
100
AcDbEntity
  8
치수문자_일반주서
 62
     0
100
AcDbTrace
 10
-82.69837855391735
 20
25.93946593491498
 30
0.0
 11
-82.69837855391735
 21
24.83879926824831
 31
0.0
 12
-86.00037855391736
 22
25.38913260158164
 32
0.0
 13
-86.00037855391736
 23
25.38913260158164
 33
0.0
  0
SOLID
  5
102
330
FB
100
AcDbEntity
  8
치수문자_일반주서
 62
     0
100
AcDbTrace
 10
60.69762144608265
 20
24.83879926824831
 30
0.0
 11
60.69762144608265
 21
25.93946593491498
 31
0.0
 12
63.99962144608265
 22
25.38913260158164
 32
0.0
 13
63.99962144608265
 23
25.38913260158164
 33
0.0
  0
MTEXT
  5
103
330
FB
100
AcDbEntity
  8
치수문자_일반주서
 62
     0
100
AcDbMText
 10
-11.00037855391736
 20
29.76413260158164
 30
0.0
 40
3.5
 41
0.0
 71
     2
 72
     1
  1
\A1;150
  7
SLDTEXTSTYLE0
 73
     1
 44
1.0
  0
POINT
  5
148
330
FB
100
AcDbEntity
  8
Defpoints
 62
     0
100
AcDbPoint
 10
-86.00037855391736
 20
7.499999999999994
 30
0.0
  0
POINT
  5
149
330
FB
100
AcDbEntity
  8
Defpoints
 62
     0
100
AcDbPoint
 10
63.99962144608265
 20
7.000000000000017
 30
0.0
  0
POINT
  5
14A
330
FB
100
AcDbEntity
  8
Defpoints
 62
     0
100
AcDbPoint
 10
63.99962144608265
 20
25.38913260158164
 30
0.0
  0
ENDBLK
  5
FD
330
FB
100
AcDbEntity
  8
0
100
AcDbBlockEnd
  0
BLOCK
  5
107
330
106
100
AcDbEntity
  8
0
100
AcDbBlockBegin
  2
_D_2
 70
     0
 10
0.0
 20
0.0
 30
0.0
  3
_D_2
  1

  0
LINE
  5
109
330
106
100
AcDbEntity
  8
치수문자_일반주서
 62
     0
370
    -2
100
AcDbLine
 10
-85.56287855391736
 20
7.999999999999984
 30
0.0
 11
-100.3278278943611
 21
7.999999999999929
 31
0.0
  0
LINE
  5
10A
330
106
100
AcDbEntity
  8
치수문자_일반주서
 62
     0
370
    -2
100
AcDbLine
 10
-85.56287855391736
 20
-8.000000000000004
 30
0.0
 11
-100.3278278943611
 21
-8.00000000000006
 31
0.0
  0
LINE
  5
10B
330
106
100
AcDbEntity
  8
치수문자_일반주서
 62
     0
370
    -2
100
AcDbLine
 10
-100.3278278943611
 20
7.999999999999929
 30
0.0
 11
-100.3278278943612
 21
22.47899999999993
 31
0.0
  0
LINE
  5
10C
330
106
100
AcDbEntity
  8
치수문자_일반주서
 62
     0
370
    -2
100
AcDbLine
 10
-100.3278278943611
 20
7.999999999999929
 30
0.0
 11
-100.3278278943611
 21
-8.00000000000006
 31
0.0
  0
LINE
  5
10D
330
106
100
AcDbEntity
  8
치수문자_일반주서
 62
     0
370
    -2
100
AcDbLine
 10
-100.3278278943611
 20
11.30199999999993
 30
0.0
 11
-100.3278278943611
 21
14.60399999999993
 31
0.0
  0
LINE
  5
10E
330
106
100
AcDbEntity
  8
치수문자_일반주서
 62
     0
370
    -2
100
AcDbLine
 10
-100.327827894361
 20
-11.30200000000006
 30
0.0
 11
-100.327827894361
 21
-14.60400000000006
 31
0.0
  0
SOLID
  5
10F
330
106
100
AcDbEntity
  8
치수문자_일반주서
 62
     0
100
AcDbTrace
 10
-100.8781612276944
 20
11.30199999999993
 30
0.0
 11
-99.7774945610278
 21
11.30199999999993
 31
0.0
 12
-100.3278278943611
 22
7.999999999999929
 32
0.0
 13
-100.3278278943611
 23
7.999999999999929
 33
0.0
  0
SOLID
  5
110
330
106
100
AcDbEntity
  8
치수문자_일반주서
 62
     0
100
AcDbTrace
 10
-99.77749456102771
 20
-11.30200000000006
 30
0.0
 11
-100.8781612276944
 21
-11.30200000000006
 31
0.0
 12
-100.3278278943611
 22
-8.00000000000006
 32
0.0
 13
-100.3278278943611
 23
-8.00000000000006
 33
0.0
  0
MTEXT
  5
111
330
106
100
AcDbEntity
  8
치수문자_일반주서
 62
     0
100
AcDbMText
 10
-104.7028278943611
 20
18.54149999999991
 30
0.0
 40
3.5
 41
0.0
 71
     2
 72
     1
  1
\A1;%%c16
  7
SLDTEXTSTYLE0
 11
-3.552713678800504E-15
 21
1.0
 31
0.0
 73
     1
 44
1.0
  0
POINT
  5
14E
330
106
100
AcDbEntity
  8
Defpoints
 62
     0
100
AcDbPoint
 10
-85.50037855391736
 20
7.999999999999984
 30
0.0
  0
POINT
  5
14F
330
106
100
AcDbEntity
  8
Defpoints
 62
     0
100
AcDbPoint
 10
-85.50037855391736
 20
-8.000000000000004
 30
0.0
  0
POINT
  5
150
330
106
100
AcDbEntity
  8
Defpoints
 62
     0
100
AcDbPoint
 10
-100.3278278943611
 20
-8.000000000000059
 30
0.0
  0
ENDBLK
  5
108
330
106
100
AcDbEntity
  8
0
100
AcDbBlockEnd
  0
BLOCK
  5
114
330
113
100
AcDbEntity
  8
0
100
AcDbBlockBegin
  2
_D_3
 70
     0
 10
0.0
 20
0.0
 30
0.0
  3
_D_3
  1

  0
LINE
  5
116
330
113
100
AcDbEntity
  8
치수문자_일반주서
 62
     0
370
    -2
100
AcDbLine
 10
3.999621446082636
 20
7.061912744947007
 30
0.0
 11
3.999621446082635
 21
17.84533104753465
 31
0.0
  0
LINE
  5
117
330
113
100
AcDbEntity
  8
치수문자_일반주서
 62
     0
370
    -2
100
AcDbLine
 10
63.99962144608265
 20
7.062500000000017
 30
0.0
 11
63.99962144608265
 21
17.84533104753465
 31
0.0
  0
LINE
  5
118
330
113
100
AcDbEntity
  8
치수문자_일반주서
 62
     0
370
    -2
100
AcDbLine
 10
7.301621446082635
 20
17.84533104753465
 30
0.0
 11
60.69762144608265
 21
17.84533104753465
 31
0.0
  0
SOLID
  5
119
330
113
100
AcDbEntity
  8
치수문자_일반주서
 62
     0
100
AcDbTrace
 10
7.301621446082635
 20
18.39566438086799
 30
0.0
 11
7.301621446082635
 21
17.29499771420132
 31
0.0
 12
3.999621446082635
 22
17.84533104753465
 32
0.0
 13
3.999621446082635
 23
17.84533104753465
 33
0.0
  0
SOLID
  5
11A
330
113
100
AcDbEntity
  8
치수문자_일반주서
 62
     0
100
AcDbTrace
 10
60.69762144608265
 20
17.29499771420132
 30
0.0
 11
60.69762144608265
 21
18.39566438086799
 31
0.0
 12
63.99962144608265
 22
17.84533104753465
 32
0.0
 13
63.99962144608265
 23
17.84533104753465
 33
0.0
  0
MTEXT
  5
11B
330
113
100
AcDbEntity
  8
치수문자_일반주서
 62
     0
100
AcDbMText
 10
33.99962144608264
 20
22.22033104753465
 30
0.0
 40
3.5
 41
0.0
 71
     2
 72
     1
  1
\A1;60
  7
SLDTEXTSTYLE0
 73
     1
 44
1.0
  0
POINT
  5
14B
330
113
100
AcDbEntity
  8
Defpoints
 62
     0
100
AcDbPoint
 10
3.999621446082636
 20
6.999412744947007
 30
0.0
  0
POINT
  5
14C
330
113
100
AcDbEntity
  8
Defpoints
 62
     0
100
AcDbPoint
 10
63.99962144608265
 20
7.000000000000017
 30
0.0
  0
POINT
  5
14D
330
113
100
AcDbEntity
  8
Defpoints
 62
     0
100
AcDbPoint
 10
63.99962144608265
 20
17.84533104753465
 30
0.0
  0
ENDBLK
  5
115
330
113
100
AcDbEntity
  8
0
100
AcDbBlockEnd
  0
BLOCK
  5
11D
330
11C
100
AcDbEntity
  8
0
100
AcDbBlockBegin
  2
SW_DOWELSYMBOL_0
 70
     0
 10
0.0
 20
0.0
 30
0.0
  3
SW_DOWELSYMBOL_0
  1

  0
CIRCLE
  5
11F
330
11C
100
AcDbEntity
  8
해칭선
 62
     0
100
AcDbCircle
 10
0.0
 20
0.0
 30
0.0
 40
3.0
  0
HATCH
  5
120
330
11C
100
AcDbEntity
  8
0
  6
Continuous
 62
     0
370
    18
100
AcDbHatch
 10
0.0
 20
0.0
 30
0.0
210
0.0
220
0.0
230
1.0
  2
SOLID
 70
     1
 71
     0
 91
        1
 92
        0
 93
        3
 72
     2
 10
0.0
 20
0.0
 40
3.0
 50
0.0
 51
90.0
 73
     1
 72
     1
 10
0.0
 20
3.0
 11
0.0
 21
0.0
 72
     1
 10
0.0
 20
0.0
 11
3.0
 21
0.0
 97
        0
 75
     0
 76
     1
 98
        1
 10
0.0
 20
0.0
  0
HATCH
  5
121
330
11C
100
AcDbEntity
  8
0
  6
Continuous
 62
     0
370
    18
100
AcDbHatch
 10
0.0
 20
0.0
 30
0.0
210
0.0
220
0.0
230
1.0
  2
SOLID
 70
     1
 71
     0
 91
        1
 92
        0
 93
        3
 72
     2
 10
0.0
 20
0.0
 40
3.0
 50
180.0
 51
270.0000000000007
 73
     1
 72
     1
 10
0.0
 20
-3.0
 11
0.0
 21
0.0
 72
     1
 10
0.0
 20
0.0
 11
-3.0
 21
0.0
 97
        0
 75
     0
 76
     1
 98
        1
 10
0.0
 20
0.0
  0
ENDBLK
  5
11E
330
11C
100
AcDbEntity
  8
0
100
AcDbBlockEnd
  0
ENDSEC
  0
SECTION
  2
ENTITIES
  0
LINE
  5
99
330
1F
100
AcDbEntity
  8
0
  6
Continuous
 62
     4
370
    25
100
AcDbLine
 10
1.999621446082632
 20
8.000000000000004
 30
0.0
 11
-85.50037855391736
 21
7.999999999999997
 31
0.0
  0
LINE
  5
9A
330
1F
100
AcDbEntity
  8
0
  6
Continuous
 62
     4
370
    25
100
AcDbLine
 10
-85.50037855391736
 20
-7.999999999999999
 30
0.0
 11
1.999621446082632
 21
-7.999999999999991
 31
0.0
  0
LINE
  5
9D
330
1F
100
AcDbEntity
  8
0
  6
Continuous
 62
     4
370
    25
100
AcDbLine
 10
-85.50037855391736
 20
7.999999999999997
 30
0.0
 11
-86.00037855391736
 21
7.499999999999992
 31
0.0
  0
LINE
  5
9E
330
1F
100
AcDbEntity
  8
0
  6
Continuous
 62
     4
370
    25
100
AcDbLine
 10
-86.00037855391736
 20
-7.499999999999995
 30
0.0
 11
-85.50037855391736
 21
-7.999999999999996
 31
0.0
  0
LINE
  5
9F
330
1F
100
AcDbEntity
  8
0
  6
Continuous
 62
     4
370
    25
100
AcDbLine
 10
2.999621446082632
 20
-6.999999999999995
 30
0.0
 11
3.999621446082636
 21
-6.999999999999995
 31
0.0
  0
LINE
  5
A0
330
1F
100
AcDbEntity
  8
0
  6
Continuous
 62
     4
370
    25
100
AcDbLine
 10
3.999621446082632
 20
7.000000000000005
 30
0.0
 11
2.999621446082632
 21
7.000000000000005
 31
0.0
  0
LINE
  5
A1
330
1F
100
AcDbEntity
  8
0
  6
Continuous
 62
     1
370
    25
100
AcDbLine
 10
61.29193015472588
 20
-7.000000000000001
 30
0.0
 11
63.99962144608265
 21
-7.000000000000001
 31
0.0
  0
LINE
  5
A2
330
1F
100
AcDbEntity
  8
0
  6
Continuous
 62
     1
370
    25
100
AcDbLine
 10
28.61739993574269
 20
7.000000000000012
 30
0.0
 11
23.2023554155598
 21
7.000000000000012
 31
0.0
  0
LINE
  5
A3
330
1F
100
AcDbEntity
  8
0
  6
Continuous
 62
     1
370
    25
100
AcDbLine
 10
44.29335840361055
 20
-1.169071368536508
 30
0.0
 11
43.98404889885465
 21
-0.9998715576634959
 31
0.0
  0
LINE
  5
A4
330
1F
100
AcDbEntity
  8
0
  6
Continuous
 62
     1
370
    25
100
AcDbLine
 10
26.68339701247747
 20
1.106626693660955
 30
0.0
 11
26.87906419082444
 21
0.9999816888682881
 31
0.0
  0
LINE
  5
A5
330
1F
100
AcDbEntity
  8
0
  6
Continuous
 62
     1
370
    25
100
AcDbLine
 10
42.2476302137236
 20
-7.000000000000001
 30
0.0
 11
47.66344809917036
 21
-7.000000000000001
 31
0.0
  0
LINE
  5
A6
330
1F
100
AcDbEntity
  8
0
  6
Continuous
 62
     1
370
    25
100
AcDbLine
 10
9.572823092614133
 20
7.000000000000012
 30
0.0
 11
4.156120620374905
 21
7.000000000000012
 31
0.0
  0
LINE
  5
A7
330
1F
100
AcDbEntity
  8
0
  6
Continuous
 62
     1
370
    25
100
AcDbLine
 10
4.15612062037501
 20
-7.000000000000001
 30
0.0
 11
9.572823092614144
 21
-7.000000000000001
 31
0.0
  0
LINE
  5
A8
330
1F
100
AcDbEntity
  8
0
  6
Continuous
 62
     1
370
    25
100
AcDbLine
 10
47.66344809917032
 20
7.000000000000012
 30
0.0
 11
42.24763021372371
 21
7.000000000000012
 31
0.0
  0
LINE
  5
A9
330
1F
100
AcDbEntity
  8
0
  6
Continuous
 62
     4
370
    25
100
AcDbLine
 10
5.977785936807416
 20
-1.044426032944969
 30
0.0
 11
5.893983253832855
 21
-0.9997119111179431
 31
0.0
  0
LINE
  5
AA
330
1F
100
AcDbEntity
  8
0
  6
Continuous
 62
     1
370
    25
100
AcDbLine
 10
63.93763553344973
 20
1.586195856560236
 30
0.0
 11
63.99962144608265
 21
1.555457748379433
 31
0.0
  0
LINE
  5
AB
330
1F
100
AcDbEntity
  8
0
  6
Continuous
 62
     1
370
    25
100
AcDbLine
 10
23.20235541555983
 20
-7.000000000000001
 30
0.0
 11
28.61739993574259
 21
-7.000000000000001
 31
0.0
  0
LINE
  5
AC
330
1F
100
AcDbEntity
  8
0
  6
Continuous
 62
     1
370
    25
100
AcDbLine
 10
63.99962144608265
 20
7.000000000000012
 30
0.0
 11
61.29193015472591
 21
7.000000000000012
 31
0.0
  0
LINE
  5
AD
330
1F
100
AcDbEntity
  8
0
  6
Continuous
 62
     4
370
    25
100
AcDbLine
 10
1.999621446082632
 20
8.000000000000004
 30
0.0
 11
1.999621446082632
 21
-7.999999999999996
 31
0.0
  0
LINE
  5
AE
330
1F
100
AcDbEntity
  8
0
  6
Continuous
 62
     4
370
    25
100
AcDbLine
 10
-85.50037855391736
 20
7.999999999999997
 30
0.0
 11
-85.50037855391736
 21
-7.999999999999996
 31
0.0
  0
SPLINE
  5
AF
330
1F
100
AcDbEntity
  8
0
  6
Continuous
 62
     4
370
    25
100
AcDbSpline
210
0.0
220
0.0
230
1.0
 70
     8
 71
     3
 72
    12
 73
     8
 74
     0
 42
0.000000001
 43
0.00000001
 40
0.0
 40
0.0
 40
0.0
 40
0.0
 40
0.2500000000000001
 40
0.2500000000000001
 40
0.5000000000000001
 40
0.5000000000000001
 40
1.0
 40
1.0
 40
1.0
 40
1.0
 10
2.499826316816575
 20
-1.479662354115158
 30
0.0
 10
2.499826316816575
 20
-1.377738509297267
 30
0.0
 10
2.509940638360014
 20
-1.276577121656658
 30
0.0
 10
2.552055265469184
 20
-1.076019108714843
 30
0.0
 10
2.584616822993711
 20
-0.9760505990474501
 30
0.0
 10
2.712413336778194
 20
-0.6954940347030958
 30
0.0
 10
2.840663100584641
 20
-0.5273586569513777
 30
0.0
 10
2.999621446082649
 20
-0.3970305814875395
 30
0.0
  0
LINE
  5
B0
330
1F
100
AcDbEntity
  8
0
  6
Continuous
 62
     4
370
    25
100
AcDbLine
 10
2.499826316816575
 20
-1.479662354115158
 30
0.0
 11
2.499826316816575
 21
-5.46531504502738
 31
0.0
  0
SPLINE
  5
B1
330
1F
100
AcDbEntity
  8
0
  6
Continuous
 62
     4
370
    25
100
AcDbSpline
210
0.0
220
0.0
230
1.0
 70
     8
 71
     3
 72
    14
 73
    10
 74
     0
 42
0.000000001
 43
0.00000001
 40
0.0
 40
0.0
 40
0.0
 40
0.0
 40
0.2499999999999995
 40
0.2499999999999995
 40
0.4999999999999997
 40
0.4999999999999997
 40
0.7499999999999998
 40
0.7499999999999998
 40
1.0
 40
1.0
 40
1.0
 40
1.0
 10
2.999621446082632
 20
-5.982743140897036
 30
0.0
 10
2.920164257541402
 20
-5.967690716946035
 30
0.0
 10
2.849274586446871
 20
-5.945599975290238
 30
0.0
 10
2.724215270890495
 20
-5.886196342629662
 30
0.0
 10
2.67014697063817
 20
-5.848450089537262
 30
0.0
 10
2.584831985391203
 20
-5.760229521884237
 30
0.0
 10
2.552408812542982
 20
-5.708741870866359
 30
0.0
 10
2.509941000716578
 20
-5.594424376984414
 30
0.0
 10
2.499826316802517
 20
-5.532287576106119
 30
0.0
 10
2.499826316802197
 20
-5.465315045033087
 30
0.0
  0
LINE
  5
B2
330
1F
100
AcDbEntity
  8
0
  6
Continuous
 62
     4
370
    25
100
AcDbLine
 10
2.999621446082632
 20
-5.982743140897036
 30
0.0
 11
2.999621446082632
 21
-6.999999999999995
 31
0.0
  0
LINE
  5
B3
330
1F
100
AcDbEntity
  8
0
  6
Continuous
 62
     4
370
    25
100
AcDbLine
 10
2.999621446082632
 20
7.000000000000005
 30
0.0
 11
2.999621446082632
 21
6.988731409731217
 31
0.0
  0
SPLINE
  5
B4
330
1F
100
AcDbEntity
  8
0
  6
Continuous
 62
     4
370
    25
100
AcDbSpline
210
0.0
220
0.0
230
1.0
 70
     8
 71
     3
 72
    12
 73
     8
 74
     0
 42
0.000000001
 43
0.00000001
 40
0.0
 40
0.0
 40
0.0
 40
0.0
 40
0.25
 40
0.25
 40
0.4999999999999999
 40
0.4999999999999999
 40
1.0
 40
1.0
 40
1.0
 40
1.0
 10
2.499826316816572
 20
6.97878281808166
 30
0.0
 10
2.499826316816572
 20
7.000393015747213
 30
0.0
 10
2.509940638360014
 20
7.016740506268986
 30
0.0
 10
2.552055265469184
 20
7.038867897946189
 30
0.0
 10
2.584616822993711
 20
7.04450909483492
 30
0.0
 10
2.712413336778194
 20
7.045145358769751
 30
0.0
 10
2.840663100584641
 20
7.023988894403749
 30
0.0
 10
2.999621446082649
 20
6.988731409731209
 30
0.0
  0
LINE
  5
B5
330
1F
100
AcDbEntity
  8
0
  6
Continuous
 62
     4
370
    25
100
AcDbLine
 10
2.499826316816572
 20
6.978782818081662
 30
0.0
 11
2.499826316816572
 21
4.585099973035965
 31
0.0
  0
SPLINE
  5
B6
330
1F
100
AcDbEntity
  8
0
  6
Continuous
 62
     4
370
    25
100
AcDbSpline
210
0.0
220
0.0
230
1.0
 70
     8
 71
     3
 72
    14
 73
    10
 74
     0
 42
0.000000001
 43
0.00000001
 40
0.0
 40
0.0
 40
0.0
 40
0.0
 40
0.2499999999999994
 40
0.2499999999999994
 40
0.4999999999999997
 40
0.4999999999999997
 40
0.7499999999999999
 40
0.7499999999999999
 40
1.0
 40
1.0
 40
1.0
 40
1.0
 10
2.999621446082632
 20
3.63411399244011
 30
0.0
 10
2.920164257541402
 20
3.69990395201798
 30
0.0
 10
2.849274586446867
 20
3.771192993173964
 30
0.0
 10
2.724215270890495
 20
3.923990907888824
 30
0.0
 10
2.67014697063817
 20
4.005994981916904
 30
0.0
 10
2.584831985391199
 20
4.170937557632912
 30
0.0
 10
2.552408812542982
 20
4.25587865937004
 30
0.0
 10
2.509941000716578
 20
4.423439663821852
 30
0.0
 10
2.499826316802514
 20
4.505270529003271
 30
0.0
 10
2.499826316802194
 20
4.585099973035156
 30
0.0
  0
LINE
  5
B7
330
1F
100
AcDbEntity
  8
0
  6
Continuous
 62
     4
370
    25
100
AcDbLine
 10
2.999621446082632
 20
3.63411399244011
 30
0.0
 11
2.999621446082632
 21
-0.3970305814875254
 31
0.0
  0
LINE
  5
B8
330
1F
100
AcDbEntity
  8
0
  6
Continuous
 62
     4
370
    25
100
AcDbLine
 10
-86.00037855391736
 20
7.499999999999994
 30
0.0
 11
-86.00037855391736
 21
-7.499999999999995
 31
0.0
  0
SPLINE
  5
B9
330
1F
100
AcDbEntity
  8
0
  6
Continuous
 62
     4
370
    25
100
AcDbSpline
210
0.0
220
0.0
230
1.0
 70
     8
 71
     3
 72
    10
 73
     6
 74
     0
 42
0.000000001
 43
0.00000001
 40
0.0
 40
0.0
 40
0.0
 40
0.0
 40
0.5
 40
0.5
 40
1.0
 40
1.0
 40
1.0
 40
1.0
 10
2.999621446082632
 20
-0.3970305814875256
 30
0.0
 10
3.137715119545867
 20
-0.2796026081634153
 30
0.0
 10
3.296062874546922
 20
-0.1911813436238452
 30
0.0
 10
3.638277903207684
 20
-0.0791480146001622
 30
0.0
 10
3.818707806063225
 20
-0.0567365238945237
 30
0.0
 10
3.999621446082632
 20
-0.0697469551867118
 30
0.0
  0
SPLINE
  5
BA
330
1F
100
AcDbEntity
  8
0
  6
Continuous
 62
     4
370
    25
100
AcDbSpline
210
0.0
220
0.0
230
1.0
 70
    24
 71
     3
 72
    14
 73
    10
 74
     0
 42
0.000000001
 43
0.00000001
 40
0.0
 40
0.0
 40
0.0
 40
0.0
 40
0.25
 40
0.25
 40
0.5
 40
0.5
 40
0.75
 40
0.75
 40
1.0
 40
1.0
 40
1.0
 40
1.0
 10
3.999621446082632
 20
-0.0697469551866472
 30
0.0
 10
3.999621446082632
 20
-0.1015771998332726
 30
0.0
 10
3.999621446082632
 20
-0.1622552842500134
 30
0.0
 10
3.999621446082632
 20
-0.3416841653567155
 30
0.0
 10
3.999621446082632
 20
-0.4622415247555307
 30
0.0
 10
3.999621446082632
 20
-0.7553539933537117
 30
0.0
 10
3.999621446082632
 20
-0.928019852562958
 30
0.0
 10
3.999621446082632
 20
-1.328578388429968
 30
0.0
 10
3.999621446082632
 20
-1.556344500972529
 30
0.0
 10
3.999621446082632
 20
-1.80522763635851
 30
0.0
  0
SPLINE
  5
BB
330
1F
100
AcDbEntity
  8
0
  6
Continuous
 62
     4
370
    25
100
AcDbSpline
210
0.0
220
0.0
230
1.0
 70
     8
 71
     3
 72
     8
 73
     4
 74
     0
 42
0.000000001
 43
0.00000001
 40
0.0
 40
0.0
 40
0.0
 40
0.0
 40
1.0
 40
1.0
 40
1.0
 40
1.0
 10
3.20394657385425
 20
-6.056408220253559
 30
0.0
 10
3.131475522170176
 20
-6.035376467168695
 30
0.0
 10
3.063368734875719
 20
-6.010929792547241
 30
0.0
 10
2.999621446082665
 20
-5.982743140897006
 30
0.0
  0
SPLINE
  5
BC
330
1F
100
AcDbEntity
  8
0
  6
Continuous
 62
     4
370
    25
100
AcDbSpline
210
0.0
220
0.0
230
1.0
 70
     8
 71
     3
 72
     8
 73
     4
 74
     0
 42
0.000000001
 43
0.00000001
 40
0.0
 40
0.0
 40
0.0
 40
0.0
 40
1.0
 40
1.0
 40
1.0
 40
1.0
 10
3.20394657385425
 20
3.50997428333095
 30
0.0
 10
3.131475522170172
 20
3.546264259264512
 30
0.0
 10
3.063368734875719
 20
3.587711073550961
 30
0.0
 10
2.999621446082665
 20
3.634113992440159
 30
0.0
  0
SPLINE
  5
BD
330
1F
100
AcDbEntity
  8
0
  6
Continuous
 62
     4
370
    25
100
AcDbSpline
210
0.0
220
0.0
230
1.0
 70
     8
 71
     3
 72
     8
 73
     4
 74
     0
 42
0.000000001
 43
0.00000001
 40
0.0
 40
0.0
 40
0.0
 40
0.0
 40
1.0
 40
1.0
 40
1.0
 40
1.0
 10
3.999621446082632
 20
3.105190789159627
 30
0.0
 10
3.733759261057163
 20
3.242555658465401
 30
0.0
 10
3.468249959095138
 20
3.37762401012996
 30
0.0
 10
3.20394657385425
 20
3.509974283330951
 30
0.0
  0
LINE
  5
BE
330
1F
100
AcDbEntity
  8
0
  6
Continuous
 62
     4
370
    25
100
AcDbLine
 10
3.999621446082632
 20
3.105190789159627
 30
0.0
 11
3.99962144608263
 21
-0.0697469551866472
 31
0.0
  0
SPLINE
  5
BF
330
1F
100
AcDbEntity
  8
0
  6
Continuous
 62
     4
370
    25
100
AcDbSpline
210
0.0
220
0.0
230
1.0
 70
    24
 71
     3
 72
     9
 73
     5
 74
     0
 42
0.000000001
 43
0.00000001
 40
0.0
 40
0.0
 40
0.0
 40
0.0
 40
0.6339785377529776
 40
1.0
 40
1.0
 40
1.0
 40
1.0
 10
3.999621446082636
 20
3.84545378957277
 30
0.0
 10
3.999621446082636
 20
3.647789153716452
 30
0.0
 10
3.999621446082639
 20
3.336004725560723
 30
0.0
 10
3.999621446082639
 20
3.167036709478878
 30
0.0
 10
3.999621446082639
 20
3.105190789159622
 30
0.0
  0
SPLINE
  5
C0
330
1F
100
AcDbEntity
  8
0
  6
Continuous
 62
     4
370
    25
100
AcDbSpline
210
0.0
220
0.0
230
1.0
 70
     8
 71
     3
 72
    10
 73
     6
 74
     0
 42
0.000000001
 43
0.00000001
 40
0.0
 40
0.0
 40
0.0
 40
0.0
 40
0.5000000000000001
 40
0.5000000000000001
 40
1.0
 40
1.0
 40
1.0
 40
1.0
 10
2.999621446082632
 20
6.988731409731222
 30
0.0
 10
3.137715119545867
 20
6.995402505499314
 30
0.0
 10
3.296062874546918
 20
6.997613073822701
 30
0.0
 10
3.638277903207684
 20
6.999776755645074
 30
0.0
 10
3.818707806063225
 20
6.99978215768073
 30
0.0
 10
3.999621446082632
 20
6.999652517249856
 30
0.0
  0
SPLINE
  5
C1
330
1F
100
AcDbEntity
  8
0
  6
Continuous
 62
     4
370
    25
100
AcDbSpline
210
0.0
220
0.0
230
1.0
 70
    24
 71
     3
 72
    14
 73
    10
 74
     0
 42
0.000000001
 43
0.00000001
 40
0.0
 40
0.0
 40
0.0
 40
0.0
 40
0.25
 40
0.25
 40
0.5
 40
0.5
 40
0.75
 40
0.75
 40
1.0
 40
1.0
 40
1.0
 40
1.0
 10
3.99962144608263
 20
6.999652517249857
 30
0.0
 10
3.99962144608263
 20
6.690334296968629
 30
0.0
 10
3.999621446082632
 20
6.388411668099235
 30
0.0
 10
3.99962144608263
 20
5.799454251376331
 30
0.0
 10
3.99962144608263
 20
5.509912571199458
 30
0.0
 10
3.99962144608263
 20
4.969931175613543
 30
0.0
 10
3.999621446082632
 20
4.717102102114657
 30
0.0
 10
3.999621446082632
 20
4.247744051164658
 30
0.0
 10
3.999621446082632
 20
4.03255017655212
 30
0.0
 10
3.999621446082632
 20
3.845453789572753
 30
0.0
  0
SPLINE
  5
C2
330
1F
100
AcDbEntity
  8
0
  6
Continuous
 62
     4
370
    25
100
AcDbSpline
210
0.0
220
0.0
230
1.0
 70
     8
 71
     3
 72
     8
 73
     4
 74
     0
 42
0.000000001
 43
0.00000001
 40
0.0
 40
0.0
 40
0.0
 40
0.0
 40
1.0
 40
1.0
 40
1.0
 40
1.0
 10
3.999621446082636
 20
-6.273578736488269
 30
0.0
 10
3.733759261057163
 20
-6.205588177217601
 30
0.0
 10
3.468249959095141
 20
-6.133111447386399
 30
0.0
 10
3.20394657385425
 20
-6.056408220253559
 30
0.0
  0
SPLINE
  5
C3
330
1F
100
AcDbEntity
  8
0
  6
Continuous
 62
     4
370
    25
100
AcDbSpline
210
0.0
220
0.0
230
1.0
 70
    24
 71
     3
 72
    14
 73
    10
 74
     0
 42
0.000000001
 43
0.00000001
 40
0.0
 40
0.0
 40
0.0
 40
0.0
 40
0.25
 40
0.25
 40
0.5
 40
0.5
 40
0.75
 40
0.75
 40
1.0
 40
1.0
 40
1.0
 40
1.0
 10
3.999621446082632
 20
-1.805227636359513
 30
0.0
 10
3.999621446082636
 20
-2.078349676889396
 30
0.0
 10
3.999621446082636
 20
-2.38698128998676
 30
0.0
 10
3.999621446082636
 20
-3.067431010716946
 30
0.0
 10
3.999621446082632
 20
-3.439298933369629
 30
0.0
 10
3.999621446082632
 20
-4.223230577290043
 30
0.0
 10
3.999621446082636
 20
-4.635098043569179
 30
0.0
 10
3.999621446082636
 20
-5.46234991868526
 30
0.0
 10
3.999621446082636
 20
-5.877328893348236
 30
0.0
 10
3.999621446082636
 20
-6.273578736488269
 30
0.0
  0
LINE
  5
C4
330
1F
100
AcDbEntity
  8
0
  6
Continuous
 62
     4
370
    25
100
AcDbLine
 10
3.999621446082636
 20
-6.273578736488269
 30
0.0
 11
3.999621446082632
 21
-6.999999999999995
 31
0.0
  0
LINE
  5
C5
330
1F
100
AcDbEntity
  8
0
  6
Continuous
 62
     4
370
    25
100
AcDbLine
 10
3.99962144608263
 20
7.000000000000005
 30
0.0
 11
3.99962144608263
 21
6.999652517249857
 31
0.0
  0
SPLINE
  5
C6
330
1F
100
AcDbEntity
  8
0
  6
Continuous
 62
     1
370
    25
100
AcDbSpline
210
0.0
220
0.0
230
1.0
 70
     8
 71
     3
 72
    26
 73
    22
 74
     0
 42
0.000000001
 43
0.00000001
 40
0.0
 40
0.0
 40
0.0
 40
0.0
 40
0.0330987223801104
 40
0.0901658012499282
 40
0.1472327907039986
 40
0.2042996883886589
 40
0.2613664919518595
 40
0.3184331990432051
 40
0.375499807313996
 40
0.4325663144172681
 40
0.489632718007835
 40
0.5466990157423264
 40
0.6037652052792312
 40
0.660831284278936
 40
0.717897250403767
 40
0.7718947940079915
 40
0.8258897956501852
 40
0.8798825406852668
 40
0.9338733154361631
 40
0.9878624070720011
 40
1.0
 40
1.0
 40
1.0
 40
1.0
 10
16.38868018524665
 20
5.88454158333254
 30
0.0
 10
16.88414674410143
 20
6.043555048324546
 30
0.0
 10
18.23387072313123
 20
6.476731178686221
 30
0.0
 10
20.43755780944361
 20
6.86111998649127
 30
0.0
 10
23.00009988652437
 20
7.053612301160609
 30
0.0
 10
25.56260611492131
 20
6.918552680116665
 30
0.0
 10
28.12511555398718
 20
6.47923880834095
 30
0.0
 10
30.68761757501119
 20
5.750590925576044
 30
0.0
 10
33.25011487412453
 20
4.766278846326317
 30
0.0
 10
35.81260653661209
 20
3.56977670356604
 30
0.0
 10
38.37509276691588
 20
2.214423996829565
 30
0.0
 10
40.93757290428674
 20
0.7605148256880886
 30
0.0
 10
43.50004863019048
 20
-0.7272338892039903
 30
0.0
 10
46.06251312307096
 20
-2.182632166475996
 30
0.0
 10
48.57906502303692
 20
-3.516493573821802
 30
0.0
 10
51.04957931774491
 20
-4.678345750340958
 30
0.0
 10
53.47408339132647
 20
-5.630597167314524
 30
0.0
 10
55.89846319292646
 20
-6.364671380684448
 30
0.0
 10
58.3227366892907
 20
-6.821838165856945
 30
0.0
 10
60.12054782594226
 20
-7.023731610929614
 30
0.0
 10
61.11026666372504
 20
-6.983109317394398
 30
0.0
 10
61.29193015472588
 20
-6.975653070858157
 30
0.0
  0
SPLINE
  5
C7
330
1F
100
AcDbEntity
  8
0
  6
Continuous
 62
     1
370
    25
100
AcDbSpline
210
0.0
220
0.0
230
1.0
 70
     8
 71
     3
 72
    21
 73
    17
 74
     0
 42
0.000000001
 43
0.00000001
 40
0.0
 40
0.0
 40
0.0
 40
0.0
 40
0.0724214065158918
 40
0.144842974027002
 40
0.2172646995824293
 40
0.2896865802285054
 40
0.3621086130088469
 40
0.4345307949644036
 40
0.5069531231335123
 40
0.5793755945519466
 40
0.6517982062529681
 40
0.7242209552673777
 40
0.7966438386235662
 40
0.869066853347567
 40
0.9414899964631072
 40
1.0
 40
1.0
 40
1.0
 40
1.0
 10
63.99962144608264
 20
-6.826159888486819
 30
0.0
 10
63.14548036431301
 20
-6.687488346674961
 30
0.0
 10
61.43719630198947
 20
-6.41014495477975
 30
0.0
 10
58.87476594800162
 20
-5.627455014745935
 30
0.0
 10
56.3123289690405
 20
-4.616132655031143
 30
0.0
 10
53.74988538500169
 20
-3.393529835416793
 30
0.0
 10
51.18743534953187
 20
-2.021465750884999
 30
0.0
 10
48.62497898057467
 20
-0.5590210768037163
 30
0.0
 10
46.06251640584064
 20
0.9282037733285735
 30
0.0
 10
43.50004775036842
 20
2.374103612998445
 30
0.0
 10
40.93757314079636
 20
3.714516074088811
 30
0.0
 10
38.37509270070177
 20
4.888959098054795
 30
0.0
 10
35.81260656495834
 20
5.848289172202973
 30
0.0
 10
33.25011482695368
 20
6.538140496036266
 30
0.0
 10
30.85171215798245
 20
6.943627473738173
 30
0.0
 10
29.30747300460331
 20
6.965851304044061
 30
0.0
 10
28.61739993574269
 20
6.975782451526926
 30
0.0
  0
LINE
  5
C8
330
1F
100
AcDbEntity
  8
0
  6
Continuous
 62
     1
370
    25
100
AcDbLine
 10
63.99962144608265
 20
-7.000000000000005
 30
0.0
 11
63.99962144608265
 21
-6.82615988848683
 31
0.0
  0
SPLINE
  5
C9
330
1F
100
AcDbEntity
  8
0
  6
Continuous
 62
     1
370
    25
100
AcDbSpline
210
0.0
220
0.0
230
1.0
 70
     8
 71
     3
 72
    25
 73
    21
 74
     0
 42
0.000000001
 43
0.00000001
 40
0.0
 40
0.0
 40
0.0
 40
0.0
 40
0.016298338403747
 40
0.0733582815382892
 40
0.130418342205148
 40
0.1874785180708854
 40
0.2445388068000439
 40
0.3015992060551864
 40
0.3586597134969376
 40
0.415720326784023
 40
0.4727810435733109
 40
0.5298418615198524
 40
0.5869027782769217
 40
0.6439637914960571
 40
0.7010248988271024
 40
0.7580860979182463
 40
0.815147386416065
 40
0.8769273485514175
 40
0.9387137881408669
 40
1.0
 40
1.0
 40
1.0
 40
1.0
 10
54.48181308706931
 20
-5.895300897576864
 30
0.0
 10
54.23783773515353
 20
-5.978073029170141
 30
0.0
 10
53.13971275389004
 20
-6.350627652992905
 30
0.0
 10
51.18743529825606
 20
-6.744183675315451
 30
0.0
 10
48.62497899432642
 20
-7.033391947685103
 30
0.0
 10
46.06251640210954
 20
-6.990081730486307
 30
0.0
 10
43.50004775154095
 20
-6.640910315689049
 30
0.0
 10
40.9375731398373
 20
-5.99479002331582
 30
0.0
 10
38.37509270336545
 20
-5.082250806757698
 30
0.0
 10
35.81260655526265
 20
-3.943428454481631
 30
0.0
 10
33.25011486307287
 20
-2.629131750383291
 30
0.0
 10
30.68761760056726
 20
-1.197821191003517
 30
0.0
 10
28.12511546281434
 20
0.286805627406518
 30
0.0
 10
25.56260645405735
 20
1.758637161278773
 30
0.0
 10
23.00009862115018
 20
3.152323961102564
 30
0.0
 10
20.43756253181482
 20
4.405263608206768
 30
0.0
 10
17.80447603274218
 20
5.493026053769943
 30
0.0
 10
15.10029969690791
 20
6.335854622299846
 30
0.0
 10
12.33289518373203
 20
6.895498780443612
 30
0.0
 10
10.4903507877182
 20
6.964274425751065
 30
0.0
 10
9.572823092614144
 20
6.998522479396206
 30
0.0
  0
LINE
  5
CA
330
1F
100
AcDbEntity
  8
0
  6
Continuous
 62
     1
370
    25
100
AcDbLine
 10
3.999621446081965
 20
-6.999412744936217
 30
0.0
 11
4.156120620375005
 21
-6.990280530929879
 31
0.0
  0
SPLINE
  5
CB
330
1F
100
AcDbEntity
  8
0
  6
Continuous
 62
     1
370
    25
100
AcDbSpline
210
0.0
220
0.0
230
1.0
 70
     8
 71
     3
 72
    19
 73
    15
 74
     0
 42
0.000000001
 43
0.00000001
 40
0.0
 40
0.0
 40
0.0
 40
0.0
 40
0.0137470798747483
 40
0.1061209591606419
 40
0.198494667096394
 40
0.29086819989178
 40
0.383241553759648
 40
0.4756147249159848
 40
0.5630210140947884
 40
0.6504231885777467
 40
0.737821710271325
 40
0.8252170426489129
 40
0.9126096505536506
 40
1.0
 40
1.0
 40
1.0
 40
1.0
 10
35.43125864821909
 20
5.906357715710952
 30
0.0
 10
35.55837508634639
 20
5.950648173469799
 30
0.0
 10
36.53965390788964
 20
6.29254957375674
 30
0.0
 10
38.37509271349284
 20
6.680397111027919
 30
0.0
 10
40.93757291855346
 20
7.015264251887741
 30
0.0
 10
43.50004862654649
 20
7.013616194026572
 30
0.0
 10
46.06251312338023
 20
6.706364399553991
 30
0.0
 10
48.57906502540624
 20
6.109721952293832
 30
0.0
 10
51.04957930858735
 20
5.270021295049327
 30
0.0
 10
53.47408342579931
 20
4.235836301786239
 30
0.0
 10
55.89846306419967
 20
3.032692154949775
 30
0.0
 10
58.32273716970186
 20
1.709537527311827
 30
0.0
 10
60.74692110417771
 20
0.315193934953174
 30
0.0
 10
62.36300988033265
 20
-0.6150568915547423
 30
0.0
 10
63.17104382726267
 20
-1.080176294689596
 30
0.0
  0
SPLINE
  5
CC
330
1F
100
AcDbEntity
  8
0
  6
Continuous
 62
     1
370
    25
100
AcDbSpline
210
0.0
220
0.0
230
1.0
 70
     8
 71
     3
 72
    10
 73
     6
 74
     0
 42
0.000000001
 43
0.00000001
 40
0.0
 40
0.0
 40
0.0
 40
0.0
 40
0.5
 40
0.5
 40
1.0
 40
1.0
 40
1.0
 40
1.0
 10
63.99962144608265
 20
-5.171500304077856
 30
0.0
 10
63.41837337859801
 20
-4.844748980112349
 30
0.0
 10
62.85386070385085
 20
-4.480207734126554
 30
0.0
 10
61.75091605633782
 20
-3.692232827165303
 30
0.0
 10
61.21249984460102
 20
-3.268763576462849
 30
0.0
 10
60.68482112143219
 20
-2.821048174980268
 30
0.0
  0
LINE
  5
CD
330
1F
100
AcDbEntity
  8
0
  6
Continuous
 62
     1
370
    25
100
AcDbLine
 10
63.99962144608265
 20
-6.82615988848683
 30
0.0
 11
63.99962144608265
 21
-5.171500304077854
 31
0.0
  0
SPLINE
  5
CE
330
1F
100
AcDbEntity
  8
0
  6
Continuous
 62
     1
370
    25
100
AcDbSpline
210
0.0
220
0.0
230
1.0
 70
    24
 71
     3
 72
    16
 73
    12
 74
     0
 42
0.000000001
 43
0.00000001
 40
0.0
 40
0.0
 40
0.0
 40
0.0
 40
0.1383001269435905
 40
0.2967146127503193
 40
0.3990065073485358
 40
0.5040979227997362
 40
0.6064721152797263
 40
0.7121121100188851
 40
0.8103716784334181
 40
0.9110103565443047
 40
1.0
 40
1.0
 40
1.0
 40
1.0
 10
63.16663603354746
 20
-1.083262665075861
 30
0.0
 10
63.15988505677128
 20
-1.087989749904833
 30
0.0
 10
63.14540124172276
 20
-1.098131426383831
 30
0.0
 10
62.99647200656573
 20
-1.202412799500599
 30
0.0
 10
62.77530110312508
 20
-1.35727833332238
 30
0.0
 10
62.52339598867231
 20
-1.533664193375809
 30
0.0
 10
62.20952446743203
 20
-1.753439398577581
 30
0.0
 10
61.85321635151048
 20
-2.002929027271141
 30
0.0
 10
61.46361303044571
 20
-2.275732209592259
 30
0.0
 10
61.07384747000557
 20
-2.548648993147012
 30
0.0
 10
60.80907483224956
 20
-2.734044790015385
 30
0.0
 10
60.68482112143216
 20
-2.821048174980263
 30
0.0
  0
SPLINE
  5
CF
330
1F
100
AcDbEntity
  8
0
  6
Continuous
 62
     1
370
    25
100
AcDbSpline
210
0.0
220
0.0
230
1.0
 70
     8
 71
     3
 72
    19
 73
    15
 74
     0
 42
0.000000001
 43
0.00000001
 40
0.0
 40
0.0
 40
0.0
 40
0.0
 40
0.0693965998826208
 40
0.1509265937247003
 40
0.2324567287498547
 40
0.31398700160254
 40
0.3955174089247914
 40
0.4770479473562794
 40
0.5585786135343701
 40
0.6468514444141893
 40
0.735133530450377
 40
0.8234213442729967
 40
0.911711348062302
 40
1.0
 40
1.0
 40
1.0
 40
1.0
 10
35.431258648219
 20
-5.906357715710932
 30
0.0
 10
34.70421122294677
 20
-6.118482758419223
 30
0.0
 10
33.12299843214362
 20
-6.579821068852593
 30
0.0
 10
30.68761758498313
 20
-6.945331188340586
 30
0.0
 10
28.12511546683796
 20
-7.047684513028799
 30
0.0
 10
25.56260645354703
 20
-6.829185504538266
 30
0.0
 10
23.00009861916779
 20
-6.308685771621251
 30
0.0
 10
20.43756254025469
 20
-5.506899045445796
 30
0.0
 10
17.80447599985643
 20
-4.431329310031267
 30
0.0
 10
15.10029983108623
 20
-3.108658492821058
 30
0.0
 10
12.3253458254398
 20
-1.588567523502984
 30
0.0
 10
9.550154863925204
 20
0.0113084158462658
 30
0.0
 10
6.77488490016366
 20
1.622229802386297
 30
0.0
 10
4.924704542570014
 20
2.610872983188114
 30
0.0
 10
3.999621446082431
 20
3.105190789159734
 30
0.0
  0
SPLINE
  5
D0
330
1F
100
AcDbEntity
  8
0
  6
Continuous
 62
     4
370
    25
100
AcDbSpline
210
0.0
220
0.0
230
1.0
 70
    24
 71
     3
 72
    14
 73
    10
 74
     0
 42
0.000000001
 43
0.00000001
 40
0.0
 40
0.0
 40
0.0
 40
0.0
 40
0.1379664552831498
 40
0.2792783004233447
 40
0.4295471285012674
 40
0.5841737627733827
 40
0.7344425908513054
 40
0.8890692251234209
 40
1.0
 40
1.0
 40
1.0
 40
1.0
 10
3.999621446082636
 20
6.999412744947007
 30
0.0
 10
3.999621446082636
 20
6.754881772621588
 30
0.0
 10
3.999621446082636
 20
6.259890477732156
 30
0.0
 10
3.999621446082636
 20
5.53993690651344
 30
0.0
 10
3.999621446082639
 20
4.849330591463099
 30
0.0
 10
3.999621446082636
 20
4.226120814256256
 30
0.0
 10
3.999621446082636
 20
3.702381669897858
 30
0.0
 10
3.999621446082636
 20
3.317875437642529
 30
0.0
 10
3.999621446082636
 20
3.167857491227962
 30
0.0
 10
3.999621446082636
 20
3.105190789159623
 30
0.0
  0
SPLINE
  5
D1
330
1F
100
AcDbEntity
  8
0
  6
Continuous
 62
     1
370
    25
100
AcDbSpline
210
0.0
220
0.0
230
1.0
 70
     8
 71
     3
 72
    22
 73
    18
 74
     0
 42
0.000000001
 43
0.00000001
 40
0.0
 40
0.0
 40
0.0
 40
0.0
 40
0.0725536453415902
 40
0.1451084016046853
 40
0.2176613582019941
 40
0.2902096078321417
 40
0.3627502517811742
 40
0.4297503351273648
 40
0.4967503134942461
 40
0.5637501841184804
 40
0.6307499442386244
 40
0.6977495910951766
 40
0.7647491219306263
 40
0.8317485339895008
 40
0.8987478245184142
 40
0.9657469907661128
 40
1.0
 40
1.0
 40
1.0
 40
1.0
 10
3.999621446081964
 20
6.999412744936228
 30
0.0
 10
4.924704542569534
 20
6.970896006256277
 30
0.0
 10
6.774884900163156
 20
6.9138620922559
 30
0.0
 10
9.550154863925403
 20
6.36994110316557
 30
0.0
 10
12.3253458254378
 20
5.520034284489944
 30
0.0
 10
15.10029983109289
 20
4.375298922905451
 30
0.0
 10
17.80447599983196
 20
3.039084208762262
 30
0.0
 10
20.43756254033814
 20
1.594602025399914
 30
0.0
 10
23.00009861885554
 20
0.1179920034315669
 30
0.0
 10
25.56260645471255
 20
-1.363912914908123
 30
0.0
 10
28.12511546248811
 20
-2.785028084574573
 30
0.0
 10
30.68761760121697
 20
-4.082504722015869
 30
0.0
 10
33.25011486080027
 20
-5.197143858964278
 30
0.0
 10
35.81260656370331
 20
-6.084765073332663
 30
0.0
 10
38.3750926718755
 20
-6.685619318359027
 30
0.0
 10
40.52010006611378
 20
-6.989402918028765
 30
0.0
 10
41.8109450328418
 20
-6.968157063339125
 30
0.0
 10
42.2476302137236
 20
-6.960969716959605
 30
0.0
  0
LINE
  5
D2
330
1F
100
AcDbEntity
  8
0
  6
Continuous
 62
     4
370
    25
100
AcDbLine
 10
3.999621446082636
 20
-6.999412744946995
 30
0.0
 11
3.999621446082636
 21
-6.27357873648513
 31
0.0
  0
SPLINE
  5
D3
330
1F
100
AcDbEntity
  8
0
  6
Continuous
 62
     1
370
    25
100
AcDbSpline
210
0.0
220
0.0
230
1.0
 70
     8
 71
     3
 72
    14
 73
    10
 74
     0
 42
0.000000001
 43
0.00000001
 40
0.0
 40
0.0
 40
0.0
 40
0.0
 40
0.1568559799827388
 40
0.3137123086615877
 40
0.4705689796452528
 40
0.6274259865364469
 40
0.7842833229320022
 40
0.941140982422975
 40
1.0
 40
1.0
 40
1.0
 40
1.0
 10
63.99962144608264
 20
1.550335827107683
 30
0.0
 10
63.14548036424696
 20
2.024529099034935
 30
0.0
 10
61.43719630179128
 20
2.972916697037
 30
0.0
 10
58.87476594879428
 20
4.24506407702697
 30
0.0
 10
56.31232896606799
 20
5.331805738813204
 30
0.0
 10
53.74988539609901
 20
6.185333172813643
 30
0.0
 10
51.18743530811498
 20
6.743793315885111
 30
0.0
 10
49.15862227086843
 20
7.007801787941216
 30
0.0
 10
47.98395892576212
 20
6.972908466286573
 30
0.0
 10
47.66344809917032
 20
6.963387706647095
 30
0.0
  0
SPLINE
  5
D4
330
1F
100
AcDbEntity
  8
0
  6
Continuous
 62
     1
370
    25
100
AcDbSpline
210
0.0
220
0.0
230
1.0
 70
     8
 71
     3
 72
    12
 73
     8
 74
     0
 42
0.000000001
 43
0.00000001
 40
0.0
 40
0.0
 40
0.0
 40
0.0
 40
0.1039882903043248
 40
0.327978397565473
 40
0.5519830374181679
 40
0.7759932336741469
 40
1.0
 40
1.0
 40
1.0
 40
1.0
 10
16.38868018524666
 20
-5.884541583332529
 30
0.0
 10
15.95925497569338
 20
-6.024909880451373
 30
0.0
 10
14.60485063178771
 20
-6.467630585093235
 30
0.0
 10
12.32533982876351
 20
-6.870595329343284
 30
0.0
 10
9.550156463127795
 20
-7.060270237097418
 30
0.0
 10
6.774884500366015
 20
-6.888255335154906
 30
0.0
 10
4.924704409304812
 20
-6.478469890298082
 30
0.0
 10
3.999621446082431
 20
-6.273578736488226
 30
0.0
  0
LINE
  5
D5
330
1F
100
AcDbEntity
  8
0
  6
Continuous
 62
     1
370
    25
100
AcDbLine
 10
63.99962144608265
 20
-0.5000000000000155
 30
0.0
 11
63.99962144608265
 21
1.550335827107684
 31
0.0
  0
LINE
  5
D6
330
1F
100
AcDbEntity
  8
0
  6
Continuous
 62
     1
370
    25
100
AcDbLine
 10
63.99962144608265
 20
-0.5000000000000149
 30
0.0
 11
63.17104382726267
 21
-1.080176294689604
 31
0.0
  0
SPLINE
  5
D7
330
1F
100
AcDbEntity
  8
0
  6
Continuous
 62
     4
370
    25
100
AcDbSpline
210
0.0
220
0.0
230
1.0
 70
    24
 71
     3
 72
    24
 73
    20
 74
     0
 42
0.000000001
 43
0.00000001
 40
0.0
 40
0.0
 40
0.0
 40
0.0
 40
0.0625000000000002
 40
0.0625000000000002
 40
0.1250000000000004
 40
0.1250000000000004
 40
0.2500000000000004
 40
0.2500000000000004
 40
0.3750000000000004
 40
0.3750000000000004
 40
0.5000000000000004
 40
0.5000000000000004
 40
0.6250000000000004
 40
0.6250000000000004
 40
0.7500000000000004
 40
0.7500000000000004
 40
0.8750000000000002
 40
0.8750000000000002
 40
1.0
 40
1.0
 40
1.0
 40
1.0
 10
3.999621446082636
 20
0.0906709767476818
 30
0.0
 10
3.999621446082632
 20
0.0715035125175216
 30
0.0
 10
3.999621446082632
 20
0.0484303026572575
 30
0.0
 10
3.999621446082632
 20
-0.0037346206002755
 30
0.0
 10
3.999621446082632
 20
-0.0338576616170543
 30
0.0
 10
3.999621446082632
 20
-0.141813933060912
 30
0.0
 10
3.999621446082636
 20
-0.2359651422810185
 30
0.0
 10
3.999621446082636
 20
-0.4836442335984138
 30
0.0
 10
3.999621446082636
 20
-0.637298436342482
 30
0.0
 10
3.999621446082636
 20
-1.018955086937046
 30
0.0
 10
3.999621446082632
 20
-1.247189603598964
 30
0.0
 10
3.999621446082636
 20
-1.78752195158328
 30
0.0
 10
3.999621446082636
 20
-2.099906966379264
 30
0.0
 10
3.999621446082636
 20
-2.804487877880226
 30
0.0
 10
3.999621446082636
 20
-3.196835962083876
 30
0.0
 10
3.999621446082636
 20
-4.036255329076999
 30
0.0
 10
3.999621446082632
 20
-4.483097884051865
 30
0.0
 10
3.999621446082632
 20
-5.38567501607795
 30
0.0
 10
3.999621446082632
 20
-5.840801071654326
 30
0.0
 10
3.999621446082632
 20
-6.273578736485129
 30
0.0
  0
SPLINE
  5
D8
330
1F
100
AcDbEntity
  8
0
  6
Continuous
 62
     1
370
    25
100
AcDbSpline
210
0.0
220
0.0
230
1.0
 70
     8
 71
     3
 72
    15
 73
    11
 74
     0
 42
0.000000001
 43
0.00000001
 40
0.0
 40
0.0
 40
0.0
 40
0.0
 40
0.1445180554943471
 40
0.2890383238094964
 40
0.4335550074088297
 40
0.5780623153008747
 40
0.72255447359926
 40
0.8560105076491465
 40
0.9894663325929905
 40
1.0
 40
1.0
 40
1.0
 40
1.0
 10
3.999621446081965
 20
0.0906709767463631
 30
0.0
 10
4.924704543013336
 20
-0.4437685256522297
 30
0.0
 10
6.774884901494564
 20
-1.512655713640398
 30
0.0
 10
9.550154858599736
 20
-3.038149493081141
 30
0.0
 10
12.32534584540793
 20
-4.405572366777854
 30
0.0
 10
15.10029975654633
 20
-5.540610956093557
 30
0.0
 10
17.80447626903839
 20
-6.374983368104547
 30
0.0
 10
20.43756162067342
 20
-6.8487797964165
 30
0.0
 10
22.21334370996244
 20
-7.043267652253337
 30
0.0
 10
23.13493561658129
 20
-6.992388619699501
 30
0.0
 10
23.20235541555983
 20
-6.9886665230509
 30
0.0
  0
SPLINE
  5
D9
330
1F
100
AcDbEntity
  8
0
  6
Continuous
 62
     1
370
    25
100
AcDbSpline
210
0.0
220
0.0
230
1.0
 70
     8
 71
     3
 72
    11
 73
     7
 74
     0
 42
0.000000001
 43
0.00000001
 40
0.0
 40
0.0
 40
0.0
 40
0.0
 40
0.163036412310424
 40
0.4420324764382637
 40
0.7210198431084569
 40
1.0
 40
1.0
 40
1.0
 40
1.0
 10
54.48181308706931
 20
5.895300897576881
 30
0.0
 10
54.95403919551636
 20
6.044150848961034
 30
0.0
 10
56.2343622423595
 20
6.447720282903038
 30
0.0
 10
58.32273659754963
 20
6.826390168134091
 30
0.0
 10
60.74692124720962
 20
7.053725024329158
 30
0.0
 10
62.36300992800955
 20
6.962012204562741
 30
0.0
 10
63.17104382726267
 20
6.916156387213239
 30
0.0
  0
SPLINE
  5
DA
330
1F
100
AcDbEntity
  8
0
  6
Continuous
 62
     1
370
    25
100
AcDbSpline
210
0.0
220
0.0
230
1.0
 70
     8
 71
     3
 72
    20
 73
    16
 74
     0
 42
0.000000001
 43
0.00000001
 40
0.0
 40
0.0
 40
0.0
 40
0.0
 40
0.2499999999999999
 40
0.2499999999999999
 40
0.3749999999999998
 40
0.3749999999999998
 40
0.4999999999999998
 40
0.4999999999999998
 40
0.6249999999999998
 40
0.6249999999999998
 40
0.7499999999999998
 40
0.7499999999999998
 40
0.8749999999999998
 40
0.8749999999999998
 40
1.0
 40
1.0
 40
1.0
 40
1.0
 10
63.17104382726267
 20
6.916156387213252
 30
0.0
 10
63.17503760623094
 20
6.477914081147656
 30
0.0
 10
63.13438518051927
 20
6.048876774370262
 30
0.0
 10
62.98388533270541
 20
5.423777985945908
 30
0.0
 10
62.91758367749816
 20
5.217055618836856
 30
0.0
 10
62.75511306964095
 20
4.829499225385051
 30
0.0
 10
62.65872734116636
 20
4.646608771318808
 30
0.0
 10
62.43231730985767
 20
4.305001980548573
 30
0.0
 10
62.30477794391286
 20
4.150564906622099
 30
0.0
 10
62.0269253664459
 20
3.87960769404541
 30
0.0
 10
61.87405570859524
 20
3.760964557577493
 30
0.0
 10
61.5532220588076
 20
3.565588174131654
 30
0.0
 10
61.38633605571564
 20
3.488825159167531
 30
0.0
 10
61.04085460059343
 20
3.373174463829243
 30
0.0
 10
60.86255209622595
 20
3.334792535070941
 30
0.0
 10
60.68482112143216
 20
3.314800324650467
 30
0.0
  0
SPLINE
  5
DB
330
1F
100
AcDbEntity
  8
0
  6
Continuous
 62
     1
370
    25
100
AcDbSpline
210
0.0
220
0.0
230
1.0
 70
     8
 71
     3
 72
     9
 73
     5
 74
     0
 42
0.000000001
 43
0.00000001
 40
0.0
 40
0.0
 40
0.0
 40
0.0
 40
0.5202022741133734
 40
1.0
 40
1.0
 40
1.0
 40
1.0
 10
63.99962144608265
 20
1.700287060049841
 30
0.0
 10
63.4322631092433
 20
1.998391254815044
 30
0.0
 10
62.34161363485119
 20
2.571445640771524
 30
0.0
 10
61.31996615470522
 20
3.028652927699036
 30
0.0
 10
60.82978201707338
 20
3.248019944225651
 30
0.0
  0
LINE
  5
DC
330
1F
100
AcDbEntity
  8
0
  6
Continuous
 62
     1
370
    25
100
AcDbLine
 10
63.99962144608265
 20
1.556275934425665
 30
0.0
 11
63.99962144608265
 21
1.700287060049841
 31
0.0
  0
LINE
  5
DD
330
1F
100
AcDbEntity
  8
0
  6
Continuous
 62
     4
370
    25
100
AcDbLine
 10
3.999621446082636
 20
0.0906709767476751
 30
0.0
 11
3.999621446082636
 21
3.1051907891586
 31
0.0
  0
LINE
  5
DE
330
1F
100
AcDbEntity
  8
0
  6
Continuous
 62
     1
370
    25
100
AcDbLine
 10
63.99962144608265
 20
6.982120021884488
 30
0.0
 11
63.99962144608265
 21
7.000000000000017
 31
0.0
  0
ELLIPSE
  5
DF
330
1F
100
AcDbEntity
  8
0
  6
Continuous
 62
     1
370
    25
100
AcDbEllipse
 10
64.71369544945368
 20
0.0000000000000051
 30
0.0
 11
9.997036047194783
 21
5.350968460038300E-17
 31
0.0
210
0.0
220
0.0
230
1.0
 40
0.7002075382097117
 41
1.642285776680415
 42
1.725726287459303
  0
LINE
  5
E0
330
1F
100
AcDbEntity
  8
0
  6
Continuous
 62
     1
370
    25
100
AcDbLine
 10
63.99962144608265
 20
-0.4999999999999912
 30
0.0
 11
63.99962144608265
 21
-5.171500304077854
 31
0.0
  0
LINE
  5
E1
330
1F
100
AcDbEntity
  8
0
  6
Continuous
 62
     1
370
    25
100
AcDbLine
 10
63.99962144608265
 20
1.700287060049841
 30
0.0
 11
63.99962144608265
 21
6.982120021884488
 31
0.0
  0
LINE
  5
E2
330
1F
100
AcDbEntity
  8
중심선
100
AcDbLine
 10
-89.00037855391736
 20
-0.0000000000000001
 30
0.0
 11
66.99962144608264
 21
0.000000000000019
 31
0.0
  0
CIRCLE
  5
E3
330
1F
100
AcDbEntity
  8
해칭선
100
AcDbCircle
 10
0.0
 20
0.0
 30
0.0
 40
2.999999999999999
  0
INSERT
  5
E4
330
1F
100
AcDbEntity
  8
0
  6
Continuous
 62
     7
100
AcDbBlockReference
 66
     1
  2
블럭10
 10
-17.44009924894178
 20
-52.04717430164393
 30
0.0
  0
ATTRIB
  5
E5
330
E4
100
AcDbEntity
  8
FORMAT
 62
     2
100
AcDbText
 10
-33.55936028837733
 20
-49.97180738881174
 30
0.0
 40
4.233333333333333
  1
SEME7214060E [ 4 FLUTE ]
 41
0.75
  7
SLDTEXTSTYLE0
 11
-33.55936028837733
 21
-52.08847405547841
 31
0.0
100
AcDbAttribute
  2
AUTOATTR0
 70
     0
 74
     1
  0
SEQEND
  5
E6
330
E4
100
AcDbEntity
  8
0
  6
Continuous
 62
     7
  0
HATCH
  5
E7
330
1F
100
AcDbEntity
  8
중심선
100
AcDbHatch
 10
0.0
 20
0.0
 30
0.0
210
0.0
220
0.0
230
1.0
  2
SOLID
 70
     1
 71
     0
 91
        1
 92
        0
 93
        4
 72
     1
 10
-11.72518994456093
 20
-35.8
 11
-15.17146518839821
 21
-35.8
 72
     1
 10
-15.17146518839821
 20
-35.8
 11
-17.29969504760223
 21
-38.33632558057262
 72
     1
 10
-17.29969504760223
 20
-38.33632558057262
 11
-13.85338671865177
 21
-38.33628615127013
 72
     1
 10
-13.85338671865177
 20
-38.33628615127013
 11
-11.72518994456093
 21
-35.8
 97
        0
 75
     0
 76
     1
 98
        1
 10
0.0
 20
0.0
  0
HATCH
  5
E8
330
1F
100
AcDbEntity
  8
중심선
100
AcDbHatch
 10
0.0
 20
0.0
 30
0.0
210
0.0
220
0.0
230
1.0
  2
SOLID
 70
     1
 71
     0
 91
        1
 92
        0
 93
        4
 72
     1
 10
-6.71242595352492
 20
-35.8
 11
-10.1587011973622
 21
-35.8
 72
     1
 10
-10.1587011973622
 20
-35.8
 11
-14.68983920571965
 21
-41.20000000000002
 72
     1
 10
-14.68983920571965
 20
-41.20000000000002
 11
-11.24356396188236
 21
-41.20000000000002
 72
     1
 10
-11.24356396188236
 20
-41.20000000000002
 11
-6.71242595352492
 21
-35.8
 97
        0
 75
     0
 76
     1
 98
        1
 10
0.0
 20
0.0
  0
HATCH
  5
E9
330
1F
100
AcDbEntity
  8
중심선
100
AcDbHatch
 10
0.0
 20
0.0
 30
0.0
210
0.0
220
0.0
230
1.0
  2
SOLID
 70
     1
 71
     0
 91
        1
 92
        0
 93
        4
 72
     1
 10
-1.69966196248908
 20
-35.8
 11
-5.145937206326168
 21
-35.8
 72
     1
 10
-5.145937206326168
 20
-35.8
 11
-12.19437410821545
 21
-44.20000000000002
 72
     1
 10
-12.19437410821545
 20
-44.20000000000002
 11
-8.748098864378163
 21
-44.20000000000002
 72
     1
 10
-8.748098864378163
 20
-44.20000000000002
 11
-1.699661962489079
 21
-35.8
 97
        0
 75
     0
 76
     1
 98
        1
 10
0.0
 20
0.0
  0
HATCH
  5
EA
330
1F
100
AcDbEntity
  8
중심선
100
AcDbHatch
 10
0.0
 20
0.0
 30
0.0
210
0.0
220
0.0
230
1.0
  2
SOLID
 70
     1
 71
     0
 91
        1
 92
        0
 93
        6
 72
     3
 10
3.100228468523119
 20
-40.00000000005127
 11
3.960054785062284
 21
1.540850780301639E-10
 40
0.3939339440162633
 50
17.09539180608433
 51
320.0019657685079
 73
     0
 72
     1
 10
4.783228124223715
 20
-38.5878940046383
 11
7.088529997924753
 21
-36.65356729459038
 72
     3
 10
3.100228468470273
 20
-40.00000000000015
 11
6.600054785286829
 21
-1.249000902703301E-13
 40
0.6363583540795982
 50
39.99873849337408
 51
368.4976242363724
 73
     1
 72
     1
 10
9.525560960370882
 20
-39.03999999993002
 11
1.780295775306195
 21
-39.03999999993002
 72
     1
 10
1.780295775306195
 20
-39.03999999993002
 11
1.780270730860262
 21
-40.95999999992991
 72
     1
 10
1.780270730860262
 20
-40.95999999992991
 11
6.221650500332299
 21
-40.95999999992988
 97
        0
 75
     0
 76
     1
 98
        1
 10
0.0
 20
0.0
  0
DIMENSION
  5
EB
330
1F
100
AcDbEntity
  8
치수문자_일반주서
100
AcDbDimension
  2
_D
 10
80.03603433715843
 20
7.000000000000062
 30
0.0
 11
80.0360343371584
 21
17.54150000000006
 31
0.0
 70
   160
  1
%%c<>
 71
     2
 42
14.0
 52
-270.0
  3
SLDDIMSTYLE0
100
AcDbAlignedDimension
 13
63.99962144608265
 23
-6.999999999999996
 33
0.0
 14
63.99962144608265
 24
7.000000000000004
 34
0.0
 50
90.0000000000002
100
AcDbRotatedDimension
  0
DIMENSION
  5
F9
330
1F
100
AcDbEntity
  8
치수문자_일반주서
100
AcDbDimension
  2
_D_1
 10
63.99962144608265
 20
25.38913260158164
 30
0.0
 11
-11.00037855391736
 21
25.38913260158164
 31
0.0
 70
   160
  1
<>
 71
     2
 42
150.0
  3
SLDDIMSTYLE1
100
AcDbAlignedDimension
 13
-86.00037855391736
 23
7.499999999999994
 33
0.0
 14
63.99962144608265
 24
7.000000000000017
 34
0.0
 50
-0.0000000000000027
100
AcDbRotatedDimension
  0
DIMENSION
  5
104
330
1F
100
AcDbEntity
  8
치수문자_일반주서
100
AcDbDimension
  2
_D_2
 10
-100.3278278943611
 20
-8.00000000000006
 30
0.0
 11
-100.3278278943611
 21
18.54149999999993
 31
0.0
 70
   160
  1
%%c<>
 71
     2
 42
15.99999999999999
 52
-270.0
  3
SLDDIMSTYLE2
100
AcDbAlignedDimension
 13
-85.50037855391736
 23
7.999999999999984
 33
0.0
 14
-85.50037855391736
 24
-8.000000000000004
 34
0.0
 50
90.0000000000002
100
AcDbRotatedDimension
  0
DIMENSION
  5
112
330
1F
100
AcDbEntity
  8
치수문자_일반주서
100
AcDbDimension
  2
_D_3
 10
63.99962144608265
 20
17.84533104753465
 30
0.0
 11
33.99962144608264
 21
17.84533104753465
 31
0.0
 70
   160
  1
<>
 71
     2
 42
60.00000000000001
  3
SLDDIMSTYLE1
100
AcDbAlignedDimension
 13
3.999621446082636
 23
6.999412744947007
 33
0.0
 14
63.99962144608265
 24
7.000000000000017
 34
0.0
 50
-0.0000000000000068
100
AcDbRotatedDimension
  0
INSERT
  5
122
330
1F
100
AcDbEntity
  8
해칭선
100
AcDbBlockReference
  2
SW_DOWELSYMBOL_0
 10
0.0
 20
0.0
 30
0.0
  0
LINE
  5
178
330
1F
100
AcDbEntity
  8
0
  6
Continuous
 62
     4
370
    25
100
AcDbLine
 10
2.999621446082632
 20
7.000000000000005
 30
0.0
 11
1.999621446082632
 21
8.000000000000004
 31
0.0
1001
PE_URL
1000

  0
LINE
  5
17A
330
1F
100
AcDbEntity
  8
0
  6
Continuous
 62
     4
370
    25
100
AcDbLine
 10
2.999621446082633
 20
-6.999999999999982
 30
0.0
 11
1.999621446082634
 21
-7.999999999999982
 31
0.0
1001
PE_URL
1000

  0
ENDSEC
  0
SECTION
  2
OBJECTS
  0
DICTIONARY
  5
C
330
0
100
AcDbDictionary
281
     1
  3
ACAD_GROUP
350
D
  3
ACAD_IMAGE_VARS
350
146
  3
ACAD_LAYOUT
350
1A
  3
ACAD_MLINESTYLE
350
17
  3
ACAD_PLOTSETTINGS
350
19
  3
ACAD_PLOTSTYLENAME
350
E
  3
ACAD_SCALELIST
350
47
  3
APPDATA
350
144
  3
DWGPROPS
350
17E
  0
DICTIONARY
  5
17B
330
1F
100
AcDbDictionary
280
     1
281
     1
  3
DIM_BOUNDING_BOXES_V1
360
17C
  0
DICTIONARY
  5
D
102
{ACAD_REACTORS
330
C
102
}
330
C
100
AcDbDictionary
281
     1
  0
RASTERVARIABLES
  5
146
102
{ACAD_REACTORS
330
C
102
}
330
C
100
AcDbRasterVariables
 90
        0
 70
     1
 71
     1
 72
     1
  0
DICTIONARY
  5
1A
102
{ACAD_REACTORS
330
C
102
}
330
C
100
AcDbDictionary
281
     1
  3
Layout1
350
1E
  3
Layout2
350
26
  3
Model
350
22
  0
DICTIONARY
  5
17
102
{ACAD_REACTORS
330
C
102
}
330
C
100
AcDbDictionary
281
     1
  3
Standard
350
18
  0
DICTIONARY
  5
19
102
{ACAD_REACTORS
330
C
102
}
330
C
100
AcDbDictionary
281
     1
  0
ACDBDICTIONARYWDFLT
  5
E
102
{ACAD_REACTORS
330
C
102
}
330
C
100
AcDbDictionary
281
     1
  3
Normal
350
F
100
AcDbDictionaryWithDefault
340
F
  0
DICTIONARY
  5
47
102
{ACAD_REACTORS
330
C
102
}
330
C
100
AcDbDictionary
281
     1
  3
A0
350
48
  3
A1
350
49
  3
A2
350
4A
  3
A3
350
4B
  3
A4
350
4C
  3
A5
350
4D
  3
A6
350
4E
  3
A7
350
4F
  3
A8
350
50
  3
A9
350
51
  3
B0
350
52
  3
B1
350
53
  3
B2
350
54
  3
B3
350
55
  3
B4
350
56
  3
B5
350
57
  3
B6
350
58
  3
B7
350
59
  3
B8
350
5A
  3
B9
350
5B
  3
C0
350
5C
  3
C1
350
5D
  3
C2
350
5E
  3
C3
350
5F
  3
C4
350
60
  3
C5
350
61
  3
C6
350
62
  3
C7
350
63
  3
C8
350
64
  3
C9
350
65
  3
D0
350
66
  3
D1
350
67
  3
D2
350
68
  0
DICTIONARY
  5
144
102
{ACAD_REACTORS
330
C
102
}
330
C
100
AcDbDictionary
281
     1
  0
XRECORD
  5
17E
102
{ACAD_REACTORS
330
C
102
}
330
C
100
AcDbXrecord
280
     1
  1
DWGPROPS COOKIE
  2

  3

  4

  6

  7

  8
12016016
  9

300
=
301
=
302
=
303
=
304
=
305
=
306
=
307
=
308
=
309
=
 40
0.0
 41
2458260.207506806
 42
2459677.212357755
  1

 90
        0
  0
DICTIONARY
  5
17C
102
{ACAD_REACTORS
330
17B
102
}
330
17B
100
AcDbDictionary
281
     1
  0
LAYOUT
  5
1E
102
{ACAD_REACTORS
330
1A
102
}
330
1A
100
AcDbPlotSettings
  1

  2
none_device
  4

  6

 40
0.0
 41
0.0
 42
0.0
 43
0.0
 44
0.0
 45
0.0
 46
0.0
 47
0.0
 48
0.0
 49
0.0
140
0.0
141
0.0
142
1.0
143
1.0
 70
   688
 72
     1
 73
     0
 74
     5
  7

 75
    16
147
1.0
148
0.0
149
0.0
100
AcDbLayout
  1
Layout1
 70
     1
 71
     1
 10
0.0
 20
0.0
 11
420.0
 21
297.0
 12
0.0
 22
0.0
 32
0.0
 14
1.000000000000000E+20
 24
1.000000000000000E+20
 34
1.000000000000000E+20
 15
-1.000000000000000E+20
 25
-1.000000000000000E+20
 35
-1.000000000000000E+20
146
0.0
 13
0.0
 23
0.0
 33
0.0
 16
1.0
 26
0.0
 36
0.0
 17
0.0
 27
1.0
 37
0.0
 76
     0
330
1B
  0
LAYOUT
  5
26
102
{ACAD_REACTORS
330
1A
102
}
330
1A
100
AcDbPlotSettings
  1

  2
none_device
  4

  6

 40
0.0
 41
0.0
 42
0.0
 43
0.0
 44
0.0
 45
0.0
 46
0.0
 47
0.0
 48
0.0
 49
0.0
140
0.0
141
0.0
142
1.0
143
1.0
 70
   688
 72
     1
 73
     0
 74
     5
  7

 75
    16
147
1.0
148
0.0
149
0.0
100
AcDbLayout
  1
Layout2
 70
     1
 71
     2
 10
0.0
 20
0.0
 11
0.0
 21
0.0
 12
0.0
 22
0.0
 32
0.0
 14
0.0
 24
0.0
 34
0.0
 15
0.0
 25
0.0
 35
0.0
146
0.0
 13
0.0
 23
0.0
 33
0.0
 16
1.0
 26
0.0
 36
0.0
 17
0.0
 27
1.0
 37
0.0
 76
     0
330
23
  0
LAYOUT
  5
22
102
{ACAD_REACTORS
330
1A
102
}
330
1A
100
AcDbPlotSettings
  1

  2
none_device
  4
ANSI_A_(11.00_x_8.50_Inches)
  6

 40
6.35
 41
19.05
 42
6.35000508
 43
19.05000254
 44
279.4
 45
215.9
 46
139.524119380145
 47
104.4724395649713
 48
0.0
 49
0.0
140
0.0
141
0.0
142
0.0589085814011889
143
1.0
 70
  1696
 72
     0
 73
     0
 74
     0
  7

 75
     0
147
0.0235690232323232
148
0.0
149
0.0
100
AcDbLayout
  1
Model
 70
     1
 71
     0
 10
0.0
 20
0.0
 11
420.0
 21
297.0
 12
0.0
 22
0.0
 32
0.0
 14
-104.7028278943612
 24
-49.97180738881174
 34
0.0
 15
80.58636767049182
 25
29.76413260158165
 35
0.0
146
0.0
 13
0.0
 23
0.0
 33
0.0
 16
1.0
 26
0.0
 36
0.0
 17
0.0
 27
1.0
 37
0.0
 76
     0
330
1F
331
29
  0
MLINESTYLE
  5
18
102
{ACAD_REACTORS
330
17
102
}
330
17
100
AcDbMlineStyle
  2
Standard
 70
     0
  3

 62
   256
 51
90.0
 52
90.0
 71
     2
 49
0.5
 62
   256
  6
BYLAYER
 49
-0.5
 62
   256
  6
BYLAYER
  0
ACDBPLACEHOLDER
  5
F
102
{ACAD_REACTORS
330
E
102
}
330
E
  0
SCALE
  5
48
102
{ACAD_REACTORS
330
47
102
}
330
47
100
AcDbScale
 70
     0
300
1:1
140
1.0
141
1.0
290
     1
  0
SCALE
  5
49
102
{ACAD_REACTORS
330
47
102
}
330
47
100
AcDbScale
 70
     0
300
1:2
140
1.0
141
2.0
290
     0
  0
SCALE
  5
4A
102
{ACAD_REACTORS
330
47
102
}
330
47
100
AcDbScale
 70
     0
300
1:4
140
1.0
141
4.0
290
     0
  0
SCALE
  5
4B
102
{ACAD_REACTORS
330
47
102
}
330
47
100
AcDbScale
 70
     0
300
1:5
140
1.0
141
5.0
290
     0
  0
SCALE
  5
4C
102
{ACAD_REACTORS
330
47
102
}
330
47
100
AcDbScale
 70
     0
300
1:8
140
1.0
141
8.0
290
     0
  0
SCALE
  5
4D
102
{ACAD_REACTORS
330
47
102
}
330
47
100
AcDbScale
 70
     0
300
1:10
140
1.0
141
10.0
290
     0
  0
SCALE
  5
4E
102
{ACAD_REACTORS
330
47
102
}
330
47
100
AcDbScale
 70
     0
300
1:16
140
1.0
141
16.0
290
     0
  0
SCALE
  5
4F
102
{ACAD_REACTORS
330
47
102
}
330
47
100
AcDbScale
 70
     0
300
1:20
140
1.0
141
20.0
290
     0
  0
SCALE
  5
50
102
{ACAD_REACTORS
330
47
102
}
330
47
100
AcDbScale
 70
     0
300
1:30
140
1.0
141
30.0
290
     0
  0
SCALE
  5
51
102
{ACAD_REACTORS
330
47
102
}
330
47
100
AcDbScale
 70
     0
300
1:40
140
1.0
141
40.0
290
     0
  0
SCALE
  5
52
102
{ACAD_REACTORS
330
47
102
}
330
47
100
AcDbScale
 70
     0
300
1:50
140
1.0
141
50.0
290
     0
  0
SCALE
  5
53
102
{ACAD_REACTORS
330
47
102
}
330
47
100
AcDbScale
 70
     0
300
1:100
140
1.0
141
100.0
290
     0
  0
SCALE
  5
54
102
{ACAD_REACTORS
330
47
102
}
330
47
100
AcDbScale
 70
     0
300
2:1
140
2.0
141
1.0
290
     0
  0
SCALE
  5
55
102
{ACAD_REACTORS
330
47
102
}
330
47
100
AcDbScale
 70
     0
300
4:1
140
4.0
141
1.0
290
     0
  0
SCALE
  5
56
102
{ACAD_REACTORS
330
47
102
}
330
47
100
AcDbScale
 70
     0
300
8:1
140
8.0
141
1.0
290
     0
  0
SCALE
  5
57
102
{ACAD_REACTORS
330
47
102
}
330
47
100
AcDbScale
 70
     0
300
10:1
140
10.0
141
1.0
290
     0
  0
SCALE
  5
58
102
{ACAD_REACTORS
330
47
102
}
330
47
100
AcDbScale
 70
     0
300
100:1
140
100.0
141
1.0
290
     0
  0
SCALE
  5
59
102
{ACAD_REACTORS
330
47
102
}
330
47
100
AcDbScale
 70
     0
300
1/128" = 1'-0"
140
0.0078125
141
12.0
290
     0
  0
SCALE
  5
5A
102
{ACAD_REACTORS
330
47
102
}
330
47
100
AcDbScale
 70
     0
300
1/64" = 1'-0"
140
0.015625
141
12.0
290
     0
  0
SCALE
  5
5B
102
{ACAD_REACTORS
330
47
102
}
330
47
100
AcDbScale
 70
     0
300
1/32" = 1'-0"
140
0.03125
141
12.0
290
     0
  0
SCALE
  5
5C
102
{ACAD_REACTORS
330
47
102
}
330
47
100
AcDbScale
 70
     0
300
1/16" = 1'-0"
140
0.0625
141
12.0
290
     0
  0
SCALE
  5
5D
102
{ACAD_REACTORS
330
47
102
}
330
47
100
AcDbScale
 70
     0
300
3/32" = 1'-0"
140
0.09375
141
12.0
290
     0
  0
SCALE
  5
5E
102
{ACAD_REACTORS
330
47
102
}
330
47
100
AcDbScale
 70
     0
300
1/8" = 1'-0"
140
0.125
141
12.0
290
     0
  0
SCALE
  5
5F
102
{ACAD_REACTORS
330
47
102
}
330
47
100
AcDbScale
 70
     0
300
3/16" = 1'-0"
140
0.1875
141
12.0
290
     0
  0
SCALE
  5
60
102
{ACAD_REACTORS
330
47
102
}
330
47
100
AcDbScale
 70
     0
300
1/4" = 1'-0"
140
0.25
141
12.0
290
     0
  0
SCALE
  5
61
102
{ACAD_REACTORS
330
47
102
}
330
47
100
AcDbScale
 70
     0
300
3/8" = 1'-0"
140
0.375
141
12.0
290
     0
  0
SCALE
  5
62
102
{ACAD_REACTORS
330
47
102
}
330
47
100
AcDbScale
 70
     0
300
1/2" = 1'-0"
140
0.5
141
12.0
290
     0
  0
SCALE
  5
63
102
{ACAD_REACTORS
330
47
102
}
330
47
100
AcDbScale
 70
     0
300
3/4" = 1'-0"
140
0.75
141
12.0
290
     0
  0
SCALE
  5
64
102
{ACAD_REACTORS
330
47
102
}
330
47
100
AcDbScale
 70
     0
300
1" = 1'-0"
140
1.0
141
12.0
290
     0
  0
SCALE
  5
65
102
{ACAD_REACTORS
330
47
102
}
330
47
100
AcDbScale
 70
     0
300
1-1/2" = 1'-0"
140
1.5
141
12.0
290
     0
  0
SCALE
  5
66
102
{ACAD_REACTORS
330
47
102
}
330
47
100
AcDbScale
 70
     0
300
3" = 1'-0"
140
3.0
141
12.0
290
     0
  0
SCALE
  5
67
102
{ACAD_REACTORS
330
47
102
}
330
47
100
AcDbScale
 70
     0
300
6" = 1'-0"
140
6.0
141
12.0
290
     0
  0
SCALE
  5
68
102
{ACAD_REACTORS
330
47
102
}
330
47
100
AcDbScale
 70
     0
300
1'-0" = 1'-0"
140
12.0
141
12.0
290
     0
  0
ENDSEC
  0
EOF
