  0
SECTION
  2
HEADER
  9
$ACADVER
  1
AC1015
  9
$ACADMAINTVER
 70
     6
  9
$DWGCODEPAGE
  3
ANSI_949
  9
$INSBASE
 10
0.0
 20
0.0
 30
0.0
  9
$EXTMIN
 10
-138.5484109655142
 20
-49.97180738881174
 30
0.0
  9
$EXTMAX
 10
95.54122183345535
 20
27.76413260158162
 30
0.0
  9
$LIMMIN
 10
0.0
 20
0.0
  9
$LIMMAX
 10
420.0
 20
297.0
  9
$ORTHOMODE
 70
     0
  9
$REGENMODE
 70
     1
  9
$FILLMODE
 70
     1
  9
$QTEXTMODE
 70
     0
  9
$MIRRTEXT
 70
     1
  9
$LTSCALE
 40
1.0
  9
$ATTMODE
 70
     1
  9
$TEXTSIZE
 40
3.5
  9
$TRACEWID
 40
1.0
  9
$TEXTSTYLE
  7
Standard
  9
$CLAYER
  8
0
  9
$CELTYPE
  6
ByLayer
  9
$CECOLOR
 62
   256
  9
$CELTSCALE
 40
1.0
  9
$DISPSILH
 70
     0
  9
$DIMSCALE
 40
1.0
  9
$DIMASZ
 40
3.302
  9
$DIMEXO
 40
1.0
  9
$DIMDLI
 40
3.75
  9
$DIMRND
 40
0.0
  9
$DIMDLE
 40
0.0
  9
$DIMEXE
 40
1.0
  9
$DIMTP
 40
0.0
  9
$DIMTM
 40
0.0
  9
$DIMTXT
 40
3.5
  9
$DIMCEN
 40
2.5
  9
$DIMTSZ
 40
0.0
  9
$DIMTOL
 70
     0
  9
$DIMLIM
 70
     0
  9
$DIMTIH
 70
     1
  9
$DIMTOH
 70
     1
  9
$DIMSE1
 70
     0
  9
$DIMSE2
 70
     0
  9
$DIMTAD
 70
     1
  9
$DIMZIN
 70
     0
  9
$DIMBLK
  1

  9
$DIMASO
 70
     1
  9
$DIMSHO
 70
     1
  9
$DIMPOST
  1

  9
$DIMAPOST
  1

  9
$DIMALT
 70
     0
  9
$DIMALTD
 70
     3
  9
$DIMALTF
 40
0.0393700787401575
  9
$DIMLFAC
 40
1.0
  9
$DIMTOFL
 70
     1
  9
$DIMTVP
 40
0.0
  9
$DIMTIX
 70
     0
  9
$DIMSOXD
 70
     0
  9
$DIMSAH
 70
     0
  9
$DIMBLK1
  1

  9
$DIMBLK2
  1

  9
$DIMSTYLE
  2
ISO-25
  9
$DIMCLRD
 70
     0
  9
$DIMCLRE
 70
     0
  9
$DIMCLRT
 70
     0
  9
$DIMTFAC
 40
1.0
  9
$DIMGAP
 40
1.524
  9
$DIMJUST
 70
     0
  9
$DIMSD1
 70
     0
  9
$DIMSD2
 70
     0
  9
$DIMTOLJ
 70
     0
  9
$DIMTZIN
 70
     0
  9
$DIMALTZ
 70
     0
  9
$DIMALTTZ
 70
     0
  9
$DIMUPT
 70
     0
  9
$DIMDEC
 70
     2
  9
$DIMTDEC
 70
     2
  9
$DIMALTU
 70
     2
  9
$DIMALTTD
 70
     3
  9
$DIMTXSTY
  7
Standard
  9
$DIMAUNIT
 70
     0
  9
$DIMADEC
 70
     2
  9
$DIMALTRND
 40
0.0
  9
$DIMAZIN
 70
     0
  9
$DIMDSEP
 70
    44
  9
$DIMATFIT
 70
     3
  9
$DIMFRAC
 70
     0
  9
$DIMLDRBLK
  1

  9
$DIMLUNIT
 70
     2
  9
$DIMLWD
 70
    -2
  9
$DIMLWE
 70
    -2
  9
$DIMTMOVE
 70
     0
  9
$LUNITS
 70
     2
  9
$LUPREC
 70
     2
  9
$SKETCHINC
 40
1.0
  9
$FILLETRAD
 40
10.0
  9
$AUNITS
 70
     0
  9
$AUPREC
 70
     2
  9
$MENU
  1
.
  9
$ELEVATION
 40
0.0
  9
$PELEVATION
 40
0.0
  9
$THICKNESS
 40
0.0
  9
$LIMCHECK
 70
     0
  9
$CHAMFERA
 40
0.0
  9
$CHAMFERB
 40
0.0
  9
$CHAMFERC
 40
0.0
  9
$CHAMFERD
 40
0.0
  9
$SKPOLY
 70
     0
  9
$TDCREATE
 40
2458260.581939502
  9
$TDUCREATE
 40
2458260.206939502
  9
$TDUPDATE
 40
2458268.657234711
  9
$TDUUPDATE
 40
2458268.282234711
  9
$TDINDWG
 40
0.0006353704
  9
$TDUSRTIMER
 40
2458268.281599375
  9
$USRTIMER
 70
     1
  9
$ANGBASE
 50
0.0
  9
$ANGDIR
 70
     0
  9
$PDMODE
 70
     0
  9
$PDSIZE
 40
-1.0
  9
$PLINEWID
 40
0.0
  9
$SPLFRAME
 70
     0
  9
$SPLINETYPE
 70
     6
  9
$SPLINESEGS
 70
     8
  9
$HANDSEED
  5
14B
  9
$SURFTAB1
 70
     6
  9
$SURFTAB2
 70
     6
  9
$SURFTYPE
 70
     6
  9
$SURFU
 70
     6
  9
$SURFV
 70
     6
  9
$UCSBASE
  2

  9
$UCSNAME
  2

  9
$UCSORG
 10
0.0
 20
0.0
 30
0.0
  9
$UCSXDIR
 10
1.0
 20
0.0
 30
0.0
  9
$UCSYDIR
 10
0.0
 20
1.0
 30
0.0
  9
$UCSORTHOREF
  2

  9
$UCSORTHOVIEW
 70
     0
  9
$UCSORGTOP
 10
0.0
 20
0.0
 30
0.0
  9
$UCSORGBOTTOM
 10
0.0
 20
0.0
 30
0.0
  9
$UCSORGLEFT
 10
0.0
 20
0.0
 30
0.0
  9
$UCSORGRIGHT
 10
0.0
 20
0.0
 30
0.0
  9
$UCSORGFRONT
 10
0.0
 20
0.0
 30
0.0
  9
$UCSORGBACK
 10
0.0
 20
0.0
 30
0.0
  9
$PUCSBASE
  2

  9
$PUCSNAME
  2

  9
$PUCSORG
 10
0.0
 20
0.0
 30
0.0
  9
$PUCSXDIR
 10
1.0
 20
0.0
 30
0.0
  9
$PUCSYDIR
 10
0.0
 20
1.0
 30
0.0
  9
$PUCSORTHOREF
  2

  9
$PUCSORTHOVIEW
 70
     0
  9
$PUCSORGTOP
 10
0.0
 20
0.0
 30
0.0
  9
$PUCSORGBOTTOM
 10
0.0
 20
0.0
 30
0.0
  9
$PUCSORGLEFT
 10
0.0
 20
0.0
 30
0.0
  9
$PUCSORGRIGHT
 10
0.0
 20
0.0
 30
0.0
  9
$PUCSORGFRONT
 10
0.0
 20
0.0
 30
0.0
  9
$PUCSORGBACK
 10
0.0
 20
0.0
 30
0.0
  9
$USERI1
 70
     0
  9
$USERI2
 70
     0
  9
$USERI3
 70
     0
  9
$USERI4
 70
     0
  9
$USERI5
 70
     0
  9
$USERR1
 40
0.0
  9
$USERR2
 40
0.0
  9
$USERR3
 40
0.0
  9
$USERR4
 40
0.0
  9
$USERR5
 40
0.0
  9
$WORLDVIEW
 70
     1
  9
$SHADEDGE
 70
     3
  9
$SHADEDIF
 70
    70
  9
$TILEMODE
 70
     1
  9
$MAXACTVP
 70
    64
  9
$PINSBASE
 10
0.0
 20
0.0
 30
0.0
  9
$PLIMCHECK
 70
     0
  9
$PEXTMIN
 10
1.000000000000000E+20
 20
1.000000000000000E+20
 30
1.000000000000000E+20
  9
$PEXTMAX
 10
-1.000000000000000E+20
 20
-1.000000000000000E+20
 30
-1.000000000000000E+20
  9
$PLIMMIN
 10
0.0
 20
0.0
  9
$PLIMMAX
 10
0.0
 20
0.0
  9
$UNITMODE
 70
     0
  9
$VISRETAIN
 70
     1
  9
$PLINEGEN
 70
     0
  9
$PSLTSCALE
 70
     1
  9
$TREEDEPTH
 70
  3020
  9
$CMLSTYLE
  2
Standard
  9
$CMLJUST
 70
     0
  9
$CMLSCALE
 40
20.0
  9
$PROXYGRAPHICS
 70
     1
  9
$MEASUREMENT
 70
     1
  9
$CELWEIGHT
370
    -1
  9
$ENDCAPS
280
     0
  9
$JOINSTYLE
280
     0
  9
$LWDISPLAY
290
     1
  9
$INSUNITS
 70
     4
  9
$HYPERLINKBASE
  1

  9
$STYLESHEET
  1

  9
$XEDIT
290
     1
  9
$CEPSNTYPE
380
     0
  9
$PSTYLEMODE
290
     1
  9
$FINGERPRINTGUID
  2
{68DC13B9-6551-49E5-8CD3-FD308E450B00}
  9
$VERSIONGUID
  2
{FAEB1C32-E019-11D5-929B-00C0DF256EC4}
  9
$EXTNAMES
290
     1
  9
$PSVPSCALE
 40
0.0
  9
$OLESTARTUP
290
     0
  0
ENDSEC
  0
SECTION
  2
CLASSES
  0
CLASS
  1
ACDBDICTIONARYWDFLT
  2
AcDbDictionaryWithDefault
  3
ObjectDBX Classes
 90
        0
280
     0
281
     0
  0
CLASS
  1
VISUALSTYLE
  2
AcDbVisualStyle
  3
ObjectDBX Classes
 90
     4095
280
     0
281
     0
  0
CLASS
  1
MATERIAL
  2
AcDbMaterial
  3
ObjectDBX Classes
 90
     1153
280
     0
281
     0
  0
CLASS
  1
SCALE
  2
AcDbScale
  3
ObjectDBX Classes
 90
     1153
280
     0
281
     0
  0
CLASS
  1
TABLESTYLE
  2
AcDbTableStyle
  3
ObjectDBX Classes
 90
     4095
280
     0
281
     0
  0
CLASS
  1
MLEADERSTYLE
  2
AcDbMLeaderStyle
  3
ACDB_MLEADERSTYLE_CLASS
 90
     4095
280
     0
281
     0
  0
CLASS
  1
SUN
  2
AcDbSun
  3
SCENEOE
 90
     1153
280
     0
281
     0
  0
CLASS
  1
ACDBPLACEHOLDER
  2
AcDbPlaceHolder
  3
ObjectDBX Classes
 90
        0
280
     0
281
     0
  0
CLASS
  1
LAYOUT
  2
AcDbLayout
  3
ObjectDBX Classes
 90
        0
280
     0
281
     0
  0
CLASS
  1
RASTERVARIABLES
  2
AcDbRasterVariables
  3
ISM
 90
        0
280
     0
281
     0
  0
ENDSEC
  0
SECTION
  2
TABLES
  0
TABLE
  2
VPORT
  5
8
330
0
100
AcDbSymbolTable
 70
     1
  0
VPORT
  5
29
330
8
100
AcDbSymbolTableRecord
100
AcDbViewportTableRecord
  2
*Active
 70
     0
 10
0.0
 20
0.0
 11
1.0
 21
1.0
 12
-21.50359456602941
 22
-11.10383739361506
 13
0.0
 23
0.0
 14
10.0
 24
10.0
 15
10.0
 25
10.0
 16
0.0
 26
0.0
 36
1.0
 17
0.0
 27
0.0
 37
0.0
 40
137.8143797927893
 41
1.732558139534884
 42
50.0
 43
0.0
 44
0.0
 50
0.0
 51
0.0
 71
    16
 72
  2000
 73
     1
 74
     3
 75
     0
 76
     0
 77
     0
 78
     0
281
     0
 65
     1
110
0.0
120
0.0
130
0.0
111
1.0
121
0.0
131
0.0
112
0.0
122
1.0
132
0.0
 79
     0
146
0.0
  0
ENDTAB
  0
TABLE
  2
LTYPE
  5
5
330
0
100
AcDbSymbolTable
 70
     6
  0
LTYPE
  5
14
330
5
100
AcDbSymbolTableRecord
100
AcDbLinetypeTableRecord
  2
ByBlock
 70
     0
  3

 72
    65
 73
     0
 40
0.0
  0
LTYPE
  5
15
330
5
100
AcDbSymbolTableRecord
100
AcDbLinetypeTableRecord
  2
ByLayer
 70
     0
  3

 72
    65
 73
     0
 40
0.0
  0
LTYPE
  5
16
330
5
100
AcDbSymbolTableRecord
100
AcDbLinetypeTableRecord
  2
Continuous
 70
     0
  3
Solid line
 72
    65
 73
     0
 40
0.0
  0
LTYPE
  5
6E
330
5
100
AcDbSymbolTableRecord
100
AcDbLinetypeTableRecord
  2
HIDDEN
 70
     0
  3
Hidden __ __ __ __ __ __ __ __ __ __ __ __ __ __
 72
    65
 73
     2
 40
1.905
 49
1.27
 74
     0
 49
-0.635
 74
     0
  0
LTYPE
  5
6F
330
5
100
AcDbSymbolTableRecord
100
AcDbLinetypeTableRecord
  2
PHANTOM
 70
     0
  3
Phantom ______  __  __  ______  __  __  ______
 72
    65
 73
     6
 40
12.7
 49
6.35
 74
     0
 49
-1.27
 74
     0
 49
1.27
 74
     0
 49
-1.27
 74
     0
 49
1.27
 74
     0
 49
-1.27
 74
     0
  0
LTYPE
  5
70
330
5
100
AcDbSymbolTableRecord
100
AcDbLinetypeTableRecord
  2
CENTER
 70
     0
  3
Center ____ _ ____ _ ____ _ ____ _ ____ _ ____
 72
    65
 73
     4
 40
10.16
 49
6.35
 74
     0
 49
-1.27
 74
     0
 49
1.27
 74
     0
 49
-1.27
 74
     0
  0
LTYPE
  5
71
330
5
100
AcDbSymbolTableRecord
100
AcDbLinetypeTableRecord
  2
CENTERX2
 70
     0
  3
Center (2x) ________  __  ________  __  _____
 72
    65
 73
     4
 40
20.32
 49
12.7
 74
     0
 49
-2.54
 74
     0
 49
2.54
 74
     0
 49
-2.54
 74
     0
  0
LTYPE
  5
72
330
5
100
AcDbSymbolTableRecord
100
AcDbLinetypeTableRecord
  2
DOT2
 70
     0
  3
Dot (.5x) ........................................
 72
    65
 73
     2
 40
0.635
 49
0.0
 74
     0
 49
-0.635
 74
     0
  0
ENDTAB
  0
TABLE
  2
LAYER
  5
2
330
0
100
AcDbSymbolTable
 70
    17
  0
LAYER
  5
10
330
2
100
AcDbSymbolTableRecord
100
AcDbLayerTableRecord
  2
0
 70
     0
 62
     7
  6
Continuous
370
    -3
390
F
  0
LAYER
  5
73
330
2
100
AcDbSymbolTableRecord
100
AcDbLayerTableRecord
  2
FORMAT
 70
     0
 62
     2
  6
Continuous
370
    -3
390
F
  0
LAYER
  5
74
330
2
100
AcDbSymbolTableRecord
100
AcDbLayerTableRecord
  2
외형선
 70
     0
 62
   100
  6
Continuous
370
    35
390
F
  0
LAYER
  5
75
330
2
100
AcDbSymbolTableRecord
100
AcDbLayerTableRecord
  2
숨은선
 70
     0
 62
     2
  6
HIDDEN
370
    25
390
F
  0
LAYER
  5
76
330
2
100
AcDbSymbolTableRecord
100
AcDbLayerTableRecord
  2
중심선
 70
     0
 62
     1
  6
CENTERX2
370
    -3
390
F
  0
LAYER
  5
77
330
2
100
AcDbSymbolTableRecord
100
AcDbLayerTableRecord
  2
파단선
 70
     0
 62
     4
  6
Continuous
370
    -3
390
F
  0
LAYER
  5
78
330
2
100
AcDbSymbolTableRecord
100
AcDbLayerTableRecord
  2
해칭선
 70
     0
 62
   100
  6
Continuous
370
    -3
390
F
  0
LAYER
  5
79
330
2
100
AcDbSymbolTableRecord
100
AcDbLayerTableRecord
  2
가는실선
 70
     0
 62
     4
  6
Continuous
370
    -3
390
F
  0
LAYER
  5
7A
330
2
100
AcDbSymbolTableRecord
100
AcDbLayerTableRecord
  2
치수_보조선
 70
     0
 62
     4
  6
Continuous
370
    -3
390
F
  0
LAYER
  5
7B
330
2
100
AcDbSymbolTableRecord
100
AcDbLayerTableRecord
  2
치수문자_일반주서
 70
     0
 62
     7
  6
Continuous
370
    25
390
F
  0
LAYER
  5
7C
330
2
100
AcDbSymbolTableRecord
100
AcDbLayerTableRecord
  2
개별주서
 70
     0
 62
   100
  6
Continuous
370
    35
390
F
  0
LAYER
  5
7D
330
2
100
AcDbSymbolTableRecord
100
AcDbLayerTableRecord
  2
중간선
 70
     0
 62
     2
  6
Continuous
370
    25
390
F
  0
LAYER
  5
7E
330
2
100
AcDbSymbolTableRecord
100
AcDbLayerTableRecord
  2
윤곽선
 70
     0
 62
     3
  6
Continuous
370
    50
390
F
  0
LAYER
  5
7F
330
2
100
AcDbSymbolTableRecord
100
AcDbLayerTableRecord
  2
중심마크
 70
     0
 62
   100
  6
Continuous
370
    35
390
F
  0
LAYER
  5
80
330
2
100
AcDbSymbolTableRecord
100
AcDbLayerTableRecord
  2
가상선
 70
     0
 62
     4
  6
PHANTOM
370
    -3
390
F
  0
LAYER
  5
81
330
2
100
AcDbSymbolTableRecord
100
AcDbLayerTableRecord
  2
특수지정선
 70
     0
 62
     5
  6
CENTERX2
370
    70
390
F
  0
LAYER
  5
13C
330
2
100
AcDbSymbolTableRecord
100
AcDbLayerTableRecord
  2
Defpoints
 70
     0
 62
     7
  6
Continuous
290
     0
370
    -3
390
F
  0
ENDTAB
  0
TABLE
  2
STYLE
  5
3
330
0
100
AcDbSymbolTable
 70
     2
  0
STYLE
  5
11
330
3
100
AcDbSymbolTableRecord
100
AcDbTextStyleTableRecord
  2
Standard
 70
     0
 40
0.0
 41
1.0
 50
0.0
 71
     0
 42
3.5
  3
txt
  4

  0
STYLE
  5
97
330
3
100
AcDbSymbolTableRecord
100
AcDbTextStyleTableRecord
  2
SLDTEXTSTYLE0
 70
     0
 40
0.0
 41
0.75
 50
0.0
 71
     0
 42
3.5
  3
TXT
  4

  0
ENDTAB
  0
TABLE
  2
VIEW
  5
6
330
0
100
AcDbSymbolTable
 70
     0
  0
ENDTAB
  0
TABLE
  2
UCS
  5
7
330
0
100
AcDbSymbolTable
 70
     0
  0
ENDTAB
  0
TABLE
  2
APPID
  5
9
330
0
100
AcDbSymbolTable
 70
     1
  0
APPID
  5
12
330
9
100
AcDbSymbolTableRecord
100
AcDbRegAppTableRecord
  2
ACAD
 70
     0
  0
ENDTAB
  0
TABLE
  2
DIMSTYLE
  5
A
330
0
100
AcDbSymbolTable
 70
     4
100
AcDbDimStyleTable
  0
DIMSTYLE
105
27
330
A
100
AcDbSymbolTableRecord
100
AcDbDimStyleTableRecord
  2
ISO-25
 70
     0
 41
2.5
 42
0.625
 43
3.75
 44
1.25
 73
     0
 74
     0
 77
     1
 78
     8
140
2.5
141
2.5
143
0.03937007874016
147
0.625
171
     3
172
     1
178
     0
271
     2
272
     2
274
     3
278
    44
283
     0
284
     8
340
11
  0
DIMSTYLE
105
E1
102
{ACAD_REACTORS
330
E0
102
}
330
A
100
AcDbSymbolTableRecord
100
AcDbDimStyleTableRecord
  2
SLDDIMSTYLE0
 70
     0
 41
3.302
 44
0.0
 45
0.000000001
 73
     0
 74
     0
 77
     1
 78
    12
 79
     3
140
3.5
147
0.875
172
     1
173
     1
178
     0
271
     1
272
     1
276
     2
284
    12
289
     0
340
97
  0
DIMSTYLE
105
EF
102
{ACAD_REACTORS
330
EE
330
107
102
}
330
A
100
AcDbSymbolTableRecord
100
AcDbDimStyleTableRecord
  2
SLDDIMSTYLE1
 70
     0
 41
3.302
 44
0.0
 45
0.000000001
 73
     0
 74
     0
 77
     1
 78
    12
 79
     3
140
3.5
147
0.875
173
     1
178
     0
271
     2
272
     2
276
     2
284
    12
340
97
  0
DIMSTYLE
105
FA
102
{ACAD_REACTORS
330
F9
102
}
330
A
100
AcDbSymbolTableRecord
100
AcDbDimStyleTableRecord
  2
SLDDIMSTYLE2
 70
     0
 41
3.302
 44
0.0
 45
0.000000001
 73
     0
 74
     0
 77
     1
 78
    12
 79
     3
140
3.5
147
0.875
172
     1
173
     1
178
     0
271
     2
272
     2
276
     2
284
    12
289
     0
340
97
  0
ENDTAB
  0
TABLE
  2
BLOCK_RECORD
  5
1
330
0
100
AcDbSymbolTable
 70
     7
  0
BLOCK_RECORD
  5
1F
330
1
100
AcDbSymbolTableRecord
100
AcDbBlockTableRecord
  2
*Model_Space
340
22
  0
BLOCK_RECORD
  5
1B
330
1
100
AcDbSymbolTableRecord
100
AcDbBlockTableRecord
  2
*Paper_Space
340
1E
  0
BLOCK_RECORD
  5
23
330
1
100
AcDbSymbolTableRecord
100
AcDbBlockTableRecord
  2
*Paper_Space0
340
26
  0
BLOCK_RECORD
  5
82
330
1
100
AcDbSymbolTableRecord
100
AcDbBlockTableRecord
  2
블럭10
340
0
102
{BLKREFS
331
D9
102
}
  0
BLOCK_RECORD
  5
E2
330
1
100
AcDbSymbolTableRecord
100
AcDbBlockTableRecord
  2
_D
340
0
  0
BLOCK_RECORD
  5
F0
330
1
100
AcDbSymbolTableRecord
100
AcDbBlockTableRecord
  2
_D_1
340
0
  0
BLOCK_RECORD
  5
FB
330
1
100
AcDbSymbolTableRecord
100
AcDbBlockTableRecord
  2
_D_2
340
0
  0
BLOCK_RECORD
  5
108
330
1
100
AcDbSymbolTableRecord
100
AcDbBlockTableRecord
  2
_D_3
340
0
  0
BLOCK_RECORD
  5
111
330
1
100
AcDbSymbolTableRecord
100
AcDbBlockTableRecord
  2
SW_DOWELSYMBOL_0
340
0
102
{BLKREFS
331
117
102
}
  0
ENDTAB
  0
ENDSEC
  0
SECTION
  2
BLOCKS
  0
BLOCK
  5
20
330
1F
100
AcDbEntity
  8
0
100
AcDbBlockBegin
  2
*Model_Space
 70
     0
 10
0.0
 20
0.0
 30
0.0
  3
*Model_Space
  1

  0
ENDBLK
  5
21
330
1F
100
AcDbEntity
  8
0
100
AcDbBlockEnd
  0
BLOCK
  5
1C
330
1B
100
AcDbEntity
 67
     1
  8
0
100
AcDbBlockBegin
  2
*Paper_Space
 70
     0
 10
0.0
 20
0.0
 30
0.0
  3
*Paper_Space
  1

  0
ENDBLK
  5
1D
330
1B
100
AcDbEntity
 67
     1
  8
0
100
AcDbBlockEnd
  0
BLOCK
  5
24
330
23
100
AcDbEntity
  8
0
100
AcDbBlockBegin
  2
*Paper_Space0
 70
     0
 10
0.0
 20
0.0
 30
0.0
  3
*Paper_Space0
  1

  0
ENDBLK
  5
25
330
23
100
AcDbEntity
  8
0
100
AcDbBlockEnd
  0
BLOCK
  5
83
330
82
100
AcDbEntity
  8
0
100
AcDbBlockBegin
  2
블럭10
 70
     2
 10
0.0
 20
0.0
 30
0.0
  3
블럭10
  1

  0
ELLIPSE
  5
85
330
82
100
AcDbEntity
  8
중심선
100
AcDbEllipse
 10
20.54032771741204
 20
12.0471743016438
 30
0.0
 11
6.600054785286829
 21
-1.261213355974178E-13
 31
0.0
210
0.0
220
0.0
230
1.0
 40
0.636358354079598
 41
0.9219305317359503
 42
6.513795318482858
  0
ELLIPSE
  5
86
330
82
100
AcDbEntity
  8
중심선
100
AcDbEllipse
 10
20.54032771746488
 20
12.04717430159265
 30
0.0
 11
3.960054785062283
 21
1.540847449632565E-10
 31
0.0
210
0.0
220
0.0
230
1.0
 40
0.3939339440162632
 41
1.131841032648279
 42
5.62031148352944
  0
LINE
  5
87
330
82
100
AcDbEntity
  8
중심선
100
AcDbLine
 10
2.268634060543552
 20
16.24717430164393
 30
0.0
 11
5.714909304380834
 21
16.24717430164393
 31
0.0
  0
LINE
  5
88
330
82
100
AcDbEntity
  8
중심선
100
AcDbLine
 10
5.245725140726316
 20
7.84717430164391
 30
0.0
 11
8.692000384563599
 21
7.84717430164391
 31
0.0
  0
LINE
  5
89
330
82
100
AcDbEntity
  8
중심선
100
AcDbLine
 10
15.74043728645272
 20
16.24717430164393
 30
0.0
 11
8.692000384563599
 21
7.84717430164391
 31
0.0
  0
LINE
  5
8A
330
82
100
AcDbEntity
  8
중심선
100
AcDbLine
 10
0.1404042013395286
 20
13.71084872107135
 30
0.0
 11
3.58671253028996
 21
13.71088815037384
 31
0.0
  0
LINE
  5
8B
330
82
100
AcDbEntity
  8
중심선
100
AcDbLine
 10
2.750260043222114
 20
10.84717430164391
 30
0.0
 11
6.196535287059397
 21
10.84717430164391
 31
0.0
  0
LINE
  5
8C
330
82
100
AcDbEntity
  8
중심선
100
AcDbLine
 10
12.29416204261559
 20
16.24717430164393
 30
0.0
 11
5.245725140726316
 21
7.84717430164391
 31
0.0
  0
LINE
  5
8D
330
82
100
AcDbEntity
  8
중심선
100
AcDbLine
 10
10.72767329541681
 20
16.24717430164393
 30
0.0
 11
6.196535287059397
 21
10.84717430164391
 31
0.0
  0
LINE
  5
8E
330
82
100
AcDbEntity
  8
중심선
100
AcDbLine
 10
7.28139805157953
 20
16.24717430164393
 30
0.0
 11
2.750260043222114
 21
10.84717430164391
 31
0.0
  0
LINE
  5
8F
330
82
100
AcDbEntity
  8
중심선
100
AcDbLine
 10
5.714909304380834
 20
16.24717430164393
 30
0.0
 11
3.58671253028996
 21
13.71088815037384
 31
0.0
  0
LINE
  5
90
330
82
100
AcDbEntity
  8
중심선
100
AcDbLine
 10
2.268634060543552
 20
16.24717430164393
 30
0.0
 11
0.1404042013395286
 21
13.71084872107135
 31
0.0
  0
LINE
  5
91
330
82
100
AcDbEntity
  8
중심선
100
AcDbLine
 10
7.28139805157953
 20
16.24717430164393
 30
0.0
 11
10.72767329541681
 21
16.24717430164393
 31
0.0
  0
LINE
  5
92
330
82
100
AcDbEntity
  8
중심선
100
AcDbLine
 10
12.29416204261559
 20
16.24717430164393
 30
0.0
 11
15.74043728645272
 21
16.24717430164393
 31
0.0
  0
LINE
  5
93
330
82
100
AcDbEntity
  8
중심선
100
AcDbLine
 10
19.22036997980202
 20
11.08717430171403
 30
0.0
 11
23.66174974927406
 21
11.08717430171406
 31
0.0
  0
LINE
  5
94
330
82
100
AcDbEntity
  8
중심선
100
AcDbLine
 10
19.22039502424796
 20
13.00717430171391
 30
0.0
 11
19.22036997980202
 21
11.08717430171403
 31
0.0
  0
LINE
  5
95
330
82
100
AcDbEntity
  8
중심선
100
AcDbLine
 10
19.22039502424796
 20
13.00717430171391
 30
0.0
 11
26.96566020931264
 21
13.00717430171391
 31
0.0
  0
LINE
  5
96
330
82
100
AcDbEntity
  8
중심선
100
AcDbLine
 10
22.22332737316547
 20
13.45928029700563
 30
0.0
 11
24.52862924686651
 21
15.39360700705356
 31
0.0
  0
ATTDEF
  5
98
330
82
100
AcDbEntity
  8
FORMAT
 62
     2
100
AcDbText
 10
-20.85824753159254
 20
2.075366912832191
 30
0.0
 40
4.233333333333333
  1
SEME7212070200E [ 4 FLUTE ]
 41
0.75
  7
SLDTEXTSTYLE0
 11
-20.85824753159254
 21
-0.0412997538344756
 31
0.0
100
AcDbAttributeDefinition
  3

  2
AUTOATTR0
 70
     0
 74
     1
  0
ENDBLK
  5
84
330
82
100
AcDbEntity
  8
0
100
AcDbBlockEnd
  0
BLOCK
  5
E3
330
E2
100
AcDbEntity
  8
0
100
AcDbBlockBegin
  2
_D
 70
     0
 10
0.0
 20
0.0
 30
0.0
  3
_D
  1

  0
LINE
  5
E5
330
E2
100
AcDbEntity
  8
치수문자_일반주서
 62
     0
370
    -2
100
AcDbLine
 10
80.06250000000003
 20
-6.000000000000014
 30
0.0
 11
94.99088850012201
 21
-5.999999999999957
 31
0.0
  0
LINE
  5
E6
330
E2
100
AcDbEntity
  8
치수문자_일반주서
 62
     0
370
    -2
100
AcDbLine
 10
80.06250000000003
 20
5.999999999999991
 30
0.0
 11
94.99088850012197
 21
6.000000000000048
 31
0.0
  0
LINE
  5
E7
330
E2
100
AcDbEntity
  8
치수문자_일반주서
 62
     0
370
    -2
100
AcDbLine
 10
94.99088850012201
 20
-5.999999999999957
 30
0.0
 11
94.99088850012191
 21
20.47900000000005
 31
0.0
  0
LINE
  5
E8
330
E2
100
AcDbEntity
  8
치수문자_일반주서
 62
     0
370
    -2
100
AcDbLine
 10
94.99088850012201
 20
-5.999999999999957
 30
0.0
 11
94.99088850012197
 21
6.000000000000048
 31
0.0
  0
LINE
  5
E9
330
E2
100
AcDbEntity
  8
치수문자_일반주서
 62
     0
370
    -2
100
AcDbLine
 10
94.99088850012203
 20
-9.301999999999957
 30
0.0
 11
94.99088850012204
 21
-12.60399999999996
 31
0.0
  0
LINE
  5
EA
330
E2
100
AcDbEntity
  8
치수문자_일반주서
 62
     0
370
    -2
100
AcDbLine
 10
94.99088850012195
 20
9.302000000000048
 30
0.0
 11
94.99088850012194
 21
12.60400000000005
 31
0.0
  0
SOLID
  5
EB
330
E2
100
AcDbEntity
  8
치수문자_일반주서
 62
     0
100
AcDbTrace
 10
95.54122183345535
 20
-9.301999999999955
 30
0.0
 11
94.4405551667887
 21
-9.301999999999959
 31
0.0
 12
94.99088850012201
 22
-5.999999999999957
 32
0.0
 13
94.99088850012201
 23
-5.999999999999957
 33
0.0
  0
SOLID
  5
EC
330
E2
100
AcDbEntity
  8
치수문자_일반주서
 62
     0
100
AcDbTrace
 10
94.44055516678863
 20
9.302000000000046
 30
0.0
 11
95.54122183345528
 21
9.30200000000005
 31
0.0
 12
94.99088850012197
 22
6.000000000000048
 32
0.0
 13
94.99088850012197
 23
6.000000000000048
 33
0.0
  0
MTEXT
  5
ED
330
E2
100
AcDbEntity
  8
치수문자_일반주서
 62
     0
100
AcDbMText
 10
90.61588850012193
 20
16.54150000000003
 30
0.0
 40
3.5
 41
0.0
 71
     2
 72
     1
  1
\A1;%%c12
  7
SLDTEXTSTYLE0
 11
-3.552713678800500E-15
 21
1.0
 31
0.0
 73
     1
 44
1.0
  0
POINT
  5
146
330
E2
100
AcDbEntity
  8
Defpoints
 62
     0
100
AcDbPoint
 10
80.00000000000003
 20
-6.000000000000014
 30
0.0
  0
POINT
  5
147
330
E2
100
AcDbEntity
  8
Defpoints
 62
     0
100
AcDbPoint
 10
80.00000000000003
 20
5.999999999999991
 30
0.0
  0
POINT
  5
148
330
E2
100
AcDbEntity
  8
Defpoints
 62
     0
100
AcDbPoint
 10
94.99088850012197
 20
6.000000000000047
 30
0.0
  0
ENDBLK
  5
E4
330
E2
100
AcDbEntity
  8
0
100
AcDbBlockEnd
  0
BLOCK
  5
F1
330
F0
100
AcDbEntity
  8
0
100
AcDbBlockBegin
  2
_D_1
 70
     0
 10
0.0
 20
0.0
 30
0.0
  3
_D_1
  1

  0
LINE
  5
F3
330
F0
100
AcDbEntity
  8
치수문자_일반주서
 62
     0
370
    -2
100
AcDbLine
 10
-120.0
 20
5.562499999999973
 30
0.0
 11
-120.0
 21
23.38913260158163
 31
0.0
  0
LINE
  5
F4
330
F0
100
AcDbEntity
  8
치수문자_일반주서
 62
     0
370
    -2
100
AcDbLine
 10
80.00000000000003
 20
6.062500000000004
 30
0.0
 11
80.00000000000003
 21
23.38913260158163
 31
0.0
  0
LINE
  5
F5
330
F0
100
AcDbEntity
  8
치수문자_일반주서
 62
     0
370
    -2
100
AcDbLine
 10
-116.698
 20
23.38913260158163
 30
0.0
 11
76.69800000000004
 21
23.38913260158163
 31
0.0
  0
SOLID
  5
F6
330
F0
100
AcDbEntity
  8
치수문자_일반주서
 62
     0
100
AcDbTrace
 10
-116.698
 20
23.93946593491496
 30
0.0
 11
-116.698
 21
22.83879926824829
 31
0.0
 12
-120.0
 22
23.38913260158163
 32
0.0
 13
-120.0
 23
23.38913260158163
 33
0.0
  0
SOLID
  5
F7
330
F0
100
AcDbEntity
  8
치수문자_일반주서
 62
     0
100
AcDbTrace
 10
76.69800000000004
 20
22.83879926824829
 30
0.0
 11
76.69800000000004
 21
23.93946593491496
 31
0.0
 12
80.00000000000003
 22
23.38913260158163
 32
0.0
 13
80.00000000000003
 23
23.38913260158163
 33
0.0
  0
MTEXT
  5
F8
330
F0
100
AcDbEntity
  8
치수문자_일반주서
 62
     0
100
AcDbMText
 10
-19.99999999999999
 20
27.76413260158163
 30
0.0
 40
3.5
 41
0.0
 71
     2
 72
     1
  1
\A1;200
  7
SLDTEXTSTYLE0
 73
     1
 44
1.0
  0
POINT
  5
13D
330
F0
100
AcDbEntity
  8
Defpoints
 62
     0
100
AcDbPoint
 10
-120.0
 20
5.499999999999973
 30
0.0
  0
POINT
  5
13E
330
F0
100
AcDbEntity
  8
Defpoints
 62
     0
100
AcDbPoint
 10
80.00000000000003
 20
6.000000000000004
 30
0.0
  0
POINT
  5
13F
330
F0
100
AcDbEntity
  8
Defpoints
 62
     0
100
AcDbPoint
 10
80.00000000000003
 20
23.38913260158163
 30
0.0
  0
ENDBLK
  5
F2
330
F0
100
AcDbEntity
  8
0
100
AcDbBlockEnd
  0
BLOCK
  5
FC
330
FB
100
AcDbEntity
  8
0
100
AcDbBlockBegin
  2
_D_2
 70
     0
 10
0.0
 20
0.0
 30
0.0
  3
_D_2
  1

  0
LINE
  5
FE
330
FB
100
AcDbEntity
  8
치수문자_일반주서
 62
     0
370
    -2
100
AcDbLine
 10
-119.5625
 20
5.999999999999995
 30
0.0
 11
-134.1734109655141
 21
5.99999999999994
 31
0.0
  0
LINE
  5
FF
330
FB
100
AcDbEntity
  8
치수문자_일반주서
 62
     0
370
    -2
100
AcDbLine
 10
-119.5625
 20
-6.000000000000016
 30
0.0
 11
-134.1734109655141
 21
-6.000000000000071
 31
0.0
  0
LINE
  5
100
330
FB
100
AcDbEntity
  8
치수문자_일반주서
 62
     0
370
    -2
100
AcDbLine
 10
-134.1734109655141
 20
5.99999999999994
 30
0.0
 11
-134.1734109655141
 21
20.47899999999994
 31
0.0
  0
LINE
  5
101
330
FB
100
AcDbEntity
  8
치수문자_일반주서
 62
     0
370
    -2
100
AcDbLine
 10
-134.1734109655141
 20
5.99999999999994
 30
0.0
 11
-134.1734109655141
 21
-6.000000000000071
 31
0.0
  0
LINE
  5
102
330
FB
100
AcDbEntity
  8
치수문자_일반주서
 62
     0
370
    -2
100
AcDbLine
 10
-134.1734109655141
 20
9.30199999999994
 30
0.0
 11
-134.1734109655141
 21
12.60399999999994
 31
0.0
  0
LINE
  5
103
330
FB
100
AcDbEntity
  8
치수문자_일반주서
 62
     0
370
    -2
100
AcDbLine
 10
-134.1734109655141
 20
-9.30200000000007
 30
0.0
 11
-134.1734109655141
 21
-12.60400000000007
 31
0.0
  0
SOLID
  5
104
330
FB
100
AcDbEntity
  8
치수문자_일반주서
 62
     0
100
AcDbTrace
 10
-134.7237442988474
 20
9.301999999999937
 30
0.0
 11
-133.6230776321808
 21
9.301999999999941
 31
0.0
 12
-134.1734109655141
 22
5.99999999999994
 32
0.0
 13
-134.1734109655141
 23
5.99999999999994
 33
0.0
  0
SOLID
  5
105
330
FB
100
AcDbEntity
  8
치수문자_일반주서
 62
     0
100
AcDbTrace
 10
-133.6230776321808
 20
-9.302000000000069
 30
0.0
 11
-134.7237442988474
 21
-9.302000000000072
 31
0.0
 12
-134.1734109655141
 22
-6.000000000000071
 32
0.0
 13
-134.1734109655141
 23
-6.000000000000071
 33
0.0
  0
MTEXT
  5
106
330
FB
100
AcDbEntity
  8
치수문자_일반주서
 62
     0
100
AcDbMText
 10
-138.5484109655141
 20
16.54149999999993
 30
0.0
 40
3.5
 41
0.0
 71
     2
 72
     1
  1
\A1;%%c12
  7
SLDTEXTSTYLE0
 11
-2.368475785866999E-15
 21
1.0
 31
0.0
 73
     1
 44
1.0
  0
POINT
  5
143
330
FB
100
AcDbEntity
  8
Defpoints
 62
     0
100
AcDbPoint
 10
-119.5
 20
5.999999999999995
 30
0.0
  0
POINT
  5
144
330
FB
100
AcDbEntity
  8
Defpoints
 62
     0
100
AcDbPoint
 10
-119.5
 20
-6.000000000000016
 30
0.0
  0
POINT
  5
145
330
FB
100
AcDbEntity
  8
Defpoints
 62
     0
100
AcDbPoint
 10
-134.1734109655141
 20
-6.000000000000071
 30
0.0
  0
ENDBLK
  5
FD
330
FB
100
AcDbEntity
  8
0
100
AcDbBlockEnd
  0
BLOCK
  5
109
330
108
100
AcDbEntity
  8
0
100
AcDbBlockBegin
  2
_D_3
 70
     0
 10
0.0
 20
0.0
 30
0.0
  3
_D_3
  1

  0
LINE
  5
10B
330
108
100
AcDbEntity
  8
치수문자_일반주서
 62
     0
370
    -2
100
AcDbLine
 10
10.0
 20
5.905441232452087
 30
0.0
 11
10.0
 21
16.68885953503977
 31
0.0
  0
LINE
  5
10C
330
108
100
AcDbEntity
  8
치수문자_일반주서
 62
     0
370
    -2
100
AcDbLine
 10
80.00000000000003
 20
6.062500000000004
 30
0.0
 11
80.00000000000003
 21
16.68885953503977
 31
0.0
  0
LINE
  5
10D
330
108
100
AcDbEntity
  8
치수문자_일반주서
 62
     0
370
    -2
100
AcDbLine
 10
13.302
 20
16.68885953503977
 30
0.0
 11
76.69800000000004
 21
16.68885953503977
 31
0.0
  0
SOLID
  5
10E
330
108
100
AcDbEntity
  8
치수문자_일반주서
 62
     0
100
AcDbTrace
 10
13.302
 20
17.2391928683731
 30
0.0
 11
13.302
 21
16.13852620170643
 31
0.0
 12
10.0
 22
16.68885953503977
 32
0.0
 13
10.0
 23
16.68885953503977
 33
0.0
  0
SOLID
  5
10F
330
108
100
AcDbEntity
  8
치수문자_일반주서
 62
     0
100
AcDbTrace
 10
76.69800000000004
 20
16.13852620170643
 30
0.0
 11
76.69800000000004
 21
17.2391928683731
 31
0.0
 12
80.00000000000003
 22
16.68885953503977
 32
0.0
 13
80.00000000000003
 23
16.68885953503977
 33
0.0
  0
MTEXT
  5
110
330
108
100
AcDbEntity
  8
치수문자_일반주서
 62
     0
100
AcDbMText
 10
44.99999999999999
 20
21.06385953503977
 30
0.0
 40
3.5
 41
0.0
 71
     2
 72
     1
  1
\A1;70
  7
SLDTEXTSTYLE0
 73
     1
 44
1.0
  0
POINT
  5
140
330
108
100
AcDbEntity
  8
Defpoints
 62
     0
100
AcDbPoint
 10
10.0
 20
5.842941232452087
 30
0.0
  0
POINT
  5
141
330
108
100
AcDbEntity
  8
Defpoints
 62
     0
100
AcDbPoint
 10
80.00000000000003
 20
6.000000000000004
 30
0.0
  0
POINT
  5
142
330
108
100
AcDbEntity
  8
Defpoints
 62
     0
100
AcDbPoint
 10
80.00000000000003
 20
16.68885953503977
 30
0.0
  0
ENDBLK
  5
10A
330
108
100
AcDbEntity
  8
0
100
AcDbBlockEnd
  0
BLOCK
  5
112
330
111
100
AcDbEntity
  8
0
100
AcDbBlockBegin
  2
SW_DOWELSYMBOL_0
 70
     0
 10
0.0
 20
0.0
 30
0.0
  3
SW_DOWELSYMBOL_0
  1

  0
CIRCLE
  5
114
330
111
100
AcDbEntity
  8
해칭선
 62
     0
100
AcDbCircle
 10
0.0
 20
0.0
 30
0.0
 40
3.000000000000003
  0
HATCH
  5
115
330
111
100
AcDbEntity
  8
0
  6
Continuous
 62
     0
370
    18
100
AcDbHatch
 10
0.0
 20
0.0
 30
0.0
210
0.0
220
0.0
230
1.0
  2
SOLID
 70
     1
 71
     0
 91
        1
 92
        0
 93
        3
 72
     2
 10
0.0
 20
0.0
 40
3.000000000000003
 50
0.0
 51
90.0
 73
     1
 72
     1
 10
0.0
 20
3.000000000000003
 11
0.0
 21
0.0
 72
     1
 10
0.0
 20
0.0
 11
3.000000000000003
 21
0.0
 97
        0
 75
     0
 76
     1
 98
        1
 10
0.0
 20
0.0
  0
HATCH
  5
116
330
111
100
AcDbEntity
  8
0
  6
Continuous
 62
     0
370
    18
100
AcDbHatch
 10
0.0
 20
0.0
 30
0.0
210
0.0
220
0.0
230
1.0
  2
SOLID
 70
     1
 71
     0
 91
        1
 92
        0
 93
        3
 72
     2
 10
0.0
 20
0.0
 40
3.000000000000003
 50
180.0
 51
270.0000000000008
 73
     1
 72
     1
 10
0.0
 20
-3.000000000000003
 11
0.0
 21
0.0
 72
     1
 10
0.0
 20
0.0
 11
-3.000000000000003
 21
0.0
 97
        0
 75
     0
 76
     1
 98
        1
 10
0.0
 20
0.0
  0
ENDBLK
  5
113
330
111
100
AcDbEntity
  8
0
100
AcDbBlockEnd
  0
ENDSEC
  0
SECTION
  2
ENTITIES
  0
LINE
  5
99
330
1F
100
AcDbEntity
  8
0
  6
Continuous
 62
     4
370
    25
100
AcDbLine
 10
8.499836730708738
 20
5.999999999999989
 30
0.0
 11
-119.5
 21
5.999999999999981
 31
0.0
  0
LINE
  5
9A
330
1F
100
AcDbEntity
  8
0
  6
Continuous
 62
     4
370
    25
100
AcDbLine
 10
-119.5
 20
-6.000000000000019
 30
0.0
 11
8.499836730708727
 21
-6.000000000000011
 31
0.0
  0
LINE
  5
9B
330
1F
100
AcDbEntity
  8
0
  6
Continuous
 62
     4
370
    25
100
AcDbLine
 10
-119.5
 20
5.999999999999975
 30
0.0
 11
-120.0
 21
5.499999999999972
 31
0.0
  0
LINE
  5
9C
330
1F
100
AcDbEntity
  8
0
  6
Continuous
 62
     4
370
    25
100
AcDbLine
 10
-120.0
 20
-5.500000000000011
 30
0.0
 11
-119.5
 21
-6.000000000000012
 31
0.0
  0
LINE
  5
9D
330
1F
100
AcDbEntity
  8
0
  6
Continuous
 62
     1
370
    25
100
AcDbLine
 10
77.68001678653394
 20
-6.000000000000018
 30
0.0
 11
80.00000000000003
 21
-6.000000000000018
 31
0.0
  0
LINE
  5
9E
330
1F
100
AcDbEntity
  8
0
  6
Continuous
 62
     1
370
    25
100
AcDbLine
 10
12.38323967410211
 20
-6.000000000000018
 30
0.0
 11
17.02551403931542
 21
-6.000000000000018
 31
0.0
  0
LINE
  5
9F
330
1F
100
AcDbEntity
  8
0
  6
Continuous
 62
     1
370
    25
100
AcDbLine
 10
49.67397796971363
 20
5.999999999999996
 30
0.0
 11
45.02914680888745
 21
5.999999999999996
 31
0.0
  0
LINE
  5
A0
330
1F
100
AcDbEntity
  8
0
  6
Continuous
 62
     1
370
    25
100
AcDbLine
 10
61.35729016106932
 20
-6.000000000000018
 30
0.0
 11
65.99450569756124
 21
-6.000000000000018
 31
0.0
  0
LINE
  5
A1
330
1F
100
AcDbEntity
  8
0
  6
Continuous
 62
     1
370
    25
100
AcDbLine
 10
33.34642830188399
 20
5.999999999999996
 30
0.0
 11
28.70894539856436
 21
5.999999999999996
 31
0.0
  0
LINE
  5
A2
330
1F
100
AcDbEntity
  8
0
  6
Continuous
 62
     1
370
    25
100
AcDbLine
 10
28.70894539856436
 20
-6.000000000000018
 30
0.0
 11
33.34642830188402
 21
-6.000000000000018
 31
0.0
  0
LINE
  5
A3
330
1F
100
AcDbEntity
  8
0
  6
Continuous
 62
     1
370
    25
100
AcDbLine
 10
65.99450569756115
 20
5.999999999999996
 30
0.0
 11
61.35729016106939
 21
5.999999999999996
 31
0.0
  0
LINE
  5
A4
330
1F
100
AcDbEntity
  8
0
  6
Continuous
 62
     1
370
    25
100
AcDbLine
 10
45.02914680888744
 20
-6.000000000000018
 30
0.0
 11
49.67397796971355
 21
-6.000000000000018
 31
0.0
  0
LINE
  5
A5
330
1F
100
AcDbEntity
  8
0
  6
Continuous
 62
     1
370
    25
100
AcDbLine
 10
17.02551403931531
 20
5.999999999999996
 30
0.0
 11
12.38323967410215
 21
5.999999999999996
 31
0.0
  0
LINE
  5
A6
330
1F
100
AcDbEntity
  8
0
  6
Continuous
 62
     1
370
    25
100
AcDbLine
 10
80.00000000000003
 20
5.999999999999996
 30
0.0
 11
77.68001678653394
 21
5.999999999999996
 31
0.0
  0
SPLINE
  5
A7
330
1F
100
AcDbEntity
  8
0
  6
Continuous
 62
     4
370
    25
100
AcDbSpline
210
0.0
220
0.0
230
1.0
 70
    24
 71
     3
 72
    12
 73
     8
 74
     0
 42
0.000000001
 43
0.00000001
 40
0.0
 40
0.0
 40
0.0
 40
0.0
 40
0.5
 40
0.5
 40
0.75
 40
0.75
 40
1.0
 40
1.0
 40
1.0
 40
1.0
 10
10.00000000000001
 20
1.315339415728586
 30
0.0
 10
10.00000000000001
 20
1.195414432039614
 30
0.0
 10
10.00000000000001
 20
1.034524812530085
 30
0.0
 10
10.00000000000001
 20
0.7293109483784118
 30
0.0
 10
10.00000000000001
 20
0.6168494548248638
 30
0.0
 10
10.00000000000001
 20
0.3750805914077761
 30
0.0
 10
10.00000000000001
 20
0.2451776691881064
 30
0.0
 10
10.00000000000001
 20
0.1057674819651017
 30
0.0
  0
SPLINE
  5
A8
330
1F
100
AcDbEntity
  8
0
  6
Continuous
 62
     4
370
    25
100
AcDbSpline
210
0.0
220
0.0
230
1.0
 70
     8
 71
     3
 72
    14
 73
    10
 74
     0
 42
0.000000001
 43
0.00000001
 40
0.0
 40
0.0
 40
0.0
 40
0.0
 40
0.25
 40
0.25
 40
0.5
 40
0.5
 40
0.75
 40
0.75
 40
1.0
 40
1.0
 40
1.0
 40
1.0
 10
9.105239666416118
 20
-4.340874560038786
 30
0.0
 10
9.010459441709793
 20
-4.303162594003195
 30
0.0
 10
8.925287784050122
 20
-4.256927235209198
 30
0.0
 10
8.773598492299133
 20
-4.146280216557755
 30
0.0
 10
8.70825702579288
 20
-4.082164151961923
 30
0.0
 10
8.604092971334254
 20
-3.941542724293309
 30
0.0
 10
8.564232451148127
 20
-3.863352111155739
 30
0.0
 10
8.512510528873138
 20
-3.700587615510326
 30
0.0
 10
8.499836730708731
 20
-3.61448549308559
 30
0.0
 10
8.499836730708731
 20
-3.526067804522404
 30
0.0
  0
SPLINE
  5
A9
330
1F
100
AcDbEntity
  8
0
  6
Continuous
 62
     4
370
    25
100
AcDbSpline
210
0.0
220
0.0
230
1.0
 70
     8
 71
     3
 72
    18
 73
    14
 74
     0
 42
0.000000001
 43
0.00000001
 40
0.0
 40
0.0
 40
0.0
 40
0.0
 40
0.1250000000000001
 40
0.1250000000000001
 40
0.2500000000000002
 40
0.2500000000000002
 40
0.5000000000000001
 40
0.5000000000000001
 40
0.6250000000000001
 40
0.6250000000000001
 40
0.75
 40
0.75
 40
1.0
 40
1.0
 40
1.0
 40
1.0
 10
8.499836730708738
 20
0.1217777573848656
 30
0.0
 10
8.499836730708738
 20
0.215293697036463
 30
0.0
 10
8.508971104967397
 20
0.3072299816381905
 30
0.0
 10
8.546567901420257
 20
0.4877976801856938
 30
0.0
 10
8.575608770712764
 20
0.5773761663712286
 30
0.0
 10
8.69017744555921
 20
0.82828667738214
 30
0.0
 10
8.806303867869795
 20
0.9779960777427296
 30
0.0
 10
9.021464668482245
 20
1.149751205457287
 30
0.0
 10
9.10134416767583
 20
1.199349040549305
 30
0.0
 10
9.268219029691585
 20
1.277651057428829
 30
0.0
 10
9.35574318141239
 20
1.307055005817849
 30
0.0
 10
9.630244617545289
 20
1.365094175548124
 30
0.0
 10
9.81869765256711
 20
1.361365540868245
 30
0.0
 10
9.999999999999975
 20
1.315339415728308
 30
0.0
  0
SPLINE
  5
AA
330
1F
100
AcDbEntity
  8
0
  6
Continuous
 62
     4
370
    25
100
AcDbSpline
210
0.0
220
0.0
230
1.0
 70
     8
 71
     3
 72
    18
 73
    14
 74
     0
 42
0.000000001
 43
0.00000001
 40
0.0
 40
0.0
 40
0.0
 40
0.0
 40
0.1249999999999999
 40
0.1249999999999999
 40
0.2499999999999998
 40
0.2499999999999998
 40
0.4999999999999999
 40
0.4999999999999999
 40
0.6249999999999999
 40
0.6249999999999999
 40
0.75
 40
0.75
 40
1.0
 40
1.0
 40
1.0
 40
1.0
 10
8.499836730708738
 20
5.99876405418701
 30
0.0
 10
8.499836730708738
 20
5.996865636228305
 30
0.0
 10
8.508971104967397
 20
5.992812098510953
 30
0.0
 10
8.546567901420254
 20
5.98082273043451
 30
0.0
 10
8.575608770712764
 20
5.97274792931269
 30
0.0
 10
8.69017744555921
 20
5.944936117275105
 30
0.0
 10
8.806303867869795
 20
5.920902321264712
 30
0.0
 10
9.021464668482245
 20
5.889096902077506
 30
0.0
 10
9.10134416767583
 20
5.879044386319011
 30
0.0
 10
9.268219029691585
 20
5.862525803169367
 30
0.0
 10
9.355743181412386
 20
5.855937220106347
 30
0.0
 10
9.630244617545289
 20
5.842781182632685
 30
0.0
 10
9.81869765256711
 20
5.84370680442979
 30
0.0
 10
9.999999999999972
 20
5.85404836172638
 30
0.0
  0
LINE
  5
AB
330
1F
100
AcDbEntity
  8
0
  6
Continuous
 62
     4
370
    25
100
AcDbLine
 10
8.499836730708738
 20
5.999999999999989
 30
0.0
 11
8.499836730708738
 21
4.854569583177345
 31
0.0
  0
SPLINE
  5
AC
330
1F
100
AcDbEntity
  8
0
  6
Continuous
 62
     4
370
    25
100
AcDbSpline
210
0.0
220
0.0
230
1.0
 70
     8
 71
     3
 72
    14
 73
    10
 74
     0
 42
0.000000001
 43
0.00000001
 40
0.0
 40
0.0
 40
0.0
 40
0.0
 40
0.25
 40
0.25
 40
0.5
 40
0.5
 40
0.75
 40
0.75
 40
1.0
 40
1.0
 40
1.0
 40
1.0
 10
9.105239666416118
 20
4.142077746009978
 30
0.0
 10
9.010459441709793
 20
4.181599677758033
 30
0.0
 10
8.925287784050122
 20
4.229015993806611
 30
0.0
 10
8.773598492299133
 20
4.337553011493885
 30
0.0
 10
8.70825702579288
 20
4.398281114846019
 30
0.0
 10
8.604092971334254
 20
4.524730034084312
 30
0.0
 10
8.564232451148127
 20
4.5918950027633
 30
0.0
 10
8.512510528873138
 20
4.724049168997468
 30
0.0
 10
8.499836730708745
 20
4.790348284120616
 30
0.0
 10
8.499836730708745
 20
4.854569583177344
 30
0.0
  0
SPLINE
  5
AD
330
1F
100
AcDbEntity
  8
0
  6
Continuous
 62
     4
370
    25
100
AcDbSpline
210
0.0
220
0.0
230
1.0
 70
     8
 71
     3
 72
     8
 73
     4
 74
     0
 42
0.000000001
 43
0.00000001
 40
0.0
 40
0.0
 40
0.0
 40
0.0
 40
1.0
 40
1.0
 40
1.0
 40
1.0
 10
9.999999999998945
 20
3.753909038662751
 30
0.0
 10
9.702559729224514
 20
3.887966566379808
 30
0.0
 10
9.403755422829098
 20
4.017601154113004
 30
0.0
 10
9.105239666416118
 20
4.142077746009978
 30
0.0
  0
LINE
  5
AE
330
1F
100
AcDbEntity
  8
0
  6
Continuous
 62
     4
370
    25
100
AcDbLine
 10
10.0
 20
3.753909038662274
 30
0.0
 11
10.00000000000001
 21
1.315339415728586
 31
0.0
  0
SPLINE
  5
AF
330
1F
100
AcDbEntity
  8
0
  6
Continuous
 62
     4
370
    25
100
AcDbSpline
210
0.0
220
0.0
230
1.0
 70
     8
 71
     3
 72
     8
 73
     4
 74
     0
 42
0.000000001
 43
0.00000001
 40
0.0
 40
0.0
 40
0.0
 40
0.0
 40
1.0
 40
1.0
 40
1.0
 40
1.0
 10
9.999999999998945
 20
-4.680616084387732
 30
0.0
 10
9.702559729224514
 20
-4.573100373651188
 30
0.0
 10
9.403755422829098
 20
-4.459650561064493
 30
0.0
 10
9.105239666416118
 20
-4.340874560038789
 30
0.0
  0
LINE
  5
B0
330
1F
100
AcDbEntity
  8
0
  6
Continuous
 62
     4
370
    25
100
AcDbLine
 10
10.0
 20
-4.680616084388113
 30
0.0
 11
10.00000000000001
 21
-5.854048361726339
 31
0.0
  0
SPLINE
  5
B1
330
1F
100
AcDbEntity
  8
0
  6
Continuous
 62
     4
370
    25
100
AcDbSpline
210
0.0
220
0.0
230
1.0
 70
     8
 71
     3
 72
    18
 73
    14
 74
     0
 42
0.000000001
 43
0.00000001
 40
0.0
 40
0.0
 40
0.0
 40
0.0
 40
0.1249999999999999
 40
0.1249999999999999
 40
0.2499999999999999
 40
0.2499999999999999
 40
0.4999999999999997
 40
0.4999999999999997
 40
0.6249999999999998
 40
0.6249999999999998
 40
0.7499999999999998
 40
0.7499999999999998
 40
1.0
 40
1.0
 40
1.0
 40
1.0
 10
8.499836730708738
 20
-5.998764054187032
 30
0.0
 10
8.499836730708738
 20
-5.996865636228325
 30
0.0
 10
8.508971104967397
 20
-5.992812098510972
 30
0.0
 10
8.546567901420257
 20
-5.980822730434528
 30
0.0
 10
8.575608770712767
 20
-5.972747929312711
 30
0.0
 10
8.69017744555921
 20
-5.944936117275126
 30
0.0
 10
8.806303867869795
 20
-5.920902321264734
 30
0.0
 10
9.021464668482245
 20
-5.889096902077528
 30
0.0
 10
9.10134416767583
 20
-5.879044386319037
 30
0.0
 10
9.268219029691585
 20
-5.862525803169389
 30
0.0
 10
9.35574318141239
 20
-5.85593722010637
 30
0.0
 10
9.630244617545289
 20
-5.842781182632707
 30
0.0
 10
9.81869765256711
 20
-5.843706804429811
 30
0.0
 10
9.999999999999975
 20
-5.854048361726401
 30
0.0
  0
LINE
  5
B2
330
1F
100
AcDbEntity
  8
0
  6
Continuous
 62
     4
370
    25
100
AcDbLine
 10
8.499836730708738
 20
-5.998764054187031
 30
0.0
 11
8.499836730708738
 21
-6.000000000000011
 31
0.0
  0
LINE
  5
B3
330
1F
100
AcDbEntity
  8
0
  6
Continuous
 62
     4
370
    25
100
AcDbLine
 10
-119.5
 20
5.999999999999975
 30
0.0
 11
-119.5
 21
-6.000000000000012
 31
0.0
  0
LINE
  5
B4
330
1F
100
AcDbEntity
  8
0
  6
Continuous
 62
     4
370
    25
100
AcDbLine
 10
8.499836730708738
 20
0.1217777573848656
 30
0.0
 11
8.499836730708738
 21
-3.526067804522403
 31
0.0
  0
LINE
  5
B5
330
1F
100
AcDbEntity
  8
0
  6
Continuous
 62
     4
370
    25
100
AcDbLine
 10
-120.0
 20
5.499999999999973
 30
0.0
 11
-120.0
 21
-5.500000000000011
 31
0.0
  0
SPLINE
  5
B6
330
1F
100
AcDbEntity
  8
0
  6
Continuous
 62
     4
370
    25
100
AcDbSpline
210
0.0
220
0.0
230
1.0
 70
    24
 71
     3
 72
     9
 73
     5
 74
     0
 42
0.000000001
 43
0.00000001
 40
0.0
 40
0.0
 40
0.0
 40
0.0
 40
0.5419810297184449
 40
1.0
 40
1.0
 40
1.0
 40
1.0
 10
10.0
 20
4.116655896580122
 30
0.0
 10
10.0
 20
4.033864902841232
 30
0.0
 10
9.999999999999996
 20
3.881108645335503
 30
0.0
 10
9.999999999999996
 20
3.793867251865886
 30
0.0
 10
9.999999999999996
 20
3.753909038663005
 30
0.0
  0
SPLINE
  5
B7
330
1F
100
AcDbEntity
  8
0
  6
Continuous
 62
     4
370
    25
100
AcDbSpline
210
0.0
220
0.0
230
1.0
 70
    24
 71
     3
 72
    12
 73
     8
 74
     0
 42
0.000000001
 43
0.00000001
 40
0.0
 40
0.0
 40
0.0
 40
0.0
 40
0.5
 40
0.5
 40
0.75
 40
0.75
 40
1.0
 40
1.0
 40
1.0
 40
1.0
 10
10.00000000000001
 20
5.854048361726319
 30
0.0
 10
10.00000000000001
 20
5.515194274399963
 30
0.0
 10
10.00000000000001
 20
5.198189747465866
 30
0.0
 10
10.00000000000001
 20
4.756754725126066
 30
0.0
 10
10.00000000000001
 20
4.615802639009872
 30
0.0
 10
10.00000000000001
 20
4.353038920223736
 30
0.0
 10
10.00000000000001
 20
4.230294583476912
 30
0.0
 10
10.00000000000001
 20
4.116655896580122
 30
0.0
  0
SPLINE
  5
B8
330
1F
100
AcDbEntity
  8
0
  6
Continuous
 62
     4
370
    25
100
AcDbSpline
210
0.0
220
0.0
230
1.0
 70
    24
 71
     3
 72
    14
 73
    10
 74
     0
 42
0.000000001
 43
0.00000001
 40
0.0
 40
0.0
 40
0.0
 40
0.0
 40
0.25
 40
0.25
 40
0.4999999999999999
 40
0.4999999999999999
 40
0.75
 40
0.75
 40
1.0
 40
1.0
 40
1.0
 40
1.0
 10
10.0
 20
0.1057674819632277
 30
0.0
 10
10.0
 20
-0.1557634455096066
 30
0.0
 10
10.0
 20
-0.4640726958569643
 30
0.0
 10
10.0
 20
-1.173771260972863
 30
0.0
 10
10.0
 20
-1.575615451686231
 30
0.0
 10
10.0
 20
-2.440259001903913
 30
0.0
 10
10.0
 20
-2.90270638229195
 30
0.0
 10
10.0
 20
-3.819294560470681
 30
0.0
 10
10.0
 20
-4.272083705095731
 30
0.0
 10
10.0
 20
-4.680616084388114
 30
0.0
  0
LINE
  5
B9
330
1F
100
AcDbEntity
  8
0
  6
Continuous
 62
     1
370
    25
100
AcDbLine
 10
9.99999999999893
 20
-5.842941232451956
 30
0.0
 11
12.3832396741021
 21
-5.97727228702531
 31
0.0
  0
SPLINE
  5
BA
330
1F
100
AcDbEntity
  8
0
  6
Continuous
 62
     1
370
    25
100
AcDbSpline
210
0.0
220
0.0
230
1.0
 70
     8
 71
     3
 72
    21
 73
    17
 74
     0
 42
0.000000001
 43
0.00000001
 40
0.0
 40
0.0
 40
0.0
 40
0.0
 40
0.0539681414984234
 40
0.1314031273145787
 40
0.208806341080432
 40
0.2861739470443602
 40
0.363615763458824
 40
0.4409848944180313
 40
0.5183863256667799
 40
0.5958220340428542
 40
0.6642415923102456
 40
0.7326599864478965
 40
0.8011184101396314
 40
0.8695881083485724
 40
0.938065472041142
 40
0.9999999999999999
 40
0.9999999999999999
 40
0.9999999999999999
 40
0.9999999999999999
 10
39.1932144569311
 20
5.033057572991681
 30
0.0
 10
39.88549953631548
 20
5.244310623696351
 30
0.0
 10
41.57109444283982
 20
5.758675409041975
 30
0.0
 10
44.25057263109198
 20
6.055859077679171
 30
0.0
 10
47.22978616263756
 20
5.949813483072355
 30
0.0
 10
50.20847755223397
 20
5.342121190704606
 30
0.0
 10
53.18806396726775
 20
4.303889445075249
 30
0.0
 10
56.16678620042168
 20
2.911714007616512
 30
0.0
 10
59.14593942790773
 20
1.282849782748008
 30
0.0
 10
62.01099285140138
 20
-0.3831898759341142
 30
0.0
 10
64.75908959698009
 20
-1.951357012912227
 30
0.0
 10
67.39232039739159
 20
-3.328411872160784
 30
0.0
 10
70.02657142705036
 20
-4.495165906914915
 30
0.0
 10
72.66164754316887
 20
-5.364929740977717
 30
0.0
 10
75.2129032886377
 20
-5.911471603107607
 30
0.0
 10
76.88561931231672
 20
-5.956084815451516
 30
0.0
 10
77.68001678653394
 20
-5.977272287025302
 30
0.0
  0
LINE
  5
BB
330
1F
100
AcDbEntity
  8
0
  6
Continuous
 62
     4
370
    25
100
AcDbLine
 10
10.0
 20
-5.842941232452108
 30
0.0
 11
10.0
 21
-4.680616084389352
 31
0.0
  0
SPLINE
  5
BC
330
1F
100
AcDbEntity
  8
0
  6
Continuous
 62
     1
370
    25
100
AcDbSpline
210
0.0
220
0.0
230
1.0
 70
     8
 71
     3
 72
    18
 73
    14
 74
     0
 42
0.000000001
 43
0.00000001
 40
0.0
 40
0.0
 40
0.0
 40
0.0
 40
0.0982170144633832
 40
0.1965043891967291
 40
0.2946867550688279
 40
0.3929442688628974
 40
0.4912152268191682
 40
0.5893909724443488
 40
0.6876726414634854
 40
0.785910805834012
 40
0.8841079745652849
 40
0.9823973959278812
 40
1.0
 40
1.0
 40
1.0
 40
1.0
 10
80.00000000000006
 20
-5.850994190130142
 30
0.0
 10
79.0072561516865
 20
-5.677382534737863
 30
0.0
 10
77.0210572776167
 20
-5.330034852804283
 30
0.0
 10
74.0414624332465
 20
-4.247210553566362
 30
0.0
 10
71.06291206509178
 20
-2.850198852479282
 30
0.0
 10
68.08352913351573
 20
-1.212654559937563
 30
0.0
 10
65.10402323512457
 20
0.5207006131930875
 30
0.0
 10
62.12554292340528
 20
2.215293533301448
 30
0.0
 10
59.14596396903885
 20
3.72327810192163
 30
0.0
 10
56.16677123755718
 20
4.940431613917936
 30
0.0
 10
53.18809929391304
 20
5.710587590701968
 30
0.0
 10
51.02328343981002
 20
6.050115405573303
 30
0.0
 10
49.85189741149338
 20
5.97524977086775
 30
0.0
 10
49.67397796971362
 20
5.963878581854646
 30
0.0
  0
SPLINE
  5
BD
330
1F
100
AcDbEntity
  8
0
  6
Continuous
 62
     1
370
    25
100
AcDbSpline
210
0.0
220
0.0
230
1.0
 70
     8
 71
     3
 72
    12
 73
     8
 74
     0
 42
0.000000001
 43
0.00000001
 40
0.0
 40
0.0
 40
0.0
 40
0.0
 40
0.1808167051678672
 40
0.4076769482790631
 40
0.6344411062138539
 40
0.8658899959137804
 40
1.0
 40
1.0
 40
1.0
 40
1.0
 10
22.86757437217027
 20
-5.042928968197195
 30
0.0
 10
22.09205152188939
 20
-5.270443181878939
 30
0.0
 10
20.34352508662628
 20
-5.783406296862006
 30
0.0
 10
17.62140810017022
 20
-6.062501362410885
 30
0.0
 10
14.68336264784578
 20
-5.926313572757119
 30
0.0
 10
12.14187219446569
 20
-5.406105523168186
 30
0.0
 10
10.57487366128866
 20
-4.875335811819719
 30
0.0
 10
10.0
 20
-4.680616084389352
 30
0.0
  0
LINE
  5
BE
330
1F
100
AcDbEntity
  8
0
  6
Continuous
 62
     1
370
    25
100
AcDbLine
 10
80.00000000000003
 20
-6.000000000000025
 30
0.0
 11
80.00000000000003
 21
-5.850994190131585
 31
0.0
  0
SPLINE
  5
BF
330
1F
100
AcDbEntity
  8
0
  6
Continuous
 62
     4
370
    25
100
AcDbSpline
210
0.0
220
0.0
230
1.0
 70
    24
 71
     3
 72
    24
 73
    20
 74
     0
 42
0.000000001
 43
0.00000001
 40
0.0
 40
0.0
 40
0.0
 40
0.0
 40
0.0625
 40
0.0625
 40
0.125
 40
0.125
 40
0.25
 40
0.25
 40
0.375
 40
0.375
 40
0.5
 40
0.5
 40
0.625
 40
0.625
 40
0.75
 40
0.75
 40
0.875
 40
0.875
 40
1.0
 40
1.0
 40
1.0
 40
1.0
 10
10.00000000000002
 20
1.363832010957005
 30
0.0
 10
10.00000000000002
 20
1.325404991470224
 30
0.0
 10
10.00000000000002
 20
1.284621668736735
 30
0.0
 10
10.00000000000002
 20
1.199793861279145
 30
0.0
 10
10.00000000000002
 20
1.153989843128562
 30
0.0
 10
10.00000000000002
 20
0.9996148018660754
 30
0.0
 10
10.00000000000002
 20
0.8760887913341011
 30
0.0
 10
10.00000000000002
 20
0.576848066255328
 30
0.0
 10
10.00000000000002
 20
0.4010103313824478
 30
0.0
 10
10.00000000000002
 20
-0.0122304152969008
 30
0.0
 10
10.00000000000002
 20
-0.2498315380522748
 30
0.0
 10
10.00000000000002
 20
-0.7894373515927164
 30
0.0
 10
10.00000000000002
 20
-1.091651293135862
 30
0.0
 10
10.00000000000002
 20
-1.750316425471226
 30
0.0
 10
10.00000000000002
 20
-2.106816718161376
 30
0.0
 10
10.00000000000002
 20
-2.846255513257866
 30
0.0
 10
10.00000000000002
 20
-3.228906908548403
 30
0.0
 10
10.00000000000002
 20
-3.978240337687945
 30
0.0
 10
10.00000000000002
 20
-4.344371824737912
 30
0.0
 10
10.00000000000002
 20
-4.680616084389357
 30
0.0
  0
SPLINE
  5
C0
330
1F
100
AcDbEntity
  8
0
  6
Continuous
 62
     1
370
    25
100
AcDbSpline
210
0.0
220
0.0
230
1.0
 70
     8
 71
     3
 72
    14
 73
    10
 74
     0
 42
0.000000001
 43
0.00000001
 40
0.0
 40
0.0
 40
0.0
 40
0.0
 40
0.1458075259534061
 40
0.2916996747174551
 40
0.4376551015733908
 40
0.5835689335610735
 40
0.729374445449199
 40
0.8752737099120799
 40
1.0
 40
1.0
 40
1.0
 40
1.0
 10
9.99999999999893
 20
1.363832010957609
 30
0.0
 10
10.90916100734428
 20
0.843303120269343
 30
0.0
 10
12.72801067490657
 20
-0.1980567622330589
 30
0.0
 10
15.45734637055427
 20
-1.771511269050459
 30
0.0
 10
18.18763171299292
 20
-3.215698613710784
 30
0.0
 10
20.91724542067585
 20
-4.444739661481273
 30
0.0
 10
23.64581551943787
 20
-5.355726186499141
 30
0.0
 10
26.2427333494121
 20
-5.919959721483602
 30
0.0
 10
27.93090051618375
 20
-5.946156660963313
 30
0.0
 10
28.70894539856436
 20
-5.958230343651504
 30
0.0
  0
SPLINE
  5
C1
330
1F
100
AcDbEntity
  8
0
  6
Continuous
 62
     1
370
    25
100
AcDbSpline
210
0.0
220
0.0
230
1.0
 70
     8
 71
     3
 72
    17
 73
    13
 74
     0
 42
0.000000001
 43
0.00000001
 40
0.0
 40
0.0
 40
0.0
 40
0.0
 40
0.0275531021622295
 40
0.1525182874250277
 40
0.2775388133643151
 40
0.3880026980308101
 40
0.4984647032011981
 40
0.608991336383774
 40
0.7195361723580639
 40
0.8300933843125697
 40
0.9445333962921103
 40
1.0
 40
1.0
 40
1.0
 40
1.0
 10
55.50964594657926
 20
5.041189585357065
 30
0.0
 10
55.72858211610326
 20
5.119159554080268
 30
0.0
 10
56.94048810892342
 20
5.550756912164585
 30
0.0
 10
59.14592899801533
 20
5.924640793081016
 30
0.0
 10
62.01099536158406
 20
6.06632250514252
 30
0.0
 10
64.75908871966942
 20
5.740849121698612
 30
0.0
 10
67.39232153940762
 20
5.069619415655735
 30
0.0
 10
70.02656773409984
 20
4.072780483098939
 30
0.0
 10
72.66166117505801
 20
2.815684774991554
 30
0.0
 10
75.3276339351103
 20
1.362629346914667
 30
0.0
 10
77.55595944864464
 20
0.067489616933016
 30
0.0
 10
78.90548538888754
 20
-0.7055456959729272
 30
0.0
 10
79.34604281049306
 20
-0.95790575375925
 30
0.0
  0
SPLINE
  5
C2
330
1F
100
AcDbEntity
  8
0
  6
Continuous
 62
     1
370
    25
100
AcDbSpline
210
0.0
220
0.0
230
1.0
 70
     8
 71
     3
 72
     8
 73
     4
 74
     0
 42
0.000000001
 43
0.00000001
 40
0.0
 40
0.0
 40
0.0
 40
0.0
 40
1.0
 40
1.0
 40
1.0
 40
1.0
 10
80.00000000000003
 20
-4.474290814540884
 30
0.0
 10
79.01126683977463
 20
-3.917955780000522
 30
0.0
 10
78.07855960571104
 20
-3.235662551569964
 30
0.0
 10
77.18130034237623
 20
-2.473674748217346
 30
0.0
  0
LINE
  5
C3
330
1F
100
AcDbEntity
  8
0
  6
Continuous
 62
     1
370
    25
100
AcDbLine
 10
80.00000000000003
 20
-5.850994190131585
 30
0.0
 11
80.00000000000003
 21
-4.474290814540885
 31
0.0
  0
LINE
  5
C4
330
1F
100
AcDbEntity
  8
0
  6
Continuous
 62
     1
370
    25
100
AcDbLine
 10
79.34604281049303
 20
-0.957905753759252
 30
0.0
 11
79.3350030133771
 21
-0.9656359029201356
 31
0.0
  0
SPLINE
  5
C5
330
1F
100
AcDbEntity
  8
0
  6
Continuous
 62
     1
370
    25
100
AcDbSpline
210
0.0
220
0.0
230
1.0
 70
    24
 71
     3
 72
    12
 73
     8
 74
     0
 42
0.000000001
 43
0.00000001
 40
0.0
 40
0.0
 40
0.0
 40
0.0
 40
0.0801135248616353
 40
0.3457120955288657
 40
0.6120260640109765
 40
0.8663984576963369
 40
1.0
 40
1.0
 40
1.0
 40
1.0
 10
79.22275179299888
 20
-1.044235053602187
 30
0.0
 10
79.20561119805225
 20
-1.056237027393202
 30
0.0
 10
79.13164477343378
 20
-1.108028875485523
 30
0.0
 10
78.81981980770482
 20
-1.326371067090907
 30
0.0
 10
78.25080915358677
 20
-1.724796616425985
 30
0.0
 10
77.66637377965179
 20
-2.134022670851669
 30
0.0
 10
77.30555188802535
 20
-2.386672879319588
 30
0.0
 10
77.1813003423762
 20
-2.473674748217324
 30
0.0
  0
SPLINE
  5
C6
330
1F
100
AcDbEntity
  8
0
  6
Continuous
 62
     1
370
    25
100
AcDbSpline
210
0.0
220
0.0
230
1.0
 70
     8
 71
     3
 72
    21
 73
    17
 74
     0
 42
0.000000001
 43
0.00000001
 40
0.0
 40
0.0
 40
0.0
 40
0.0
 40
0.0603115987149766
 40
0.1377642246529655
 40
0.215142629781937
 40
0.2925566476830603
 40
0.3700024420693082
 40
0.4473651994574291
 40
0.5248043394301675
 40
0.6022303784597979
 40
0.6795995870902909
 40
0.7570509415281865
 40
0.8328621163218726
 40
0.9086585845304418
 40
0.9845197286314347
 40
0.9999999999999999
 40
0.9999999999999999
 40
0.9999999999999999
 40
0.9999999999999999
 10
55.50964594657921
 20
-5.041189585357078
 30
0.0
 10
54.73606841842458
 20
-5.269490087539127
 30
0.0
 10
52.96905658909436
 20
-5.790975877024302
 30
0.0
 10
50.20847714135731
 20
-6.066315208599037
 30
0.0
 10
47.22978473197421
 20
-5.917660615356231
 30
0.0
 10
44.25057876949825
 20
-5.272649429561124
 30
0.0
 10
41.27100173319296
 20
-4.201818449003165
 30
0.0
 10
38.29252617214056
 20
-2.785134115901454
 30
0.0
 10
35.31300902384039
 20
-1.143241781405661
 30
0.0
 10
32.33364394769398
 20
0.592134127813428
 30
0.0
 10
29.35508172951485
 20
2.28159189524592
 30
0.0
 10
26.39578716696048
 20
3.769237235238983
 30
0.0
 10
23.45771311319304
 20
4.957885157384569
 30
0.0
 10
20.54024926135901
 20
5.709468684739617
 30
0.0
 10
18.39569700532914
 20
6.043698091452721
 30
0.0
 10
17.22407675411893
 20
5.97357129202525
 30
0.0
 10
17.02551403931531
 20
5.961686410673613
 30
0.0
  0
SPLINE
  5
C7
330
1F
100
AcDbEntity
  8
0
  6
Continuous
 62
     1
370
    25
100
AcDbSpline
210
0.0
220
0.0
230
1.0
 70
     8
 71
     3
 72
    21
 73
    17
 74
     0
 42
0.000000001
 43
0.00000001
 40
0.0
 40
0.0
 40
0.0
 40
0.0
 40
0.0202113529280802
 40
0.0911377598435037
 40
0.1685777609439502
 40
0.245935628278476
 40
0.3233503176815596
 40
0.4007781061073268
 40
0.4781295231451471
 40
0.555563965008976
 40
0.6329666350456895
 40
0.7103336975306098
 40
0.7877749699447646
 40
0.8651435574142515
 40
0.942544444946382
 40
1.0
 40
1.0
 40
1.0
 40
1.0
 10
22.86757437217019
 20
5.042928968197173
 30
0.0
 10
23.12681799202408
 20
5.132757887839593
 30
0.0
 10
24.2958086504564
 20
5.537817684405616
 30
0.0
 10
26.45828201855955
 20
5.916566551594994
 30
0.0
 10
29.35509544451338
 20
6.075897323166512
 30
0.0
 10
32.33364027119429
 20
5.714496805750595
 30
0.0
 10
35.31301001035101
 20
4.894677456584416
 30
0.0
 10
38.29252590482441
 20
3.674023397389529
 30
0.0
 10
41.27100181704056
 20
2.152009151619035
 30
0.0
 10
44.25057870157892
 20
0.4566233094921039
 30
0.0
 10
47.22978491966072
 20
-1.277333335114259
 30
0.0
 10
50.20847645854757
 20
-2.90678822892566
 30
0.0
 10
53.18806959054412
 20
-4.301327613372676
 30
0.0
 10
56.1667648216232
 20
-5.33026252291077
 30
0.0
 10
58.88967505136069
 20
-5.928237174401128
 30
0.0
 10
60.62006004788171
 20
-5.945547386561062
 30
0.0
 10
61.35729016106932
 20
-5.952922398304476
 30
0.0
  0
SPLINE
  5
C8
330
1F
100
AcDbEntity
  8
0
  6
Continuous
 62
     1
370
    25
100
AcDbSpline
210
0.0
220
0.0
230
1.0
 70
     8
 71
     3
 72
    21
 73
    17
 74
     0
 42
0.000000001
 43
0.00000001
 40
0.0
 40
0.0
 40
0.0
 40
0.0
 40
0.0199524035842752
 40
0.0973792610074886
 40
0.1748167124218357
 40
0.2521791365807637
 40
0.3296250283057326
 40
0.4070366383956884
 40
0.4844159439483841
 40
0.5618679445149933
 40
0.6392457248718622
 40
0.7166591177133367
 40
0.7941042867833646
 40
0.8714664195257268
 40
0.9489049342359744
 40
1.0
 40
1.0
 40
1.0
 40
1.0
 10
71.83128179043166
 20
-5.040389272324046
 30
0.0
 10
71.57536001312383
 20
-5.130551072522613
 30
0.0
 10
70.32631382955518
 20
-5.570592766615092
 30
0.0
 10
68.08352862006893
 20
-5.940477397166719
 30
0.0
 10
65.10402321038578
 20
-6.065787126152191
 30
0.0
 10
62.1255435347862
 20
-5.663808680850122
 30
0.0
 10
59.14596154547966
 20
-4.808838166591655
 30
0.0
 10
56.16678031334875
 20
-3.558832509264966
 30
0.0
 10
53.18806541447922
 20
-2.017863536959144
 30
0.0
 10
50.2084776564355
 20
-0.3145031969807537
 30
0.0
 10
47.22978430159886
 20
1.417307564060404
 30
0.0
 10
44.25057997681913
 20
3.030931237192009
 30
0.0
 10
41.27099733464028
 20
4.401657363173046
 30
0.0
 10
38.29254254610911
 20
5.395610056512901
 30
0.0
 10
35.65078145403138
 20
5.948660786287323
 30
0.0
 10
34.00189767338007
 20
5.945888944444165
 30
0.0
 10
33.34642830188399
 20
5.944787073316472
 30
0.0
  0
SPLINE
  5
C9
330
1F
100
AcDbEntity
  8
0
  6
Continuous
 62
     1
370
    25
100
AcDbSpline
210
0.0
220
0.0
230
1.0
 70
     8
 71
     3
 72
    12
 73
     8
 74
     0
 42
0.000000001
 43
0.00000001
 40
0.0
 40
0.0
 40
0.0
 40
0.0
 40
0.2126697769833424
 40
0.4254919053999189
 40
0.6380866576207849
 40
0.8508441280009598
 40
1.0
 40
1.0
 40
1.0
 40
1.0
 10
80.00000000000003
 20
1.328859280377886
 30
0.0
 10
79.00725651768576
 20
1.877129561713485
 30
0.0
 10
77.02105837587675
 20
2.974062891821347
 30
0.0
 10
74.04145803849187
 20
4.350417485179149
 30
0.0
 10
71.06292853068766
 20
5.363714458863313
 30
0.0
 10
68.380558472523
 20
5.938509820079644
 30
0.0
 10
66.69087670225596
 20
5.945541802410758
 30
0.0
 10
65.99450569756115
 20
5.948439903513039
 30
0.0
  0
SPLINE
  5
CA
330
1F
100
AcDbEntity
  8
0
  6
Continuous
 62
     1
370
    25
100
AcDbSpline
210
0.0
220
0.0
230
1.0
 70
     8
 71
     3
 72
    18
 73
    14
 74
     0
 42
0.000000001
 43
0.00000001
 40
0.0
 40
0.0
 40
0.0
 40
0.0
 40
0.0308287791270018
 40
0.1329088099789231
 40
0.2349715712088275
 40
0.3369594187852575
 40
0.4390555507067482
 40
0.5389896029777865
 40
0.6389042690745597
 40
0.7389041907293916
 40
0.8388617580695982
 40
0.9408843536539024
 40
1.0
 40
1.0
 40
1.0
 40
1.0
 10
39.1932144569311
 20
-5.033057572991702
 30
0.0
 10
38.89324708919333
 20
-5.137620812891813
 30
0.0
 10
37.60002993926024
 20
-5.58841309776995
 30
0.0
 10
35.31300171812875
 20
-5.9556223481405
 30
0.0
 10
32.33364583550073
 20
-6.058887134522343
 30
0.0
 10
29.35508147668445
 20
-5.637492253586202
 30
0.0
 10
26.39578629199753
 20
-4.770810468732481
 30
0.0
 10
23.4577167667636
 20
-3.527766274472287
 30
0.0
 10
20.54023548758417
 20
-2.017342163051429
 30
0.0
 10
17.62141158276177
 20
-0.3492136079149111
 30
0.0
 10
14.68336168095544
 20
1.355440455793427
 30
0.0
 10
12.14187232324082
 20
2.750534339268118
 30
0.0
 10
10.57487369585161
 20
3.484605534664982
 30
0.0
 10
10.0
 20
3.753909038663004
 30
0.0
  0
SPLINE
  5
CB
330
1F
100
AcDbEntity
  8
0
  6
Continuous
 62
     4
370
    25
100
AcDbSpline
210
0.0
220
0.0
230
1.0
 70
    24
 71
     3
 72
    10
 73
     6
 74
     0
 42
0.000000001
 43
0.00000001
 40
0.0
 40
0.0
 40
0.0
 40
0.0
 40
0.3931543357931682
 40
0.886321949900362
 40
0.9999999999999999
 40
0.9999999999999999
 40
0.9999999999999999
 40
0.9999999999999999
 10
10.0
 20
5.842941232452088
 30
0.0
 10
10.00000000000001
 20
5.508621683863119
 30
0.0
 10
10.00000000000004
 20
4.7549361023538
 30
0.0
 10
9.999999999999993
 20
4.019734093433714
 30
0.0
 10
9.999999999999993
 20
3.795848635228609
 30
0.0
 10
9.999999999999996
 20
3.753909038663006
 30
0.0
  0
SPLINE
  5
CC
330
1F
100
AcDbEntity
  8
0
  6
Continuous
 62
     1
370
    25
100
AcDbSpline
210
0.0
220
0.0
230
1.0
 70
     8
 71
     3
 72
    20
 73
    16
 74
     0
 42
0.000000001
 43
0.00000001
 40
0.0
 40
0.0
 40
0.0
 40
0.0
 40
0.0778796946097787
 40
0.1558045885232751
 40
0.2337632809560139
 40
0.3116997564584831
 40
0.3895783753021932
 40
0.4675070699005193
 40
0.5525924204476993
 40
0.6375875284824074
 40
0.7226450684070092
 40
0.8077170005697439
 40
0.8927050214950963
 40
0.9777842639638973
 40
1.0
 40
1.0
 40
1.0
 40
1.0
 10
9.99999999999893
 20
5.842941232451935
 30
0.0
 10
10.9091610251777
 20
5.923314852853808
 30
0.0
 10
12.7280107284172
 20
6.084108740369476
 30
0.0
 10
15.4573461563281
 20
5.800630134231563
 30
0.0
 10
18.1876325166179
 20
5.148202542620128
 30
0.0
 10
20.91724242241633
 20
4.135166457221219
 30
0.0
 10
23.64582670325501
 20
2.839746204408014
 30
0.0
 10
26.4582839892339
 20
1.304263332042146
 30
0.0
 10
29.35509475946002
 20
-0.3783035580892632
 30
0.0
 10
32.33364096610892
 20
-2.081291353937007
 30
0.0
 10
35.31300791389198
 20
-3.609975540456526
 30
0.0
 10
38.29253359322527
 20
-4.854254633888248
 30
0.0
 10
41.27097317802301
 20
-5.665287800467179
 30
0.0
 10
43.51684543409688
 20
-6.034763297544675
 30
0.0
 10
44.76973284249516
 20
-5.966658753134186
 30
0.0
 10
45.02914680888745
 20
-5.952557509976629
 30
0.0
  0
SPLINE
  5
CD
330
1F
100
AcDbEntity
  8
0
  6
Continuous
 62
     1
370
    25
100
AcDbSpline
210
0.0
220
0.0
230
1.0
 70
     8
 71
     3
 72
    11
 73
     7
 74
     0
 42
0.000000001
 43
0.00000001
 40
0.0
 40
0.0
 40
0.0
 40
0.0
 40
0.110467525770868
 40
0.461116060808765
 40
0.8240794698974275
 40
1.0
 40
1.0
 40
1.0
 40
1.0
 10
71.83128179043166
 20
5.040389272324034
 30
0.0
 10
72.10803192510062
 20
5.135299085215941
 30
0.0
 10
73.26324863730929
 20
5.531473786762068
 30
0.0
 10
75.32762989744904
 20
5.893791376685782
 30
0.0
 10
77.55595988792345
 20
6.050313533729057
 30
0.0
 10
78.90548549699844
 20
5.954364163256757
 30
0.0
 10
79.34604281049306
 20
5.923041158637567
 30
0.0
  0
SPLINE
  5
CE
330
1F
100
AcDbEntity
  8
0
  6
Continuous
 62
     1
370
    25
100
AcDbSpline
210
0.0
220
0.0
230
1.0
 70
     8
 71
     3
 72
    20
 73
    16
 74
     0
 42
0.000000001
 43
0.00000001
 40
0.0
 40
0.0
 40
0.0
 40
0.0
 40
0.25
 40
0.25
 40
0.375
 40
0.375
 40
0.5
 40
0.5
 40
0.625
 40
0.625
 40
0.75
 40
0.75
 40
0.875
 40
0.875
 40
1.0
 40
1.0
 40
1.0
 40
1.0
 10
79.34604281049303
 20
5.923041158637578
 30
0.0
 10
79.35112885140029
 20
5.54253497923388
 30
0.0
 10
79.31712971161335
 20
5.169800947532967
 30
0.0
 10
79.1870773319063
 20
4.626419842655091
 30
0.0
 10
79.12953167146969
 20
4.446911123490399
 30
0.0
 10
78.98808935692887
 20
4.110784893826115
 30
0.0
 10
78.90394834380402
 20
3.952221520663265
 30
0.0
 10
78.70565846706191
 20
3.65633694197504
 30
0.0
 10
78.59458529726814
 20
3.523839668565568
 30
0.0
 10
78.35152993231176
 20
3.291097136675003
 30
0.0
 10
78.21750383993009
 20
3.189532317023823
 30
0.0
 10
77.93775629808974
 20
3.024135119926167
 30
0.0
 10
77.79214789655808
 20
2.959667403985347
 30
0.0
 10
77.49048002212706
 20
2.863956824433929
 30
0.0
 10
77.33578115845356
 20
2.833394590183143
 30
0.0
 10
77.18130034237643
 20
2.818699657623613
 30
0.0
  0
LINE
  5
CF
330
1F
100
AcDbEntity
  8
0
  6
Continuous
 62
     1
370
    25
100
AcDbLine
 10
80.00000000000003
 20
1.334248751568803
 30
0.0
 11
80.00000000000003
 21
1.446523558810433
 31
0.0
  0
LINE
  5
D0
330
1F
100
AcDbEntity
  8
0
  6
Continuous
 62
     4
370
    25
100
AcDbLine
 10
10.0
 20
1.363832010957011
 30
0.0
 11
10.0
 21
3.753909038663004
 31
0.0
  0
LINE
  5
D1
330
1F
100
AcDbEntity
  8
0
  6
Continuous
 62
     1
370
    25
100
AcDbLine
 10
80.00000000000003
 20
-0.5000000000000276
 30
0.0
 11
80.00000000000003
 21
1.328859280378001
 31
0.0
  0
LINE
  5
D2
330
1F
100
AcDbEntity
  8
0
  6
Continuous
 62
     1
370
    25
100
AcDbLine
 10
80.00000000000003
 20
-0.5000000000000314
 30
0.0
 11
79.34604281049306
 21
-0.9579057537592562
 31
0.0
  0
LINE
  5
D3
330
1F
100
AcDbEntity
  8
0
  6
Continuous
 62
     1
370
    25
100
AcDbLine
 10
80.00000000000003
 20
5.979130371550702
 30
0.0
 11
80.00000000000003
 21
6.000000000000004
 31
0.0
  0
ELLIPSE
  5
D4
330
1F
100
AcDbEntity
  8
0
  6
Continuous
 62
     1
370
    25
100
AcDbEllipse
 10
80.71407400337108
 20
-0.0000000000000111
 30
0.0
 11
8.568888040452663
 21
5.350968460038300E-17
 31
0.0
210
0.0
220
0.0
230
1.0
 40
0.7002075382097126
 41
1.654226413405513
 42
1.731133393454129
  0
LINE
  5
D5
330
1F
100
AcDbEntity
  8
0
  6
Continuous
 62
     1
370
    25
100
AcDbLine
 10
80.00000000000003
 20
-0.5000000000000068
 30
0.0
 11
80.00000000000003
 21
-4.474290814540885
 31
0.0
  0
LINE
  5
D6
330
1F
100
AcDbEntity
  8
0
  6
Continuous
 62
     1
370
    25
100
AcDbLine
 10
80.00000000000003
 20
1.446523558810433
 30
0.0
 11
80.00000000000003
 21
5.979130371550702
 31
0.0
  0
LINE
  5
D7
330
1F
100
AcDbEntity
  8
중심선
100
AcDbLine
 10
-123.0
 20
-0.0000000000000163
 30
0.0
 11
83.00000000000003
 21
0.0000000000000089
 31
0.0
  0
CIRCLE
  5
D8
330
1F
100
AcDbEntity
  8
해칭선
100
AcDbCircle
 10
0.0000104138921566
 20
-0.0000000000000043
 30
0.0
 40
3.000000000000003
  0
INSERT
  5
D9
330
1F
100
AcDbEntity
  8
0
  6
Continuous
 62
     7
100
AcDbBlockReference
 66
     1
  2
블럭10
 10
-32.44009924894178
 20
-52.04717430164393
 30
0.0
  0
ATTRIB
  5
DA
330
D9
100
AcDbEntity
  8
FORMAT
 62
     2
100
AcDbText
 10
-53.29834678053432
 20
-49.97180738881174
 30
0.0
 40
4.233333333333333
  1
SEME7212070200E [ 4 FLUTE ]
 41
0.75
  7
SLDTEXTSTYLE0
 11
-53.29834678053432
 21
-52.08847405547841
 31
0.0
100
AcDbAttribute
  2
AUTOATTR0
 70
     0
 74
     1
  0
SEQEND
  5
DB
330
D9
100
AcDbEntity
  8
0
  6
Continuous
 62
     7
  0
HATCH
  5
DC
330
1F
100
AcDbEntity
  8
중심선
100
AcDbHatch
 10
0.0
 20
0.0
 30
0.0
210
0.0
220
0.0
230
1.0
  2
SOLID
 70
     1
 71
     0
 91
        1
 92
        0
 93
        4
 72
     1
 10
-26.72518994456094
 20
-35.8
 11
-30.17146518839822
 21
-35.8
 72
     1
 10
-30.17146518839822
 20
-35.8
 11
-32.29969504760224
 21
-38.33632558057259
 72
     1
 10
-32.29969504760224
 20
-38.33632558057259
 11
-28.85338671865181
 21
-38.3362861512701
 72
     1
 10
-28.85338671865181
 20
-38.3362861512701
 11
-26.72518994456094
 21
-35.8
 97
        0
 75
     0
 76
     1
 98
        1
 10
0.0
 20
0.0
  0
HATCH
  5
DD
330
1F
100
AcDbEntity
  8
중심선
100
AcDbHatch
 10
0.0
 20
0.0
 30
0.0
210
0.0
220
0.0
230
1.0
  2
SOLID
 70
     1
 71
     0
 91
        1
 92
        0
 93
        4
 72
     1
 10
-21.71242595352496
 20
-35.8
 11
-25.15870119736224
 21
-35.8
 72
     1
 10
-25.15870119736224
 20
-35.8
 11
-29.68983920571966
 21
-41.20000000000002
 72
     1
 10
-29.68983920571966
 20
-41.20000000000002
 11
-26.24356396188238
 21
-41.20000000000002
 72
     1
 10
-26.24356396188238
 20
-41.20000000000002
 11
-21.71242595352496
 21
-35.8
 97
        0
 75
     0
 76
     1
 98
        1
 10
0.0
 20
0.0
  0
HATCH
  5
DE
330
1F
100
AcDbEntity
  8
중심선
100
AcDbHatch
 10
0.0
 20
0.0
 30
0.0
210
0.0
220
0.0
230
1.0
  2
SOLID
 70
     1
 71
     0
 91
        1
 92
        0
 93
        4
 72
     1
 10
-16.69966196248909
 20
-35.8
 11
-20.14593720632621
 21
-35.80000000000003
 72
     1
 10
-20.14593720632621
 20
-35.80000000000003
 11
-27.19437410821546
 21
-44.20000000000002
 72
     1
 10
-27.19437410821546
 20
-44.20000000000002
 11
-23.74809886437817
 21
-44.20000000000002
 72
     1
 10
-23.74809886437817
 20
-44.20000000000002
 11
-16.69966196248909
 21
-35.8
 97
        0
 75
     0
 76
     1
 98
        1
 10
0.0
 20
0.0
  0
HATCH
  5
DF
330
1F
100
AcDbEntity
  8
중심선
100
AcDbHatch
 10
0.0
 20
0.0
 30
0.0
210
0.0
220
0.0
230
1.0
  2
SOLID
 70
     1
 71
     0
 91
        1
 92
        0
 93
        6
 72
     3
 10
-11.89977153147689
 20
-40.00000000005127
 11
3.960054785062284
 21
1.540850780301639E-10
 40
0.3939339440162633
 50
17.09539180608434
 51
320.0019657685086
 73
     0
 72
     1
 10
-10.2167718757763
 20
-38.58789400463833
 11
-7.91147000207526
 21
-36.65356729459038
 72
     3
 10
-11.89977153152974
 20
-40.00000000000015
 11
6.600054785286829
 21
-1.249000902703301E-13
 40
0.6363583540795982
 50
39.99873849337408
 51
368.4976242363725
 73
     1
 72
     1
 10
-5.47443903962913
 20
-39.03999999993002
 11
-13.21970422469382
 21
-39.03999999993002
 72
     1
 10
-13.21970422469382
 20
-39.03999999993002
 11
-13.21972926913975
 21
-40.95999999992991
 72
     1
 10
-13.21972926913975
 20
-40.95999999992991
 11
-8.778349499667716
 21
-40.95999999992988
 97
        0
 75
     0
 76
     1
 98
        1
 10
0.0
 20
0.0
  0
DIMENSION
  5
E0
330
1F
100
AcDbEntity
  8
치수문자_일반주서
100
AcDbDimension
  2
_D
 10
94.99088850012197
 20
6.000000000000048
 30
0.0
 11
94.99088850012193
 21
16.54150000000005
 31
0.0
 70
   160
  1
%%c<>
 71
     2
 42
12.00000000000001
 52
-270.0
  3
SLDDIMSTYLE0
100
AcDbAlignedDimension
 13
80.00000000000003
 23
-6.000000000000014
 33
0.0
 14
80.00000000000003
 24
5.999999999999991
 34
0.0
 50
90.0000000000002
100
AcDbRotatedDimension
  0
DIMENSION
  5
EE
330
1F
100
AcDbEntity
  8
치수문자_일반주서
100
AcDbDimension
  2
_D_1
 10
80.00000000000003
 20
23.38913260158163
 30
0.0
 11
-19.99999999999999
 21
23.38913260158163
 31
0.0
 70
   160
  1
<>
 71
     2
 42
200.0
  3
SLDDIMSTYLE1
100
AcDbAlignedDimension
 13
-120.0
 23
5.499999999999973
 33
0.0
 14
80.00000000000003
 24
6.000000000000004
 34
0.0
 50
-0.0000000000000041
100
AcDbRotatedDimension
  0
DIMENSION
  5
F9
330
1F
100
AcDbEntity
  8
치수문자_일반주서
100
AcDbDimension
  2
_D_2
 10
-134.1734109655141
 20
-6.000000000000071
 30
0.0
 11
-134.1734109655141
 21
16.54149999999994
 31
0.0
 70
   160
  1
%%c<>
 71
     2
 42
12.00000000000001
 52
-270.0
  3
SLDDIMSTYLE2
100
AcDbAlignedDimension
 13
-119.5
 23
5.999999999999995
 33
0.0
 14
-119.5
 24
-6.000000000000016
 34
0.0
 50
90.0000000000002
100
AcDbRotatedDimension
  0
DIMENSION
  5
107
330
1F
100
AcDbEntity
  8
치수문자_일반주서
100
AcDbDimension
  2
_D_3
 10
80.00000000000003
 20
16.68885953503977
 30
0.0
 11
44.99999999999999
 21
16.68885953503977
 31
0.0
 70
   160
  1
<>
 71
     2
 42
70.00000000000003
  3
SLDDIMSTYLE1
100
AcDbAlignedDimension
 13
10.0
 23
5.842941232452087
 33
0.0
 14
80.00000000000003
 24
6.000000000000004
 34
0.0
 50
0.0000000000000465
100
AcDbRotatedDimension
  0
INSERT
  5
117
330
1F
100
AcDbEntity
  8
해칭선
100
AcDbBlockReference
  2
SW_DOWELSYMBOL_0
 10
0.0000104138921566
 20
-0.0000000000000043
 30
0.0
  0
ENDSEC
  0
SECTION
  2
OBJECTS
  0
DICTIONARY
  5
C
330
0
100
AcDbDictionary
281
     1
  3
ACAD_GROUP
350
D
  3
ACAD_IMAGE_VARS
350
13B
  3
ACAD_LAYOUT
350
1A
  3
ACAD_MLINESTYLE
350
17
  3
ACAD_PLOTSETTINGS
350
19
  3
ACAD_PLOTSTYLENAME
350
E
  3
ACAD_SCALELIST
350
47
  3
APPDATA
350
139
  3
DWGPROPS
350
14A
  0
DICTIONARY
  5
D
102
{ACAD_REACTORS
330
C
102
}
330
C
100
AcDbDictionary
281
     1
  0
RASTERVARIABLES
  5
13B
102
{ACAD_REACTORS
330
C
102
}
330
C
100
AcDbRasterVariables
 90
        0
 70
     1
 71
     1
 72
     1
  0
DICTIONARY
  5
1A
102
{ACAD_REACTORS
330
C
102
}
330
C
100
AcDbDictionary
281
     1
  3
Layout1
350
1E
  3
Layout2
350
26
  3
Model
350
22
  0
DICTIONARY
  5
17
102
{ACAD_REACTORS
330
C
102
}
330
C
100
AcDbDictionary
281
     1
  3
Standard
350
18
  0
DICTIONARY
  5
19
102
{ACAD_REACTORS
330
C
102
}
330
C
100
AcDbDictionary
281
     1
  0
ACDBDICTIONARYWDFLT
  5
E
102
{ACAD_REACTORS
330
C
102
}
330
C
100
AcDbDictionary
281
     1
  3
Normal
350
F
100
AcDbDictionaryWithDefault
340
F
  0
DICTIONARY
  5
47
102
{ACAD_REACTORS
330
C
102
}
330
C
100
AcDbDictionary
281
     1
  3
A0
350
48
  3
A1
350
49
  3
A2
350
4A
  3
A3
350
4B
  3
A4
350
4C
  3
A5
350
4D
  3
A6
350
4E
  3
A7
350
4F
  3
A8
350
50
  3
A9
350
51
  3
B0
350
52
  3
B1
350
53
  3
B2
350
54
  3
B3
350
55
  3
B4
350
56
  3
B5
350
57
  3
B6
350
58
  3
B7
350
59
  3
B8
350
5A
  3
B9
350
5B
  3
C0
350
5C
  3
C1
350
5D
  3
C2
350
5E
  3
C3
350
5F
  3
C4
350
60
  3
C5
350
61
  3
C6
350
62
  3
C7
350
63
  3
C8
350
64
  3
C9
350
65
  3
D0
350
66
  3
D1
350
67
  3
D2
350
68
  0
DICTIONARY
  5
139
102
{ACAD_REACTORS
330
C
102
}
330
C
100
AcDbDictionary
281
     1
  0
XRECORD
  5
14A
102
{ACAD_REACTORS
330
C
102
}
330
C
100
AcDbXrecord
280
     1
  1
DWGPROPS COOKIE
  2

  3

  4

  6

  7

  8
12014102
  9

300
=
301
=
302
=
303
=
304
=
305
=
306
=
307
=
308
=
309
=
 40
0.0
 41
2458260.206939502
 42
2458268.282234711
  1

 90
        0
  0
LAYOUT
  5
1E
102
{ACAD_REACTORS
330
1A
102
}
330
1A
100
AcDbPlotSettings
  1

  2
none_device
  4

  6

 40
0.0
 41
0.0
 42
0.0
 43
0.0
 44
0.0
 45
0.0
 46
0.0
 47
0.0
 48
0.0
 49
0.0
140
0.0
141
0.0
142
1.0
143
1.0
 70
   688
 72
     1
 73
     0
 74
     5
  7

 75
    16
147
1.0
148
0.0
149
0.0
100
AcDbLayout
  1
Layout1
 70
     1
 71
     1
 10
0.0
 20
0.0
 11
420.0
 21
297.0
 12
0.0
 22
0.0
 32
0.0
 14
1.000000000000000E+20
 24
1.000000000000000E+20
 34
1.000000000000000E+20
 15
-1.000000000000000E+20
 25
-1.000000000000000E+20
 35
-1.000000000000000E+20
146
0.0
 13
0.0
 23
0.0
 33
0.0
 16
1.0
 26
0.0
 36
0.0
 17
0.0
 27
1.0
 37
0.0
 76
     0
330
1B
  0
LAYOUT
  5
26
102
{ACAD_REACTORS
330
1A
102
}
330
1A
100
AcDbPlotSettings
  1

  2
none_device
  4

  6

 40
0.0
 41
0.0
 42
0.0
 43
0.0
 44
0.0
 45
0.0
 46
0.0
 47
0.0
 48
0.0
 49
0.0
140
0.0
141
0.0
142
1.0
143
1.0
 70
   688
 72
     1
 73
     0
 74
     5
  7

 75
    16
147
1.0
148
0.0
149
0.0
100
AcDbLayout
  1
Layout2
 70
     1
 71
     2
 10
0.0
 20
0.0
 11
0.0
 21
0.0
 12
0.0
 22
0.0
 32
0.0
 14
0.0
 24
0.0
 34
0.0
 15
0.0
 25
0.0
 35
0.0
146
0.0
 13
0.0
 23
0.0
 33
0.0
 16
1.0
 26
0.0
 36
0.0
 17
0.0
 27
1.0
 37
0.0
 76
     0
330
23
  0
LAYOUT
  5
22
102
{ACAD_REACTORS
330
1A
102
}
330
1A
100
AcDbPlotSettings
  1

  2
none_device
  4
ANSI_A_(11.00_x_8.50_Inches)
  6

 40
6.35
 41
19.05
 42
6.35000508
 43
19.05000254
 44
279.4
 45
215.9
 46
155.8757313666318
 47
102.3349523421106
 48
0.0
 49
0.0
140
0.0
141
0.0
142
0.0463675140258003
143
1.0
 70
  1696
 72
     0
 73
     0
 74
     0
  7

 75
     0
147
0.0235690232323232
148
0.0
149
0.0
100
AcDbLayout
  1
Model
 70
     1
 71
     0
 10
0.0
 20
0.0
 11
420.0
 21
297.0
 12
0.0
 22
0.0
 32
0.0
 14
-138.5484109655142
 24
-49.97180738881174
 34
0.0
 15
95.54122183345535
 25
27.76413260158162
 35
0.0
146
0.0
 13
0.0
 23
0.0
 33
0.0
 16
1.0
 26
0.0
 36
0.0
 17
0.0
 27
1.0
 37
0.0
 76
     0
330
1F
331
29
  0
MLINESTYLE
  5
18
102
{ACAD_REACTORS
330
17
102
}
330
17
100
AcDbMlineStyle
  2
Standard
 70
     0
  3

 62
   256
 51
90.0
 52
90.0
 71
     2
 49
0.5
 62
   256
  6
BYLAYER
 49
-0.5
 62
   256
  6
BYLAYER
  0
ACDBPLACEHOLDER
  5
F
102
{ACAD_REACTORS
330
E
102
}
330
E
  0
SCALE
  5
48
102
{ACAD_REACTORS
330
47
102
}
330
47
100
AcDbScale
 70
     0
300
1:1
140
1.0
141
1.0
290
     1
  0
SCALE
  5
49
102
{ACAD_REACTORS
330
47
102
}
330
47
100
AcDbScale
 70
     0
300
1:2
140
1.0
141
2.0
290
     0
  0
SCALE
  5
4A
102
{ACAD_REACTORS
330
47
102
}
330
47
100
AcDbScale
 70
     0
300
1:4
140
1.0
141
4.0
290
     0
  0
SCALE
  5
4B
102
{ACAD_REACTORS
330
47
102
}
330
47
100
AcDbScale
 70
     0
300
1:5
140
1.0
141
5.0
290
     0
  0
SCALE
  5
4C
102
{ACAD_REACTORS
330
47
102
}
330
47
100
AcDbScale
 70
     0
300
1:8
140
1.0
141
8.0
290
     0
  0
SCALE
  5
4D
102
{ACAD_REACTORS
330
47
102
}
330
47
100
AcDbScale
 70
     0
300
1:10
140
1.0
141
10.0
290
     0
  0
SCALE
  5
4E
102
{ACAD_REACTORS
330
47
102
}
330
47
100
AcDbScale
 70
     0
300
1:16
140
1.0
141
16.0
290
     0
  0
SCALE
  5
4F
102
{ACAD_REACTORS
330
47
102
}
330
47
100
AcDbScale
 70
     0
300
1:20
140
1.0
141
20.0
290
     0
  0
SCALE
  5
50
102
{ACAD_REACTORS
330
47
102
}
330
47
100
AcDbScale
 70
     0
300
1:30
140
1.0
141
30.0
290
     0
  0
SCALE
  5
51
102
{ACAD_REACTORS
330
47
102
}
330
47
100
AcDbScale
 70
     0
300
1:40
140
1.0
141
40.0
290
     0
  0
SCALE
  5
52
102
{ACAD_REACTORS
330
47
102
}
330
47
100
AcDbScale
 70
     0
300
1:50
140
1.0
141
50.0
290
     0
  0
SCALE
  5
53
102
{ACAD_REACTORS
330
47
102
}
330
47
100
AcDbScale
 70
     0
300
1:100
140
1.0
141
100.0
290
     0
  0
SCALE
  5
54
102
{ACAD_REACTORS
330
47
102
}
330
47
100
AcDbScale
 70
     0
300
2:1
140
2.0
141
1.0
290
     0
  0
SCALE
  5
55
102
{ACAD_REACTORS
330
47
102
}
330
47
100
AcDbScale
 70
     0
300
4:1
140
4.0
141
1.0
290
     0
  0
SCALE
  5
56
102
{ACAD_REACTORS
330
47
102
}
330
47
100
AcDbScale
 70
     0
300
8:1
140
8.0
141
1.0
290
     0
  0
SCALE
  5
57
102
{ACAD_REACTORS
330
47
102
}
330
47
100
AcDbScale
 70
     0
300
10:1
140
10.0
141
1.0
290
     0
  0
SCALE
  5
58
102
{ACAD_REACTORS
330
47
102
}
330
47
100
AcDbScale
 70
     0
300
100:1
140
100.0
141
1.0
290
     0
  0
SCALE
  5
59
102
{ACAD_REACTORS
330
47
102
}
330
47
100
AcDbScale
 70
     0
300
1/128" = 1'-0"
140
0.0078125
141
12.0
290
     0
  0
SCALE
  5
5A
102
{ACAD_REACTORS
330
47
102
}
330
47
100
AcDbScale
 70
     0
300
1/64" = 1'-0"
140
0.015625
141
12.0
290
     0
  0
SCALE
  5
5B
102
{ACAD_REACTORS
330
47
102
}
330
47
100
AcDbScale
 70
     0
300
1/32" = 1'-0"
140
0.03125
141
12.0
290
     0
  0
SCALE
  5
5C
102
{ACAD_REACTORS
330
47
102
}
330
47
100
AcDbScale
 70
     0
300
1/16" = 1'-0"
140
0.0625
141
12.0
290
     0
  0
SCALE
  5
5D
102
{ACAD_REACTORS
330
47
102
}
330
47
100
AcDbScale
 70
     0
300
3/32" = 1'-0"
140
0.09375
141
12.0
290
     0
  0
SCALE
  5
5E
102
{ACAD_REACTORS
330
47
102
}
330
47
100
AcDbScale
 70
     0
300
1/8" = 1'-0"
140
0.125
141
12.0
290
     0
  0
SCALE
  5
5F
102
{ACAD_REACTORS
330
47
102
}
330
47
100
AcDbScale
 70
     0
300
3/16" = 1'-0"
140
0.1875
141
12.0
290
     0
  0
SCALE
  5
60
102
{ACAD_REACTORS
330
47
102
}
330
47
100
AcDbScale
 70
     0
300
1/4" = 1'-0"
140
0.25
141
12.0
290
     0
  0
SCALE
  5
61
102
{ACAD_REACTORS
330
47
102
}
330
47
100
AcDbScale
 70
     0
300
3/8" = 1'-0"
140
0.375
141
12.0
290
     0
  0
SCALE
  5
62
102
{ACAD_REACTORS
330
47
102
}
330
47
100
AcDbScale
 70
     0
300
1/2" = 1'-0"
140
0.5
141
12.0
290
     0
  0
SCALE
  5
63
102
{ACAD_REACTORS
330
47
102
}
330
47
100
AcDbScale
 70
     0
300
3/4" = 1'-0"
140
0.75
141
12.0
290
     0
  0
SCALE
  5
64
102
{ACAD_REACTORS
330
47
102
}
330
47
100
AcDbScale
 70
     0
300
1" = 1'-0"
140
1.0
141
12.0
290
     0
  0
SCALE
  5
65
102
{ACAD_REACTORS
330
47
102
}
330
47
100
AcDbScale
 70
     0
300
1-1/2" = 1'-0"
140
1.5
141
12.0
290
     0
  0
SCALE
  5
66
102
{ACAD_REACTORS
330
47
102
}
330
47
100
AcDbScale
 70
     0
300
3" = 1'-0"
140
3.0
141
12.0
290
     0
  0
SCALE
  5
67
102
{ACAD_REACTORS
330
47
102
}
330
47
100
AcDbScale
 70
     0
300
6" = 1'-0"
140
6.0
141
12.0
290
     0
  0
SCALE
  5
68
102
{ACAD_REACTORS
330
47
102
}
330
47
100
AcDbScale
 70
     0
300
1'-0" = 1'-0"
140
12.0
141
12.0
290
     0
  0
ENDSEC
  0
EOF
