  0
SECTION
  2
HEADER
  9
$ACADVER
  1
AC1015
  9
$ACADMAINTVER
 70
     6
  9
$DWGCODEPAGE
  3
ANSI_949
  9
$INSBASE
 10
0.0
 20
0.0
 30
0.0
  9
$EXTMIN
 10
-92.87843184175998
 20
-49.97180738881174
 30
0.0
  9
$EXTMAX
 10
90.65965826453467
 20
27.76413260158163
 30
0.0
  9
$LIMMIN
 10
0.0
 20
0.0
  9
$LIMMAX
 10
420.0
 20
297.0
  9
$ORTHOMODE
 70
     0
  9
$REGENMODE
 70
     1
  9
$FILLMODE
 70
     1
  9
$QTEXTMODE
 70
     0
  9
$MIRRTEXT
 70
     1
  9
$LTSCALE
 40
1.0
  9
$ATTMODE
 70
     1
  9
$TEXTSIZE
 40
3.5
  9
$TRACEWID
 40
1.0
  9
$TEXTSTYLE
  7
Standard
  9
$CLAYER
  8
0
  9
$CELTYPE
  6
ByLayer
  9
$CECOLOR
 62
   256
  9
$CELTSCALE
 40
1.0
  9
$DISPSILH
 70
     0
  9
$DIMSCALE
 40
1.0
  9
$DIMASZ
 40
3.302
  9
$DIMEXO
 40
1.0
  9
$DIMDLI
 40
3.75
  9
$DIMRND
 40
0.0
  9
$DIMDLE
 40
0.0
  9
$DIMEXE
 40
1.0
  9
$DIMTP
 40
0.0
  9
$DIMTM
 40
0.0
  9
$DIMTXT
 40
3.5
  9
$DIMCEN
 40
2.5
  9
$DIMTSZ
 40
0.0
  9
$DIMTOL
 70
     0
  9
$DIMLIM
 70
     0
  9
$DIMTIH
 70
     1
  9
$DIMTOH
 70
     1
  9
$DIMSE1
 70
     0
  9
$DIMSE2
 70
     0
  9
$DIMTAD
 70
     1
  9
$DIMZIN
 70
     0
  9
$DIMBLK
  1

  9
$DIMASO
 70
     1
  9
$DIMSHO
 70
     1
  9
$DIMPOST
  1

  9
$DIMAPOST
  1

  9
$DIMALT
 70
     0
  9
$DIMALTD
 70
     3
  9
$DIMALTF
 40
0.0393700787401575
  9
$DIMLFAC
 40
1.0
  9
$DIMTOFL
 70
     1
  9
$DIMTVP
 40
0.0
  9
$DIMTIX
 70
     0
  9
$DIMSOXD
 70
     0
  9
$DIMSAH
 70
     0
  9
$DIMBLK1
  1

  9
$DIMBLK2
  1

  9
$DIMSTYLE
  2
ISO-25
  9
$DIMCLRD
 70
     0
  9
$DIMCLRE
 70
     0
  9
$DIMCLRT
 70
     0
  9
$DIMTFAC
 40
1.0
  9
$DIMGAP
 40
1.524
  9
$DIMJUST
 70
     0
  9
$DIMSD1
 70
     0
  9
$DIMSD2
 70
     0
  9
$DIMTOLJ
 70
     0
  9
$DIMTZIN
 70
     0
  9
$DIMALTZ
 70
     0
  9
$DIMALTTZ
 70
     0
  9
$DIMUPT
 70
     0
  9
$DIMDEC
 70
     2
  9
$DIMTDEC
 70
     2
  9
$DIMALTU
 70
     2
  9
$DIMALTTD
 70
     3
  9
$DIMTXSTY
  7
Standard
  9
$DIMAUNIT
 70
     0
  9
$DIMADEC
 70
     2
  9
$DIMALTRND
 40
0.0
  9
$DIMAZIN
 70
     0
  9
$DIMDSEP
 70
    44
  9
$DIMATFIT
 70
     3
  9
$DIMFRAC
 70
     0
  9
$DIMLDRBLK
  1

  9
$DIMLUNIT
 70
     2
  9
$DIMLWD
 70
    -2
  9
$DIMLWE
 70
    -2
  9
$DIMTMOVE
 70
     0
  9
$LUNITS
 70
     2
  9
$LUPREC
 70
     2
  9
$SKETCHINC
 40
1.0
  9
$FILLETRAD
 40
10.0
  9
$AUNITS
 70
     0
  9
$AUPREC
 70
     2
  9
$MENU
  1
.
  9
$ELEVATION
 40
0.0
  9
$PELEVATION
 40
0.0
  9
$THICKNESS
 40
0.0
  9
$LIMCHECK
 70
     0
  9
$CHAMFERA
 40
0.0
  9
$CHAMFERB
 40
0.0
  9
$CHAMFERC
 40
0.0
  9
$CHAMFERD
 40
0.0
  9
$SKPOLY
 70
     0
  9
$TDCREATE
 40
2458260.581750648
  9
$TDUCREATE
 40
2458260.206750648
  9
$TDUPDATE
 40
2458268.589837952
  9
$TDUUPDATE
 40
2458268.214837952
  9
$TDINDWG
 40
0.0005528241
  9
$TDUSRTIMER
 40
2458268.214285173
  9
$USRTIMER
 70
     1
  9
$ANGBASE
 50
0.0
  9
$ANGDIR
 70
     0
  9
$PDMODE
 70
     0
  9
$PDSIZE
 40
-1.0
  9
$PLINEWID
 40
0.0
  9
$SPLFRAME
 70
     0
  9
$SPLINETYPE
 70
     6
  9
$SPLINESEGS
 70
     8
  9
$HANDSEED
  5
14B
  9
$SURFTAB1
 70
     6
  9
$SURFTAB2
 70
     6
  9
$SURFTYPE
 70
     6
  9
$SURFU
 70
     6
  9
$SURFV
 70
     6
  9
$UCSBASE
  2

  9
$UCSNAME
  2

  9
$UCSORG
 10
0.0
 20
0.0
 30
0.0
  9
$UCSXDIR
 10
1.0
 20
0.0
 30
0.0
  9
$UCSYDIR
 10
0.0
 20
1.0
 30
0.0
  9
$UCSORTHOREF
  2

  9
$UCSORTHOVIEW
 70
     0
  9
$UCSORGTOP
 10
0.0
 20
0.0
 30
0.0
  9
$UCSORGBOTTOM
 10
0.0
 20
0.0
 30
0.0
  9
$UCSORGLEFT
 10
0.0
 20
0.0
 30
0.0
  9
$UCSORGRIGHT
 10
0.0
 20
0.0
 30
0.0
  9
$UCSORGFRONT
 10
0.0
 20
0.0
 30
0.0
  9
$UCSORGBACK
 10
0.0
 20
0.0
 30
0.0
  9
$PUCSBASE
  2

  9
$PUCSNAME
  2

  9
$PUCSORG
 10
0.0
 20
0.0
 30
0.0
  9
$PUCSXDIR
 10
1.0
 20
0.0
 30
0.0
  9
$PUCSYDIR
 10
0.0
 20
1.0
 30
0.0
  9
$PUCSORTHOREF
  2

  9
$PUCSORTHOVIEW
 70
     0
  9
$PUCSORGTOP
 10
0.0
 20
0.0
 30
0.0
  9
$PUCSORGBOTTOM
 10
0.0
 20
0.0
 30
0.0
  9
$PUCSORGLEFT
 10
0.0
 20
0.0
 30
0.0
  9
$PUCSORGRIGHT
 10
0.0
 20
0.0
 30
0.0
  9
$PUCSORGFRONT
 10
0.0
 20
0.0
 30
0.0
  9
$PUCSORGBACK
 10
0.0
 20
0.0
 30
0.0
  9
$USERI1
 70
     0
  9
$USERI2
 70
     0
  9
$USERI3
 70
     0
  9
$USERI4
 70
     0
  9
$USERI5
 70
     0
  9
$USERR1
 40
0.0
  9
$USERR2
 40
0.0
  9
$USERR3
 40
0.0
  9
$USERR4
 40
0.0
  9
$USERR5
 40
0.0
  9
$WORLDVIEW
 70
     1
  9
$SHADEDGE
 70
     3
  9
$SHADEDIF
 70
    70
  9
$TILEMODE
 70
     1
  9
$MAXACTVP
 70
    64
  9
$PINSBASE
 10
0.0
 20
0.0
 30
0.0
  9
$PLIMCHECK
 70
     0
  9
$PEXTMIN
 10
1.000000000000000E+20
 20
1.000000000000000E+20
 30
1.000000000000000E+20
  9
$PEXTMAX
 10
-1.000000000000000E+20
 20
-1.000000000000000E+20
 30
-1.000000000000000E+20
  9
$PLIMMIN
 10
0.0
 20
0.0
  9
$PLIMMAX
 10
0.0
 20
0.0
  9
$UNITMODE
 70
     0
  9
$VISRETAIN
 70
     1
  9
$PLINEGEN
 70
     0
  9
$PSLTSCALE
 70
     1
  9
$TREEDEPTH
 70
  3020
  9
$CMLSTYLE
  2
Standard
  9
$CMLJUST
 70
     0
  9
$CMLSCALE
 40
20.0
  9
$PROXYGRAPHICS
 70
     1
  9
$MEASUREMENT
 70
     1
  9
$CELWEIGHT
370
    -1
  9
$ENDCAPS
280
     0
  9
$JOINSTYLE
280
     0
  9
$LWDISPLAY
290
     1
  9
$INSUNITS
 70
     4
  9
$HYPERLINKBASE
  1

  9
$STYLESHEET
  1

  9
$XEDIT
290
     1
  9
$CEPSNTYPE
380
     0
  9
$PSTYLEMODE
290
     1
  9
$FINGERPRINTGUID
  2
{BEA87A4B-7E77-448E-91C2-AC78FE8F3FCA}
  9
$VERSIONGUID
  2
{FAEB1C32-E019-11D5-929B-00C0DF256EC4}
  9
$EXTNAMES
290
     1
  9
$PSVPSCALE
 40
0.0
  9
$OLESTARTUP
290
     0
  0
ENDSEC
  0
SECTION
  2
CLASSES
  0
CLASS
  1
ACDBDICTIONARYWDFLT
  2
AcDbDictionaryWithDefault
  3
ObjectDBX Classes
 90
        0
280
     0
281
     0
  0
CLASS
  1
VISUALSTYLE
  2
AcDbVisualStyle
  3
ObjectDBX Classes
 90
     4095
280
     0
281
     0
  0
CLASS
  1
MATERIAL
  2
AcDbMaterial
  3
ObjectDBX Classes
 90
     1153
280
     0
281
     0
  0
CLASS
  1
SCALE
  2
AcDbScale
  3
ObjectDBX Classes
 90
     1153
280
     0
281
     0
  0
CLASS
  1
TABLESTYLE
  2
AcDbTableStyle
  3
ObjectDBX Classes
 90
     4095
280
     0
281
     0
  0
CLASS
  1
MLEADERSTYLE
  2
AcDbMLeaderStyle
  3
ACDB_MLEADERSTYLE_CLASS
 90
     4095
280
     0
281
     0
  0
CLASS
  1
SUN
  2
AcDbSun
  3
SCENEOE
 90
     1153
280
     0
281
     0
  0
CLASS
  1
ACDBPLACEHOLDER
  2
AcDbPlaceHolder
  3
ObjectDBX Classes
 90
        0
280
     0
281
     0
  0
CLASS
  1
LAYOUT
  2
AcDbLayout
  3
ObjectDBX Classes
 90
        0
280
     0
281
     0
  0
CLASS
  1
RASTERVARIABLES
  2
AcDbRasterVariables
  3
ISM
 90
        0
280
     0
281
     0
  0
ENDSEC
  0
SECTION
  2
TABLES
  0
TABLE
  2
VPORT
  5
8
330
0
100
AcDbSymbolTable
 70
     1
  0
VPORT
  5
29
330
8
100
AcDbSymbolTableRecord
100
AcDbViewportTableRecord
  2
*Active
 70
     0
 10
0.0
 20
0.0
 11
1.0
 21
1.0
 12
-1.109386788612653
 22
-11.10383739361505
 13
0.0
 23
0.0
 14
10.0
 24
10.0
 15
10.0
 25
10.0
 16
0.0
 26
0.0
 36
1.0
 17
0.0
 27
0.0
 37
0.0
 40
107.6520441137574
 41
1.739018087855297
 42
50.0
 43
0.0
 44
0.0
 50
0.0
 51
0.0
 71
    16
 72
  2000
 73
     1
 74
     3
 75
     0
 76
     0
 77
     0
 78
     0
281
     0
 65
     1
110
0.0
120
0.0
130
0.0
111
1.0
121
0.0
131
0.0
112
0.0
122
1.0
132
0.0
 79
     0
146
0.0
  0
ENDTAB
  0
TABLE
  2
LTYPE
  5
5
330
0
100
AcDbSymbolTable
 70
     6
  0
LTYPE
  5
14
330
5
100
AcDbSymbolTableRecord
100
AcDbLinetypeTableRecord
  2
ByBlock
 70
     0
  3

 72
    65
 73
     0
 40
0.0
  0
LTYPE
  5
15
330
5
100
AcDbSymbolTableRecord
100
AcDbLinetypeTableRecord
  2
ByLayer
 70
     0
  3

 72
    65
 73
     0
 40
0.0
  0
LTYPE
  5
16
330
5
100
AcDbSymbolTableRecord
100
AcDbLinetypeTableRecord
  2
Continuous
 70
     0
  3
Solid line
 72
    65
 73
     0
 40
0.0
  0
LTYPE
  5
6E
330
5
100
AcDbSymbolTableRecord
100
AcDbLinetypeTableRecord
  2
HIDDEN
 70
     0
  3
Hidden __ __ __ __ __ __ __ __ __ __ __ __ __ __
 72
    65
 73
     2
 40
1.905
 49
1.27
 74
     0
 49
-0.635
 74
     0
  0
LTYPE
  5
6F
330
5
100
AcDbSymbolTableRecord
100
AcDbLinetypeTableRecord
  2
PHANTOM
 70
     0
  3
Phantom ______  __  __  ______  __  __  ______
 72
    65
 73
     6
 40
12.7
 49
6.35
 74
     0
 49
-1.27
 74
     0
 49
1.27
 74
     0
 49
-1.27
 74
     0
 49
1.27
 74
     0
 49
-1.27
 74
     0
  0
LTYPE
  5
70
330
5
100
AcDbSymbolTableRecord
100
AcDbLinetypeTableRecord
  2
CENTER
 70
     0
  3
Center ____ _ ____ _ ____ _ ____ _ ____ _ ____
 72
    65
 73
     4
 40
10.16
 49
6.35
 74
     0
 49
-1.27
 74
     0
 49
1.27
 74
     0
 49
-1.27
 74
     0
  0
LTYPE
  5
71
330
5
100
AcDbSymbolTableRecord
100
AcDbLinetypeTableRecord
  2
CENTERX2
 70
     0
  3
Center (2x) ________  __  ________  __  _____
 72
    65
 73
     4
 40
20.32
 49
12.7
 74
     0
 49
-2.54
 74
     0
 49
2.54
 74
     0
 49
-2.54
 74
     0
  0
LTYPE
  5
72
330
5
100
AcDbSymbolTableRecord
100
AcDbLinetypeTableRecord
  2
DOT2
 70
     0
  3
Dot (.5x) ........................................
 72
    65
 73
     2
 40
0.635
 49
0.0
 74
     0
 49
-0.635
 74
     0
  0
ENDTAB
  0
TABLE
  2
LAYER
  5
2
330
0
100
AcDbSymbolTable
 70
    17
  0
LAYER
  5
10
330
2
100
AcDbSymbolTableRecord
100
AcDbLayerTableRecord
  2
0
 70
     0
 62
     7
  6
Continuous
370
    -3
390
F
  0
LAYER
  5
73
330
2
100
AcDbSymbolTableRecord
100
AcDbLayerTableRecord
  2
FORMAT
 70
     0
 62
     2
  6
Continuous
370
    -3
390
F
  0
LAYER
  5
74
330
2
100
AcDbSymbolTableRecord
100
AcDbLayerTableRecord
  2
외형선
 70
     0
 62
   100
  6
Continuous
370
    35
390
F
  0
LAYER
  5
75
330
2
100
AcDbSymbolTableRecord
100
AcDbLayerTableRecord
  2
숨은선
 70
     0
 62
     2
  6
HIDDEN
370
    25
390
F
  0
LAYER
  5
76
330
2
100
AcDbSymbolTableRecord
100
AcDbLayerTableRecord
  2
중심선
 70
     0
 62
     1
  6
CENTERX2
370
    -3
390
F
  0
LAYER
  5
77
330
2
100
AcDbSymbolTableRecord
100
AcDbLayerTableRecord
  2
파단선
 70
     0
 62
     4
  6
Continuous
370
    -3
390
F
  0
LAYER
  5
78
330
2
100
AcDbSymbolTableRecord
100
AcDbLayerTableRecord
  2
해칭선
 70
     0
 62
   100
  6
Continuous
370
    -3
390
F
  0
LAYER
  5
79
330
2
100
AcDbSymbolTableRecord
100
AcDbLayerTableRecord
  2
가는실선
 70
     0
 62
     4
  6
Continuous
370
    -3
390
F
  0
LAYER
  5
7A
330
2
100
AcDbSymbolTableRecord
100
AcDbLayerTableRecord
  2
치수_보조선
 70
     0
 62
     4
  6
Continuous
370
    -3
390
F
  0
LAYER
  5
7B
330
2
100
AcDbSymbolTableRecord
100
AcDbLayerTableRecord
  2
치수문자_일반주서
 70
     0
 62
     7
  6
Continuous
370
    25
390
F
  0
LAYER
  5
7C
330
2
100
AcDbSymbolTableRecord
100
AcDbLayerTableRecord
  2
개별주서
 70
     0
 62
   100
  6
Continuous
370
    35
390
F
  0
LAYER
  5
7D
330
2
100
AcDbSymbolTableRecord
100
AcDbLayerTableRecord
  2
중간선
 70
     0
 62
     2
  6
Continuous
370
    25
390
F
  0
LAYER
  5
7E
330
2
100
AcDbSymbolTableRecord
100
AcDbLayerTableRecord
  2
윤곽선
 70
     0
 62
     3
  6
Continuous
370
    50
390
F
  0
LAYER
  5
7F
330
2
100
AcDbSymbolTableRecord
100
AcDbLayerTableRecord
  2
중심마크
 70
     0
 62
   100
  6
Continuous
370
    35
390
F
  0
LAYER
  5
80
330
2
100
AcDbSymbolTableRecord
100
AcDbLayerTableRecord
  2
가상선
 70
     0
 62
     4
  6
PHANTOM
370
    -3
390
F
  0
LAYER
  5
81
330
2
100
AcDbSymbolTableRecord
100
AcDbLayerTableRecord
  2
특수지정선
 70
     0
 62
     5
  6
CENTERX2
370
    70
390
F
  0
LAYER
  5
13B
330
2
100
AcDbSymbolTableRecord
100
AcDbLayerTableRecord
  2
Defpoints
 70
     0
 62
     7
  6
Continuous
290
     0
370
    -3
390
F
  0
ENDTAB
  0
TABLE
  2
STYLE
  5
3
330
0
100
AcDbSymbolTable
 70
     2
  0
STYLE
  5
11
330
3
100
AcDbSymbolTableRecord
100
AcDbTextStyleTableRecord
  2
Standard
 70
     0
 40
0.0
 41
1.0
 50
0.0
 71
     0
 42
3.5
  3
txt
  4

  0
STYLE
  5
97
330
3
100
AcDbSymbolTableRecord
100
AcDbTextStyleTableRecord
  2
SLDTEXTSTYLE0
 70
     0
 40
0.0
 41
0.75
 50
0.0
 71
     0
 42
3.5
  3
TXT
  4

  0
ENDTAB
  0
TABLE
  2
VIEW
  5
6
330
0
100
AcDbSymbolTable
 70
     0
  0
ENDTAB
  0
TABLE
  2
UCS
  5
7
330
0
100
AcDbSymbolTable
 70
     0
  0
ENDTAB
  0
TABLE
  2
APPID
  5
9
330
0
100
AcDbSymbolTable
 70
     1
  0
APPID
  5
12
330
9
100
AcDbSymbolTableRecord
100
AcDbRegAppTableRecord
  2
ACAD
 70
     0
  0
ENDTAB
  0
TABLE
  2
DIMSTYLE
  5
A
330
0
100
AcDbSymbolTable
 70
     4
100
AcDbDimStyleTable
  0
DIMSTYLE
105
27
330
A
100
AcDbSymbolTableRecord
100
AcDbDimStyleTableRecord
  2
ISO-25
 70
     0
 41
2.5
 42
0.625
 43
3.75
 44
1.25
 73
     0
 74
     0
 77
     1
 78
     8
140
2.5
141
2.5
143
0.03937007874016
147
0.625
171
     3
172
     1
178
     0
271
     2
272
     2
274
     3
278
    44
283
     0
284
     8
340
11
  0
DIMSTYLE
105
E0
102
{ACAD_REACTORS
330
DF
102
}
330
A
100
AcDbSymbolTableRecord
100
AcDbDimStyleTableRecord
  2
SLDDIMSTYLE0
 70
     0
 41
3.302
 44
0.0
 45
0.000000001
 73
     0
 74
     0
 77
     1
 78
    12
 79
     3
140
3.5
147
0.875
172
     1
173
     1
178
     0
271
     1
272
     1
276
     2
284
    12
289
     0
340
97
  0
DIMSTYLE
105
EE
102
{ACAD_REACTORS
330
ED
330
106
102
}
330
A
100
AcDbSymbolTableRecord
100
AcDbDimStyleTableRecord
  2
SLDDIMSTYLE1
 70
     0
 41
3.302
 44
0.0
 45
0.000000001
 73
     0
 74
     0
 77
     1
 78
    12
 79
     3
140
3.5
147
0.875
173
     1
178
     0
271
     2
272
     2
276
     2
284
    12
340
97
  0
DIMSTYLE
105
F9
102
{ACAD_REACTORS
330
F8
102
}
330
A
100
AcDbSymbolTableRecord
100
AcDbDimStyleTableRecord
  2
SLDDIMSTYLE2
 70
     0
 41
3.302
 44
0.0
 45
0.000000001
 73
     0
 74
     0
 77
     1
 78
    12
 79
     3
140
3.5
147
0.875
172
     1
173
     1
178
     0
271
     2
272
     2
276
     2
284
    12
289
     0
340
97
  0
ENDTAB
  0
TABLE
  2
BLOCK_RECORD
  5
1
330
0
100
AcDbSymbolTable
 70
     7
  0
BLOCK_RECORD
  5
1F
330
1
100
AcDbSymbolTableRecord
100
AcDbBlockTableRecord
  2
*Model_Space
340
22
  0
BLOCK_RECORD
  5
1B
330
1
100
AcDbSymbolTableRecord
100
AcDbBlockTableRecord
  2
*Paper_Space
340
1E
  0
BLOCK_RECORD
  5
23
330
1
100
AcDbSymbolTableRecord
100
AcDbBlockTableRecord
  2
*Paper_Space0
340
26
  0
BLOCK_RECORD
  5
82
330
1
100
AcDbSymbolTableRecord
100
AcDbBlockTableRecord
  2
블럭10
340
0
102
{BLKREFS
331
D8
102
}
  0
BLOCK_RECORD
  5
E1
330
1
100
AcDbSymbolTableRecord
100
AcDbBlockTableRecord
  2
_D
340
0
  0
BLOCK_RECORD
  5
EF
330
1
100
AcDbSymbolTableRecord
100
AcDbBlockTableRecord
  2
_D_1
340
0
  0
BLOCK_RECORD
  5
FA
330
1
100
AcDbSymbolTableRecord
100
AcDbBlockTableRecord
  2
_D_2
340
0
  0
BLOCK_RECORD
  5
107
330
1
100
AcDbSymbolTableRecord
100
AcDbBlockTableRecord
  2
_D_3
340
0
  0
BLOCK_RECORD
  5
110
330
1
100
AcDbSymbolTableRecord
100
AcDbBlockTableRecord
  2
SW_DOWELSYMBOL_0
340
0
102
{BLKREFS
331
116
102
}
  0
ENDTAB
  0
ENDSEC
  0
SECTION
  2
BLOCKS
  0
BLOCK
  5
20
330
1F
100
AcDbEntity
  8
0
100
AcDbBlockBegin
  2
*Model_Space
 70
     0
 10
0.0
 20
0.0
 30
0.0
  3
*Model_Space
  1

  0
ENDBLK
  5
21
330
1F
100
AcDbEntity
  8
0
100
AcDbBlockEnd
  0
BLOCK
  5
1C
330
1B
100
AcDbEntity
 67
     1
  8
0
100
AcDbBlockBegin
  2
*Paper_Space
 70
     0
 10
0.0
 20
0.0
 30
0.0
  3
*Paper_Space
  1

  0
ENDBLK
  5
1D
330
1B
100
AcDbEntity
 67
     1
  8
0
100
AcDbBlockEnd
  0
BLOCK
  5
24
330
23
100
AcDbEntity
  8
0
100
AcDbBlockBegin
  2
*Paper_Space0
 70
     0
 10
0.0
 20
0.0
 30
0.0
  3
*Paper_Space0
  1

  0
ENDBLK
  5
25
330
23
100
AcDbEntity
  8
0
100
AcDbBlockEnd
  0
BLOCK
  5
83
330
82
100
AcDbEntity
  8
0
100
AcDbBlockBegin
  2
블럭10
 70
     2
 10
0.0
 20
0.0
 30
0.0
  3
블럭10
  1

  0
ELLIPSE
  5
85
330
82
100
AcDbEntity
  8
중심선
100
AcDbEllipse
 10
20.54032771741204
 20
12.0471743016438
 30
0.0
 11
6.600054785286829
 21
-1.261213355974178E-13
 31
0.0
210
0.0
220
0.0
230
1.0
 40
0.636358354079598
 41
0.9219305317359503
 42
6.513795318482858
  0
ELLIPSE
  5
86
330
82
100
AcDbEntity
  8
중심선
100
AcDbEllipse
 10
20.54032771746488
 20
12.04717430159265
 30
0.0
 11
3.960054785062283
 21
1.540847449632565E-10
 31
0.0
210
0.0
220
0.0
230
1.0
 40
0.3939339440162632
 41
1.131841032648279
 42
5.62031148352944
  0
LINE
  5
87
330
82
100
AcDbEntity
  8
중심선
100
AcDbLine
 10
2.268634060543552
 20
16.24717430164393
 30
0.0
 11
5.714909304380834
 21
16.24717430164393
 31
0.0
  0
LINE
  5
88
330
82
100
AcDbEntity
  8
중심선
100
AcDbLine
 10
5.245725140726316
 20
7.84717430164391
 30
0.0
 11
8.692000384563599
 21
7.84717430164391
 31
0.0
  0
LINE
  5
89
330
82
100
AcDbEntity
  8
중심선
100
AcDbLine
 10
15.74043728645272
 20
16.24717430164393
 30
0.0
 11
8.692000384563599
 21
7.84717430164391
 31
0.0
  0
LINE
  5
8A
330
82
100
AcDbEntity
  8
중심선
100
AcDbLine
 10
0.1404042013395286
 20
13.71084872107135
 30
0.0
 11
3.58671253028996
 21
13.71088815037384
 31
0.0
  0
LINE
  5
8B
330
82
100
AcDbEntity
  8
중심선
100
AcDbLine
 10
2.750260043222114
 20
10.84717430164391
 30
0.0
 11
6.196535287059397
 21
10.84717430164391
 31
0.0
  0
LINE
  5
8C
330
82
100
AcDbEntity
  8
중심선
100
AcDbLine
 10
12.29416204261559
 20
16.24717430164393
 30
0.0
 11
5.245725140726316
 21
7.84717430164391
 31
0.0
  0
LINE
  5
8D
330
82
100
AcDbEntity
  8
중심선
100
AcDbLine
 10
10.72767329541681
 20
16.24717430164393
 30
0.0
 11
6.196535287059397
 21
10.84717430164391
 31
0.0
  0
LINE
  5
8E
330
82
100
AcDbEntity
  8
중심선
100
AcDbLine
 10
7.28139805157953
 20
16.24717430164393
 30
0.0
 11
2.750260043222114
 21
10.84717430164391
 31
0.0
  0
LINE
  5
8F
330
82
100
AcDbEntity
  8
중심선
100
AcDbLine
 10
5.714909304380834
 20
16.24717430164393
 30
0.0
 11
3.58671253028996
 21
13.71088815037384
 31
0.0
  0
LINE
  5
90
330
82
100
AcDbEntity
  8
중심선
100
AcDbLine
 10
2.268634060543552
 20
16.24717430164393
 30
0.0
 11
0.1404042013395286
 21
13.71084872107135
 31
0.0
  0
LINE
  5
91
330
82
100
AcDbEntity
  8
중심선
100
AcDbLine
 10
7.28139805157953
 20
16.24717430164393
 30
0.0
 11
10.72767329541681
 21
16.24717430164393
 31
0.0
  0
LINE
  5
92
330
82
100
AcDbEntity
  8
중심선
100
AcDbLine
 10
12.29416204261559
 20
16.24717430164393
 30
0.0
 11
15.74043728645272
 21
16.24717430164393
 31
0.0
  0
LINE
  5
93
330
82
100
AcDbEntity
  8
중심선
100
AcDbLine
 10
19.22036997980202
 20
11.08717430171403
 30
0.0
 11
23.66174974927406
 21
11.08717430171406
 31
0.0
  0
LINE
  5
94
330
82
100
AcDbEntity
  8
중심선
100
AcDbLine
 10
19.22039502424796
 20
13.00717430171391
 30
0.0
 11
19.22036997980202
 21
11.08717430171403
 31
0.0
  0
LINE
  5
95
330
82
100
AcDbEntity
  8
중심선
100
AcDbLine
 10
19.22039502424796
 20
13.00717430171391
 30
0.0
 11
26.96566020931264
 21
13.00717430171391
 31
0.0
  0
LINE
  5
96
330
82
100
AcDbEntity
  8
중심선
100
AcDbLine
 10
22.22332737316547
 20
13.45928029700563
 30
0.0
 11
24.52862924686651
 21
15.39360700705356
 31
0.0
  0
ATTDEF
  5
98
330
82
100
AcDbEntity
  8
FORMAT
 62
     2
100
AcDbText
 10
-16.11926103943555
 20
2.075366912832191
 30
0.0
 40
4.233333333333333
  1
SEME7212065E [ 4 FLUTE ]
 41
0.75
  7
SLDTEXTSTYLE0
 11
-16.11926103943555
 21
-0.0412997538344756
 31
0.0
100
AcDbAttributeDefinition
  3

  2
AUTOATTR0
 70
     0
 74
     1
  0
ENDBLK
  5
84
330
82
100
AcDbEntity
  8
0
100
AcDbBlockEnd
  0
BLOCK
  5
E2
330
E1
100
AcDbEntity
  8
0
100
AcDbBlockBegin
  2
_D
 70
     0
 10
0.0
 20
0.0
 30
0.0
  3
_D
  1

  0
LINE
  5
E4
330
E1
100
AcDbEntity
  8
치수문자_일반주서
 62
     0
370
    -2
100
AcDbLine
 10
75.06250000000001
 20
-6.000000000000009
 30
0.0
 11
90.10932493120133
 21
-5.999999999999954
 31
0.0
  0
LINE
  5
E5
330
E1
100
AcDbEntity
  8
치수문자_일반주서
 62
     0
370
    -2
100
AcDbLine
 10
75.06250000000001
 20
5.999999999999996
 30
0.0
 11
90.10932493120129
 21
6.000000000000053
 31
0.0
  0
LINE
  5
E6
330
E1
100
AcDbEntity
  8
치수문자_일반주서
 62
     0
370
    -2
100
AcDbLine
 10
90.10932493120133
 20
-5.999999999999954
 30
0.0
 11
90.10932493120123
 21
20.47900000000005
 31
0.0
  0
LINE
  5
E7
330
E1
100
AcDbEntity
  8
치수문자_일반주서
 62
     0
370
    -2
100
AcDbLine
 10
90.10932493120133
 20
-5.999999999999954
 30
0.0
 11
90.10932493120129
 21
6.000000000000053
 31
0.0
  0
LINE
  5
E8
330
E1
100
AcDbEntity
  8
치수문자_일반주서
 62
     0
370
    -2
100
AcDbLine
 10
90.10932493120134
 20
-9.301999999999953
 30
0.0
 11
90.10932493120136
 21
-12.60399999999995
 31
0.0
  0
LINE
  5
E9
330
E1
100
AcDbEntity
  8
치수문자_일반주서
 62
     0
370
    -2
100
AcDbLine
 10
90.10932493120127
 20
9.302000000000053
 30
0.0
 11
90.10932493120126
 21
12.60400000000005
 31
0.0
  0
SOLID
  5
EA
330
E1
100
AcDbEntity
  8
치수문자_일반주서
 62
     0
100
AcDbTrace
 10
90.65965826453467
 20
-9.301999999999952
 30
0.0
 11
89.55899159786802
 21
-9.301999999999955
 31
0.0
 12
90.10932493120133
 22
-5.999999999999954
 32
0.0
 13
90.10932493120133
 23
-5.999999999999954
 33
0.0
  0
SOLID
  5
EB
330
E1
100
AcDbEntity
  8
치수문자_일반주서
 62
     0
100
AcDbTrace
 10
89.55899159786794
 20
9.302000000000051
 30
0.0
 11
90.6596582645346
 21
9.302000000000055
 31
0.0
 12
90.10932493120129
 22
6.000000000000053
 32
0.0
 13
90.10932493120129
 23
6.000000000000053
 33
0.0
  0
MTEXT
  5
EC
330
E1
100
AcDbEntity
  8
치수문자_일반주서
 62
     0
100
AcDbMText
 10
85.73432493120124
 20
16.54150000000003
 30
0.0
 40
3.5
 41
0.0
 71
     2
 72
     1
  1
\A1;%%c12
  7
SLDTEXTSTYLE0
 11
-3.552713678800499E-15
 21
1.0
 31
0.0
 73
     1
 44
1.0
  0
POINT
  5
145
330
E1
100
AcDbEntity
  8
Defpoints
 62
     0
100
AcDbPoint
 10
75.00000000000001
 20
-6.000000000000009
 30
0.0
  0
POINT
  5
146
330
E1
100
AcDbEntity
  8
Defpoints
 62
     0
100
AcDbPoint
 10
75.00000000000001
 20
5.999999999999996
 30
0.0
  0
POINT
  5
147
330
E1
100
AcDbEntity
  8
Defpoints
 62
     0
100
AcDbPoint
 10
90.10932493120129
 20
6.000000000000053
 30
0.0
  0
ENDBLK
  5
E3
330
E1
100
AcDbEntity
  8
0
100
AcDbBlockEnd
  0
BLOCK
  5
F0
330
EF
100
AcDbEntity
  8
0
100
AcDbBlockBegin
  2
_D_1
 70
     0
 10
0.0
 20
0.0
 30
0.0
  3
_D_1
  1

  0
LINE
  5
F2
330
EF
100
AcDbEntity
  8
치수문자_일반주서
 62
     0
370
    -2
100
AcDbLine
 10
-74.99999999999999
 20
5.562499999999986
 30
0.0
 11
-74.99999999999999
 21
23.38913260158164
 31
0.0
  0
LINE
  5
F3
330
EF
100
AcDbEntity
  8
치수문자_일반주서
 62
     0
370
    -2
100
AcDbLine
 10
75.00000000000001
 20
6.0625
 30
0.0
 11
75.00000000000001
 21
23.38913260158164
 31
0.0
  0
LINE
  5
F4
330
EF
100
AcDbEntity
  8
치수문자_일반주서
 62
     0
370
    -2
100
AcDbLine
 10
-71.69799999999998
 20
23.38913260158164
 30
0.0
 11
71.69800000000001
 21
23.38913260158164
 31
0.0
  0
SOLID
  5
F5
330
EF
100
AcDbEntity
  8
치수문자_일반주서
 62
     0
100
AcDbTrace
 10
-71.69799999999998
 20
23.93946593491497
 30
0.0
 11
-71.69799999999998
 21
22.8387992682483
 31
0.0
 12
-74.99999999999999
 22
23.38913260158164
 32
0.0
 13
-74.99999999999999
 23
23.38913260158164
 33
0.0
  0
SOLID
  5
F6
330
EF
100
AcDbEntity
  8
치수문자_일반주서
 62
     0
100
AcDbTrace
 10
71.69800000000001
 20
22.8387992682483
 30
0.0
 11
71.69800000000001
 21
23.93946593491497
 31
0.0
 12
75.00000000000001
 22
23.38913260158164
 32
0.0
 13
75.00000000000001
 23
23.38913260158164
 33
0.0
  0
MTEXT
  5
F7
330
EF
100
AcDbEntity
  8
치수문자_일반주서
 62
     0
100
AcDbMText
 10
0.0000000000000058
 20
27.76413260158164
 30
0.0
 40
3.5
 41
0.0
 71
     2
 72
     1
  1
\A1;150
  7
SLDTEXTSTYLE0
 73
     1
 44
1.0
  0
POINT
  5
13C
330
EF
100
AcDbEntity
  8
Defpoints
 62
     0
100
AcDbPoint
 10
-74.99999999999999
 20
5.499999999999986
 30
0.0
  0
POINT
  5
13D
330
EF
100
AcDbEntity
  8
Defpoints
 62
     0
100
AcDbPoint
 10
75.00000000000001
 20
6.0
 30
0.0
  0
POINT
  5
13E
330
EF
100
AcDbEntity
  8
Defpoints
 62
     0
100
AcDbPoint
 10
75.00000000000001
 20
23.38913260158164
 30
0.0
  0
ENDBLK
  5
F1
330
EF
100
AcDbEntity
  8
0
100
AcDbBlockEnd
  0
BLOCK
  5
FB
330
FA
100
AcDbEntity
  8
0
100
AcDbBlockBegin
  2
_D_2
 70
     0
 10
0.0
 20
0.0
 30
0.0
  3
_D_2
  1

  0
LINE
  5
FD
330
FA
100
AcDbEntity
  8
치수문자_일반주서
 62
     0
370
    -2
100
AcDbLine
 10
-74.56249999999999
 20
6.0
 30
0.0
 11
-88.50343184175992
 21
5.999999999999948
 31
0.0
  0
LINE
  5
FE
330
FA
100
AcDbEntity
  8
치수문자_일반주서
 62
     0
370
    -2
100
AcDbLine
 10
-74.56249999999999
 20
-6.000000000000011
 30
0.0
 11
-88.50343184175988
 21
-6.00000000000006
 31
0.0
  0
LINE
  5
FF
330
FA
100
AcDbEntity
  8
치수문자_일반주서
 62
     0
370
    -2
100
AcDbLine
 10
-88.50343184175992
 20
5.999999999999948
 30
0.0
 11
-88.50343184175998
 21
20.47899999999995
 31
0.0
  0
LINE
  5
100
330
FA
100
AcDbEntity
  8
치수문자_일반주서
 62
     0
370
    -2
100
AcDbLine
 10
-88.50343184175992
 20
5.999999999999948
 30
0.0
 11
-88.50343184175988
 21
-6.00000000000006
 31
0.0
  0
LINE
  5
101
330
FA
100
AcDbEntity
  8
치수문자_일반주서
 62
     0
370
    -2
100
AcDbLine
 10
-88.50343184175993
 20
9.301999999999948
 30
0.0
 11
-88.50343184175995
 21
12.60399999999995
 31
0.0
  0
LINE
  5
102
330
FA
100
AcDbEntity
  8
치수문자_일반주서
 62
     0
370
    -2
100
AcDbLine
 10
-88.50343184175986
 20
-9.30200000000006
 30
0.0
 11
-88.50343184175985
 21
-12.60400000000006
 31
0.0
  0
SOLID
  5
103
330
FA
100
AcDbEntity
  8
치수문자_일반주서
 62
     0
100
AcDbTrace
 10
-89.05376517509326
 20
9.301999999999946
 30
0.0
 11
-87.9530985084266
 21
9.30199999999995
 31
0.0
 12
-88.50343184175992
 22
5.999999999999948
 32
0.0
 13
-88.50343184175992
 23
5.999999999999948
 33
0.0
  0
SOLID
  5
104
330
FA
100
AcDbEntity
  8
치수문자_일반주서
 62
     0
100
AcDbTrace
 10
-87.95309850842654
 20
-9.302000000000058
 30
0.0
 11
-89.05376517509319
 21
-9.302000000000062
 31
0.0
 12
-88.50343184175988
 22
-6.00000000000006
 32
0.0
 13
-88.50343184175988
 23
-6.00000000000006
 33
0.0
  0
MTEXT
  5
105
330
FA
100
AcDbEntity
  8
치수문자_일반주서
 62
     0
100
AcDbMText
 10
-92.87843184175996
 20
16.54149999999993
 30
0.0
 40
3.5
 41
0.0
 71
     2
 72
     1
  1
\A1;%%c12
  7
SLDTEXTSTYLE0
 11
-3.552713678800497E-15
 21
1.0
 31
0.0
 73
     1
 44
1.0
  0
POINT
  5
142
330
FA
100
AcDbEntity
  8
Defpoints
 62
     0
100
AcDbPoint
 10
-74.49999999999999
 20
6.0
 30
0.0
  0
POINT
  5
143
330
FA
100
AcDbEntity
  8
Defpoints
 62
     0
100
AcDbPoint
 10
-74.49999999999999
 20
-6.000000000000011
 30
0.0
  0
POINT
  5
144
330
FA
100
AcDbEntity
  8
Defpoints
 62
     0
100
AcDbPoint
 10
-88.50343184175988
 20
-6.000000000000063
 30
0.0
  0
ENDBLK
  5
FC
330
FA
100
AcDbEntity
  8
0
100
AcDbBlockEnd
  0
BLOCK
  5
108
330
107
100
AcDbEntity
  8
0
100
AcDbBlockBegin
  2
_D_3
 70
     0
 10
0.0
 20
0.0
 30
0.0
  3
_D_3
  1

  0
LINE
  5
10A
330
107
100
AcDbEntity
  8
치수문자_일반주서
 62
     0
370
    -2
100
AcDbLine
 10
10.0
 20
6.062499999999995
 30
0.0
 11
10.0
 21
16.84591830258766
 31
0.0
  0
LINE
  5
10B
330
107
100
AcDbEntity
  8
치수문자_일반주서
 62
     0
370
    -2
100
AcDbLine
 10
75.00000000000001
 20
6.0625
 30
0.0
 11
75.00000000000001
 21
16.84591830258766
 31
0.0
  0
LINE
  5
10C
330
107
100
AcDbEntity
  8
치수문자_일반주서
 62
     0
370
    -2
100
AcDbLine
 10
13.302
 20
16.84591830258766
 30
0.0
 11
71.69800000000001
 21
16.84591830258766
 31
0.0
  0
SOLID
  5
10D
330
107
100
AcDbEntity
  8
치수문자_일반주서
 62
     0
100
AcDbTrace
 10
13.302
 20
17.39625163592099
 30
0.0
 11
13.302
 21
16.29558496925432
 31
0.0
 12
10.0
 22
16.84591830258766
 32
0.0
 13
10.0
 23
16.84591830258766
 33
0.0
  0
SOLID
  5
10E
330
107
100
AcDbEntity
  8
치수문자_일반주서
 62
     0
100
AcDbTrace
 10
71.69800000000001
 20
16.29558496925432
 30
0.0
 11
71.69800000000001
 21
17.39625163592099
 31
0.0
 12
75.00000000000001
 22
16.84591830258766
 32
0.0
 13
75.00000000000001
 23
16.84591830258766
 33
0.0
  0
MTEXT
  5
10F
330
107
100
AcDbEntity
  8
치수문자_일반주서
 62
     0
100
AcDbMText
 10
42.5
 20
21.22091830258766
 30
0.0
 40
3.5
 41
0.0
 71
     2
 72
     1
  1
\A1;65
  7
SLDTEXTSTYLE0
 73
     1
 44
1.0
  0
POINT
  5
13F
330
107
100
AcDbEntity
  8
Defpoints
 62
     0
100
AcDbPoint
 10
10.0
 20
5.999999999999995
 30
0.0
  0
POINT
  5
140
330
107
100
AcDbEntity
  8
Defpoints
 62
     0
100
AcDbPoint
 10
75.00000000000001
 20
6.0
 30
0.0
  0
POINT
  5
141
330
107
100
AcDbEntity
  8
Defpoints
 62
     0
100
AcDbPoint
 10
75.00000000000001
 20
16.84591830258766
 30
0.0
  0
ENDBLK
  5
109
330
107
100
AcDbEntity
  8
0
100
AcDbBlockEnd
  0
BLOCK
  5
111
330
110
100
AcDbEntity
  8
0
100
AcDbBlockBegin
  2
SW_DOWELSYMBOL_0
 70
     0
 10
0.0
 20
0.0
 30
0.0
  3
SW_DOWELSYMBOL_0
  1

  0
CIRCLE
  5
113
330
110
100
AcDbEntity
  8
해칭선
 62
     0
100
AcDbCircle
 10
0.0
 20
0.0
 30
0.0
 40
3.0
  0
HATCH
  5
114
330
110
100
AcDbEntity
  8
0
  6
Continuous
 62
     0
370
    18
100
AcDbHatch
 10
0.0
 20
0.0
 30
0.0
210
0.0
220
0.0
230
1.0
  2
SOLID
 70
     1
 71
     0
 91
        1
 92
        0
 93
        3
 72
     2
 10
0.0
 20
0.0
 40
3.0
 50
0.0
 51
90.0
 73
     1
 72
     1
 10
0.0
 20
3.0
 11
0.0
 21
0.0
 72
     1
 10
0.0
 20
0.0
 11
3.0
 21
0.0
 97
        0
 75
     0
 76
     1
 98
        1
 10
0.0
 20
0.0
  0
HATCH
  5
115
330
110
100
AcDbEntity
  8
0
  6
Continuous
 62
     0
370
    18
100
AcDbHatch
 10
0.0
 20
0.0
 30
0.0
210
0.0
220
0.0
230
1.0
  2
SOLID
 70
     1
 71
     0
 91
        1
 92
        0
 93
        3
 72
     2
 10
0.0
 20
0.0
 40
3.0
 50
180.0
 51
270.0000000000008
 73
     1
 72
     1
 10
0.0
 20
-3.0
 11
0.0
 21
0.0
 72
     1
 10
0.0
 20
0.0
 11
-3.0
 21
0.0
 97
        0
 75
     0
 76
     1
 98
        1
 10
0.0
 20
0.0
  0
ENDBLK
  5
112
330
110
100
AcDbEntity
  8
0
100
AcDbBlockEnd
  0
ENDSEC
  0
SECTION
  2
ENTITIES
  0
LINE
  5
99
330
1F
100
AcDbEntity
  8
0
  6
Continuous
 62
     4
370
    25
100
AcDbLine
 10
10.0
 20
5.999999999999995
 30
0.0
 11
-74.49999999999999
 21
5.999999999999989
 31
0.0
  0
LINE
  5
9A
330
1F
100
AcDbEntity
  8
0
  6
Continuous
 62
     4
370
    25
100
AcDbLine
 10
-74.49999999999999
 20
-6.000000000000011
 30
0.0
 11
9.999999999999998
 21
-6.000000000000005
 31
0.0
  0
LINE
  5
9B
330
1F
100
AcDbEntity
  8
0
  6
Continuous
 62
     4
370
    25
100
AcDbLine
 10
-74.49999999999999
 20
5.999999999999984
 30
0.0
 11
-74.99999999999999
 21
5.499999999999986
 31
0.0
  0
LINE
  5
9C
330
1F
100
AcDbEntity
  8
0
  6
Continuous
 62
     4
370
    25
100
AcDbLine
 10
-74.99999999999999
 20
-5.500000000000007
 30
0.0
 11
-74.49999999999999
 21
-6.000000000000005
 31
0.0
  0
LINE
  5
9D
330
1F
100
AcDbEntity
  8
0
  6
Continuous
 62
     1
370
    25
100
AcDbLine
 10
72.6788503852047
 20
-6.000000000000012
 30
0.0
 11
75.00000000000001
 21
-6.000000000000012
 31
0.0
  0
LINE
  5
9E
330
1F
100
AcDbEntity
  8
0
  6
Continuous
 62
     1
370
    25
100
AcDbLine
 10
10.00000000000001
 20
-6.000000000000012
 30
0.0
 11
12.0246255902909
 21
-6.000000000000012
 31
0.0
  0
LINE
  5
9F
330
1F
100
AcDbEntity
  8
0
  6
Continuous
 62
     1
370
    25
100
AcDbLine
 10
44.67222745298601
 20
6.000000000000001
 30
0.0
 11
40.03034021653826
 21
6.000000000000001
 31
0.0
  0
LINE
  5
A0
330
1F
100
AcDbEntity
  8
0
  6
Continuous
 62
     1
370
    25
100
AcDbLine
 10
56.35329690294299
 20
-6.000000000000012
 30
0.0
 11
60.9957903601872
 21
-6.000000000000012
 31
0.0
  0
LINE
  5
A1
330
1F
100
AcDbEntity
  8
0
  6
Continuous
 62
     1
370
    25
100
AcDbLine
 10
28.34689435735433
 20
6.000000000000001
 30
0.0
 11
23.70617076474884
 21
6.000000000000001
 31
0.0
  0
LINE
  5
A2
330
1F
100
AcDbEntity
  8
0
  6
Continuous
 62
     1
370
    25
100
AcDbLine
 10
23.70617076474895
 20
-6.000000000000012
 30
0.0
 11
28.34689435735431
 21
-6.000000000000012
 31
0.0
  0
LINE
  5
A3
330
1F
100
AcDbEntity
  8
0
  6
Continuous
 62
     1
370
    25
100
AcDbLine
 10
60.99579036018723
 20
6.000000000000001
 30
0.0
 11
56.35329690294303
 21
6.000000000000001
 31
0.0
  0
LINE
  5
A4
330
1F
100
AcDbEntity
  8
0
  6
Continuous
 62
     1
370
    25
100
AcDbLine
 10
40.03034021653826
 20
-6.000000000000012
 30
0.0
 11
44.67222745298599
 21
-6.000000000000012
 31
0.0
  0
LINE
  5
A5
330
1F
100
AcDbEntity
  8
0
  6
Continuous
 62
     1
370
    25
100
AcDbLine
 10
12.02462559029085
 20
6.000000000000001
 30
0.0
 11
9.999999999999998
 21
6.000000000000001
 31
0.0
  0
LINE
  5
A6
330
1F
100
AcDbEntity
  8
0
  6
Continuous
 62
     1
370
    25
100
AcDbLine
 10
75.00000000000001
 20
6.000000000000001
 30
0.0
 11
72.67885038520473
 21
6.000000000000001
 31
0.0
  0
SPLINE
  5
A7
330
1F
100
AcDbEntity
  8
0
  6
Continuous
 62
     4
370
    25
100
AcDbSpline
210
0.0
220
0.0
230
1.0
 70
     8
 71
     3
 72
    18
 73
    14
 74
     0
 42
0.000000001
 43
0.00000001
 40
0.0
 40
0.0
 40
0.0
 40
0.0
 40
0.1249999999999998
 40
0.1249999999999998
 40
0.2499999999999996
 40
0.2499999999999996
 40
0.4999999999999996
 40
0.4999999999999996
 40
0.6249999999999997
 40
0.6249999999999997
 40
0.7499999999999998
 40
0.7499999999999998
 40
1.0
 40
1.0
 40
1.0
 40
1.0
 10
8.499952414011862
 20
5.373816250640643
 30
0.0
 10
8.499952414011862
 20
5.415418500451737
 30
0.0
 10
8.50908432302919
 20
5.454379521334237
 30
0.0
 10
8.546672505725713
 20
5.527330880408127
 30
0.0
 10
8.575707173426203
 20
5.561636652068056
 30
0.0
 10
8.690255646045038
 20
5.653124854258254
 30
0.0
 10
8.806365723281987
 20
5.701119529312535
 30
0.0
 10
9.021504131088754
 20
5.752431396983
 30
0.0
 10
9.101376572307377
 20
5.766479722294402
 30
0.0
 10
9.268241511943522
 20
5.788084725145265
 30
0.0
 10
9.355756086808377
 20
5.795856151101027
 30
0.0
 10
9.630251954322468
 20
5.811065308242692
 30
0.0
 10
9.818697379401925
 20
5.810163937393694
 30
0.0
 10
9.999999999999964
 20
5.798032116906728
 30
0.0
  0
LINE
  5
A8
330
1F
100
AcDbEntity
  8
0
  6
Continuous
 62
     4
370
    25
100
AcDbLine
 10
8.499952414011862
 20
5.373816250640644
 30
0.0
 11
8.499952414011862
 21
2.672106001827474
 31
0.0
  0
SPLINE
  5
A9
330
1F
100
AcDbEntity
  8
0
  6
Continuous
 62
     4
370
    25
100
AcDbSpline
210
0.0
220
0.0
230
1.0
 70
     8
 71
     3
 72
    14
 73
    10
 74
     0
 42
0.000000001
 43
0.00000001
 40
0.0
 40
0.0
 40
0.0
 40
0.0
 40
0.25
 40
0.25
 40
0.5
 40
0.5
 40
0.75
 40
0.75
 40
1.0
 40
1.0
 40
1.0
 40
1.0
 10
9.10490870756778
 20
1.663725900955744
 30
0.0
 10
9.010190725324518
 20
1.716229165356024
 30
0.0
 10
8.925078608078081
 20
1.779661433002473
 30
0.0
 10
8.773502277690808
 20
1.927059153357687
 30
0.0
 10
8.70820881609087
 20
2.01054469723546
 30
0.0
 10
8.604126665454377
 20
2.187652700352814
 30
0.0
 10
8.564297215390027
 20
2.28333943163175
 30
0.0
 10
8.512615750695803
 20
2.475733094240627
 30
0.0
 10
8.499952414011865
 20
2.574301752164876
 30
0.0
 10
8.499952414011865
 20
2.672106001827473
 30
0.0
  0
SPLINE
  5
AA
330
1F
100
AcDbEntity
  8
0
  6
Continuous
 62
     4
370
    25
100
AcDbSpline
210
0.0
220
0.0
230
1.0
 70
     8
 71
     3
 72
     8
 73
     4
 74
     0
 42
0.000000001
 43
0.00000001
 40
0.0
 40
0.0
 40
0.0
 40
0.0
 40
1.0
 40
1.0
 40
1.0
 40
1.0
 10
10.0
 20
1.16086426099339
 30
0.0
 10
9.701416902975852
 20
1.330175021912773
 30
0.0
 10
9.404294111900077
 20
1.497773136032255
 30
0.0
 10
9.104908707567777
 20
1.663725900955744
 30
0.0
  0
SPLINE
  5
AB
330
1F
100
AcDbEntity
  8
0
  6
Continuous
 62
     4
370
    25
100
AcDbSpline
210
0.0
220
0.0
230
1.0
 70
     8
 71
     3
 72
    18
 73
    14
 74
     0
 42
0.000000001
 43
0.00000001
 40
0.0
 40
0.0
 40
0.0
 40
0.0
 40
0.125
 40
0.125
 40
0.2499999999999999
 40
0.2499999999999999
 40
0.4999999999999998
 40
0.4999999999999998
 40
0.6249999999999999
 40
0.6249999999999999
 40
0.7499999999999998
 40
0.7499999999999998
 40
1.0
 40
1.0
 40
1.0
 40
1.0
 10
8.499952414011862
 20
-2.668726082675141
 30
0.0
 10
8.499952414011862
 20
-2.584954710427762
 30
0.0
 10
8.50908432302919
 20
-2.501585670005333
 30
0.0
 10
8.546672505725716
 20
-2.335979487412732
 30
0.0
 10
8.575707173426203
 20
-2.25283798094757
 30
0.0
 10
8.690255646045038
 20
-2.017549071094494
 30
0.0
 10
8.806365723281987
 20
-1.873712619210322
 30
0.0
 10
9.021504131088754
 20
-1.706728959070076
 30
0.0
 10
9.101376572307377
 20
-1.658105304810592
 30
0.0
 10
9.268241511943522
 20
-1.581036623236045
 30
0.0
 10
9.355756086808377
 20
-1.551916664475777
 30
0.0
 10
9.630251954322468
 20
-1.494354514253973
 30
0.0
 10
9.818697379401925
 20
-1.498071644085179
 30
0.0
 10
9.999999999999964
 20
-1.543639715515933
 30
0.0
  0
LINE
  5
AC
330
1F
100
AcDbEntity
  8
0
  6
Continuous
 62
     4
370
    25
100
AcDbLine
 10
8.499952414011862
 20
-2.668726082675141
 30
0.0
 11
8.499952414011862
 21
-5.372136401376805
 31
0.0
  0
SPLINE
  5
AD
330
1F
100
AcDbEntity
  8
0
  6
Continuous
 62
     4
370
    25
100
AcDbSpline
210
0.0
220
0.0
230
1.0
 70
     8
 71
     3
 72
    14
 73
    10
 74
     0
 42
0.000000001
 43
0.00000001
 40
0.0
 40
0.0
 40
0.0
 40
0.0
 40
0.2500000000000001
 40
0.2500000000000001
 40
0.5
 40
0.5
 40
0.75
 40
0.75
 40
1.0
 40
1.0
 40
1.0
 40
1.0
 10
9.10490870756778
 20
-5.764721686818195
 30
0.0
 10
9.010190725324518
 20
-5.749568996781622
 30
0.0
 10
8.925078608078085
 20
-5.730515650433716
 30
0.0
 10
8.773502277690808
 20
-5.682644406915016
 30
0.0
 10
8.70820881609087
 20
-5.653905330554477
 30
0.0
 10
8.604126665454377
 20
-5.587764412454502
 30
0.0
 10
8.564297215390027
 20
-5.549535294804024
 30
0.0
 10
8.512615750695803
 20
-5.466418077169156
 30
0.0
 10
8.499952414011865
 20
-5.420784332665499
 30
0.0
 10
8.499952414011865
 20
-5.372136401376806
 30
0.0
  0
SPLINE
  5
AE
330
1F
100
AcDbEntity
  8
0
  6
Continuous
 62
     4
370
    25
100
AcDbSpline
210
0.0
220
0.0
230
1.0
 70
     8
 71
     3
 72
     8
 73
     4
 74
     0
 42
0.000000001
 43
0.00000001
 40
0.0
 40
0.0
 40
0.0
 40
0.0
 40
1.0
 40
1.0
 40
1.0
 40
1.0
 10
10.00000000000001
 20
-5.886628421051499
 30
0.0
 10
9.701416902975852
 20
-5.853239731075751
 30
0.0
 10
9.404294111900077
 20
-5.812616438436431
 30
0.0
 10
9.10490870756778
 20
-5.764721686818195
 30
0.0
  0
LINE
  5
AF
330
1F
100
AcDbEntity
  8
0
  6
Continuous
 62
     4
370
    25
100
AcDbLine
 10
-74.49999999999999
 20
5.999999999999984
 30
0.0
 11
-74.49999999999999
 21
-6.000000000000005
 31
0.0
  0
LINE
  5
B0
330
1F
100
AcDbEntity
  8
0
  6
Continuous
 62
     4
370
    25
100
AcDbLine
 10
10.0
 20
1.16086426099339
 30
0.0
 11
9.999999999999998
 21
-1.54363971551566
 31
0.0
  0
LINE
  5
B1
330
1F
100
AcDbEntity
  8
0
  6
Continuous
 62
     4
370
    25
100
AcDbLine
 10
9.999999999999998
 20
5.999999999999995
 30
0.0
 11
9.999999999999998
 21
5.798032116906801
 31
0.0
  0
LINE
  5
B2
330
1F
100
AcDbEntity
  8
0
  6
Continuous
 62
     4
370
    25
100
AcDbLine
 10
-74.99999999999999
 20
5.499999999999986
 30
0.0
 11
-74.99999999999999
 21
-5.500000000000007
 31
0.0
  0
SPLINE
  5
B3
330
1F
100
AcDbEntity
  8
0
  6
Continuous
 62
     4
370
    25
100
AcDbSpline
210
0.0
220
0.0
230
1.0
 70
    24
 71
     3
 72
    14
 73
    10
 74
     0
 42
0.000000001
 43
0.00000001
 40
0.0
 40
0.0
 40
0.0
 40
0.0
 40
0.0843427278194706
 40
0.2488772368153093
 40
0.4134117458111481
 40
0.5779462548069865
 40
0.742480763802825
 40
0.9070152727986601
 40
1.0
 40
1.0
 40
1.0
 40
1.0
 10
9.999999999999996
 20
3.696896473554439
 30
0.0
 10
9.999999999999996
 20
3.58703033585123
 30
0.0
 10
9.999999999999993
 20
3.262839009840639
 30
0.0
 10
9.999999999999996
 20
2.765451195124229
 30
0.0
 10
9.999999999999996
 20
2.242051454010833
 30
0.0
 10
9.999999999999996
 20
1.807886437579734
 30
0.0
 10
9.999999999999993
 20
1.477732598000902
 30
0.0
 10
9.999999999999996
 20
1.273903030804126
 30
0.0
 10
9.999999999999993
 20
1.227658088132132
 30
0.0
 10
9.999999999999993
 20
1.210960021446719
 30
0.0
  0
SPLINE
  5
B4
330
1F
100
AcDbEntity
  8
0
  6
Continuous
 62
     4
370
    25
100
AcDbSpline
210
0.0
220
0.0
230
1.0
 70
    24
 71
     3
 72
     9
 73
     5
 74
     0
 42
0.000000001
 43
0.00000001
 40
0.0
 40
0.0
 40
0.0
 40
0.0
 40
0.4085862684529559
 40
1.0
 40
1.0
 40
1.0
 40
1.0
 10
9.999999999999998
 20
-1.548758298551135
 30
0.0
 10
9.999999999999998
 20
-1.538908177395408
 30
0.0
 10
9.999999999999998
 20
-1.514800364881238
 30
0.0
 10
9.999999999999998
 20
-1.701750379550941
 30
0.0
 10
9.999999999999996
 20
-1.812315185339525
 30
0.0
  0
SPLINE
  5
B5
330
1F
100
AcDbEntity
  8
0
  6
Continuous
 62
     4
370
    25
100
AcDbSpline
210
0.0
220
0.0
230
1.0
 70
    24
 71
     3
 72
    12
 73
     8
 74
     0
 42
0.000000001
 43
0.00000001
 40
0.0
 40
0.0
 40
0.0
 40
0.0
 40
0.5000000000000007
 40
0.5000000000000007
 40
0.7500000000000003
 40
0.7500000000000003
 40
1.0
 40
1.0
 40
1.0
 40
1.0
 10
9.999999999999998
 20
5.798032116906802
 30
0.0
 10
9.999999999999998
 20
5.441929507374921
 30
0.0
 10
9.999999999999998
 20
5.086240564604258
 30
0.0
 10
9.999999999999998
 20
4.55335202097614
 30
0.0
 10
9.999999999999998
 20
4.376261678019833
 30
0.0
 10
9.999999999999998
 20
4.031255429663584
 30
0.0
 10
9.999999999999998
 20
3.862238089149905
 30
0.0
 10
9.999999999999998
 20
3.696896473554438
 30
0.0
  0
SPLINE
  5
B6
330
1F
100
AcDbEntity
  8
0
  6
Continuous
 62
     4
370
    25
100
AcDbSpline
210
0.0
220
0.0
230
1.0
 70
    24
 71
     3
 72
    14
 73
    10
 74
     0
 42
0.000000001
 43
0.00000001
 40
0.0
 40
0.0
 40
0.0
 40
0.0
 40
0.25
 40
0.25
 40
0.5
 40
0.5
 40
0.75
 40
0.75
 40
1.0
 40
1.0
 40
1.0
 40
1.0
 10
9.999999999999996
 20
-1.812315185340512
 30
0.0
 10
9.999999999999996
 20
-1.945531194798912
 30
0.0
 10
9.999999999999996
 20
-2.126916488044667
 30
0.0
 10
9.999999999999996
 20
-2.607672657000141
 30
0.0
 10
9.999999999999996
 20
-2.907772971689489
 30
0.0
 10
9.999999999999996
 20
-3.622236208697997
 30
0.0
 10
9.999999999999996
 20
-4.036799914997586
 30
0.0
 10
9.999999999999996
 20
-4.932768340629063
 30
0.0
 10
9.999999999999996
 20
-5.413174260504636
 30
0.0
 10
9.999999999999996
 20
-5.886628421051499
 30
0.0
  0
SPLINE
  5
B7
330
1F
100
AcDbEntity
  8
0
  6
Continuous
 62
     1
370
    25
100
AcDbSpline
210
0.0
220
0.0
230
1.0
 70
     8
 71
     3
 72
    25
 73
    21
 74
     0
 42
0.000000001
 43
0.00000001
 40
0.0
 40
0.0
 40
0.0
 40
0.0
 40
0.0113675353029453
 40
0.0730802037974805
 40
0.1347918027477548
 40
0.1964999743151921
 40
0.2582023667123471
 40
0.319896638341432
 40
0.3815804618940848
 40
0.443263569867355
 40
0.5049572579773475
 40
0.56665921240861
 40
0.6283670923348684
 40
0.6876450115330603
 40
0.7469235812159206
 40
0.8062024531983284
 40
0.86548127914648
 40
0.924759710749215
 40
0.9840373998893182
 40
1.0
 40
1.0
 40
1.0
 40
1.0
 10
34.18729185263366
 20
5.057045147243526
 30
0.0
 10
34.33314957566228
 20
5.107965382172103
 30
0.0
 10
35.27084731226888
 20
5.43532404408291
 30
0.0
 10
37.00038472900195
 20
5.782561916754315
 30
0.0
 10
39.37583773181784
 20
6.044281305402412
 30
0.0
 10
41.75113446936214
 20
5.968749470910603
 30
0.0
 10
44.12616233625974
 20
5.588975991581246
 30
0.0
 10
46.5008216888329
 20
4.916981455445509
 30
0.0
 10
48.87512993833121
 20
3.989751005590039
 30
0.0
 10
51.24941957968564
 20
2.854936662706847
 30
0.0
 10
53.6240570075569
 20
1.571758825993509
 30
0.0
 10
55.99905077603717
 20
0.2067702942836425
 30
0.0
 10
58.34315947932753
 20
-1.150958722470081
 30
0.0
 10
60.65596892694745
 20
-2.43251096497505
 30
0.0
 10
62.93767394956029
 20
-3.580451020925678
 30
0.0
 10
65.21937815199263
 20
-4.55491642143558
 30
0.0
 10
67.50108437313321
 20
-5.316696636397887
 30
0.0
 10
69.78277058530435
 20
-5.800975813833434
 30
0.0
 10
71.50869205063631
 20
-6.019545329833743
 30
0.0
 10
72.4740458039938
 20
-5.97998792832439
 30
0.0
 10
72.6788503852047
 20
-5.971595629623799
 30
0.0
  0
LINE
  5
B8
330
1F
100
AcDbEntity
  8
0
  6
Continuous
 62
     4
370
    25
100
AcDbLine
 10
10.0
 20
-6.000000000000005
 30
0.0
 11
10.00000000000001
 21
-5.886628421046984
 31
0.0
  0
SPLINE
  5
B9
330
1F
100
AcDbEntity
  8
0
  6
Continuous
 62
     1
370
    25
100
AcDbSpline
210
0.0
220
0.0
230
1.0
 70
     8
 71
     3
 72
    20
 73
    16
 74
     0
 42
0.000000001
 43
0.00000001
 40
0.0
 40
0.0
 40
0.0
 40
0.0
 40
0.0782880706380739
 40
0.156589493604924
 40
0.2349013157508364
 40
0.3132205656288959
 40
0.3915442586965228
 40
0.469869402566823
 40
0.5481930022898293
 40
0.6265120656435257
 40
0.7048236084144617
 40
0.7831246596478483
 40
0.8614122826707838
 40
0.9397008139003702
 40
1.0
 40
1.0
 40
1.0
 40
1.0
 10
75.00000000000001
 20
-5.850994190130137
 30
0.0
 10
74.20861194571077
 20
-5.720245535646839
 30
0.0
 10
72.62570086288392
 20
-5.458725926998986
 30
0.0
 10
70.25105428713115
 20
-4.701131354091465
 30
0.0
 10
67.87603656873489
 20
-3.720889565075752
 30
0.0
 10
65.50074678078091
 20
-2.541256907279909
 30
0.0
 10
63.1252958934522
 20
-1.231009795337049
 30
0.0
 10
60.74979205978678
 20
0.1437022763032734
 30
0.0
 10
58.37434456922277
 20
1.510766126324233
 30
0.0
 10
55.9990615603912
 20
2.79945228649222
 30
0.0
 10
53.62405402396028
 20
3.941794181444912
 30
0.0
 10
51.249420731428
 20
4.881776449896964
 30
0.0
 10
48.87512831449106
 20
5.558031164875484
 30
0.0
 10
46.68280925220157
 20
5.949823861098447
 30
0.0
 10
45.28180226152942
 20
5.965497905553052
 30
0.0
 10
44.67222745298602
 20
5.972317645005552
 30
0.0
  0
SPLINE
  5
BA
330
1F
100
AcDbEntity
  8
0
  6
Continuous
 62
     1
370
    25
100
AcDbSpline
210
0.0
220
0.0
230
1.0
 70
     8
 71
     3
 72
    11
 73
     7
 74
     0
 42
0.000000001
 43
0.00000001
 40
0.0
 40
0.0
 40
0.0
 40
0.0
 40
0.038642623492603
 40
0.3591329952459745
 40
0.6796054861068622
 40
1.0
 40
1.0
 40
1.0
 40
1.0
 10
17.86777318923777
 20
-5.061136348586709
 30
0.0
 10
17.76642981917311
 20
-5.097233915301444
 30
0.0
 10
16.82457482201931
 20
-5.432713913387903
 30
0.0
 10
15.04217586205366
 20
-5.783174782389722
 30
0.0
 10
12.52087646945492
 20
-6.072239629486691
 30
0.0
 10
10.84022399248039
 20
-5.948493804972608
 30
0.0
 10
9.999999999999721
 20
-5.886628421051475
 30
0.0
  0
LINE
  5
BB
330
1F
100
AcDbEntity
  8
0
  6
Continuous
 62
     1
370
    25
100
AcDbLine
 10
75.00000000000001
 20
-6.000000000000019
 30
0.0
 11
75.00000000000001
 21
-5.850994190131579
 31
0.0
  0
SPLINE
  5
BC
330
1F
100
AcDbEntity
  8
0
  6
Continuous
 62
     4
370
    25
100
AcDbSpline
210
0.0
220
0.0
230
1.0
 70
    24
 71
     3
 72
    16
 73
    12
 74
     0
 42
0.000000001
 43
0.00000001
 40
0.0
 40
0.0
 40
0.0
 40
0.0
 40
0.111095145691178
 40
0.2279947080593476
 40
0.341599717458784
 40
0.458499279826953
 40
0.5721042892263893
 40
0.6890038515945589
 40
0.8026088609939925
 40
0.9195084233621594
 40
1.0
 40
1.0
 40
1.0
 40
1.0
 10
10.00000000000001
 20
-1.524968614626462
 30
0.0
 10
10.00000000000001
 20
-1.571015103531
 30
0.0
 10
10.00000000000001
 20
-1.665513884099969
 30
0.0
 10
10.00000000000001
 20
-1.950497538948936
 30
0.0
 10
10.00000000000001
 20
-2.337323710678241
 30
0.0
 10
10.00000000000001
 20
-2.817217058689774
 30
0.0
 10
10.00000000000001
 20
-3.382203860346606
 30
0.0
 10
10.00000000000001
 20
-4.006981034225515
 30
0.0
 10
10.00000000000001
 20
-4.684699444351093
 30
0.0
 10
10.00000000000001
 20
-5.317390840216531
 30
0.0
 10
10.00000000000001
 20
-5.72174292157865
 30
0.0
 10
10.00000000000001
 20
-5.886628421046984
 30
0.0
  0
SPLINE
  5
BD
330
1F
100
AcDbEntity
  8
0
  6
Continuous
 62
     1
370
    25
100
AcDbSpline
210
0.0
220
0.0
230
1.0
 70
     8
 71
     3
 72
    13
 73
     9
 74
     0
 42
0.000000001
 43
0.00000001
 40
0.0
 40
0.0
 40
0.0
 40
0.0
 40
0.1839122430789557
 40
0.3678692463470706
 40
0.5518365135707225
 40
0.7357794937608899
 40
0.9196637654387798
 40
1.0
 40
1.0
 40
1.0
 40
1.0
 10
10.00000000000001
 20
-1.495765664097565
 30
0.0
 10
10.84022349431996
 20
-1.957130390982044
 30
0.0
 10
12.52087497485182
 20
-2.879972130763619
 30
0.0
 10
15.04218184230375
 20
-4.070576727552379
 30
0.0
 10
17.56364254373446
 20
-5.034641829068173
 30
0.0
 10
20.0847054584802
 20
-5.681776796816514
 30
0.0
 10
22.13217218193894
 20
-5.999576393415539
 30
0.0
 10
23.33918006517959
 20
-5.966657056871212
 30
0.0
 10
23.70617076474895
 20
-5.956647933885763
 30
0.0
  0
SPLINE
  5
BE
330
1F
100
AcDbEntity
  8
0
  6
Continuous
 62
     1
370
    25
100
AcDbSpline
210
0.0
220
0.0
230
1.0
 70
     8
 71
     3
 72
    18
 73
    14
 74
     0
 42
0.000000001
 43
0.00000001
 40
0.0
 40
0.0
 40
0.0
 40
0.0
 40
0.0309495677586557
 40
0.1305816857365357
 40
0.2302271533960648
 40
0.3298821904237836
 40
0.4256129664556499
 40
0.5213447929866386
 40
0.6170771077157736
 40
0.7128093481019642
 40
0.8085409516406867
 40
0.9042713561406287
 40
0.9999999999999999
 40
0.9999999999999999
 40
0.9999999999999999
 40
0.9999999999999999
 10
50.51166933086166
 20
5.048580677069603
 30
0.0
 10
50.75754627649226
 20
5.132120142051998
 30
0.0
 10
51.79494448168087
 20
5.484587880793796
 30
0.0
 10
53.6240598099601
 20
5.833048398280601
 30
0.0
 10
55.99905002412741
 20
6.052081730655178
 30
0.0
 10
58.34315967155551
 20
5.939123525853153
 30
0.0
 10
60.6559688778821
 20
5.537863816821893
 30
0.0
 10
62.93767395684411
 20
4.874902877821083
 30
0.0
 10
65.2193781719235
 20
3.978325450213029
 30
0.0
 10
67.50108428612639
 20
2.890445499070172
 30
0.0
 10
69.78277091339672
 20
1.664724386031384
 30
0.0
 10
72.06442433085999
 20
0.3557904619558065
 30
0.0
 10
73.58550797986582
 20
-0.5200096997813184
 30
0.0
 10
74.34604281049303
 20
-0.9579057537592485
 30
0.0
  0
SPLINE
  5
BF
330
1F
100
AcDbEntity
  8
0
  6
Continuous
 62
     1
370
    25
100
AcDbSpline
210
0.0
220
0.0
230
1.0
 70
     8
 71
     3
 72
     8
 73
     4
 74
     0
 42
0.000000001
 43
0.00000001
 40
0.0
 40
0.0
 40
0.0
 40
0.0
 40
1.0
 40
1.0
 40
1.0
 40
1.0
 10
75.00000000000001
 20
-4.474290814540879
 30
0.0
 10
74.0112668397746
 20
-3.91795578000053
 30
0.0
 10
73.07855960571099
 20
-3.235662551569954
 30
0.0
 10
72.18130034237619
 20
-2.473674748217333
 30
0.0
  0
LINE
  5
C0
330
1F
100
AcDbEntity
  8
0
  6
Continuous
 62
     1
370
    25
100
AcDbLine
 10
75.00000000000001
 20
-5.850994190131579
 30
0.0
 11
75.00000000000001
 21
-4.47429081454088
 31
0.0
  0
LINE
  5
C1
330
1F
100
AcDbEntity
  8
0
  6
Continuous
 62
     1
370
    25
100
AcDbLine
 10
74.346042810493
 20
-0.9579057537592455
 30
0.0
 11
74.33536170962554
 21
-0.9653847411030262
 31
0.0
  0
SPLINE
  5
C2
330
1F
100
AcDbEntity
  8
0
  6
Continuous
 62
     1
370
    25
100
AcDbSpline
210
0.0
220
0.0
230
1.0
 70
    24
 71
     3
 72
    15
 73
    11
 74
     0
 42
0.000000001
 43
0.00000001
 40
0.0
 40
0.0
 40
0.0
 40
0.0
 40
0.115363496034968
 40
0.241418697877913
 40
0.3709154877375986
 40
0.49707498966654
 40
0.6272754183026568
 40
0.7481197258574463
 40
0.8718950182409853
 40
0.9999999999999999
 40
0.9999999999999999
 40
0.9999999999999999
 40
0.9999999999999999
 10
74.2509219838689
 20
-1.024510073602182
 30
0.0
 10
74.22675575777372
 20
-1.041431447284119
 30
0.0
 10
74.1761836180844
 20
-1.076842440717956
 30
0.0
 10
74.01384142255063
 20
-1.190515669800214
 30
0.0
 10
73.80283509990882
 20
-1.338263887523941
 30
0.0
 10
73.53536022005186
 20
-1.52555181468154
 30
0.0
 10
73.23213346763627
 20
-1.737873472509746
 30
0.0
 10
72.90006113929917
 20
-1.97039302004228
 30
0.0
 10
72.55028337303496
 20
-2.215310048678599
 30
0.0
 10
72.30569612794366
 20
-2.38657188144148
 30
0.0
 10
72.18130034237619
 20
-2.473674748217335
 30
0.0
  0
SPLINE
  5
C3
330
1F
100
AcDbEntity
  8
0
  6
Continuous
 62
     1
370
    25
100
AcDbSpline
210
0.0
220
0.0
230
1.0
 70
     8
 71
     3
 72
    24
 73
    20
 74
     0
 42
0.000000001
 43
0.00000001
 40
0.0
 40
0.0
 40
0.0
 40
0.0
 40
0.0425251780454595
 40
0.1042184349003602
 40
0.1659221414295166
 40
0.2276339699686514
 40
0.2893515785618773
 40
0.3510726150620889
 40
0.4127947212701266
 40
0.4745155370970048
 40
0.5362327047333493
 40
0.5979438728101386
 40
0.6596467005349044
 40
0.7251069018049541
 40
0.7905888756741897
 40
0.8560917558951854
 40
0.9216032848324498
 40
0.987111158731346
 40
1.0
 40
1.0
 40
1.0
 40
1.0
 10
50.51166933086159
 20
-5.048580677069608
 30
0.0
 10
49.96615801778037
 20
-5.215715248356723
 30
0.0
 10
48.62924802979654
 20
-5.62531972828778
 30
0.0
 10
46.50082323803113
 20
-5.9528643591904
 30
0.0
 10
44.1261619380403
 20
-6.045733255295611
 30
0.0
 10
41.75113451271427
 20
-5.814321396868236
 30
0.0
 10
39.37583795671959
 20
-5.283195025802607
 30
0.0
 10
37.00038378597775
 20
-4.476587511650892
 30
0.0
 10
34.62488012231867
 20
-3.437353079905423
 30
0.0
 10
32.24943587019771
 20
-2.219306729156667
 30
0.0
 10
29.87416073812669
 20
-0.8859089171251815
 30
0.0
 10
27.49915978466129
 20
0.4935798457751644
 30
0.0
 10
25.07621630095042
 20
1.874611061349184
 30
0.0
 10
22.6049465709701
 20
3.181431053631769
 30
0.0
 10
20.08470930899852
 20
4.325051164570357
 30
0.0
 10
17.56363999386985
 20
5.223824225205578
 30
0.0
 10
15.04218819078119
 20
5.786096983964018
 30
0.0
 10
13.19577541212098
 20
6.033628865114883
 30
0.0
 10
12.18998323003892
 20
5.98084980649725
 30
0.0
 10
12.02462559029084
 20
5.9721726456318
 30
0.0
  0
SPLINE
  5
C4
330
1F
100
AcDbEntity
  8
0
  6
Continuous
 62
     1
370
    25
100
AcDbSpline
210
0.0
220
0.0
230
1.0
 70
     8
 71
     3
 72
    24
 73
    20
 74
     0
 42
0.000000001
 43
0.00000001
 40
0.0
 40
0.0
 40
0.0
 40
0.0
 40
0.0576050539779945
 40
0.1230883050264032
 40
0.1885497830509676
 40
0.2502538142453596
 40
0.3119661859544471
 40
0.3736845573401066
 40
0.4354065769874557
 40
0.4971298870411319
 40
0.5588521273661182
 40
0.6205709397172593
 40
0.6822839719015741
 40
0.7439888819174963
 40
0.8056833420553495
 40
0.8673770864904277
 40
0.929081412886637
 40
0.9907940070295378
 40
0.9999999999999999
 40
0.9999999999999999
 40
0.9999999999999999
 40
0.9999999999999999
 10
17.86777318923768
 20
5.061136348586704
 30
0.0
 10
18.60684025357715
 20
5.272760167125163
 30
0.0
 10
20.18605086043008
 20
5.724949954796656
 30
0.0
 10
22.60494539188879
 20
6.020278369026942
 30
0.0
 10
25.07621659672877
 20
6.00434021777885
 30
0.0
 10
27.49915970734703
 20
5.653369249501012
 30
0.0
 10
29.87416075898858
 20
5.017318810021165
 30
0.0
 10
32.24943586407646
 20
4.119818351599654
 30
0.0
 10
34.62488012593995
 20
3.008180182120874
 30
0.0
 10
37.00038377761425
 20
1.740047043236775
 30
0.0
 10
39.3758379865511
 20
0.3814496255919919
 30
0.0
 10
41.75113440176266
 20
-0.996997301105843
 30
0.0
 10
44.12616235195291
 20
-2.32339563420458
 30
0.0
 10
46.5008216936466
 20
-3.529477409196907
 30
0.0
 10
48.87512990339395
 20
-4.549951464156782
 30
0.0
 10
51.24941971463116
 20
-5.341772641308516
 30
0.0
 10
53.62405650258877
 20
-5.82624216465568
 30
0.0
 10
55.32539962792353
 20
-6.035397853345589
 30
0.0
 10
56.23519562767534
 20
-5.986512554487447
 30
0.0
 10
56.35329690294299
 20
-5.980166718565368
 30
0.0
  0
SPLINE
  5
C5
330
1F
100
AcDbEntity
  8
0
  6
Continuous
 62
     1
370
    25
100
AcDbSpline
210
0.0
220
0.0
230
1.0
 70
     8
 71
     3
 72
    24
 73
    20
 74
     0
 42
0.000000001
 43
0.00000001
 40
0.0
 40
0.0
 40
0.0
 40
0.0
 40
0.034425146892806
 40
0.0961587250095426
 40
0.1578934466275194
 40
0.2196269511714047
 40
0.2813568802159973
 40
0.3430808816483293
 40
0.4047966138057139
 40
0.4665017620459417
 40
0.5282076261212384
 40
0.5899239420062163
 40
0.6516483815609321
 40
0.7133786023509121
 40
0.7751122517483819
 40
0.8368469710722759
 40
0.898580399751317
 40
0.9603101794943046
 40
1.0
 40
1.0
 40
1.0
 40
1.0
 10
66.8254352807068
 20
-5.048070564243357
 30
0.0
 10
66.38388683556649
 20
-5.188478243611436
 30
0.0
 10
65.15052287500448
 20
-5.580674781555751
 30
0.0
 10
63.12529479115713
 20
-5.918108069380401
 30
0.0
 10
60.74979235332289
 20
-6.052862502271047
 30
0.0
 10
58.3743444973654
 20
-5.860301642270563
 30
0.0
 10
55.99906155430506
 20
-5.366340618362522
 30
0.0
 10
53.62405412013754
 20
-4.592441757272241
 30
0.0
 10
51.2494203528871
 20
-3.580051515748955
 30
0.0
 10
48.87512973224104
 20
-2.38140717533561
 30
0.0
 10
46.50082174005297
 20
-1.058968996179868
 30
0.0
 10
44.12616233750946
 20
0.3185165725700561
 30
0.0
 10
41.75113441312213
 20
1.679457211839389
 30
0.0
 10
39.3758379555551
 20
2.95335330027457
 30
0.0
 10
37.00038389024476
 20
4.072779554672317
 30
0.0
 10
34.6248797064123
 20
4.983788501747501
 30
0.0
 10
32.24943742947879
 20
5.622958285962479
 30
0.0
 10
30.15677129849821
 20
5.970003882133728
 30
0.0
 10
28.85595810765088
 20
5.965748103570048
 30
0.0
 10
28.34689435735433
 20
5.964082635683265
 30
0.0
  0
SPLINE
  5
C6
330
1F
100
AcDbEntity
  8
0
  6
Continuous
 62
     1
370
    25
100
AcDbSpline
210
0.0
220
0.0
230
1.0
 70
     8
 71
     3
 72
    13
 73
     9
 74
     0
 42
0.000000001
 43
0.00000001
 40
0.0
 40
0.0
 40
0.0
 40
0.0
 40
0.1695435164389298
 40
0.3391159491706602
 40
0.5087109027458849
 40
0.678321942090207
 40
0.8479426037687792
 40
0.9999999999999999
 40
0.9999999999999999
 40
0.9999999999999999
 40
0.9999999999999999
 10
75.00000000000001
 20
1.328859280377892
 30
0.0
 10
74.20861194513198
 20
1.767849608954718
 30
0.0
 10
72.62570086114751
 20
2.64590513758175
 30
0.0
 10
70.25105429407851
 20
3.806313256620662
 30
0.0
 10
67.87603654267751
 20
4.775871811439683
 30
0.0
 10
65.50074687807404
 20
5.488135679720381
 30
0.0
 10
63.20729945020557
 20
5.928147668351362
 30
0.0
 10
61.70563023185063
 20
5.967089632927471
 30
0.0
 10
60.99579036018723
 20
5.985497521162212
 30
0.0
  0
SPLINE
  5
C7
330
1F
100
AcDbEntity
  8
0
  6
Continuous
 62
     1
370
    25
100
AcDbSpline
210
0.0
220
0.0
230
1.0
 70
     8
 71
     3
 72
    17
 73
    13
 74
     0
 42
0.000000001
 43
0.00000001
 40
0.0
 40
0.0
 40
0.0
 40
0.0
 40
0.0801215936782766
 40
0.1783286718194866
 40
0.2765262031970226
 40
0.3747104630387078
 40
0.4788736213214503
 40
0.583071425123932
 40
0.6873024960350574
 40
0.7915473291648156
 40
0.8957863462363786
 40
1.0
 40
1.0
 40
1.0
 40
1.0
 10
34.18729185263366
 20
-5.057045147243532
 30
0.0
 10
33.5413245685736
 20
-5.246923076907427
 30
0.0
 10
32.10357873106783
 20
-5.669539221323647
 30
0.0
 10
29.8741610066244
 20
-5.982406158368948
 30
0.0
 10
27.49915972002616
 20
-6.033581710474339
 30
0.0
 10
25.07621629215882
 20
-5.75789017399098
 30
0.0
 10
22.60494668285379
 20
-5.157013225063839
 30
0.0
 10
20.08470887238563
 20
-4.242057975112007
 30
0.0
 10
17.56364162903531
 20
-3.078529834224982
 30
0.0
 10
15.04218208622369
 20
-1.735948456694586
 30
0.0
 10
12.52087491389029
 20
-0.2869175920769899
 30
0.0
 10
10.84022347400091
 20
0.6783094577068661
 30
0.0
 10
9.999999999999721
 20
1.160864260993551
 30
0.0
  0
SPLINE
  5
C8
330
1F
100
AcDbEntity
  8
0
  6
Continuous
 62
     4
370
    25
100
AcDbSpline
210
0.0
220
0.0
230
1.0
 70
    24
 71
     3
 72
    17
 73
    13
 74
     0
 42
0.000000001
 43
0.00000001
 40
0.0
 40
0.0
 40
0.0
 40
0.0
 40
0.1629530999561307
 40
0.2659378853635533
 40
0.371909236524476
 40
0.4748940219318984
 40
0.5808653730928209
 40
0.6838501585002438
 40
0.7898215096611663
 40
0.8928062950685867
 40
0.9987776462295068
 40
1.0
 40
1.0
 40
1.0
 40
1.0
 10
10.00000000000001
 20
5.81056667443949
 30
0.0
 10
10.00000000000001
 20
5.440625114550143
 30
0.0
 10
10.00000000000001
 20
4.836884061624162
 30
0.0
 10
10.00000000000001
 20
4.01652060116717
 30
0.0
 10
10.00000000000001
 20
3.366659147809969
 30
0.0
 10
10.00000000000001
 20
2.767442461461211
 30
0.0
 10
10.00000000000001
 20
2.24662085745877
 30
0.0
 10
10.00000000000001
 20
1.810407295979421
 30
0.0
 10
10.00000000000001
 20
1.475621519180099
 30
0.0
 10
10.00000000000001
 20
1.258410122760188
 30
0.0
 10
10.0
 20
1.166177694497732
 30
0.0
 10
10.00000000000001
 20
1.164532618681955
 30
0.0
 10
10.00000000000001
 20
1.164513859514825
 30
0.0
  0
SPLINE
  5
C9
330
1F
100
AcDbEntity
  8
0
  6
Continuous
 62
     1
370
    25
100
AcDbSpline
210
0.0
220
0.0
230
1.0
 70
     8
 71
     3
 72
    20
 73
    16
 74
     0
 42
0.000000001
 43
0.00000001
 40
0.0
 40
0.0
 40
0.0
 40
0.0
 40
0.0839364378949306
 40
0.1678933040700813
 40
0.2518548546525997
 40
0.3358053207795994
 40
0.4197289926958813
 40
0.5036247601926287
 40
0.5827049644732928
 40
0.6617958580005613
 40
0.7408944407442353
 40
0.8199976991188864
 40
0.8991026112849347
 40
0.9782061524811827
 40
1.0
 40
1.0
 40
1.0
 40
1.0
 10
10.0
 20
5.810566674439472
 30
0.0
 10
10.84022347400918
 20
5.656567448824237
 30
0.0
 10
12.52087491391456
 20
5.348531517574204
 30
0.0
 10
15.04218208612769
 20
4.482237203899489
 30
0.0
 10
17.56364162939611
 20
3.377921270952723
 30
0.0
 10
20.08470887103961
 20
2.069343817178122
 30
0.0
 10
22.60494668787516
 20
0.6415230587308072
 30
0.0
 10
25.0762162738801
 20
-0.7965483694309697
 30
0.0
 10
27.49915978390371
 20
-2.160441725903521
 30
0.0
 10
29.87416076771378
 20
-3.385500806565284
 30
0.0
 10
32.24943575259228
 20
-4.432790258166389
 30
0.0
 10
34.62488056318098
 20
-5.255983658078048
 30
0.0
 10
37.00038214011988
 20
-5.78196334272141
 30
0.0
 10
38.80221493437122
 20
-6.02041052289383
 30
0.0
 10
39.81218628839191
 20
-5.97794782618108
 30
0.0
 10
40.03034021653826
 20
-5.968775878827628
 30
0.0
  0
SPLINE
  5
CA
330
1F
100
AcDbEntity
  8
0
  6
Continuous
 62
     1
370
    25
100
AcDbSpline
210
0.0
220
0.0
230
1.0
 70
     8
 71
     3
 72
    11
 73
     7
 74
     0
 42
0.000000001
 43
0.00000001
 40
0.0
 40
0.0
 40
0.0
 40
0.0
 40
0.0898399159658066
 40
0.3932310038918395
 40
0.6966182918430847
 40
1.0
 40
1.0
 40
1.0
 40
1.0
 10
66.82543528070681
 20
5.048070564243353
 30
0.0
 10
67.0506530889215
 20
5.124689183458035
 30
0.0
 10
68.0364356763885
 20
5.460050322509678
 30
0.0
 10
69.78277086757562
 20
5.800352818017943
 30
0.0
 10
72.06442434231502
 20
6.053384851750534
 30
0.0
 10
73.58550798368415
 20
5.966488789979046
 30
0.0
 10
74.34604281049306
 20
5.923041158637573
 30
0.0
  0
SPLINE
  5
CB
330
1F
100
AcDbEntity
  8
0
  6
Continuous
 62
     1
370
    25
100
AcDbSpline
210
0.0
220
0.0
230
1.0
 70
     8
 71
     3
 72
    20
 73
    16
 74
     0
 42
0.000000001
 43
0.00000001
 40
0.0
 40
0.0
 40
0.0
 40
0.0
 40
0.2500000000000002
 40
0.2500000000000002
 40
0.3750000000000003
 40
0.3750000000000003
 40
0.5000000000000004
 40
0.5000000000000004
 40
0.6250000000000003
 40
0.6250000000000003
 40
0.7500000000000002
 40
0.7500000000000002
 40
0.8750000000000001
 40
0.8750000000000001
 40
1.0
 40
1.0
 40
1.0
 40
1.0
 10
74.346042810493
 20
5.923041158637583
 30
0.0
 10
74.35112885140028
 20
5.542534979233885
 30
0.0
 10
74.31712971161333
 20
5.169800947532963
 30
0.0
 10
74.18707733190624
 20
4.626419842655081
 30
0.0
 10
74.12953167146964
 20
4.446911123490391
 30
0.0
 10
73.98808935692882
 20
4.110784893826106
 30
0.0
 10
73.90394834380399
 20
3.952221520663259
 30
0.0
 10
73.70565846706187
 20
3.656336941975032
 30
0.0
 10
73.59458529726814
 20
3.523839668565565
 30
0.0
 10
73.35152993231183
 20
3.291097136675
 30
0.0
 10
73.21750383993012
 20
3.18953231702382
 30
0.0
 10
72.93775629808971
 20
3.024135119926167
 30
0.0
 10
72.79214789655805
 20
2.959667403985348
 30
0.0
 10
72.49048002212702
 20
2.863956824433933
 30
0.0
 10
72.33578115845354
 20
2.833394590183148
 30
0.0
 10
72.1813003423764
 20
2.818699657623621
 30
0.0
  0
SPLINE
  5
CC
330
1F
100
AcDbEntity
  8
0
  6
Continuous
 62
     1
370
    25
100
AcDbSpline
210
0.0
220
0.0
230
1.0
 70
     8
 71
     3
 72
     9
 73
     5
 74
     0
 42
0.000000001
 43
0.00000001
 40
0.0
 40
0.0
 40
0.0
 40
0.0
 40
0.6104178111874093
 40
0.9999999999999999
 40
0.9999999999999999
 40
0.9999999999999999
 40
0.9999999999999999
 10
75.00000000000001
 20
1.446523558810439
 30
0.0
 10
74.51661326500131
 20
1.701453509768179
 30
0.0
 10
73.72471839211356
 20
2.119085410878404
 30
0.0
 10
72.98290332979273
 20
2.452713324204881
 30
0.0
 10
72.69390539411965
 20
2.582688816927587
 30
0.0
  0
LINE
  5
CD
330
1F
100
AcDbEntity
  8
0
  6
Continuous
 62
     1
370
    25
100
AcDbLine
 10
75.00000000000001
 20
1.334153209166037
 30
0.0
 11
75.00000000000001
 21
1.446523558810439
 31
0.0
  0
LINE
  5
CE
330
1F
100
AcDbEntity
  8
0
  6
Continuous
 62
     4
370
    25
100
AcDbLine
 10
10.00000000000001
 20
-1.495765664097567
 30
0.0
 11
10.00000000000001
 21
1.160864260993158
 31
0.0
  0
LINE
  5
CF
330
1F
100
AcDbEntity
  8
0
  6
Continuous
 62
     1
370
    25
100
AcDbLine
 10
75.00000000000001
 20
-0.5000000000000222
 30
0.0
 11
75.00000000000001
 21
1.328859280378006
 31
0.0
  0
LINE
  5
D0
330
1F
100
AcDbEntity
  8
0
  6
Continuous
 62
     1
370
    25
100
AcDbLine
 10
75.00000000000001
 20
-0.5000000000000191
 30
0.0
 11
74.34604281049303
 21
-0.9579057537592398
 31
0.0
  0
LINE
  5
D1
330
1F
100
AcDbEntity
  8
0
  6
Continuous
 62
     4
370
    25
100
AcDbLine
 10
10.00000000000001
 20
5.81056667443949
 30
0.0
 11
10.0
 21
5.999999999999995
 31
0.0
  0
LINE
  5
D2
330
1F
100
AcDbEntity
  8
0
  6
Continuous
 62
     1
370
    25
100
AcDbLine
 10
75.00000000000001
 20
5.979130371550706
 30
0.0
 11
75.00000000000001
 21
6.000000000000008
 31
0.0
  0
ELLIPSE
  5
D3
330
1F
100
AcDbEntity
  8
0
  6
Continuous
 62
     1
370
    25
100
AcDbEllipse
 10
75.71407400337105
 20
-0.0000000000000053
 30
0.0
 11
8.568888040452663
 21
-5.350968460038310E-17
 31
0.0
210
0.0
220
0.0
230
1.0
 40
0.7002075382097126
 41
1.65422641340551
 42
1.731133393454127
  0
LINE
  5
D4
330
1F
100
AcDbEntity
  8
0
  6
Continuous
 62
     1
370
    25
100
AcDbLine
 10
75.00000000000001
 20
-0.5000000000000013
 30
0.0
 11
75.00000000000001
 21
-4.47429081454088
 31
0.0
  0
LINE
  5
D5
330
1F
100
AcDbEntity
  8
0
  6
Continuous
 62
     1
370
    25
100
AcDbLine
 10
75.00000000000001
 20
1.446523558810439
 30
0.0
 11
75.00000000000001
 21
5.979130371550706
 31
0.0
  0
LINE
  5
D6
330
1F
100
AcDbEntity
  8
중심선
100
AcDbLine
 10
-77.99999999999999
 20
-0.0000000000000106
 30
0.0
 11
78.00000000000001
 21
0.0000000000000086
 31
0.0
  0
CIRCLE
  5
D7
330
1F
100
AcDbEntity
  8
해칭선
100
AcDbCircle
 10
0.0001260971952913
 20
-0.0000000000000043
 30
0.0
 40
3.0
  0
INSERT
  5
D8
330
1F
100
AcDbEntity
  8
0
  6
Continuous
 62
     7
100
AcDbBlockReference
 66
     1
  2
블럭10
 10
-12.44009924894177
 20
-52.04717430164393
 30
0.0
  0
ATTRIB
  5
D9
330
D8
100
AcDbEntity
  8
FORMAT
 62
     2
100
AcDbText
 10
-28.55936028837732
 20
-49.97180738881174
 30
0.0
 40
4.233333333333333
  1
SEME7212065E [ 4 FLUTE ]
 41
0.75
  7
SLDTEXTSTYLE0
 11
-28.55936028837732
 21
-52.08847405547841
 31
0.0
100
AcDbAttribute
  2
AUTOATTR0
 70
     0
 74
     1
  0
SEQEND
  5
DA
330
D8
100
AcDbEntity
  8
0
  6
Continuous
 62
     7
  0
HATCH
  5
DB
330
1F
100
AcDbEntity
  8
중심선
100
AcDbHatch
 10
0.0
 20
0.0
 30
0.0
210
0.0
220
0.0
230
1.0
  2
SOLID
 70
     1
 71
     0
 91
        1
 92
        0
 93
        4
 72
     1
 10
-6.725189944560922
 20
-35.8
 11
-10.17146518839821
 21
-35.8
 72
     1
 10
-10.17146518839821
 20
-35.8
 11
-12.29969504760223
 21
-38.33632558057262
 72
     1
 10
-12.29969504760223
 20
-38.33632558057262
 11
-8.853386718651796
 21
-38.33628615127013
 72
     1
 10
-8.853386718651796
 20
-38.33628615127013
 11
-6.725189944560922
 21
-35.8
 97
        0
 75
     0
 76
     1
 98
        1
 10
0.0
 20
0.0
  0
HATCH
  5
DC
330
1F
100
AcDbEntity
  8
중심선
100
AcDbHatch
 10
0.0
 20
0.0
 30
0.0
210
0.0
220
0.0
230
1.0
  2
SOLID
 70
     1
 71
     0
 91
        1
 92
        0
 93
        4
 72
     1
 10
-1.712425953524915
 20
-35.79999999999997
 11
-5.158701197362225
 21
-35.8
 72
     1
 10
-5.158701197362225
 20
-35.8
 11
-9.689839205719641
 21
-41.20000000000002
 72
     1
 10
-9.689839205719641
 20
-41.20000000000002
 11
-6.243563961882359
 21
-41.20000000000002
 72
     1
 10
-6.243563961882359
 20
-41.20000000000002
 11
-1.712425953524916
 21
-35.79999999999997
 97
        0
 75
     0
 76
     1
 98
        1
 10
0.0
 20
0.0
  0
HATCH
  5
DD
330
1F
100
AcDbEntity
  8
중심선
100
AcDbHatch
 10
0.0
 20
0.0
 30
0.0
210
0.0
220
0.0
230
1.0
  2
SOLID
 70
     1
 71
     0
 91
        1
 92
        0
 93
        4
 72
     1
 10
3.300338037510953
 20
-35.79999999999997
 11
-0.1459372063261632
 21
-35.8
 72
     1
 10
-0.1459372063261632
 20
-35.8
 11
-7.19437410821544
 21
-44.20000000000002
 72
     1
 10
-7.19437410821544
 20
-44.20000000000002
 11
-3.748098864378158
 21
-44.20000000000002
 72
     1
 10
-3.748098864378158
 20
-44.20000000000002
 11
3.300338037510952
 21
-35.79999999999997
 97
        0
 75
     0
 76
     1
 98
        1
 10
0.0
 20
0.0
  0
HATCH
  5
DE
330
1F
100
AcDbEntity
  8
중심선
100
AcDbHatch
 10
0.0
 20
0.0
 30
0.0
210
0.0
220
0.0
230
1.0
  2
SOLID
 70
     1
 71
     0
 91
        1
 92
        0
 93
        6
 72
     3
 10
8.100228468523124
 20
-40.00000000005127
 11
3.960054785062284
 21
1.540850780301639E-10
 40
0.3939339440162633
 50
17.09539180608434
 51
320.0019657685079
 73
     0
 72
     1
 10
9.783228124223719
 20
-38.5878940046383
 11
12.08852999792476
 21
-36.65356729459038
 72
     3
 10
8.100228468470277
 20
-40.00000000000015
 11
6.600054785286829
 21
-1.249000902703301E-13
 40
0.6363583540795982
 50
39.99873849337408
 51
368.4976242363725
 73
     1
 72
     1
 10
14.52556096037089
 20
-39.03999999993002
 11
6.7802957753062
 21
-39.03999999993002
 72
     1
 10
6.7802957753062
 20
-39.03999999993002
 11
6.780270730860266
 21
-40.95999999992991
 72
     1
 10
6.780270730860266
 20
-40.95999999992991
 11
11.2216505003323
 21
-40.95999999992988
 97
        0
 75
     0
 76
     1
 98
        1
 10
0.0
 20
0.0
  0
DIMENSION
  5
DF
330
1F
100
AcDbEntity
  8
치수문자_일반주서
100
AcDbDimension
  2
_D
 10
90.10932493120129
 20
6.000000000000053
 30
0.0
 11
90.10932493120124
 21
16.54150000000005
 31
0.0
 70
   160
  1
%%c<>
 71
     2
 42
12.00000000000001
 52
-270.0
  3
SLDDIMSTYLE0
100
AcDbAlignedDimension
 13
75.00000000000001
 23
-6.000000000000009
 33
0.0
 14
75.00000000000001
 24
5.999999999999996
 34
0.0
 50
90.0000000000002
100
AcDbRotatedDimension
  0
DIMENSION
  5
ED
330
1F
100
AcDbEntity
  8
치수문자_일반주서
100
AcDbDimension
  2
_D_1
 10
75.00000000000001
 20
23.38913260158164
 30
0.0
 11
0.0000000000000058
 21
23.38913260158164
 31
0.0
 70
   160
  1
<>
 71
     2
 42
150.0
  3
SLDDIMSTYLE1
100
AcDbAlignedDimension
 13
-74.99999999999999
 23
5.499999999999986
 33
0.0
 14
75.00000000000001
 24
6.0
 34
0.0
 50
-0.0000000000000027
100
AcDbRotatedDimension
  0
DIMENSION
  5
F8
330
1F
100
AcDbEntity
  8
치수문자_일반주서
100
AcDbDimension
  2
_D_2
 10
-88.50343184175988
 20
-6.00000000000006
 30
0.0
 11
-88.50343184175996
 21
16.54149999999995
 31
0.0
 70
   160
  1
%%c<>
 71
     2
 42
12.00000000000001
 52
-270.0
  3
SLDDIMSTYLE2
100
AcDbAlignedDimension
 13
-74.49999999999999
 23
6.0
 33
0.0
 14
-74.49999999999999
 24
-6.000000000000011
 34
0.0
 50
90.0000000000002
100
AcDbRotatedDimension
  0
DIMENSION
  5
106
330
1F
100
AcDbEntity
  8
치수문자_일반주서
100
AcDbDimension
  2
_D_3
 10
75.00000000000001
 20
16.84591830258766
 30
0.0
 11
42.5
 21
16.84591830258766
 31
0.0
 70
   160
  1
<>
 71
     2
 42
65.00000000000001
  3
SLDDIMSTYLE1
100
AcDbAlignedDimension
 13
10.0
 23
5.999999999999995
 33
0.0
 14
75.00000000000001
 24
6.0
 34
0.0
 50
0.0000000000000125
100
AcDbRotatedDimension
  0
INSERT
  5
116
330
1F
100
AcDbEntity
  8
해칭선
100
AcDbBlockReference
  2
SW_DOWELSYMBOL_0
 10
0.0001260971952913
 20
-0.0000000000000043
 30
0.0
  0
ENDSEC
  0
SECTION
  2
OBJECTS
  0
DICTIONARY
  5
C
330
0
100
AcDbDictionary
281
     1
  3
ACAD_GROUP
350
D
  3
ACAD_IMAGE_VARS
350
13A
  3
ACAD_LAYOUT
350
1A
  3
ACAD_MLINESTYLE
350
17
  3
ACAD_PLOTSETTINGS
350
19
  3
ACAD_PLOTSTYLENAME
350
E
  3
ACAD_SCALELIST
350
47
  3
APPDATA
350
138
  3
DWGPROPS
350
14A
  0
DICTIONARY
  5
D
102
{ACAD_REACTORS
330
C
102
}
330
C
100
AcDbDictionary
281
     1
  0
RASTERVARIABLES
  5
13A
102
{ACAD_REACTORS
330
C
102
}
330
C
100
AcDbRasterVariables
 90
        0
 70
     1
 71
     1
 72
     1
  0
DICTIONARY
  5
1A
102
{ACAD_REACTORS
330
C
102
}
330
C
100
AcDbDictionary
281
     1
  3
Layout1
350
1E
  3
Layout2
350
26
  3
Model
350
22
  0
DICTIONARY
  5
17
102
{ACAD_REACTORS
330
C
102
}
330
C
100
AcDbDictionary
281
     1
  3
Standard
350
18
  0
DICTIONARY
  5
19
102
{ACAD_REACTORS
330
C
102
}
330
C
100
AcDbDictionary
281
     1
  0
ACDBDICTIONARYWDFLT
  5
E
102
{ACAD_REACTORS
330
C
102
}
330
C
100
AcDbDictionary
281
     1
  3
Normal
350
F
100
AcDbDictionaryWithDefault
340
F
  0
DICTIONARY
  5
47
102
{ACAD_REACTORS
330
C
102
}
330
C
100
AcDbDictionary
281
     1
  3
A0
350
48
  3
A1
350
49
  3
A2
350
4A
  3
A3
350
4B
  3
A4
350
4C
  3
A5
350
4D
  3
A6
350
4E
  3
A7
350
4F
  3
A8
350
50
  3
A9
350
51
  3
B0
350
52
  3
B1
350
53
  3
B2
350
54
  3
B3
350
55
  3
B4
350
56
  3
B5
350
57
  3
B6
350
58
  3
B7
350
59
  3
B8
350
5A
  3
B9
350
5B
  3
C0
350
5C
  3
C1
350
5D
  3
C2
350
5E
  3
C3
350
5F
  3
C4
350
60
  3
C5
350
61
  3
C6
350
62
  3
C7
350
63
  3
C8
350
64
  3
C9
350
65
  3
D0
350
66
  3
D1
350
67
  3
D2
350
68
  0
DICTIONARY
  5
138
102
{ACAD_REACTORS
330
C
102
}
330
C
100
AcDbDictionary
281
     1
  0
XRECORD
  5
14A
102
{ACAD_REACTORS
330
C
102
}
330
C
100
AcDbXrecord
280
     1
  1
DWGPROPS COOKIE
  2

  3

  4

  6

  7

  8
12014102
  9

300
=
301
=
302
=
303
=
304
=
305
=
306
=
307
=
308
=
309
=
 40
0.0
 41
2458260.206750648
 42
2458268.214837952
  1

 90
        0
  0
LAYOUT
  5
1E
102
{ACAD_REACTORS
330
1A
102
}
330
1A
100
AcDbPlotSettings
  1

  2
none_device
  4

  6

 40
0.0
 41
0.0
 42
0.0
 43
0.0
 44
0.0
 45
0.0
 46
0.0
 47
0.0
 48
0.0
 49
0.0
140
0.0
141
0.0
142
1.0
143
1.0
 70
   688
 72
     1
 73
     0
 74
     5
  7

 75
    16
147
1.0
148
0.0
149
0.0
100
AcDbLayout
  1
Layout1
 70
     1
 71
     1
 10
0.0
 20
0.0
 11
420.0
 21
297.0
 12
0.0
 22
0.0
 32
0.0
 14
1.000000000000000E+20
 24
1.000000000000000E+20
 34
1.000000000000000E+20
 15
-1.000000000000000E+20
 25
-1.000000000000000E+20
 35
-1.000000000000000E+20
146
0.0
 13
0.0
 23
0.0
 33
0.0
 16
1.0
 26
0.0
 36
0.0
 17
0.0
 27
1.0
 37
0.0
 76
     0
330
1B
  0
LAYOUT
  5
26
102
{ACAD_REACTORS
330
1A
102
}
330
1A
100
AcDbPlotSettings
  1

  2
none_device
  4

  6

 40
0.0
 41
0.0
 42
0.0
 43
0.0
 44
0.0
 45
0.0
 46
0.0
 47
0.0
 48
0.0
 49
0.0
140
0.0
141
0.0
142
1.0
143
1.0
 70
   688
 72
     1
 73
     0
 74
     5
  7

 75
    16
147
1.0
148
0.0
149
0.0
100
AcDbLayout
  1
Layout2
 70
     1
 71
     2
 10
0.0
 20
0.0
 11
0.0
 21
0.0
 12
0.0
 22
0.0
 32
0.0
 14
0.0
 24
0.0
 34
0.0
 15
0.0
 25
0.0
 35
0.0
146
0.0
 13
0.0
 23
0.0
 33
0.0
 16
1.0
 26
0.0
 36
0.0
 17
0.0
 27
1.0
 37
0.0
 76
     0
330
23
  0
LAYOUT
  5
22
102
{ACAD_REACTORS
330
1A
102
}
330
1A
100
AcDbPlotSettings
  1

  2
none_device
  4
ANSI_A_(11.00_x_8.50_Inches)
  6

 40
6.35
 41
19.05
 42
6.35000508
 43
19.05000254
 44
279.4
 45
215.9
 46
132.042729542194
 47
105.9687175325615
 48
0.0
 49
0.0
140
0.0
141
0.0
142
0.0589085814011889
143
1.0
 70
  1696
 72
     0
 73
     0
 74
     0
  7

 75
     0
147
0.0235690232323232
148
0.0
149
0.0
100
AcDbLayout
  1
Model
 70
     1
 71
     0
 10
0.0
 20
0.0
 11
420.0
 21
297.0
 12
0.0
 22
0.0
 32
0.0
 14
-92.87843184175998
 24
-49.97180738881174
 34
0.0
 15
90.65965826453467
 25
27.76413260158163
 35
0.0
146
0.0
 13
0.0
 23
0.0
 33
0.0
 16
1.0
 26
0.0
 36
0.0
 17
0.0
 27
1.0
 37
0.0
 76
     0
330
1F
331
29
  0
MLINESTYLE
  5
18
102
{ACAD_REACTORS
330
17
102
}
330
17
100
AcDbMlineStyle
  2
Standard
 70
     0
  3

 62
   256
 51
90.0
 52
90.0
 71
     2
 49
0.5
 62
   256
  6
BYLAYER
 49
-0.5
 62
   256
  6
BYLAYER
  0
ACDBPLACEHOLDER
  5
F
102
{ACAD_REACTORS
330
E
102
}
330
E
  0
SCALE
  5
48
102
{ACAD_REACTORS
330
47
102
}
330
47
100
AcDbScale
 70
     0
300
1:1
140
1.0
141
1.0
290
     1
  0
SCALE
  5
49
102
{ACAD_REACTORS
330
47
102
}
330
47
100
AcDbScale
 70
     0
300
1:2
140
1.0
141
2.0
290
     0
  0
SCALE
  5
4A
102
{ACAD_REACTORS
330
47
102
}
330
47
100
AcDbScale
 70
     0
300
1:4
140
1.0
141
4.0
290
     0
  0
SCALE
  5
4B
102
{ACAD_REACTORS
330
47
102
}
330
47
100
AcDbScale
 70
     0
300
1:5
140
1.0
141
5.0
290
     0
  0
SCALE
  5
4C
102
{ACAD_REACTORS
330
47
102
}
330
47
100
AcDbScale
 70
     0
300
1:8
140
1.0
141
8.0
290
     0
  0
SCALE
  5
4D
102
{ACAD_REACTORS
330
47
102
}
330
47
100
AcDbScale
 70
     0
300
1:10
140
1.0
141
10.0
290
     0
  0
SCALE
  5
4E
102
{ACAD_REACTORS
330
47
102
}
330
47
100
AcDbScale
 70
     0
300
1:16
140
1.0
141
16.0
290
     0
  0
SCALE
  5
4F
102
{ACAD_REACTORS
330
47
102
}
330
47
100
AcDbScale
 70
     0
300
1:20
140
1.0
141
20.0
290
     0
  0
SCALE
  5
50
102
{ACAD_REACTORS
330
47
102
}
330
47
100
AcDbScale
 70
     0
300
1:30
140
1.0
141
30.0
290
     0
  0
SCALE
  5
51
102
{ACAD_REACTORS
330
47
102
}
330
47
100
AcDbScale
 70
     0
300
1:40
140
1.0
141
40.0
290
     0
  0
SCALE
  5
52
102
{ACAD_REACTORS
330
47
102
}
330
47
100
AcDbScale
 70
     0
300
1:50
140
1.0
141
50.0
290
     0
  0
SCALE
  5
53
102
{ACAD_REACTORS
330
47
102
}
330
47
100
AcDbScale
 70
     0
300
1:100
140
1.0
141
100.0
290
     0
  0
SCALE
  5
54
102
{ACAD_REACTORS
330
47
102
}
330
47
100
AcDbScale
 70
     0
300
2:1
140
2.0
141
1.0
290
     0
  0
SCALE
  5
55
102
{ACAD_REACTORS
330
47
102
}
330
47
100
AcDbScale
 70
     0
300
4:1
140
4.0
141
1.0
290
     0
  0
SCALE
  5
56
102
{ACAD_REACTORS
330
47
102
}
330
47
100
AcDbScale
 70
     0
300
8:1
140
8.0
141
1.0
290
     0
  0
SCALE
  5
57
102
{ACAD_REACTORS
330
47
102
}
330
47
100
AcDbScale
 70
     0
300
10:1
140
10.0
141
1.0
290
     0
  0
SCALE
  5
58
102
{ACAD_REACTORS
330
47
102
}
330
47
100
AcDbScale
 70
     0
300
100:1
140
100.0
141
1.0
290
     0
  0
SCALE
  5
59
102
{ACAD_REACTORS
330
47
102
}
330
47
100
AcDbScale
 70
     0
300
1/128" = 1'-0"
140
0.0078125
141
12.0
290
     0
  0
SCALE
  5
5A
102
{ACAD_REACTORS
330
47
102
}
330
47
100
AcDbScale
 70
     0
300
1/64" = 1'-0"
140
0.015625
141
12.0
290
     0
  0
SCALE
  5
5B
102
{ACAD_REACTORS
330
47
102
}
330
47
100
AcDbScale
 70
     0
300
1/32" = 1'-0"
140
0.03125
141
12.0
290
     0
  0
SCALE
  5
5C
102
{ACAD_REACTORS
330
47
102
}
330
47
100
AcDbScale
 70
     0
300
1/16" = 1'-0"
140
0.0625
141
12.0
290
     0
  0
SCALE
  5
5D
102
{ACAD_REACTORS
330
47
102
}
330
47
100
AcDbScale
 70
     0
300
3/32" = 1'-0"
140
0.09375
141
12.0
290
     0
  0
SCALE
  5
5E
102
{ACAD_REACTORS
330
47
102
}
330
47
100
AcDbScale
 70
     0
300
1/8" = 1'-0"
140
0.125
141
12.0
290
     0
  0
SCALE
  5
5F
102
{ACAD_REACTORS
330
47
102
}
330
47
100
AcDbScale
 70
     0
300
3/16" = 1'-0"
140
0.1875
141
12.0
290
     0
  0
SCALE
  5
60
102
{ACAD_REACTORS
330
47
102
}
330
47
100
AcDbScale
 70
     0
300
1/4" = 1'-0"
140
0.25
141
12.0
290
     0
  0
SCALE
  5
61
102
{ACAD_REACTORS
330
47
102
}
330
47
100
AcDbScale
 70
     0
300
3/8" = 1'-0"
140
0.375
141
12.0
290
     0
  0
SCALE
  5
62
102
{ACAD_REACTORS
330
47
102
}
330
47
100
AcDbScale
 70
     0
300
1/2" = 1'-0"
140
0.5
141
12.0
290
     0
  0
SCALE
  5
63
102
{ACAD_REACTORS
330
47
102
}
330
47
100
AcDbScale
 70
     0
300
3/4" = 1'-0"
140
0.75
141
12.0
290
     0
  0
SCALE
  5
64
102
{ACAD_REACTORS
330
47
102
}
330
47
100
AcDbScale
 70
     0
300
1" = 1'-0"
140
1.0
141
12.0
290
     0
  0
SCALE
  5
65
102
{ACAD_REACTORS
330
47
102
}
330
47
100
AcDbScale
 70
     0
300
1-1/2" = 1'-0"
140
1.5
141
12.0
290
     0
  0
SCALE
  5
66
102
{ACAD_REACTORS
330
47
102
}
330
47
100
AcDbScale
 70
     0
300
3" = 1'-0"
140
3.0
141
12.0
290
     0
  0
SCALE
  5
67
102
{ACAD_REACTORS
330
47
102
}
330
47
100
AcDbScale
 70
     0
300
6" = 1'-0"
140
6.0
141
12.0
290
     0
  0
SCALE
  5
68
102
{ACAD_REACTORS
330
47
102
}
330
47
100
AcDbScale
 70
     0
300
1'-0" = 1'-0"
140
12.0
141
12.0
290
     0
  0
ENDSEC
  0
EOF
