  0
SECTION
  2
HEADER
  9
$ACADVER
  1
AC1015
  9
$ACADMAINTVER
 70
     6
  9
$DWGCODEPAGE
  3
ANSI_949
  9
$INSBASE
 10
0.0
 20
0.0
 30
0.0
  9
$EXTMIN
 10
-58.40558275023459
 20
-49.97180738881173
 30
0.0
  9
$EXTMAX
 10
86.48466188800639
 20
27.76413260158164
 30
0.0
  9
$LIMMIN
 10
0.0
 20
0.0
  9
$LIMMAX
 10
420.0
 20
297.0
  9
$ORTHOMODE
 70
     0
  9
$REGENMODE
 70
     1
  9
$FILLMODE
 70
     1
  9
$QTEXTMODE
 70
     0
  9
$MIRRTEXT
 70
     1
  9
$LTSCALE
 40
1.0
  9
$ATTMODE
 70
     1
  9
$TEXTSIZE
 40
3.5
  9
$TRACEWID
 40
1.0
  9
$TEXTSTYLE
  7
Standard
  9
$CLAYER
  8
0
  9
$CELTYPE
  6
ByLayer
  9
$CECOLOR
 62
   256
  9
$CELTSCALE
 40
1.0
  9
$DISPSILH
 70
     0
  9
$DIMSCALE
 40
1.0
  9
$DIMASZ
 40
3.302
  9
$DIMEXO
 40
1.0
  9
$DIMDLI
 40
3.75
  9
$DIMRND
 40
0.0
  9
$DIMDLE
 40
0.0
  9
$DIMEXE
 40
1.0
  9
$DIMTP
 40
0.0
  9
$DIMTM
 40
0.0
  9
$DIMTXT
 40
3.5
  9
$DIMCEN
 40
2.5
  9
$DIMTSZ
 40
0.0
  9
$DIMTOL
 70
     0
  9
$DIMLIM
 70
     0
  9
$DIMTIH
 70
     1
  9
$DIMTOH
 70
     1
  9
$DIMSE1
 70
     0
  9
$DIMSE2
 70
     0
  9
$DIMTAD
 70
     1
  9
$DIMZIN
 70
     0
  9
$DIMBLK
  1

  9
$DIMASO
 70
     1
  9
$DIMSHO
 70
     1
  9
$DIMPOST
  1

  9
$DIMAPOST
  1

  9
$DIMALT
 70
     0
  9
$DIMALTD
 70
     3
  9
$DIMALTF
 40
0.0393700787401575
  9
$DIMLFAC
 40
1.0
  9
$DIMTOFL
 70
     1
  9
$DIMTVP
 40
0.0
  9
$DIMTIX
 70
     0
  9
$DIMSOXD
 70
     0
  9
$DIMSAH
 70
     0
  9
$DIMBLK1
  1

  9
$DIMBLK2
  1

  9
$DIMSTYLE
  2
ISO-25
  9
$DIMCLRD
 70
     0
  9
$DIMCLRE
 70
     0
  9
$DIMCLRT
 70
     0
  9
$DIMTFAC
 40
1.0
  9
$DIMGAP
 40
1.524
  9
$DIMJUST
 70
     0
  9
$DIMSD1
 70
     0
  9
$DIMSD2
 70
     0
  9
$DIMTOLJ
 70
     0
  9
$DIMTZIN
 70
     0
  9
$DIMALTZ
 70
     0
  9
$DIMALTTZ
 70
     0
  9
$DIMUPT
 70
     0
  9
$DIMDEC
 70
     2
  9
$DIMTDEC
 70
     2
  9
$DIMALTU
 70
     2
  9
$DIMALTTD
 70
     3
  9
$DIMTXSTY
  7
Standard
  9
$DIMAUNIT
 70
     0
  9
$DIMADEC
 70
     2
  9
$DIMALTRND
 40
0.0
  9
$DIMAZIN
 70
     0
  9
$DIMDSEP
 70
    44
  9
$DIMATFIT
 70
     3
  9
$DIMFRAC
 70
     0
  9
$DIMLDRBLK
  1

  9
$DIMLUNIT
 70
     2
  9
$DIMLWD
 70
    -2
  9
$DIMLWE
 70
    -2
  9
$DIMTMOVE
 70
     0
  9
$LUNITS
 70
     2
  9
$LUPREC
 70
     2
  9
$SKETCHINC
 40
1.0
  9
$FILLETRAD
 40
10.0
  9
$AUNITS
 70
     0
  9
$AUPREC
 70
     2
  9
$MENU
  1
.
  9
$ELEVATION
 40
0.0
  9
$PELEVATION
 40
0.0
  9
$THICKNESS
 40
0.0
  9
$LIMCHECK
 70
     0
  9
$CHAMFERA
 40
0.0
  9
$CHAMFERB
 40
0.0
  9
$CHAMFERC
 40
0.0
  9
$CHAMFERD
 40
0.0
  9
$SKPOLY
 70
     0
  9
$TDCREATE
 40
2458260.581561597
  9
$TDUCREATE
 40
2458260.206561597
  9
$TDUPDATE
 40
2458268.589167697
  9
$TDUUPDATE
 40
2458268.214167697
  9
$TDINDWG
 40
0.0006378819
  9
$TDUSRTIMER
 40
2458268.213529838
  9
$USRTIMER
 70
     1
  9
$ANGBASE
 50
0.0
  9
$ANGDIR
 70
     0
  9
$PDMODE
 70
     0
  9
$PDSIZE
 40
-1.0
  9
$PLINEWID
 40
0.0
  9
$SPLFRAME
 70
     0
  9
$SPLINETYPE
 70
     6
  9
$SPLINESEGS
 70
     8
  9
$HANDSEED
  5
149
  9
$SURFTAB1
 70
     6
  9
$SURFTAB2
 70
     6
  9
$SURFTYPE
 70
     6
  9
$SURFU
 70
     6
  9
$SURFV
 70
     6
  9
$UCSBASE
  2

  9
$UCSNAME
  2

  9
$UCSORG
 10
0.0
 20
0.0
 30
0.0
  9
$UCSXDIR
 10
1.0
 20
0.0
 30
0.0
  9
$UCSYDIR
 10
0.0
 20
1.0
 30
0.0
  9
$UCSORTHOREF
  2

  9
$UCSORTHOVIEW
 70
     0
  9
$UCSORGTOP
 10
0.0
 20
0.0
 30
0.0
  9
$UCSORGBOTTOM
 10
0.0
 20
0.0
 30
0.0
  9
$UCSORGLEFT
 10
0.0
 20
0.0
 30
0.0
  9
$UCSORGRIGHT
 10
0.0
 20
0.0
 30
0.0
  9
$UCSORGFRONT
 10
0.0
 20
0.0
 30
0.0
  9
$UCSORGBACK
 10
0.0
 20
0.0
 30
0.0
  9
$PUCSBASE
  2

  9
$PUCSNAME
  2

  9
$PUCSORG
 10
0.0
 20
0.0
 30
0.0
  9
$PUCSXDIR
 10
1.0
 20
0.0
 30
0.0
  9
$PUCSYDIR
 10
0.0
 20
1.0
 30
0.0
  9
$PUCSORTHOREF
  2

  9
$PUCSORTHOVIEW
 70
     0
  9
$PUCSORGTOP
 10
0.0
 20
0.0
 30
0.0
  9
$PUCSORGBOTTOM
 10
0.0
 20
0.0
 30
0.0
  9
$PUCSORGLEFT
 10
0.0
 20
0.0
 30
0.0
  9
$PUCSORGRIGHT
 10
0.0
 20
0.0
 30
0.0
  9
$PUCSORGFRONT
 10
0.0
 20
0.0
 30
0.0
  9
$PUCSORGBACK
 10
0.0
 20
0.0
 30
0.0
  9
$USERI1
 70
     0
  9
$USERI2
 70
     0
  9
$USERI3
 70
     0
  9
$USERI4
 70
     0
  9
$USERI5
 70
     0
  9
$USERR1
 40
0.0
  9
$USERR2
 40
0.0
  9
$USERR3
 40
0.0
  9
$USERR4
 40
0.0
  9
$USERR5
 40
0.0
  9
$WORLDVIEW
 70
     1
  9
$SHADEDGE
 70
     3
  9
$SHADEDIF
 70
    70
  9
$TILEMODE
 70
     1
  9
$MAXACTVP
 70
    64
  9
$PINSBASE
 10
0.0
 20
0.0
 30
0.0
  9
$PLIMCHECK
 70
     0
  9
$PEXTMIN
 10
1.000000000000000E+20
 20
1.000000000000000E+20
 30
1.000000000000000E+20
  9
$PEXTMAX
 10
-1.000000000000000E+20
 20
-1.000000000000000E+20
 30
-1.000000000000000E+20
  9
$PLIMMIN
 10
0.0
 20
0.0
  9
$PLIMMAX
 10
0.0
 20
0.0
  9
$UNITMODE
 70
     0
  9
$VISRETAIN
 70
     1
  9
$PLINEGEN
 70
     0
  9
$PSLTSCALE
 70
     1
  9
$TREEDEPTH
 70
  3020
  9
$CMLSTYLE
  2
Standard
  9
$CMLJUST
 70
     0
  9
$CMLSCALE
 40
20.0
  9
$PROXYGRAPHICS
 70
     1
  9
$MEASUREMENT
 70
     1
  9
$CELWEIGHT
370
    -1
  9
$ENDCAPS
280
     0
  9
$JOINSTYLE
280
     0
  9
$LWDISPLAY
290
     1
  9
$INSUNITS
 70
     4
  9
$HYPERLINKBASE
  1

  9
$STYLESHEET
  1

  9
$XEDIT
290
     1
  9
$CEPSNTYPE
380
     0
  9
$PSTYLEMODE
290
     1
  9
$FINGERPRINTGUID
  2
{5580684A-CC95-4C0B-9238-6C6184B95CEE}
  9
$VERSIONGUID
  2
{FAEB1C32-E019-11D5-929B-00C0DF256EC4}
  9
$EXTNAMES
290
     1
  9
$PSVPSCALE
 40
0.0
  9
$OLESTARTUP
290
     0
  0
ENDSEC
  0
SECTION
  2
CLASSES
  0
CLASS
  1
ACDBDICTIONARYWDFLT
  2
AcDbDictionaryWithDefault
  3
ObjectDBX Classes
 90
        0
280
     0
281
     0
  0
CLASS
  1
VISUALSTYLE
  2
AcDbVisualStyle
  3
ObjectDBX Classes
 90
     4095
280
     0
281
     0
  0
CLASS
  1
MATERIAL
  2
AcDbMaterial
  3
ObjectDBX Classes
 90
     1153
280
     0
281
     0
  0
CLASS
  1
SCALE
  2
AcDbScale
  3
ObjectDBX Classes
 90
     1153
280
     0
281
     0
  0
CLASS
  1
TABLESTYLE
  2
AcDbTableStyle
  3
ObjectDBX Classes
 90
     4095
280
     0
281
     0
  0
CLASS
  1
MLEADERSTYLE
  2
AcDbMLeaderStyle
  3
ACDB_MLEADERSTYLE_CLASS
 90
     4095
280
     0
281
     0
  0
CLASS
  1
SUN
  2
AcDbSun
  3
SCENEOE
 90
     1153
280
     0
281
     0
  0
CLASS
  1
ACDBPLACEHOLDER
  2
AcDbPlaceHolder
  3
ObjectDBX Classes
 90
        0
280
     0
281
     0
  0
CLASS
  1
LAYOUT
  2
AcDbLayout
  3
ObjectDBX Classes
 90
        0
280
     0
281
     0
  0
CLASS
  1
RASTERVARIABLES
  2
AcDbRasterVariables
  3
ISM
 90
        0
280
     0
281
     0
  0
ENDSEC
  0
SECTION
  2
TABLES
  0
TABLE
  2
VPORT
  5
8
330
0
100
AcDbSymbolTable
 70
     1
  0
VPORT
  5
29
330
8
100
AcDbSymbolTableRecord
100
AcDbViewportTableRecord
  2
*Active
 70
     0
 10
0.0
 20
0.0
 11
1.0
 21
1.0
 12
14.0395395688859
 22
-11.10383739361505
 13
0.0
 23
0.0
 14
10.0
 24
10.0
 15
10.0
 25
10.0
 16
0.0
 26
0.0
 36
1.0
 17
0.0
 27
0.0
 37
0.0
 40
84.98361837815636
 41
1.739018087855297
 42
50.0
 43
0.0
 44
0.0
 50
0.0
 51
0.0
 71
    16
 72
  2000
 73
     1
 74
     3
 75
     0
 76
     0
 77
     0
 78
     0
281
     0
 65
     1
110
0.0
120
0.0
130
0.0
111
1.0
121
0.0
131
0.0
112
0.0
122
1.0
132
0.0
 79
     0
146
0.0
  0
ENDTAB
  0
TABLE
  2
LTYPE
  5
5
330
0
100
AcDbSymbolTable
 70
     6
  0
LTYPE
  5
14
330
5
100
AcDbSymbolTableRecord
100
AcDbLinetypeTableRecord
  2
ByBlock
 70
     0
  3

 72
    65
 73
     0
 40
0.0
  0
LTYPE
  5
15
330
5
100
AcDbSymbolTableRecord
100
AcDbLinetypeTableRecord
  2
ByLayer
 70
     0
  3

 72
    65
 73
     0
 40
0.0
  0
LTYPE
  5
16
330
5
100
AcDbSymbolTableRecord
100
AcDbLinetypeTableRecord
  2
Continuous
 70
     0
  3
Solid line
 72
    65
 73
     0
 40
0.0
  0
LTYPE
  5
6E
330
5
100
AcDbSymbolTableRecord
100
AcDbLinetypeTableRecord
  2
HIDDEN
 70
     0
  3
Hidden __ __ __ __ __ __ __ __ __ __ __ __ __ __
 72
    65
 73
     2
 40
1.905
 49
1.27
 74
     0
 49
-0.635
 74
     0
  0
LTYPE
  5
6F
330
5
100
AcDbSymbolTableRecord
100
AcDbLinetypeTableRecord
  2
PHANTOM
 70
     0
  3
Phantom ______  __  __  ______  __  __  ______
 72
    65
 73
     6
 40
12.7
 49
6.35
 74
     0
 49
-1.27
 74
     0
 49
1.27
 74
     0
 49
-1.27
 74
     0
 49
1.27
 74
     0
 49
-1.27
 74
     0
  0
LTYPE
  5
70
330
5
100
AcDbSymbolTableRecord
100
AcDbLinetypeTableRecord
  2
CENTER
 70
     0
  3
Center ____ _ ____ _ ____ _ ____ _ ____ _ ____
 72
    65
 73
     4
 40
10.16
 49
6.35
 74
     0
 49
-1.27
 74
     0
 49
1.27
 74
     0
 49
-1.27
 74
     0
  0
LTYPE
  5
71
330
5
100
AcDbSymbolTableRecord
100
AcDbLinetypeTableRecord
  2
CENTERX2
 70
     0
  3
Center (2x) ________  __  ________  __  _____
 72
    65
 73
     4
 40
20.32
 49
12.7
 74
     0
 49
-2.54
 74
     0
 49
2.54
 74
     0
 49
-2.54
 74
     0
  0
LTYPE
  5
72
330
5
100
AcDbSymbolTableRecord
100
AcDbLinetypeTableRecord
  2
DOT2
 70
     0
  3
Dot (.5x) ........................................
 72
    65
 73
     2
 40
0.635
 49
0.0
 74
     0
 49
-0.635
 74
     0
  0
ENDTAB
  0
TABLE
  2
LAYER
  5
2
330
0
100
AcDbSymbolTable
 70
    17
  0
LAYER
  5
10
330
2
100
AcDbSymbolTableRecord
100
AcDbLayerTableRecord
  2
0
 70
     0
 62
     7
  6
Continuous
370
    -3
390
F
  0
LAYER
  5
73
330
2
100
AcDbSymbolTableRecord
100
AcDbLayerTableRecord
  2
FORMAT
 70
     0
 62
     2
  6
Continuous
370
    -3
390
F
  0
LAYER
  5
74
330
2
100
AcDbSymbolTableRecord
100
AcDbLayerTableRecord
  2
외형선
 70
     0
 62
   100
  6
Continuous
370
    35
390
F
  0
LAYER
  5
75
330
2
100
AcDbSymbolTableRecord
100
AcDbLayerTableRecord
  2
숨은선
 70
     0
 62
     2
  6
HIDDEN
370
    25
390
F
  0
LAYER
  5
76
330
2
100
AcDbSymbolTableRecord
100
AcDbLayerTableRecord
  2
중심선
 70
     0
 62
     1
  6
CENTERX2
370
    -3
390
F
  0
LAYER
  5
77
330
2
100
AcDbSymbolTableRecord
100
AcDbLayerTableRecord
  2
파단선
 70
     0
 62
     4
  6
Continuous
370
    -3
390
F
  0
LAYER
  5
78
330
2
100
AcDbSymbolTableRecord
100
AcDbLayerTableRecord
  2
해칭선
 70
     0
 62
   100
  6
Continuous
370
    -3
390
F
  0
LAYER
  5
79
330
2
100
AcDbSymbolTableRecord
100
AcDbLayerTableRecord
  2
가는실선
 70
     0
 62
     4
  6
Continuous
370
    -3
390
F
  0
LAYER
  5
7A
330
2
100
AcDbSymbolTableRecord
100
AcDbLayerTableRecord
  2
치수_보조선
 70
     0
 62
     4
  6
Continuous
370
    -3
390
F
  0
LAYER
  5
7B
330
2
100
AcDbSymbolTableRecord
100
AcDbLayerTableRecord
  2
치수문자_일반주서
 70
     0
 62
     7
  6
Continuous
370
    25
390
F
  0
LAYER
  5
7C
330
2
100
AcDbSymbolTableRecord
100
AcDbLayerTableRecord
  2
개별주서
 70
     0
 62
   100
  6
Continuous
370
    35
390
F
  0
LAYER
  5
7D
330
2
100
AcDbSymbolTableRecord
100
AcDbLayerTableRecord
  2
중간선
 70
     0
 62
     2
  6
Continuous
370
    25
390
F
  0
LAYER
  5
7E
330
2
100
AcDbSymbolTableRecord
100
AcDbLayerTableRecord
  2
윤곽선
 70
     0
 62
     3
  6
Continuous
370
    50
390
F
  0
LAYER
  5
7F
330
2
100
AcDbSymbolTableRecord
100
AcDbLayerTableRecord
  2
중심마크
 70
     0
 62
   100
  6
Continuous
370
    35
390
F
  0
LAYER
  5
80
330
2
100
AcDbSymbolTableRecord
100
AcDbLayerTableRecord
  2
가상선
 70
     0
 62
     4
  6
PHANTOM
370
    -3
390
F
  0
LAYER
  5
81
330
2
100
AcDbSymbolTableRecord
100
AcDbLayerTableRecord
  2
특수지정선
 70
     0
 62
     5
  6
CENTERX2
370
    70
390
F
  0
LAYER
  5
139
330
2
100
AcDbSymbolTableRecord
100
AcDbLayerTableRecord
  2
Defpoints
 70
     0
 62
     7
  6
Continuous
290
     0
370
    -3
390
F
  0
ENDTAB
  0
TABLE
  2
STYLE
  5
3
330
0
100
AcDbSymbolTable
 70
     2
  0
STYLE
  5
11
330
3
100
AcDbSymbolTableRecord
100
AcDbTextStyleTableRecord
  2
Standard
 70
     0
 40
0.0
 41
1.0
 50
0.0
 71
     0
 42
3.5
  3
txt
  4

  0
STYLE
  5
97
330
3
100
AcDbSymbolTableRecord
100
AcDbTextStyleTableRecord
  2
SLDTEXTSTYLE0
 70
     0
 40
0.0
 41
0.75
 50
0.0
 71
     0
 42
3.5
  3
TXT
  4

  0
ENDTAB
  0
TABLE
  2
VIEW
  5
6
330
0
100
AcDbSymbolTable
 70
     0
  0
ENDTAB
  0
TABLE
  2
UCS
  5
7
330
0
100
AcDbSymbolTable
 70
     0
  0
ENDTAB
  0
TABLE
  2
APPID
  5
9
330
0
100
AcDbSymbolTable
 70
     1
  0
APPID
  5
12
330
9
100
AcDbSymbolTableRecord
100
AcDbRegAppTableRecord
  2
ACAD
 70
     0
  0
ENDTAB
  0
TABLE
  2
DIMSTYLE
  5
A
330
0
100
AcDbSymbolTable
 70
     4
100
AcDbDimStyleTable
  0
DIMSTYLE
105
27
330
A
100
AcDbSymbolTableRecord
100
AcDbDimStyleTableRecord
  2
ISO-25
 70
     0
 41
2.5
 42
0.625
 43
3.75
 44
1.25
 73
     0
 74
     0
 77
     1
 78
     8
140
2.5
141
2.5
143
0.03937007874016
147
0.625
171
     3
172
     1
178
     0
271
     2
272
     2
274
     3
278
    44
283
     0
284
     8
340
11
  0
DIMSTYLE
105
DE
102
{ACAD_REACTORS
330
DD
102
}
330
A
100
AcDbSymbolTableRecord
100
AcDbDimStyleTableRecord
  2
SLDDIMSTYLE0
 70
     0
 41
3.302
 44
0.0
 45
0.000000001
 73
     0
 74
     0
 77
     1
 78
    12
 79
     3
140
3.5
147
0.875
172
     1
173
     1
178
     0
271
     1
272
     1
276
     2
284
    12
289
     0
340
97
  0
DIMSTYLE
105
EC
102
{ACAD_REACTORS
330
EB
330
104
102
}
330
A
100
AcDbSymbolTableRecord
100
AcDbDimStyleTableRecord
  2
SLDDIMSTYLE1
 70
     0
 41
3.302
 44
0.0
 45
0.000000001
 73
     0
 74
     0
 77
     1
 78
    12
 79
     3
140
3.5
147
0.875
173
     1
178
     0
271
     2
272
     2
276
     2
284
    12
340
97
  0
DIMSTYLE
105
F7
102
{ACAD_REACTORS
330
F6
102
}
330
A
100
AcDbSymbolTableRecord
100
AcDbDimStyleTableRecord
  2
SLDDIMSTYLE2
 70
     0
 41
3.302
 44
0.0
 45
0.000000001
 73
     0
 74
     0
 77
     1
 78
    12
 79
     3
140
3.5
147
0.875
172
     1
173
     1
178
     0
271
     2
272
     2
276
     2
284
    12
289
     0
340
97
  0
ENDTAB
  0
TABLE
  2
BLOCK_RECORD
  5
1
330
0
100
AcDbSymbolTable
 70
     7
  0
BLOCK_RECORD
  5
1F
330
1
100
AcDbSymbolTableRecord
100
AcDbBlockTableRecord
  2
*Model_Space
340
22
  0
BLOCK_RECORD
  5
1B
330
1
100
AcDbSymbolTableRecord
100
AcDbBlockTableRecord
  2
*Paper_Space
340
1E
  0
BLOCK_RECORD
  5
23
330
1
100
AcDbSymbolTableRecord
100
AcDbBlockTableRecord
  2
*Paper_Space0
340
26
  0
BLOCK_RECORD
  5
82
330
1
100
AcDbSymbolTableRecord
100
AcDbBlockTableRecord
  2
블럭10
340
0
102
{BLKREFS
331
D6
102
}
  0
BLOCK_RECORD
  5
DF
330
1
100
AcDbSymbolTableRecord
100
AcDbBlockTableRecord
  2
_D
340
0
  0
BLOCK_RECORD
  5
ED
330
1
100
AcDbSymbolTableRecord
100
AcDbBlockTableRecord
  2
_D_1
340
0
  0
BLOCK_RECORD
  5
F8
330
1
100
AcDbSymbolTableRecord
100
AcDbBlockTableRecord
  2
_D_2
340
0
  0
BLOCK_RECORD
  5
105
330
1
100
AcDbSymbolTableRecord
100
AcDbBlockTableRecord
  2
_D_3
340
0
  0
BLOCK_RECORD
  5
10E
330
1
100
AcDbSymbolTableRecord
100
AcDbBlockTableRecord
  2
SW_DOWELSYMBOL_0
340
0
102
{BLKREFS
331
114
102
}
  0
ENDTAB
  0
ENDSEC
  0
SECTION
  2
BLOCKS
  0
BLOCK
  5
20
330
1F
100
AcDbEntity
  8
0
100
AcDbBlockBegin
  2
*Model_Space
 70
     0
 10
0.0
 20
0.0
 30
0.0
  3
*Model_Space
  1

  0
ENDBLK
  5
21
330
1F
100
AcDbEntity
  8
0
100
AcDbBlockEnd
  0
BLOCK
  5
1C
330
1B
100
AcDbEntity
 67
     1
  8
0
100
AcDbBlockBegin
  2
*Paper_Space
 70
     0
 10
0.0
 20
0.0
 30
0.0
  3
*Paper_Space
  1

  0
ENDBLK
  5
1D
330
1B
100
AcDbEntity
 67
     1
  8
0
100
AcDbBlockEnd
  0
BLOCK
  5
24
330
23
100
AcDbEntity
  8
0
100
AcDbBlockBegin
  2
*Paper_Space0
 70
     0
 10
0.0
 20
0.0
 30
0.0
  3
*Paper_Space0
  1

  0
ENDBLK
  5
25
330
23
100
AcDbEntity
  8
0
100
AcDbBlockEnd
  0
BLOCK
  5
83
330
82
100
AcDbEntity
  8
0
100
AcDbBlockBegin
  2
블럭10
 70
     2
 10
0.0
 20
0.0
 30
0.0
  3
블럭10
  1

  0
ELLIPSE
  5
85
330
82
100
AcDbEntity
  8
중심선
100
AcDbEllipse
 10
20.54032771741204
 20
12.0471743016438
 30
0.0
 11
6.600054785286829
 21
-1.261213355974178E-13
 31
0.0
210
0.0
220
0.0
230
1.0
 40
0.636358354079598
 41
0.9219305317359503
 42
6.513795318482858
  0
ELLIPSE
  5
86
330
82
100
AcDbEntity
  8
중심선
100
AcDbEllipse
 10
20.54032771746488
 20
12.04717430159265
 30
0.0
 11
3.960054785062283
 21
1.540847449632565E-10
 31
0.0
210
0.0
220
0.0
230
1.0
 40
0.3939339440162632
 41
1.131841032648279
 42
5.62031148352944
  0
LINE
  5
87
330
82
100
AcDbEntity
  8
중심선
100
AcDbLine
 10
2.268634060543552
 20
16.24717430164393
 30
0.0
 11
5.714909304380834
 21
16.24717430164393
 31
0.0
  0
LINE
  5
88
330
82
100
AcDbEntity
  8
중심선
100
AcDbLine
 10
5.245725140726316
 20
7.84717430164391
 30
0.0
 11
8.692000384563599
 21
7.84717430164391
 31
0.0
  0
LINE
  5
89
330
82
100
AcDbEntity
  8
중심선
100
AcDbLine
 10
15.74043728645272
 20
16.24717430164393
 30
0.0
 11
8.692000384563599
 21
7.84717430164391
 31
0.0
  0
LINE
  5
8A
330
82
100
AcDbEntity
  8
중심선
100
AcDbLine
 10
0.1404042013395286
 20
13.71084872107135
 30
0.0
 11
3.58671253028996
 21
13.71088815037384
 31
0.0
  0
LINE
  5
8B
330
82
100
AcDbEntity
  8
중심선
100
AcDbLine
 10
2.750260043222114
 20
10.84717430164391
 30
0.0
 11
6.196535287059397
 21
10.84717430164391
 31
0.0
  0
LINE
  5
8C
330
82
100
AcDbEntity
  8
중심선
100
AcDbLine
 10
12.29416204261559
 20
16.24717430164393
 30
0.0
 11
5.245725140726316
 21
7.84717430164391
 31
0.0
  0
LINE
  5
8D
330
82
100
AcDbEntity
  8
중심선
100
AcDbLine
 10
10.72767329541681
 20
16.24717430164393
 30
0.0
 11
6.196535287059397
 21
10.84717430164391
 31
0.0
  0
LINE
  5
8E
330
82
100
AcDbEntity
  8
중심선
100
AcDbLine
 10
7.28139805157953
 20
16.24717430164393
 30
0.0
 11
2.750260043222114
 21
10.84717430164391
 31
0.0
  0
LINE
  5
8F
330
82
100
AcDbEntity
  8
중심선
100
AcDbLine
 10
5.714909304380834
 20
16.24717430164393
 30
0.0
 11
3.58671253028996
 21
13.71088815037384
 31
0.0
  0
LINE
  5
90
330
82
100
AcDbEntity
  8
중심선
100
AcDbLine
 10
2.268634060543552
 20
16.24717430164393
 30
0.0
 11
0.1404042013395286
 21
13.71084872107135
 31
0.0
  0
LINE
  5
91
330
82
100
AcDbEntity
  8
중심선
100
AcDbLine
 10
7.28139805157953
 20
16.24717430164393
 30
0.0
 11
10.72767329541681
 21
16.24717430164393
 31
0.0
  0
LINE
  5
92
330
82
100
AcDbEntity
  8
중심선
100
AcDbLine
 10
12.29416204261559
 20
16.24717430164393
 30
0.0
 11
15.74043728645272
 21
16.24717430164393
 31
0.0
  0
LINE
  5
93
330
82
100
AcDbEntity
  8
중심선
100
AcDbLine
 10
19.22036997980202
 20
11.08717430171403
 30
0.0
 11
23.66174974927406
 21
11.08717430171406
 31
0.0
  0
LINE
  5
94
330
82
100
AcDbEntity
  8
중심선
100
AcDbLine
 10
19.22039502424796
 20
13.00717430171391
 30
0.0
 11
19.22036997980202
 21
11.08717430171403
 31
0.0
  0
LINE
  5
95
330
82
100
AcDbEntity
  8
중심선
100
AcDbLine
 10
19.22039502424796
 20
13.00717430171391
 30
0.0
 11
26.96566020931264
 21
13.00717430171391
 31
0.0
  0
LINE
  5
96
330
82
100
AcDbEntity
  8
중심선
100
AcDbLine
 10
22.22332737316547
 20
13.45928029700563
 30
0.0
 11
24.52862924686651
 21
15.39360700705356
 31
0.0
  0
ATTDEF
  5
98
330
82
100
AcDbEntity
  8
FORMAT
 62
     2
100
AcDbText
 10
-16.11926103943555
 20
2.075366912832191
 30
0.0
 40
4.233333333333333
  1
SEME7212060E [ 4 FLUTE ]
 41
0.75
  7
SLDTEXTSTYLE0
 11
-16.11926103943555
 21
-0.0412997538344756
 31
0.0
100
AcDbAttributeDefinition
  3

  2
AUTOATTR0
 70
     0
 74
     1
  0
ENDBLK
  5
84
330
82
100
AcDbEntity
  8
0
100
AcDbBlockEnd
  0
BLOCK
  5
E0
330
DF
100
AcDbEntity
  8
0
100
AcDbBlockBegin
  2
_D
 70
     0
 10
0.0
 20
0.0
 30
0.0
  3
_D
  1

  0
LINE
  5
E2
330
DF
100
AcDbEntity
  8
치수문자_일반주서
 62
     0
370
    -2
100
AcDbLine
 10
70.06250000000001
 20
-6.000000000000007
 30
0.0
 11
85.93432855467306
 21
-5.999999999999947
 31
0.0
  0
LINE
  5
E3
330
DF
100
AcDbEntity
  8
치수문자_일반주서
 62
     0
370
    -2
100
AcDbLine
 10
70.06250000000001
 20
5.999999999999998
 30
0.0
 11
85.93432855467302
 21
6.000000000000059
 31
0.0
  0
LINE
  5
E4
330
DF
100
AcDbEntity
  8
치수문자_일반주서
 62
     0
370
    -2
100
AcDbLine
 10
85.93432855467306
 20
-5.999999999999947
 30
0.0
 11
85.93432855467296
 21
20.47900000000006
 31
0.0
  0
LINE
  5
E5
330
DF
100
AcDbEntity
  8
치수문자_일반주서
 62
     0
370
    -2
100
AcDbLine
 10
85.93432855467306
 20
-5.999999999999947
 30
0.0
 11
85.93432855467302
 21
6.000000000000059
 31
0.0
  0
LINE
  5
E6
330
DF
100
AcDbEntity
  8
치수문자_일반주서
 62
     0
370
    -2
100
AcDbLine
 10
85.93432855467307
 20
-9.301999999999946
 30
0.0
 11
85.93432855467309
 21
-12.60399999999995
 31
0.0
  0
LINE
  5
E7
330
DF
100
AcDbEntity
  8
치수문자_일반주서
 62
     0
370
    -2
100
AcDbLine
 10
85.934328554673
 20
9.302000000000058
 30
0.0
 11
85.93432855467299
 21
12.60400000000006
 31
0.0
  0
SOLID
  5
E8
330
DF
100
AcDbEntity
  8
치수문자_일반주서
 62
     0
100
AcDbTrace
 10
86.4846618880064
 20
-9.301999999999945
 30
0.0
 11
85.38399522133975
 21
-9.301999999999948
 31
0.0
 12
85.93432855467306
 22
-5.999999999999947
 32
0.0
 13
85.93432855467306
 23
-5.999999999999947
 33
0.0
  0
SOLID
  5
E9
330
DF
100
AcDbEntity
  8
치수문자_일반주서
 62
     0
100
AcDbTrace
 10
85.38399522133967
 20
9.302000000000056
 30
0.0
 11
86.48466188800633
 21
9.30200000000006
 31
0.0
 12
85.93432855467302
 22
6.000000000000059
 32
0.0
 13
85.93432855467302
 23
6.000000000000059
 33
0.0
  0
MTEXT
  5
EA
330
DF
100
AcDbEntity
  8
치수문자_일반주서
 62
     0
100
AcDbMText
 10
81.55932855467297
 20
16.54150000000004
 30
0.0
 40
3.5
 41
0.0
 71
     2
 72
     1
  1
\A1;%%c12
  7
SLDTEXTSTYLE0
 11
-3.552713678800500E-15
 21
1.0
 31
0.0
 73
     1
 44
1.0
  0
POINT
  5
143
330
DF
100
AcDbEntity
  8
Defpoints
 62
     0
100
AcDbPoint
 10
70.00000000000001
 20
-6.000000000000007
 30
0.0
  0
POINT
  5
144
330
DF
100
AcDbEntity
  8
Defpoints
 62
     0
100
AcDbPoint
 10
70.00000000000001
 20
5.999999999999998
 30
0.0
  0
POINT
  5
145
330
DF
100
AcDbEntity
  8
Defpoints
 62
     0
100
AcDbPoint
 10
85.93432855467303
 20
6.000000000000058
 30
0.0
  0
ENDBLK
  5
E1
330
DF
100
AcDbEntity
  8
0
100
AcDbBlockEnd
  0
BLOCK
  5
EE
330
ED
100
AcDbEntity
  8
0
100
AcDbBlockBegin
  2
_D_1
 70
     0
 10
0.0
 20
0.0
 30
0.0
  3
_D_1
  1

  0
LINE
  5
F0
330
ED
100
AcDbEntity
  8
치수문자_일반주서
 62
     0
370
    -2
100
AcDbLine
 10
-40.0
 20
5.562499999999991
 30
0.0
 11
-40.0
 21
23.38913260158164
 31
0.0
  0
LINE
  5
F1
330
ED
100
AcDbEntity
  8
치수문자_일반주서
 62
     0
370
    -2
100
AcDbLine
 10
70.00000000000001
 20
6.062500000000009
 30
0.0
 11
70.00000000000001
 21
23.38913260158164
 31
0.0
  0
LINE
  5
F2
330
ED
100
AcDbEntity
  8
치수문자_일반주서
 62
     0
370
    -2
100
AcDbLine
 10
-36.698
 20
23.38913260158164
 30
0.0
 11
66.69800000000001
 21
23.38913260158164
 31
0.0
  0
SOLID
  5
F3
330
ED
100
AcDbEntity
  8
치수문자_일반주서
 62
     0
100
AcDbTrace
 10
-36.698
 20
23.93946593491498
 30
0.0
 11
-36.698
 21
22.83879926824831
 31
0.0
 12
-40.0
 22
23.38913260158164
 32
0.0
 13
-40.0
 23
23.38913260158164
 33
0.0
  0
SOLID
  5
F4
330
ED
100
AcDbEntity
  8
치수문자_일반주서
 62
     0
100
AcDbTrace
 10
66.69800000000001
 20
22.83879926824831
 30
0.0
 11
66.69800000000001
 21
23.93946593491498
 31
0.0
 12
70.00000000000001
 22
23.38913260158164
 32
0.0
 13
70.00000000000001
 23
23.38913260158164
 33
0.0
  0
MTEXT
  5
F5
330
ED
100
AcDbEntity
  8
치수문자_일반주서
 62
     0
100
AcDbMText
 10
15.0
 20
27.76413260158164
 30
0.0
 40
3.5
 41
0.0
 71
     2
 72
     1
  1
\A1;110
  7
SLDTEXTSTYLE0
 73
     1
 44
1.0
  0
POINT
  5
13A
330
ED
100
AcDbEntity
  8
Defpoints
 62
     0
100
AcDbPoint
 10
-40.0
 20
5.499999999999991
 30
0.0
  0
POINT
  5
13B
330
ED
100
AcDbEntity
  8
Defpoints
 62
     0
100
AcDbPoint
 10
70.00000000000001
 20
6.000000000000009
 30
0.0
  0
POINT
  5
13C
330
ED
100
AcDbEntity
  8
Defpoints
 62
     0
100
AcDbPoint
 10
70.00000000000001
 20
23.38913260158164
 30
0.0
  0
ENDBLK
  5
EF
330
ED
100
AcDbEntity
  8
0
100
AcDbBlockEnd
  0
BLOCK
  5
F9
330
F8
100
AcDbEntity
  8
0
100
AcDbBlockBegin
  2
_D_2
 70
     0
 10
0.0
 20
0.0
 30
0.0
  3
_D_2
  1

  0
LINE
  5
FB
330
F8
100
AcDbEntity
  8
치수문자_일반주서
 62
     0
370
    -2
100
AcDbLine
 10
-39.56249999999999
 20
6.000000000000002
 30
0.0
 11
-54.03058275023454
 21
5.999999999999945
 31
0.0
  0
LINE
  5
FC
330
F8
100
AcDbEntity
  8
치수문자_일반주서
 62
     0
370
    -2
100
AcDbLine
 10
-39.56249999999999
 20
-6.000000000000009
 30
0.0
 11
-54.03058275023449
 21
-6.000000000000064
 31
0.0
  0
LINE
  5
FD
330
F8
100
AcDbEntity
  8
치수문자_일반주서
 62
     0
370
    -2
100
AcDbLine
 10
-54.03058275023454
 20
5.999999999999945
 30
0.0
 11
-54.03058275023459
 21
20.47899999999995
 31
0.0
  0
LINE
  5
FE
330
F8
100
AcDbEntity
  8
치수문자_일반주서
 62
     0
370
    -2
100
AcDbLine
 10
-54.03058275023454
 20
5.999999999999945
 30
0.0
 11
-54.03058275023449
 21
-6.000000000000064
 31
0.0
  0
LINE
  5
FF
330
F8
100
AcDbEntity
  8
치수문자_일반주서
 62
     0
370
    -2
100
AcDbLine
 10
-54.03058275023455
 20
9.301999999999945
 30
0.0
 11
-54.03058275023457
 21
12.60399999999994
 31
0.0
  0
LINE
  5
100
330
F8
100
AcDbEntity
  8
치수문자_일반주서
 62
     0
370
    -2
100
AcDbLine
 10
-54.03058275023448
 20
-9.302000000000064
 30
0.0
 11
-54.03058275023447
 21
-12.60400000000006
 31
0.0
  0
SOLID
  5
101
330
F8
100
AcDbEntity
  8
치수문자_일반주서
 62
     0
100
AcDbTrace
 10
-54.58091608356789
 20
9.301999999999943
 30
0.0
 11
-53.48024941690122
 21
9.301999999999946
 31
0.0
 12
-54.03058275023454
 22
5.999999999999945
 32
0.0
 13
-54.03058275023454
 23
5.999999999999945
 33
0.0
  0
SOLID
  5
102
330
F8
100
AcDbEntity
  8
치수문자_일반주서
 62
     0
100
AcDbTrace
 10
-53.48024941690115
 20
-9.302000000000062
 30
0.0
 11
-54.58091608356781
 21
-9.302000000000065
 31
0.0
 12
-54.03058275023449
 22
-6.000000000000064
 32
0.0
 13
-54.03058275023449
 23
-6.000000000000064
 33
0.0
  0
MTEXT
  5
103
330
F8
100
AcDbEntity
  8
치수문자_일반주서
 62
     0
100
AcDbMText
 10
-58.40558275023457
 20
16.54149999999993
 30
0.0
 40
3.5
 41
0.0
 71
     2
 72
     1
  1
\A1;%%c12
  7
SLDTEXTSTYLE0
 11
-3.552713678800498E-15
 21
1.0
 31
0.0
 73
     1
 44
1.0
  0
POINT
  5
140
330
F8
100
AcDbEntity
  8
Defpoints
 62
     0
100
AcDbPoint
 10
-39.49999999999999
 20
6.000000000000002
 30
0.0
  0
POINT
  5
141
330
F8
100
AcDbEntity
  8
Defpoints
 62
     0
100
AcDbPoint
 10
-39.49999999999999
 20
-6.000000000000009
 30
0.0
  0
POINT
  5
142
330
F8
100
AcDbEntity
  8
Defpoints
 62
     0
100
AcDbPoint
 10
-54.03058275023448
 20
-6.000000000000063
 30
0.0
  0
ENDBLK
  5
FA
330
F8
100
AcDbEntity
  8
0
100
AcDbBlockEnd
  0
BLOCK
  5
106
330
105
100
AcDbEntity
  8
0
100
AcDbBlockBegin
  2
_D_3
 70
     0
 10
0.0
 20
0.0
 30
0.0
  3
_D_3
  1

  0
LINE
  5
108
330
105
100
AcDbEntity
  8
치수문자_일반주서
 62
     0
370
    -2
100
AcDbLine
 10
10.0
 20
5.818137757292768
 30
0.0
 11
10.0
 21
16.60155605988042
 31
0.0
  0
LINE
  5
109
330
105
100
AcDbEntity
  8
치수문자_일반주서
 62
     0
370
    -2
100
AcDbLine
 10
70.00000000000001
 20
6.062500000000009
 30
0.0
 11
70.00000000000001
 21
16.60155605988042
 31
0.0
  0
LINE
  5
10A
330
105
100
AcDbEntity
  8
치수문자_일반주서
 62
     0
370
    -2
100
AcDbLine
 10
13.302
 20
16.60155605988042
 30
0.0
 11
66.69800000000001
 21
16.60155605988042
 31
0.0
  0
SOLID
  5
10B
330
105
100
AcDbEntity
  8
치수문자_일반주서
 62
     0
100
AcDbTrace
 10
13.302
 20
17.15188939321375
 30
0.0
 11
13.302
 21
16.05122272654708
 31
0.0
 12
10.0
 22
16.60155605988042
 32
0.0
 13
10.0
 23
16.60155605988042
 33
0.0
  0
SOLID
  5
10C
330
105
100
AcDbEntity
  8
치수문자_일반주서
 62
     0
100
AcDbTrace
 10
66.69800000000001
 20
16.05122272654708
 30
0.0
 11
66.69800000000001
 21
17.15188939321375
 31
0.0
 12
70.00000000000001
 22
16.60155605988042
 32
0.0
 13
70.00000000000001
 23
16.60155605988042
 33
0.0
  0
MTEXT
  5
10D
330
105
100
AcDbEntity
  8
치수문자_일반주서
 62
     0
100
AcDbMText
 10
40.0
 20
20.97655605988042
 30
0.0
 40
3.5
 41
0.0
 71
     2
 72
     1
  1
\A1;60
  7
SLDTEXTSTYLE0
 73
     1
 44
1.0
  0
POINT
  5
13D
330
105
100
AcDbEntity
  8
Defpoints
 62
     0
100
AcDbPoint
 10
10.0
 20
5.755637757292768
 30
0.0
  0
POINT
  5
13E
330
105
100
AcDbEntity
  8
Defpoints
 62
     0
100
AcDbPoint
 10
70.00000000000001
 20
6.000000000000009
 30
0.0
  0
POINT
  5
13F
330
105
100
AcDbEntity
  8
Defpoints
 62
     0
100
AcDbPoint
 10
70.00000000000001
 20
16.60155605988042
 30
0.0
  0
ENDBLK
  5
107
330
105
100
AcDbEntity
  8
0
100
AcDbBlockEnd
  0
BLOCK
  5
10F
330
10E
100
AcDbEntity
  8
0
100
AcDbBlockBegin
  2
SW_DOWELSYMBOL_0
 70
     0
 10
0.0
 20
0.0
 30
0.0
  3
SW_DOWELSYMBOL_0
  1

  0
CIRCLE
  5
111
330
10E
100
AcDbEntity
  8
해칭선
 62
     0
100
AcDbCircle
 10
0.0
 20
0.0
 30
0.0
 40
3.000000000000003
  0
HATCH
  5
112
330
10E
100
AcDbEntity
  8
0
  6
Continuous
 62
     0
370
    18
100
AcDbHatch
 10
0.0
 20
0.0
 30
0.0
210
0.0
220
0.0
230
1.0
  2
SOLID
 70
     1
 71
     0
 91
        1
 92
        0
 93
        3
 72
     2
 10
0.0
 20
0.0
 40
3.000000000000003
 50
0.0
 51
90.0
 73
     1
 72
     1
 10
0.0
 20
3.000000000000003
 11
0.0
 21
0.0
 72
     1
 10
0.0
 20
0.0
 11
3.000000000000003
 21
0.0
 97
        0
 75
     0
 76
     1
 98
        1
 10
0.0
 20
0.0
  0
HATCH
  5
113
330
10E
100
AcDbEntity
  8
0
  6
Continuous
 62
     0
370
    18
100
AcDbHatch
 10
0.0
 20
0.0
 30
0.0
210
0.0
220
0.0
230
1.0
  2
SOLID
 70
     1
 71
     0
 91
        1
 92
        0
 93
        3
 72
     2
 10
0.0
 20
0.0
 40
3.000000000000003
 50
180.0
 51
270.0000000000008
 73
     1
 72
     1
 10
0.0
 20
-3.000000000000003
 11
0.0
 21
0.0
 72
     1
 10
0.0
 20
0.0
 11
-3.000000000000003
 21
0.0
 97
        0
 75
     0
 76
     1
 98
        1
 10
0.0
 20
0.0
  0
ENDBLK
  5
110
330
10E
100
AcDbEntity
  8
0
100
AcDbBlockEnd
  0
ENDSEC
  0
SECTION
  2
ENTITIES
  0
LINE
  5
99
330
1F
100
AcDbEntity
  8
0
  6
Continuous
 62
     4
370
    25
100
AcDbLine
 10
8.500169802310731
 20
5.999999999999996
 30
0.0
 11
-39.5
 21
5.999999999999994
 31
0.0
  0
LINE
  5
9A
330
1F
100
AcDbEntity
  8
0
  6
Continuous
 62
     4
370
    25
100
AcDbLine
 10
-39.5
 20
-6.000000000000006
 30
0.0
 11
8.500169802310735
 21
-6.000000000000004
 31
0.0
  0
LINE
  5
9B
330
1F
100
AcDbEntity
  8
0
  6
Continuous
 62
     4
370
    25
100
AcDbLine
 10
-39.5
 20
5.999999999999989
 30
0.0
 11
-40.0
 21
5.49999999999999
 31
0.0
  0
LINE
  5
9C
330
1F
100
AcDbEntity
  8
0
  6
Continuous
 62
     4
370
    25
100
AcDbLine
 10
-40.0
 20
-5.500000000000004
 30
0.0
 11
-39.5
 21
-6.000000000000002
 31
0.0
  0
LINE
  5
9D
330
1F
100
AcDbEntity
  8
0
  6
Continuous
 62
     1
370
    25
100
AcDbLine
 10
67.67912698837178
 20
-6.000000000000009
 30
0.0
 11
70.00000000000001
 21
-6.000000000000009
 31
0.0
  0
LINE
  5
9E
330
1F
100
AcDbEntity
  8
0
  6
Continuous
 62
     1
370
    25
100
AcDbLine
 10
39.67238147686307
 20
6.000000000000002
 30
0.0
 11
35.03091496532657
 21
6.000000000000002
 31
0.0
  0
LINE
  5
9F
330
1F
100
AcDbEntity
  8
0
  6
Continuous
 62
     1
370
    25
100
AcDbLine
 10
51.35543585553623
 20
-6.000000000000009
 30
0.0
 11
55.99756552422099
 21
-6.000000000000009
 31
0.0
  0
LINE
  5
A0
330
1F
100
AcDbEntity
  8
0
  6
Continuous
 62
     1
370
    25
100
AcDbLine
 10
23.34957722623839
 20
6.000000000000002
 30
0.0
 11
18.70596431353516
 21
6.000000000000002
 31
0.0
  0
LINE
  5
A1
330
1F
100
AcDbEntity
  8
0
  6
Continuous
 62
     1
370
    25
100
AcDbLine
 10
18.70596431353532
 20
-6.000000000000009
 30
0.0
 11
23.3495772262384
 21
-6.000000000000009
 31
0.0
  0
LINE
  5
A2
330
1F
100
AcDbEntity
  8
0
  6
Continuous
 62
     1
370
    25
100
AcDbLine
 10
55.99756552422097
 20
6.000000000000002
 30
0.0
 11
51.35543585553623
 21
6.000000000000002
 31
0.0
  0
LINE
  5
A3
330
1F
100
AcDbEntity
  8
0
  6
Continuous
 62
     1
370
    25
100
AcDbLine
 10
35.03091496532664
 20
-6.000000000000009
 30
0.0
 11
39.67238147686302
 21
-6.000000000000009
 31
0.0
  0
LINE
  5
A4
330
1F
100
AcDbEntity
  8
0
  6
Continuous
 62
     1
370
    25
100
AcDbLine
 10
70.00000000000001
 20
6.000000000000002
 30
0.0
 11
67.67912698837172
 21
6.000000000000002
 31
0.0
  0
SPLINE
  5
A5
330
1F
100
AcDbEntity
  8
0
  6
Continuous
 62
     4
370
    25
100
AcDbSpline
210
0.0
220
0.0
230
1.0
 70
    24
 71
     3
 72
    12
 73
     8
 74
     0
 42
0.000000001
 43
0.00000001
 40
0.0
 40
0.0
 40
0.0
 40
0.0
 40
0.5
 40
0.5
 40
0.75
 40
0.75
 40
1.0
 40
1.0
 40
1.0
 40
1.0
 10
10.0
 20
4.425787593338849
 30
0.0
 10
10.0
 20
4.133870062039343
 30
0.0
 10
10.0
 20
3.820876157916322
 30
0.0
 10
10.0
 20
3.318538225124991
 30
0.0
 10
10.0
 20
3.145834105028181
 30
0.0
 10
10.0
 20
2.797548826809127
 30
0.0
 10
10.0
 20
2.620947847021035
 30
0.0
 10
10.0
 20
2.441755841818749
 30
0.0
  0
SPLINE
  5
A6
330
1F
100
AcDbEntity
  8
0
  6
Continuous
 62
     4
370
    25
100
AcDbSpline
210
0.0
220
0.0
230
1.0
 70
     8
 71
     3
 72
    14
 73
    10
 74
     0
 42
0.000000001
 43
0.00000001
 40
0.0
 40
0.0
 40
0.0
 40
0.0
 40
0.2499999999999998
 40
0.2499999999999998
 40
0.4999999999999999
 40
0.4999999999999999
 40
0.7499999999999999
 40
0.7499999999999999
 40
1.0
 40
1.0
 40
1.0
 40
1.0
 10
9.103367180411569
 20
-1.1925526695234
 30
0.0
 10
9.008893588803708
 20
-1.138925335969725
 30
0.0
 10
8.924015323454338
 20
-1.073855742777916
 30
0.0
 10
8.772882865030224
 20
-0.9211008623644054
 30
0.0
 10
8.707778342503692
 20
-0.833857680774451
 30
0.0
 10
8.604018835724801
 20
-0.6464701759667361
 30
0.0
 10
8.564312266822553
 20
-0.5440960609947239
 30
0.0
 10
8.512791197396748
 20
-0.335388513881728
 30
0.0
 10
8.500169802310731
 20
-0.2270888878763029
 30
0.0
 10
8.500169802310731
 20
-0.1180502103269203
 30
0.0
  0
SPLINE
  5
A7
330
1F
100
AcDbEntity
  8
0
  6
Continuous
 62
     4
370
    25
100
AcDbSpline
210
0.0
220
0.0
230
1.0
 70
     8
 71
     3
 72
    18
 73
    14
 74
     0
 42
0.000000001
 43
0.00000001
 40
0.0
 40
0.0
 40
0.0
 40
0.0
 40
0.1249999999999999
 40
0.1249999999999999
 40
0.2499999999999997
 40
0.2499999999999997
 40
0.4999999999999994
 40
0.4999999999999994
 40
0.6249999999999996
 40
0.6249999999999996
 40
0.7499999999999996
 40
0.7499999999999996
 40
1.0
 40
1.0
 40
1.0
 40
1.0
 10
8.500169802310731
 20
3.529069804419319
 30
0.0
 10
8.500169802310731
 20
3.604705802033712
 30
0.0
 10
8.509299328197526
 20
3.677814740562507
 30
0.0
 10
8.546878259488325
 20
3.819103351166512
 30
0.0
 10
8.57590594493745
 20
3.88798144196681
 30
0.0
 10
8.69042923248488
 20
4.07794779500138
 30
0.0
 10
8.806515524026556
 20
4.187048501060675
 30
0.0
 10
9.021614703569544
 20
4.309808012010659
 30
0.0
 10
9.101473414305975
 20
4.344764288434893
 30
0.0
 10
9.268314549904435
 20
4.399588422294036
 30
0.0
 10
9.355811649678394
 20
4.419957339245948
 30
0.0
 10
9.630281209196381
 20
4.460100082099768
 30
0.0
 10
9.818705018492167
 20
4.45760129625765
 30
0.0
 10
9.999999999999968
 20
4.42578759333866
 30
0.0
  0
SPLINE
  5
A8
330
1F
100
AcDbEntity
  8
0
  6
Continuous
 62
     4
370
    25
100
AcDbSpline
210
0.0
220
0.0
230
1.0
 70
     8
 71
     3
 72
    14
 73
    10
 74
     0
 42
0.000000001
 43
0.00000001
 40
0.0
 40
0.0
 40
0.0
 40
0.0
 40
0.2499999999999999
 40
0.2499999999999999
 40
0.5
 40
0.5
 40
0.75
 40
0.75
 40
1.0
 40
1.0
 40
1.0
 40
1.0
 10
9.103367180411569
 20
5.880290650163082
 30
0.0
 10
9.008893588803708
 20
5.891166544501246
 30
0.0
 10
8.924015323454338
 20
5.90362881332264
 30
0.0
 10
8.772882865030224
 20
5.929382136710527
 30
0.0
 10
8.707778342503692
 20
5.942524340886021
 30
0.0
 10
8.604018835724801
 20
5.96581850925713
 30
0.0
 10
8.564312266822553
 20
5.976195110287182
 30
0.0
 10
8.512791197396748
 20
5.991532613995072
 30
0.0
 10
8.500169802310731
 20
5.996692811414471
 30
0.0
 10
8.500169802310731
 20
5.998838566576176
 30
0.0
  0
SPLINE
  5
A9
330
1F
100
AcDbEntity
  8
0
  6
Continuous
 62
     4
370
    25
100
AcDbSpline
210
0.0
220
0.0
230
1.0
 70
     8
 71
     3
 72
     8
 73
     4
 74
     0
 42
0.000000001
 43
0.00000001
 40
0.0
 40
0.0
 40
0.0
 40
0.0
 40
1.0
 40
1.0
 40
1.0
 40
1.0
 10
10.0
 20
5.755637757292767
 30
0.0
 10
9.700295815718873
 20
5.804432038880686
 30
0.0
 10
9.400864228119044
 20
5.846042492538122
 30
0.0
 10
9.103367180411565
 20
5.88029065016308
 30
0.0
  0
LINE
  5
AA
330
1F
100
AcDbEntity
  8
0
  6
Continuous
 62
     4
370
    25
100
AcDbLine
 10
10.0
 20
5.755637757292768
 30
0.0
 11
10.0
 21
4.425787593338847
 31
0.0
  0
SPLINE
  5
AB
330
1F
100
AcDbEntity
  8
0
  6
Continuous
 62
     4
370
    25
100
AcDbSpline
210
0.0
220
0.0
230
1.0
 70
     8
 71
     3
 72
     8
 73
     4
 74
     0
 42
0.000000001
 43
0.00000001
 40
0.0
 40
0.0
 40
0.0
 40
0.0
 40
1.0
 40
1.0
 40
1.0
 40
1.0
 10
10.0
 20
-1.694884658851025
 30
0.0
 10
9.700295815718873
 20
-1.529184764182214
 30
0.0
 10
9.400864228119048
 20
-1.361424976981173
 30
0.0
 10
9.103367180411565
 20
-1.1925526695234
 30
0.0
  0
LINE
  5
AC
330
1F
100
AcDbEntity
  8
0
  6
Continuous
 62
     4
370
    25
100
AcDbLine
 10
10.0
 20
-1.694884658851025
 30
0.0
 11
10.0
 21
-4.051222553581579
 31
0.0
  0
SPLINE
  5
AD
330
1F
100
AcDbEntity
  8
0
  6
Continuous
 62
     4
370
    25
100
AcDbSpline
210
0.0
220
0.0
230
1.0
 70
     8
 71
     3
 72
    18
 73
    14
 74
     0
 42
0.000000001
 43
0.00000001
 40
0.0
 40
0.0
 40
0.0
 40
0.0
 40
0.1249999999999998
 40
0.1249999999999998
 40
0.2499999999999997
 40
0.2499999999999997
 40
0.4999999999999994
 40
0.4999999999999994
 40
0.6249999999999996
 40
0.6249999999999996
 40
0.7499999999999998
 40
0.7499999999999998
 40
1.0
 40
1.0
 40
1.0
 40
1.0
 10
8.500169802310731
 20
-4.852387692212558
 30
0.0
 10
8.500169802310731
 20
-4.797378749762129
 30
0.0
 10
8.50929932819753
 20
-4.741504418918166
 30
0.0
 10
8.546878259488325
 20
-4.628459248349074
 30
0.0
 10
8.575905944937457
 20
-4.570632415104996
 30
0.0
 10
8.690429232484886
 20
-4.404391359721601
 30
0.0
 10
8.806515524026556
 20
-4.299091608806819
 30
0.0
 10
9.021614703569544
 20
-4.174798899635253
 30
0.0
 10
9.101473414305975
 20
-4.138191084132875
 30
0.0
 10
9.268314549904435
 20
-4.079855865747253
 30
0.0
 10
9.355811649678394
 20
-4.057631262637237
 30
0.0
 10
9.630281209196381
 20
-4.013612417111781
 30
0.0
 10
9.818705018492167
 20
-4.016467442053155
 30
0.0
 10
9.999999999999968
 20
-4.051222553581785
 30
0.0
  0
LINE
  5
AE
330
1F
100
AcDbEntity
  8
0
  6
Continuous
 62
     4
370
    25
100
AcDbLine
 10
8.500169802310731
 20
-4.852387692212559
 30
0.0
 11
8.500169802310731
 21
-6.000000000000004
 31
0.0
  0
SPLINE
  5
AF
330
1F
100
AcDbEntity
  8
0
  6
Continuous
 62
     4
370
    25
100
AcDbSpline
210
0.0
220
0.0
230
1.0
 70
     8
 71
     3
 72
    14
 73
    10
 74
     0
 42
0.000000001
 43
0.00000001
 40
0.0
 40
0.0
 40
0.0
 40
0.0
 40
0.25
 40
0.25
 40
0.5
 40
0.5
 40
0.75
 40
0.75
 40
1.0
 40
1.0
 40
1.0
 40
1.0
 10
9.103367180411569
 20
-5.880290650163092
 30
0.0
 10
9.008893588803708
 20
-5.891166544501252
 30
0.0
 10
8.924015323454338
 20
-5.90362881332265
 30
0.0
 10
8.772882865030224
 20
-5.929382136710542
 30
0.0
 10
8.707778342503692
 20
-5.942524340886036
 30
0.0
 10
8.604018835724801
 20
-5.965818509257141
 30
0.0
 10
8.564312266822553
 20
-5.976195110287191
 30
0.0
 10
8.512791197396748
 20
-5.991532613995079
 30
0.0
 10
8.500169802310731
 20
-5.996692811414478
 30
0.0
 10
8.500169802310731
 20
-5.998838566576184
 30
0.0
  0
SPLINE
  5
B0
330
1F
100
AcDbEntity
  8
0
  6
Continuous
 62
     4
370
    25
100
AcDbSpline
210
0.0
220
0.0
230
1.0
 70
     8
 71
     3
 72
     8
 73
     4
 74
     0
 42
0.000000001
 43
0.00000001
 40
0.0
 40
0.0
 40
0.0
 40
0.0
 40
1.0
 40
1.0
 40
1.0
 40
1.0
 10
10.0
 20
-5.755637757292787
 30
0.0
 10
9.700295815718873
 20
-5.804432038880705
 30
0.0
 10
9.400864228119048
 20
-5.846042492538138
 30
0.0
 10
9.103367180411565
 20
-5.880290650163094
 30
0.0
  0
LINE
  5
B1
330
1F
100
AcDbEntity
  8
0
  6
Continuous
 62
     4
370
    25
100
AcDbLine
 10
8.500169802310731
 20
5.999999999999996
 30
0.0
 11
8.500169802310731
 21
5.998838566576176
 31
0.0
  0
LINE
  5
B2
330
1F
100
AcDbEntity
  8
0
  6
Continuous
 62
     4
370
    25
100
AcDbLine
 10
-39.5
 20
5.999999999999989
 30
0.0
 11
-39.5
 21
-6.000000000000002
 31
0.0
  0
LINE
  5
B3
330
1F
100
AcDbEntity
  8
0
  6
Continuous
 62
     4
370
    25
100
AcDbLine
 10
8.500169802310731
 20
3.529069804419319
 30
0.0
 11
8.500169802310731
 21
-0.1180502103269204
 31
0.0
  0
LINE
  5
B4
330
1F
100
AcDbEntity
  8
0
  6
Continuous
 62
     4
370
    25
100
AcDbLine
 10
-40.0
 20
5.499999999999991
 30
0.0
 11
-40.0
 21
-5.500000000000004
 31
0.0
  0
SPLINE
  5
B5
330
1F
100
AcDbEntity
  8
0
  6
Continuous
 62
     4
370
    25
100
AcDbSpline
210
0.0
220
0.0
230
1.0
 70
    24
 71
     3
 72
    14
 73
    10
 74
     0
 42
0.000000001
 43
0.00000001
 40
0.0
 40
0.0
 40
0.0
 40
0.0
 40
0.25
 40
0.25
 40
0.5
 40
0.5
 40
0.75
 40
0.75
 40
1.0
 40
1.0
 40
1.0
 40
1.0
 10
10.0
 20
2.441755841816446
 30
0.0
 10
10.0
 20
2.10525600077314
 30
0.0
 10
10.0
 20
1.738623780210825
 30
0.0
 10
10.0
 20
0.9727748518280196
 30
0.0
 10
10.0
 20
0.573588238840146
 30
0.0
 10
10.0
 20
-0.2003663407330314
 30
0.0
 10
10.0
 20
-0.5742099078680997
 30
0.0
 10
10.0
 20
-1.223315381451375
 30
0.0
 10
10.0
 20
-1.497220255887818
 30
0.0
 10
10.0
 20
-1.694884658851025
 30
0.0
  0
SPLINE
  5
B6
330
1F
100
AcDbEntity
  8
0
  6
Continuous
 62
     4
370
    25
100
AcDbSpline
210
0.0
220
0.0
230
1.0
 70
    24
 71
     3
 72
    11
 73
     7
 74
     0
 42
0.000000001
 43
0.00000001
 40
0.0
 40
0.0
 40
0.0
 40
0.0
 40
0.3081703253705309
 40
0.6365343780778822
 40
0.9744210105587006
 40
1.0
 40
1.0
 40
1.0
 40
1.0
 10
10.0
 20
-4.127255075430925
 30
0.0
 10
10.0
 20
-4.263168493153214
 30
0.0
 10
10.0
 20
-4.543901437567238
 30
0.0
 10
10.0
 20
-5.081970055226029
 30
0.0
 10
10.0
 20
-5.50568410458791
 30
0.0
 10
10.0
 20
-5.739203750352181
 30
0.0
 10
10.0
 20
-5.755637757292787
 30
0.0
  0
SPLINE
  5
B7
330
1F
100
AcDbEntity
  8
0
  6
Continuous
 62
     1
370
    25
100
AcDbSpline
210
0.0
220
0.0
230
1.0
 70
     8
 71
     3
 72
    26
 73
    22
 74
     0
 42
0.000000001
 43
0.00000001
 40
0.0
 40
0.0
 40
0.0
 40
0.0
 40
0.0330976978518377
 40
0.0901648887836781
 40
0.1472319903475905
 40
0.2042990001923651
 40
0.2613659159684014
 40
0.3184327353277526
 40
0.3754994559241652
 40
0.4325660754131184
 40
0.4896325914518667
 40
0.5466990016994805
 40
0.6037653038168835
 40
0.6608314954668973
 40
0.715475131447185
 40
0.7701173407494935
 40
0.8247582422461333
 40
0.8793979551227231
 40
0.9340365988499069
 40
0.988674293154924
 40
1.0
 40
1.0
 40
1.0
 40
1.0
 10
29.19089529442461
 20
5.049327431823849
 30
0.0
 10
29.61552436574019
 20
5.183463136040908
 30
0.0
 10
30.77230068175096
 20
5.548876190048226
 30
0.0
 10
32.6612223563143
 20
5.881834778733991
 30
0.0
 10
34.85765918566906
 20
6.045723868857796
 30
0.0
 10
37.05409174992466
 20
5.930237767993654
 30
0.0
 10
39.25051997691932
 20
5.553594214424977
 30
0.0
 10
41.44694375510105
 20
4.929051827149094
 30
0.0
 10
43.64336295256619
 20
4.085344954331346
 30
0.0
 10
45.83977755869583
 20
3.059770356596043
 30
0.0
 10
48.03618709858479
 20
1.89804022525686
 30
0.0
 10
50.23259283369494
 20
0.6518304930978515
 30
0.0
 10
52.42898954484661
 20
-0.6233628460333285
 30
0.0
 10
54.59431726264
 20
-1.85324830824616
 30
0.0
 10
56.72849065249708
 20
-2.985972111474987
 30
0.0
 10
58.83154923515893
 20
-3.980817111078789
 30
0.0
 10
60.93454449452357
 20
-4.811673253465222
 30
0.0
 10
63.03748578648809
 20
-5.451817402514266
 30
0.0
 10
65.14037697905547
 20
-5.848428905816792
 30
0.0
 10
66.68758567013377
 20
-6.02246489968724
 30
0.0
 10
67.53382959024621
 20
-5.986095061078585
 30
0.0
 10
67.67912698837175
 20
-5.979850475097533
 30
0.0
  0
SPLINE
  5
B8
330
1F
100
AcDbEntity
  8
0
  6
Continuous
 62
     1
370
    25
100
AcDbSpline
210
0.0
220
0.0
230
1.0
 70
     8
 71
     3
 72
    21
 73
    17
 74
     0
 42
0.000000001
 43
0.00000001
 40
0.0
 40
0.0
 40
0.0
 40
0.0
 40
0.0724211790312605
 40
0.1448425189467912
 40
0.2172640167987705
 40
0.2896856696366133
 40
0.3621074745070221
 40
0.4345294284540393
 40
0.5069515285190949
 40
0.5793737717410593
 40
0.6517961551562967
 40
0.7242186757987115
 40
0.7966413306998014
 40
0.8690641168887117
 40
0.9414870313922822
 40
1.0
 40
1.0
 40
1.0
 40
1.0
 10
70.0
 20
-5.850994190131567
 30
0.0
 10
69.26788136906936
 20
-5.732133322748765
 30
0.0
 10
67.80364248080029
 20
-5.494411323932721
 30
0.0
 10
65.6072804990452
 20
-4.823537505832229
 30
0.0
 10
63.41091284261638
 20
-3.956694065752073
 30
0.0
 10
61.21453952851797
 20
-2.908753827862985
 30
0.0
 10
59.01816068831805
 20
-1.732704117287938
 30
0.0
 10
56.82177642300326
 20
-0.4791849626607378
 30
0.0
 10
54.62538684192603
 20
0.7955752777554078
 30
0.0
 10
52.42899205215019
 20
2.034915550146251
 30
0.0
 10
50.23259216210955
 20
3.1838399763411
 30
0.0
 10
48.03618727761611
 20
4.190507205124705
 30
0.0
 10
45.83977751415775
 20
5.012794174464517
 30
0.0
 10
43.6433629516867
 20
5.604102623287655
 30
0.0
 10
41.58756387921111
 20
5.951674719688525
 30
0.0
 10
40.26390265405583
 20
5.97073023983654
 30
0.0
 10
39.67238147686307
 20
5.979245820330827
 30
0.0
  0
SPLINE
  5
B9
330
1F
100
AcDbEntity
  8
0
  6
Continuous
 62
     1
370
    25
100
AcDbSpline
210
0.0
220
0.0
230
1.0
 70
     8
 71
     3
 72
     9
 73
     5
 74
     0
 42
0.000000001
 43
0.00000001
 40
0.0
 40
0.0
 40
0.0
 40
0.0
 40
0.308361775262301
 40
0.9999999999999999
 40
0.9999999999999999
 40
0.9999999999999999
 40
0.9999999999999999
 10
12.8650017022128
 20
-5.054131413359418
 30
0.0
 10
12.57051228586089
 20
-5.150526131761619
 30
0.0
 10
11.61549957035357
 20
-5.463128815152596
 30
0.0
 10
10.66050839864246
 20
-5.636043412295173
 30
0.0
 10
10.0
 20
-5.7556377572941
 30
0.0
  0
LINE
  5
BA
330
1F
100
AcDbEntity
  8
0
  6
Continuous
 62
     1
370
    25
100
AcDbLine
 10
70.00000000000001
 20
-6.000000000000016
 30
0.0
 11
70.00000000000001
 21
-5.850994190131576
 31
0.0
  0
SPLINE
  5
BB
330
1F
100
AcDbEntity
  8
0
  6
Continuous
 62
     1
370
    25
100
AcDbSpline
210
0.0
220
0.0
230
1.0
 70
     8
 71
     3
 72
    26
 73
    22
 74
     0
 42
0.000000001
 43
0.00000001
 40
0.0
 40
0.0
 40
0.0
 40
0.0
 40
0.0163313702958306
 40
0.0733897526806044
 40
0.1304482525171615
 40
0.1875068674745571
 40
0.2445655952198301
 40
0.3016244334180447
 40
0.3586833797323269
 40
0.415742431823907
 40
0.4728015873521617
 40
0.529860843974651
 40
0.5869201993471616
 40
0.6439796511237463
 40
0.7010391969567655
 40
0.758098834496927
 40
0.8151585613933274
 40
0.8722183752934929
 40
0.9292782738434205
 40
0.9863382546876186
 40
1.0
 40
1.0
 40
1.0
 40
1.0
 10
61.84319283176035
 20
-5.052683263597927
 30
0.0
 10
61.6336422007733
 20
-5.123779835432015
 30
0.0
 10
60.69196561738644
 20
-5.443272917079589
 30
0.0
 10
59.01816064444179
 20
-5.780733607513272
 30
0.0
 10
56.8217764347648
 20
-6.02861658507846
 30
0.0
 10
54.62538683875628
 20
-5.991502824767815
 30
0.0
 10
52.42899205306759
 20
-5.692219207345127
 30
0.0
 10
50.23259216160972
 20
-5.138410325091837
 30
0.0
 10
48.03618727869804
 20
-4.356242705834629
 30
0.0
 10
45.83977751032974
 20
-3.380117904822599
 30
0.0
 10
43.64336296591685
 20
-2.253586868683295
 30
0.0
 10
41.44694375006468
 20
-1.026752944879009
 30
0.0
 10
39.25051998371409
 20
0.245767914849201
 30
0.0
 10
37.05409172778187
 20
1.507378904171837
 30
0.0
 10
34.85765926744569
 20
2.70180667345055
 30
0.0
 10
32.66122205134997
 20
3.776362597832262
 30
0.0
 10
30.46478265049457
 20
4.681474778545628
 30
0.0
 10
28.26833198343018
 20
5.383389018354719
 30
0.0
 10
26.07190445669263
 20
5.82650480599447
 30
0.0
 10
24.43224701157633
 20
6.017240959643847
 30
0.0
 10
23.52486225074866
 20
5.98498733861736
 30
0.0
 10
23.3495772262384
 20
5.978756710777617
 30
0.0
  0
SPLINE
  5
BC
330
1F
100
AcDbEntity
  8
0
  6
Continuous
 62
     1
370
    25
100
AcDbSpline
210
0.0
220
0.0
230
1.0
 70
     8
 71
     3
 72
    14
 73
    10
 74
     0
 42
0.000000001
 43
0.00000001
 40
0.0
 40
0.0
 40
0.0
 40
0.0
 40
0.1568554858711997
 40
0.3137113201982062
 40
0.4705674965963958
 40
0.6274240086751589
 40
0.7842808500380117
 40
0.9411380142827087
 40
0.9999999999999999
 40
0.9999999999999999
 40
0.9999999999999999
 40
0.9999999999999999
 10
70.0
 20
1.328859280378008
 30
0.0
 10
69.2678813690128
 20
1.735309395874998
 30
0.0
 10
67.80364248063054
 20
2.548210529801395
 30
0.0
 10
65.60728049972417
 20
3.638619754622731
 30
0.0
 10
63.41091284007028
 20
4.57011112418681
 30
0.0
 10
61.21453953802344
 20
5.301706040170653
 30
0.0
 10
59.01816065284217
 20
5.780388670624885
 30
0.0
 10
57.27916879674244
 20
6.006684967074929
 30
0.0
 10
56.27230294686208
 20
5.976778072691975
 30
0.0
 10
55.99756552422097
 20
5.968617558475558
 30
0.0
  0
SPLINE
  5
BD
330
1F
100
AcDbEntity
  8
0
  6
Continuous
 62
     1
370
    25
100
AcDbSpline
210
0.0
220
0.0
230
1.0
 70
     8
 71
     3
 72
    17
 73
    13
 74
     0
 42
0.000000001
 43
0.00000001
 40
0.0
 40
0.0
 40
0.0
 40
0.0
 40
0.048070372986858
 40
0.1625174928381333
 40
0.2769647777500288
 40
0.3802576568368829
 40
0.4835702622182943
 40
0.5868890085755178
 40
0.6901872728227665
 40
0.7934689074810346
 40
0.8967383354588587
 40
0.9999999999999999
 40
0.9999999999999999
 40
0.9999999999999999
 40
0.9999999999999999
 10
29.19089529442461
 20
-5.049327431823855
 30
0.0
 10
28.88337575831564
 20
-5.150503230781346
 30
0.0
 10
27.84370618843651
 20
-5.492560846747044
 30
0.0
 10
26.0719007866102
 20
-5.830076945159834
 30
0.0
 10
23.94674772821142
 20
-6.032645942900806
 30
0.0
 10
21.89308323961734
 20
-5.976822696006587
 30
0.0
 10
19.9104373745231
 20
-5.709318922963169
 30
0.0
 10
17.92773630052968
 20
-5.233857589477572
 30
0.0
 10
15.94534211143377
 20
-4.56907938847297
 30
0.0
 10
13.96331987118382
 20
-3.737406245764673
 30
0.0
 10
11.98157970820992
 20
-2.774678277699245
 30
0.0
 10
10.66051001654311
 20
-2.054806845223059
 30
0.0
 10
10.0
 20
-1.694884658851627
 30
0.0
  0
SPLINE
  5
BE
330
1F
100
AcDbEntity
  8
0
  6
Continuous
 62
     4
370
    25
100
AcDbSpline
210
0.0
220
0.0
230
1.0
 70
    24
 71
     3
 72
    24
 73
    20
 74
     0
 42
0.000000001
 43
0.00000001
 40
0.0
 40
0.0
 40
0.0
 40
0.0
 40
0.0624999999999999
 40
0.0624999999999999
 40
0.1249999999999997
 40
0.1249999999999997
 40
0.2499999999999997
 40
0.2499999999999997
 40
0.3749999999999996
 40
0.3749999999999996
 40
0.4999999999999994
 40
0.4999999999999994
 40
0.6249999999999996
 40
0.6249999999999996
 40
0.7499999999999998
 40
0.7499999999999998
 40
0.8749999999999999
 40
0.8749999999999999
 40
1.0
 40
1.0
 40
1.0
 40
1.0
 10
10.0
 20
4.458878332285252
 30
0.0
 10
10.0
 20
4.371160747970479
 30
0.0
 10
10.0
 20
4.284295965705319
 30
0.0
 10
10.0
 20
4.113145469097218
 30
0.0
 10
10.0
 20
4.02519397217729
 30
0.0
 10
10.0
 20
3.743445922356345
 30
0.0
 10
10.0
 20
3.53572880181411
 30
0.0
 10
10.0
 20
3.077265057425092
 30
0.0
 10
10.0
 20
2.826385865794419
 30
0.0
 10
10.0
 20
2.283688896210275
 30
0.0
 10
10.0
 20
1.991723003332462
 30
0.0
 10
10.0
 20
1.378858492457421
 30
0.0
 10
10.0
 20
1.057899435597271
 30
0.0
 10
10.0
 20
0.4125799066386855
 30
0.0
 10
10.0
 20
0.0883987846747632
 30
0.0
 10
10.0
 20
-0.5255182742410074
 30
0.0
 10
10.0
 20
-0.8147940058858544
 30
0.0
 10
10.0
 20
-1.318418596237519
 30
0.0
 10
10.0
 20
-1.532272786147984
 30
0.0
 10
10.0
 20
-1.694884658851623
 30
0.0
  0
SPLINE
  5
BF
330
1F
100
AcDbEntity
  8
0
  6
Continuous
 62
     1
370
    25
100
AcDbSpline
210
0.0
220
0.0
230
1.0
 70
     8
 71
     3
 72
    20
 73
    16
 74
     0
 42
0.000000001
 43
0.00000001
 40
0.0
 40
0.0
 40
0.0
 40
0.0
 40
0.0791703315107629
 40
0.1583466152193573
 40
0.2375322577441366
 40
0.3167306501125131
 40
0.3959447460379061
 40
0.4751541337001406
 40
0.554348397286208
 40
0.6420947020474626
 40
0.7298408802573576
 40
0.8175869282936402
 40
0.9053328425363467
 40
0.9930786193678647
 40
1.0
 40
1.0
 40
1.0
 40
1.0
 10
10.0
 20
4.458878332285224
 30
0.0
 10
10.66051001655084
 20
4.188017743970732
 30
0.0
 10
11.98157970823312
 20
3.646276203453214
 30
0.0
 10
13.96331987109109
 20
2.65812437719538
 30
0.0
 10
15.94534211178166
 20
1.585146993998727
 30
0.0
 10
17.92773629923063
 20
0.4514829041636869
 30
0.0
 10
19.91043737937234
 20
-0.6976293778705054
 30
0.0
 10
21.89308322152256
 20
-1.821754935697046
 30
0.0
 10
23.94674779880934
 20
-2.917734516275433
 30
0.0
 10
26.07190049126687
 20
-3.93444428940551
 30
0.0
 10
28.26833304178934
 20
-4.808041880246407
 30
0.0
 10
30.46478238247556
 20
-5.47535867590682
 30
0.0
 10
32.66122206506923
 20
-5.870350526192745
 30
0.0
 10
34.18326645187804
 20
-6.037091743515315
 30
0.0
 10
34.97316339104657
 20
-5.993479876513485
 30
0.0
 10
35.03091496532663
 20
-5.990291290950284
 30
0.0
  0
SPLINE
  5
C0
330
1F
100
AcDbEntity
  8
0
  6
Continuous
 62
     1
370
    25
100
AcDbSpline
210
0.0
220
0.0
230
1.0
 70
     8
 71
     3
 72
    11
 73
     7
 74
     0
 42
0.000000001
 43
0.00000001
 40
0.0
 40
0.0
 40
0.0
 40
0.0
 40
0.1591792337277579
 40
0.4394574875979491
 40
0.7197308712450015
 40
1.0
 40
1.0
 40
1.0
 40
1.0
 10
61.84319283176035
 20
5.052683263597925
 30
0.0
 10
62.24129480907914
 20
5.178711476135844
 30
0.0
 10
63.34036339147664
 20
5.526646570126165
 30
0.0
 10
65.14037699489481
 20
5.852642311862443
 30
0.0
 10
67.24322542565153
 20
6.048137387903767
 30
0.0
 10
68.64510722928557
 20
5.964739690711565
 30
0.0
 10
69.34604281049302
 20
5.923041158637576
 30
0.0
  0
SPLINE
  5
C1
330
1F
100
AcDbEntity
  8
0
  6
Continuous
 62
     1
370
    25
100
AcDbSpline
210
0.0
220
0.0
230
1.0
 70
     8
 71
     3
 72
    20
 73
    16
 74
     0
 42
0.000000001
 43
0.00000001
 40
0.0
 40
0.0
 40
0.0
 40
0.0
 40
0.2499999999999997
 40
0.2499999999999997
 40
0.3749999999999997
 40
0.3749999999999997
 40
0.4999999999999998
 40
0.4999999999999998
 40
0.6249999999999998
 40
0.6249999999999998
 40
0.7499999999999999
 40
0.7499999999999999
 40
0.8749999999999999
 40
0.8749999999999999
 40
1.0
 40
1.0
 40
1.0
 40
1.0
 10
69.34604281049303
 20
5.923041158637585
 30
0.0
 10
69.35112885140026
 20
5.542534979233885
 30
0.0
 10
69.31712971161333
 20
5.16980094753297
 30
0.0
 10
69.18707733190624
 20
4.62641984265509
 30
0.0
 10
69.12953167146965
 20
4.4469111234904
 30
0.0
 10
68.98808935692882
 20
4.110784893826117
 30
0.0
 10
68.903948343804
 20
3.95222152066327
 30
0.0
 10
68.7056584670619
 20
3.656336941975045
 30
0.0
 10
68.59458529726811
 20
3.523839668565575
 30
0.0
 10
68.35152993231178
 20
3.291097136675009
 30
0.0
 10
68.2175038399301
 20
3.189532317023829
 30
0.0
 10
67.9377562980897
 20
3.024135119926175
 30
0.0
 10
67.79214789655806
 20
2.959667403985354
 30
0.0
 10
67.49048002212702
 20
2.863956824433936
 30
0.0
 10
67.33578115845351
 20
2.833394590183154
 30
0.0
 10
67.18130034237637
 20
2.818699657623625
 30
0.0
  0
SPLINE
  5
C2
330
1F
100
AcDbEntity
  8
0
  6
Continuous
 62
     1
370
    25
100
AcDbSpline
210
0.0
220
0.0
230
1.0
 70
     8
 71
     3
 72
     9
 73
     5
 74
     0
 42
0.000000001
 43
0.00000001
 40
0.0
 40
0.0
 40
0.0
 40
0.0
 40
0.5967352074846138
 40
1.0
 40
1.0
 40
1.0
 40
1.0
 10
70.00000000000001
 20
1.446523558810441
 30
0.0
 10
69.5167526889468
 20
1.701219639725952
 30
0.0
 10
68.70693402064632
 20
2.128035550235268
 30
0.0
 10
67.9483434481034
 20
2.468921336778676
 30
0.0
 10
67.64243057826278
 20
2.606388572760547
 30
0.0
  0
LINE
  5
C3
330
1F
100
AcDbEntity
  8
0
  6
Continuous
 62
     1
370
    25
100
AcDbLine
 10
70.00000000000001
 20
1.333869439515232
 30
0.0
 11
70.00000000000001
 21
1.446523558810441
 31
0.0
  0
SPLINE
  5
C4
330
1F
100
AcDbEntity
  8
0
  6
Continuous
 62
     4
370
    25
100
AcDbSpline
210
0.0
220
0.0
230
1.0
 70
    24
 71
     3
 72
    11
 73
     7
 74
     0
 42
0.000000001
 43
0.00000001
 40
0.0
 40
0.0
 40
0.0
 40
0.0
 40
0.3081703253703224
 40
0.6365343780774498
 40
0.9744210105580392
 40
1.0
 40
1.0
 40
1.0
 40
1.0
 10
10.0
 20
-4.127255075430925
 30
0.0
 10
10.0
 20
-4.263168493153213
 30
0.0
 10
10.0
 20
-4.543901437567238
 30
0.0
 10
10.0
 20
-5.081970055226026
 30
0.0
 10
9.999999999999996
 20
-5.505684104588323
 30
0.0
 10
10.0
 20
-5.73920375035305
 30
0.0
 10
10.0
 20
-5.755637757294094
 30
0.0
  0
SPLINE
  5
C5
330
1F
100
AcDbEntity
  8
0
  6
Continuous
 62
     1
370
    25
100
AcDbSpline
210
0.0
220
0.0
230
1.0
 70
     8
 71
     3
 72
    12
 73
     8
 74
     0
 42
0.000000001
 43
0.00000001
 40
0.0
 40
0.0
 40
0.0
 40
0.0
 40
0.2276153661339133
 40
0.4552478448864414
 40
0.6829072303138793
 40
0.9106032716484378
 40
1.0
 40
1.0
 40
1.0
 40
1.0
 10
10.0
 20
-4.014773221226483
 30
0.0
 10
10.66051006041583
 20
-4.283930318931744
 30
0.0
 10
11.98157983983138
 20
-4.822264750158671
 30
0.0
 10
13.96331934462593
 20
-5.419301520016071
 30
0.0
 10
15.94534408641588
 20
-5.816710842755281
 30
0.0
 10
17.5262455109777
 20
-6.003836742458143
 30
0.0
 10
18.44651603299525
 20
-5.980558201861507
 30
0.0
 10
18.70596431353532
 20
-5.973995373663946
 30
0.0
  0
SPLINE
  5
C6
330
1F
100
AcDbEntity
  8
0
  6
Continuous
 62
     1
370
    25
100
AcDbSpline
210
0.0
220
0.0
230
1.0
 70
     8
 71
     3
 72
    19
 73
    15
 74
     0
 42
0.000000001
 43
0.00000001
 40
0.0
 40
0.0
 40
0.0
 40
0.0
 40
0.0137178631874588
 40
0.1058736364953468
 40
0.1980292389628806
 40
0.2901846668127248
 40
0.3823399162706082
 40
0.4705830206279668
 40
0.558823821066643
 40
0.6470625095515663
 40
0.7352992785536214
 40
0.8235343210039762
 40
0.9117678302481705
 40
1.0
 40
1.0
 40
1.0
 40
1.0
 10
45.51283163605542
 20
5.062589618887205
 30
0.0
 10
45.62181399529796
 20
5.100561465392576
 30
0.0
 10
46.46293323735301
 20
5.393625874843915
 30
0.0
 10
48.03618704257157
 20
5.726068463273847
 30
0.0
 10
50.2325928486797
 20
6.013084890446688
 30
0.0
 10
52.42898954092068
 20
6.011675501708702
 30
0.0
 10
54.59431726329323
 20
5.752000527768343
 30
0.0
 10
56.72849065356097
 20
5.251439443868019
 30
0.0
 10
58.83154923024442
 20
4.544221517338516
 30
0.0
 10
60.93454451311705
 20
3.651523755526365
 30
0.0
 10
63.03748571703061
 20
2.609650233077353
 30
0.0
 10
65.14037723828517
 20
1.462038485775546
 30
0.0
 10
67.24322536480548
 20
0.2519708615454193
 30
0.0
 10
68.64510720900368
 20
-0.5546155895009874
 30
0.0
 10
69.34604281049303
 20
-0.9579057537592497
 30
0.0
  0
SPLINE
  5
C7
330
1F
100
AcDbEntity
  8
0
  6
Continuous
 62
     1
370
    25
100
AcDbSpline
210
0.0
220
0.0
230
1.0
 70
     8
 71
     3
 72
     8
 73
     4
 74
     0
 42
0.000000001
 43
0.00000001
 40
0.0
 40
0.0
 40
0.0
 40
0.0
 40
1.0
 40
1.0
 40
1.0
 40
1.0
 10
70.00000000000001
 20
-4.474290814540878
 30
0.0
 10
69.0112668397746
 20
-3.917955780000525
 30
0.0
 10
68.07855960571099
 20
-3.235662551569948
 30
0.0
 10
67.18130034237619
 20
-2.473674748217328
 30
0.0
  0
LINE
  5
C8
330
1F
100
AcDbEntity
  8
0
  6
Continuous
 62
     1
370
    25
100
AcDbLine
 10
70.00000000000001
 20
-5.850994190131576
 30
0.0
 11
70.00000000000001
 21
-4.474290814540878
 31
0.0
  0
SPLINE
  5
C9
330
1F
100
AcDbEntity
  8
0
  6
Continuous
 62
     1
370
    25
100
AcDbSpline
210
0.0
220
0.0
230
1.0
 70
    24
 71
     3
 72
    16
 73
    12
 74
     0
 42
0.000000001
 43
0.00000001
 40
0.0
 40
0.0
 40
0.0
 40
0.0
 40
0.1302381418330665
 40
0.2876697675800678
 40
0.3891723969923359
 40
0.4934462744605817
 40
0.5950328887685339
 40
0.6998733528188419
 40
0.7971800469257531
 40
0.8968468393271825
 40
1.0
 40
1.0
 40
1.0
 40
1.0
 10
69.34084777348798
 20
-0.9615433578314466
 30
0.0
 10
69.33607025943355
 20
-0.9648886091862638
 30
0.0
 10
69.32551769519773
 20
-0.9722775942116388
 30
0.0
 10
69.20244121532568
 20
-1.058456673194326
 30
0.0
 10
69.0158196439215
 20
-1.189130504284102
 30
0.0
 10
68.80231482567777
 20
-1.338628187462446
 30
0.0
 10
68.53550334872288
 20
-1.525451594907099
 30
0.0
 10
68.23209774561197
 20
-1.737898485340462
 30
0.0
 10
67.90007060391522
 20
-1.970386392846736
 30
0.0
 10
67.55028088562246
 20
-2.215311790383596
 30
0.0
 10
67.30569528935868
 20
-2.386572468625019
 30
0.0
 10
67.18130034237623
 20
-2.473674748217335
 30
0.0
  0
SPLINE
  5
CA
330
1F
100
AcDbEntity
  8
0
  6
Continuous
 62
     1
370
    25
100
AcDbSpline
210
0.0
220
0.0
230
1.0
 70
     8
 71
     3
 72
    24
 73
    20
 74
     0
 42
0.000000001
 43
0.00000001
 40
0.0
 40
0.0
 40
0.0
 40
0.0
 40
0.0526407549351509
 40
0.1144878455589746
 40
0.1763350432189195
 40
0.2381823453721905
 40
0.3000297494741578
 40
0.3618772529784005
 40
0.4237248533367513
 40
0.4855725479993405
 40
0.5474203344146412
 40
0.6092682100295127
 40
0.6650881898794823
 40
0.720918829916044
 40
0.7767527885661356
 40
0.8325756785832663
 40
0.8883895818887282
 40
0.9441968886440459
 40
1.0
 40
1.0
 40
1.0
 40
1.0
 10
45.51283163605535
 20
-5.062589618887204
 30
0.0
 10
44.8896758451282
 20
-5.244405053892541
 30
0.0
 10
43.53438061733866
 20
-5.639833604808498
 30
0.0
 10
41.44694373710863
 20
-5.953131594208323
 30
0.0
 10
39.25051998582305
 20
-6.04087448469922
 30
0.0
 10
37.05409173230215
 20
-5.853602468014536
 30
0.0
 10
34.85765924725559
 20
-5.407473014790027
 30
0.0
 10
32.66122212759029
 20
-4.720243498780987
 30
0.0
 10
30.46478236572277
 20
-3.823062025570765
 30
0.0
 10
28.26833304627935
 20
-2.755698577115049
 30
0.0
 10
26.07190049005965
 20
-1.565724679697416
 30
0.0
 10
23.94674779909789
 20
-0.3469074782200244
 30
0.0
 10
21.89308322144859
 20
0.8428851319565146
 30
0.0
 10
19.91043737939213
 20
1.96082454819288
 30
0.0
 10
17.92773629922531
 20
3.007307281627384
 30
0.0
 10
15.94534211178306
 20
3.945873121595514
 30
0.0
 10
13.96331987109069
 20
4.737250076911189
 30
0.0
 10
11.98157970823319
 20
5.37179903583701
 30
0.0
 10
10.66051001655086
 20
5.627694723153647
 30
0.0
 10
10.0
 20
5.755637757294082
 30
0.0
  0
SPLINE
  5
CB
330
1F
100
AcDbEntity
  8
0
  6
Continuous
 62
     1
370
    25
100
AcDbSpline
210
0.0
220
0.0
230
1.0
 70
     8
 71
     3
 72
    26
 73
    22
 74
     0
 42
0.000000001
 43
0.00000001
 40
0.0
 40
0.0
 40
0.0
 40
0.0
 40
0.0285356316617705
 40
0.0800323326891707
 40
0.1315373253065985
 40
0.1830525303988507
 40
0.2345646735721426
 40
0.2860669811236745
 40
0.3431309270420962
 40
0.4001947906605287
 40
0.4572585696233167
 40
0.5143222615762937
 40
0.5713858641668224
 40
0.6284493750438365
 40
0.6855127918578802
 40
0.7425761122611504
 40
0.7996393339075373
 40
0.8567024544526642
 40
0.9137654715539293
 40
0.970828382870546
 40
1.0
 40
1.0
 40
1.0
 40
1.0
 10
12.86500170221273
 20
5.054131413359412
 30
0.0
 10
13.23108312413829
 20
5.170209262360772
 30
0.0
 10
14.2578117593457
 20
5.495766486368748
 30
0.0
 10
15.94534329882274
 20
5.819284417914336
 30
0.0
 10
17.92773598107198
 20
6.021045492553508
 30
0.0
 10
19.91043746462226
 20
5.995642572151466
 30
0.0
 10
21.89308319869459
 20
5.755143265099016
 30
0.0
 10
23.94674780593165
 20
5.289112406426937
 30
0.0
 10
26.07190048814861
 20
4.589456562493714
 30
0.0
 10
28.26833304679619
 20
3.662013280066867
 30
0.0
 10
30.46478236556649
 20
2.571605988348758
 30
0.0
 10
32.66122212769852
 20
1.36674700481358
 30
0.0
 10
34.85765924697891
 20
0.1010683706164363
 30
0.0
 10
37.05409173330052
 20
-1.169126544137362
 30
0.0
 10
39.2505199821062
 20
-2.387218823933362
 30
0.0
 10
41.44694375097759
 20
-3.49933221222951
 30
0.0
 10
43.64336296387309
 20
-4.454727161901666
 30
0.0
 10
45.83977751759185
 20
-5.215535172700375
 30
0.0
 10
48.0361872516934
 20
-5.730542867289087
 30
0.0
 10
49.87473961489798
 20
-5.990920079414283
 30
0.0
 10
50.98115506137649
 20
-5.972706824027426
 30
0.0
 10
51.35543585553621
 20
-5.966545601575117
 30
0.0
  0
LINE
  5
CC
330
1F
100
AcDbEntity
  8
0
  6
Continuous
 62
     4
370
    25
100
AcDbLine
 10
10.0
 20
-4.014773221226493
 30
0.0
 11
10.0
 21
-1.694884658851624
 31
0.0
  0
LINE
  5
CD
330
1F
100
AcDbEntity
  8
0
  6
Continuous
 62
     1
370
    25
100
AcDbLine
 10
70.00000000000001
 20
-0.5000000000000208
 30
0.0
 11
70.00000000000001
 21
1.328859280378009
 31
0.0
  0
LINE
  5
CE
330
1F
100
AcDbEntity
  8
0
  6
Continuous
 62
     1
370
    25
100
AcDbLine
 10
70.00000000000001
 20
-0.5000000000000204
 30
0.0
 11
69.34604281049303
 21
-0.957905753759245
 31
0.0
  0
LINE
  5
CF
330
1F
100
AcDbEntity
  8
0
  6
Continuous
 62
     4
370
    25
100
AcDbLine
 10
10.0
 20
4.458878332285238
 30
0.0
 11
10.0
 21
5.755637757294076
 31
0.0
  0
LINE
  5
D0
330
1F
100
AcDbEntity
  8
0
  6
Continuous
 62
     1
370
    25
100
AcDbLine
 10
70.00000000000001
 20
5.979130371550707
 30
0.0
 11
70.00000000000001
 21
6.000000000000009
 31
0.0
  0
ELLIPSE
  5
D1
330
1F
100
AcDbEntity
  8
0
  6
Continuous
 62
     1
370
    25
100
AcDbEllipse
 10
70.71407400337105
 20
-0.0000000000000035
 30
0.0
 11
8.568888040452663
 21
5.350968460038300E-17
 31
0.0
210
0.0
220
0.0
230
1.0
 40
0.7002075382097125
 41
1.65422641340551
 42
1.731133393454127
  0
LINE
  5
D2
330
1F
100
AcDbEntity
  8
0
  6
Continuous
 62
     1
370
    25
100
AcDbLine
 10
70.00000000000001
 20
-0.4999999999999998
 30
0.0
 11
70.00000000000001
 21
-4.474290814540878
 31
0.0
  0
LINE
  5
D3
330
1F
100
AcDbEntity
  8
0
  6
Continuous
 62
     1
370
    25
100
AcDbLine
 10
70.00000000000001
 20
1.446523558810441
 30
0.0
 11
70.00000000000001
 21
5.979130371550707
 31
0.0
  0
LINE
  5
D4
330
1F
100
AcDbEntity
  8
중심선
100
AcDbLine
 10
-42.99999999999999
 20
-0.0000000000000087
 30
0.0
 11
73.00000000000001
 21
0.0000000000000104
 31
0.0
  0
CIRCLE
  5
D5
330
1F
100
AcDbEntity
  8
해칭선
100
AcDbCircle
 10
0.0003434854941569
 20
-0.0000000000000043
 30
0.0
 40
3.000000000000003
  0
INSERT
  5
D6
330
1F
100
AcDbEntity
  8
0
  6
Continuous
 62
     7
100
AcDbBlockReference
 66
     1
  2
블럭10
 10
2.559900751058219
 20
-52.04717430164393
 30
0.0
  0
ATTRIB
  5
D7
330
D6
100
AcDbEntity
  8
FORMAT
 62
     2
100
AcDbText
 10
-13.55936028837734
 20
-49.97180738881173
 30
0.0
 40
4.233333333333333
  1
SEME7212060E [ 4 FLUTE ]
 41
0.75
  7
SLDTEXTSTYLE0
 11
-13.55936028837734
 21
-52.0884740554784
 31
0.0
100
AcDbAttribute
  2
AUTOATTR0
 70
     0
 74
     1
  0
SEQEND
  5
D8
330
D6
100
AcDbEntity
  8
0
  6
Continuous
 62
     7
  0
HATCH
  5
D9
330
1F
100
AcDbEntity
  8
중심선
100
AcDbHatch
 10
0.0
 20
0.0
 30
0.0
210
0.0
220
0.0
230
1.0
  2
SOLID
 70
     1
 71
     0
 91
        1
 92
        0
 93
        4
 72
     1
 10
8.274810055439064
 20
-35.8
 11
4.828534811601781
 21
-35.8
 72
     1
 10
4.828534811601781
 20
-35.8
 11
2.70030495239773
 21
-38.33632558057257
 72
     1
 10
2.70030495239773
 20
-38.33632558057257
 11
6.14661328134819
 21
-38.33628615127008
 72
     1
 10
6.14661328134819
 20
-38.33628615127008
 11
8.274810055439064
 21
-35.8
 97
        0
 75
     0
 76
     1
 98
        1
 10
0.0
 20
0.0
  0
HATCH
  5
DA
330
1F
100
AcDbEntity
  8
중심선
100
AcDbHatch
 10
0.0
 20
0.0
 30
0.0
210
0.0
220
0.0
230
1.0
  2
SOLID
 70
     1
 71
     0
 91
        1
 92
        0
 93
        4
 72
     1
 10
13.28757404647504
 20
-35.79999999999997
 11
9.84129880263776
 21
-35.8
 72
     1
 10
9.84129880263776
 20
-35.8
 11
5.310160794280344
 21
-41.20000000000002
 72
     1
 10
5.310160794280344
 20
-41.20000000000002
 11
8.756436038117627
 21
-41.20000000000002
 72
     1
 10
8.756436038117627
 20
-41.20000000000002
 11
13.28757404647504
 21
-35.79999999999997
 97
        0
 75
     0
 76
     1
 98
        1
 10
0.0
 20
0.0
  0
HATCH
  5
DB
330
1F
100
AcDbEntity
  8
중심선
100
AcDbHatch
 10
0.0
 20
0.0
 30
0.0
210
0.0
220
0.0
230
1.0
  2
SOLID
 70
     1
 71
     0
 91
        1
 92
        0
 93
        4
 72
     1
 10
18.30033803751094
 20
-35.79999999999997
 11
14.85406279367382
 21
-35.79999999999997
 72
     1
 10
14.85406279367382
 20
-35.79999999999997
 11
7.805625891784546
 21
-44.20000000000002
 72
     1
 10
7.805625891784546
 20
-44.20000000000002
 11
11.25190113562183
 21
-44.20000000000002
 72
     1
 10
11.25190113562183
 20
-44.20000000000002
 11
18.30033803751094
 21
-35.79999999999997
 97
        0
 75
     0
 76
     1
 98
        1
 10
0.0
 20
0.0
  0
HATCH
  5
DC
330
1F
100
AcDbEntity
  8
중심선
100
AcDbHatch
 10
0.0
 20
0.0
 30
0.0
210
0.0
220
0.0
230
1.0
  2
SOLID
 70
     1
 71
     0
 91
        1
 92
        0
 93
        6
 72
     3
 10
23.10022846852311
 20
-40.00000000005127
 11
3.960054785062284
 21
1.540850780301639E-10
 40
0.3939339440162633
 50
17.09539180608434
 51
320.0019657685081
 73
     0
 72
     1
 10
24.78322812422368
 20
-38.58789400463833
 11
27.08852999792474
 21
-36.65356729459038
 72
     3
 10
23.10022846847026
 20
-40.00000000000015
 11
6.600054785286829
 21
-1.249000902703301E-13
 40
0.6363583540795982
 50
39.9987384933741
 51
368.4976242363725
 73
     1
 72
     1
 10
29.52556096037087
 20
-39.03999999993002
 11
21.78029577530619
 21
-39.03999999993002
 72
     1
 10
21.78029577530619
 20
-39.03999999993002
 11
21.78027073086025
 21
-40.95999999992991
 72
     1
 10
21.78027073086025
 20
-40.95999999992991
 11
26.22165050033229
 21
-40.95999999992988
 97
        0
 75
     0
 76
     1
 98
        1
 10
0.0
 20
0.0
  0
DIMENSION
  5
DD
330
1F
100
AcDbEntity
  8
치수문자_일반주서
100
AcDbDimension
  2
_D
 10
85.93432855467302
 20
6.000000000000059
 30
0.0
 11
85.93432855467297
 21
16.54150000000006
 31
0.0
 70
   160
  1
%%c<>
 71
     2
 42
12.00000000000001
 52
-270.0
  3
SLDDIMSTYLE0
100
AcDbAlignedDimension
 13
70.00000000000001
 23
-6.000000000000007
 33
0.0
 14
70.00000000000001
 24
5.999999999999998
 34
0.0
 50
90.0000000000002
100
AcDbRotatedDimension
  0
DIMENSION
  5
EB
330
1F
100
AcDbEntity
  8
치수문자_일반주서
100
AcDbDimension
  2
_D_1
 10
70.00000000000001
 20
23.38913260158164
 30
0.0
 11
15.0
 21
23.38913260158164
 31
0.0
 70
   160
  1
<>
 71
     2
 42
110.0
  3
SLDDIMSTYLE1
100
AcDbAlignedDimension
 13
-40.0
 23
5.499999999999991
 33
0.0
 14
70.00000000000001
 24
6.000000000000009
 34
0.0
 50
-0.0000000000000037
100
AcDbRotatedDimension
  0
DIMENSION
  5
F6
330
1F
100
AcDbEntity
  8
치수문자_일반주서
100
AcDbDimension
  2
_D_2
 10
-54.03058275023449
 20
-6.000000000000064
 30
0.0
 11
-54.03058275023457
 21
16.54149999999995
 31
0.0
 70
   160
  1
%%c<>
 71
     2
 42
12.00000000000001
 52
-270.0
  3
SLDDIMSTYLE2
100
AcDbAlignedDimension
 13
-39.49999999999999
 23
6.000000000000002
 33
0.0
 14
-39.49999999999999
 24
-6.000000000000009
 34
0.0
 50
90.0000000000002
100
AcDbRotatedDimension
  0
DIMENSION
  5
104
330
1F
100
AcDbEntity
  8
치수문자_일반주서
100
AcDbDimension
  2
_D_3
 10
70.00000000000001
 20
16.60155605988042
 30
0.0
 11
40.0
 21
16.60155605988042
 31
0.0
 70
   160
  1
<>
 71
     2
 42
60.00000000000001
  3
SLDDIMSTYLE1
100
AcDbAlignedDimension
 13
10.0
 23
5.755637757292768
 33
0.0
 14
70.00000000000001
 24
6.000000000000009
 34
0.0
 50
-0.0000000000000034
100
AcDbRotatedDimension
  0
INSERT
  5
114
330
1F
100
AcDbEntity
  8
해칭선
100
AcDbBlockReference
  2
SW_DOWELSYMBOL_0
 10
0.0003434854941569
 20
-0.0000000000000043
 30
0.0
  0
ENDSEC
  0
SECTION
  2
OBJECTS
  0
DICTIONARY
  5
C
330
0
100
AcDbDictionary
281
     1
  3
ACAD_GROUP
350
D
  3
ACAD_IMAGE_VARS
350
138
  3
ACAD_LAYOUT
350
1A
  3
ACAD_MLINESTYLE
350
17
  3
ACAD_PLOTSETTINGS
350
19
  3
ACAD_PLOTSTYLENAME
350
E
  3
ACAD_SCALELIST
350
47
  3
APPDATA
350
136
  3
DWGPROPS
350
148
  0
DICTIONARY
  5
D
102
{ACAD_REACTORS
330
C
102
}
330
C
100
AcDbDictionary
281
     1
  0
RASTERVARIABLES
  5
138
102
{ACAD_REACTORS
330
C
102
}
330
C
100
AcDbRasterVariables
 90
        0
 70
     1
 71
     1
 72
     1
  0
DICTIONARY
  5
1A
102
{ACAD_REACTORS
330
C
102
}
330
C
100
AcDbDictionary
281
     1
  3
Layout1
350
1E
  3
Layout2
350
26
  3
Model
350
22
  0
DICTIONARY
  5
17
102
{ACAD_REACTORS
330
C
102
}
330
C
100
AcDbDictionary
281
     1
  3
Standard
350
18
  0
DICTIONARY
  5
19
102
{ACAD_REACTORS
330
C
102
}
330
C
100
AcDbDictionary
281
     1
  0
ACDBDICTIONARYWDFLT
  5
E
102
{ACAD_REACTORS
330
C
102
}
330
C
100
AcDbDictionary
281
     1
  3
Normal
350
F
100
AcDbDictionaryWithDefault
340
F
  0
DICTIONARY
  5
47
102
{ACAD_REACTORS
330
C
102
}
330
C
100
AcDbDictionary
281
     1
  3
A0
350
48
  3
A1
350
49
  3
A2
350
4A
  3
A3
350
4B
  3
A4
350
4C
  3
A5
350
4D
  3
A6
350
4E
  3
A7
350
4F
  3
A8
350
50
  3
A9
350
51
  3
B0
350
52
  3
B1
350
53
  3
B2
350
54
  3
B3
350
55
  3
B4
350
56
  3
B5
350
57
  3
B6
350
58
  3
B7
350
59
  3
B8
350
5A
  3
B9
350
5B
  3
C0
350
5C
  3
C1
350
5D
  3
C2
350
5E
  3
C3
350
5F
  3
C4
350
60
  3
C5
350
61
  3
C6
350
62
  3
C7
350
63
  3
C8
350
64
  3
C9
350
65
  3
D0
350
66
  3
D1
350
67
  3
D2
350
68
  0
DICTIONARY
  5
136
102
{ACAD_REACTORS
330
C
102
}
330
C
100
AcDbDictionary
281
     1
  0
XRECORD
  5
148
102
{ACAD_REACTORS
330
C
102
}
330
C
100
AcDbXrecord
280
     1
  1
DWGPROPS COOKIE
  2

  3

  4

  6

  7

  8
12014102
  9

300
=
301
=
302
=
303
=
304
=
305
=
306
=
307
=
308
=
309
=
 40
0.0
 41
2458260.206561597
 42
2458268.214167697
  1

 90
        0
  0
LAYOUT
  5
1E
102
{ACAD_REACTORS
330
1A
102
}
330
1A
100
AcDbPlotSettings
  1

  2
none_device
  4

  6

 40
0.0
 41
0.0
 42
0.0
 43
0.0
 44
0.0
 45
0.0
 46
0.0
 47
0.0
 48
0.0
 49
0.0
140
0.0
141
0.0
142
1.0
143
1.0
 70
   688
 72
     1
 73
     0
 74
     5
  7

 75
    16
147
1.0
148
0.0
149
0.0
100
AcDbLayout
  1
Layout1
 70
     1
 71
     1
 10
0.0
 20
0.0
 11
420.0
 21
297.0
 12
0.0
 22
0.0
 32
0.0
 14
1.000000000000000E+20
 24
1.000000000000000E+20
 34
1.000000000000000E+20
 15
-1.000000000000000E+20
 25
-1.000000000000000E+20
 35
-1.000000000000000E+20
146
0.0
 13
0.0
 23
0.0
 33
0.0
 16
1.0
 26
0.0
 36
0.0
 17
0.0
 27
1.0
 37
0.0
 76
     0
330
1B
  0
LAYOUT
  5
26
102
{ACAD_REACTORS
330
1A
102
}
330
1A
100
AcDbPlotSettings
  1

  2
none_device
  4

  6

 40
0.0
 41
0.0
 42
0.0
 43
0.0
 44
0.0
 45
0.0
 46
0.0
 47
0.0
 48
0.0
 49
0.0
140
0.0
141
0.0
142
1.0
143
1.0
 70
   688
 72
     1
 73
     0
 74
     5
  7

 75
    16
147
1.0
148
0.0
149
0.0
100
AcDbLayout
  1
Layout2
 70
     1
 71
     2
 10
0.0
 20
0.0
 11
0.0
 21
0.0
 12
0.0
 22
0.0
 32
0.0
 14
0.0
 24
0.0
 34
0.0
 15
0.0
 25
0.0
 35
0.0
146
0.0
 13
0.0
 23
0.0
 33
0.0
 16
1.0
 26
0.0
 36
0.0
 17
0.0
 27
1.0
 37
0.0
 76
     0
330
23
  0
LAYOUT
  5
22
102
{ACAD_REACTORS
330
1A
102
}
330
1A
100
AcDbPlotSettings
  1

  2
none_device
  4
ANSI_A_(11.00_x_8.50_Inches)
  6

 40
6.35
 41
19.05
 42
6.35000508
 43
19.05000254
 44
279.4
 45
215.9
 46
103.0402297494501
 47
110.6817920850727
 48
0.0
 49
0.0
140
0.0
141
0.0
142
0.0751746256859428
143
1.0
 70
  1696
 72
     0
 73
     0
 74
     0
  7

 75
     0
147
0.0235690232323232
148
0.0
149
0.0
100
AcDbLayout
  1
Model
 70
     1
 71
     0
 10
0.0
 20
0.0
 11
420.0
 21
297.0
 12
0.0
 22
0.0
 32
0.0
 14
-58.40558275023459
 24
-49.97180738881173
 34
0.0
 15
86.48466188800639
 25
27.76413260158164
 35
0.0
146
0.0
 13
0.0
 23
0.0
 33
0.0
 16
1.0
 26
0.0
 36
0.0
 17
0.0
 27
1.0
 37
0.0
 76
     0
330
1F
331
29
  0
MLINESTYLE
  5
18
102
{ACAD_REACTORS
330
17
102
}
330
17
100
AcDbMlineStyle
  2
Standard
 70
     0
  3

 62
   256
 51
90.0
 52
90.0
 71
     2
 49
0.5
 62
   256
  6
BYLAYER
 49
-0.5
 62
   256
  6
BYLAYER
  0
ACDBPLACEHOLDER
  5
F
102
{ACAD_REACTORS
330
E
102
}
330
E
  0
SCALE
  5
48
102
{ACAD_REACTORS
330
47
102
}
330
47
100
AcDbScale
 70
     0
300
1:1
140
1.0
141
1.0
290
     1
  0
SCALE
  5
49
102
{ACAD_REACTORS
330
47
102
}
330
47
100
AcDbScale
 70
     0
300
1:2
140
1.0
141
2.0
290
     0
  0
SCALE
  5
4A
102
{ACAD_REACTORS
330
47
102
}
330
47
100
AcDbScale
 70
     0
300
1:4
140
1.0
141
4.0
290
     0
  0
SCALE
  5
4B
102
{ACAD_REACTORS
330
47
102
}
330
47
100
AcDbScale
 70
     0
300
1:5
140
1.0
141
5.0
290
     0
  0
SCALE
  5
4C
102
{ACAD_REACTORS
330
47
102
}
330
47
100
AcDbScale
 70
     0
300
1:8
140
1.0
141
8.0
290
     0
  0
SCALE
  5
4D
102
{ACAD_REACTORS
330
47
102
}
330
47
100
AcDbScale
 70
     0
300
1:10
140
1.0
141
10.0
290
     0
  0
SCALE
  5
4E
102
{ACAD_REACTORS
330
47
102
}
330
47
100
AcDbScale
 70
     0
300
1:16
140
1.0
141
16.0
290
     0
  0
SCALE
  5
4F
102
{ACAD_REACTORS
330
47
102
}
330
47
100
AcDbScale
 70
     0
300
1:20
140
1.0
141
20.0
290
     0
  0
SCALE
  5
50
102
{ACAD_REACTORS
330
47
102
}
330
47
100
AcDbScale
 70
     0
300
1:30
140
1.0
141
30.0
290
     0
  0
SCALE
  5
51
102
{ACAD_REACTORS
330
47
102
}
330
47
100
AcDbScale
 70
     0
300
1:40
140
1.0
141
40.0
290
     0
  0
SCALE
  5
52
102
{ACAD_REACTORS
330
47
102
}
330
47
100
AcDbScale
 70
     0
300
1:50
140
1.0
141
50.0
290
     0
  0
SCALE
  5
53
102
{ACAD_REACTORS
330
47
102
}
330
47
100
AcDbScale
 70
     0
300
1:100
140
1.0
141
100.0
290
     0
  0
SCALE
  5
54
102
{ACAD_REACTORS
330
47
102
}
330
47
100
AcDbScale
 70
     0
300
2:1
140
2.0
141
1.0
290
     0
  0
SCALE
  5
55
102
{ACAD_REACTORS
330
47
102
}
330
47
100
AcDbScale
 70
     0
300
4:1
140
4.0
141
1.0
290
     0
  0
SCALE
  5
56
102
{ACAD_REACTORS
330
47
102
}
330
47
100
AcDbScale
 70
     0
300
8:1
140
8.0
141
1.0
290
     0
  0
SCALE
  5
57
102
{ACAD_REACTORS
330
47
102
}
330
47
100
AcDbScale
 70
     0
300
10:1
140
10.0
141
1.0
290
     0
  0
SCALE
  5
58
102
{ACAD_REACTORS
330
47
102
}
330
47
100
AcDbScale
 70
     0
300
100:1
140
100.0
141
1.0
290
     0
  0
SCALE
  5
59
102
{ACAD_REACTORS
330
47
102
}
330
47
100
AcDbScale
 70
     0
300
1/128" = 1'-0"
140
0.0078125
141
12.0
290
     0
  0
SCALE
  5
5A
102
{ACAD_REACTORS
330
47
102
}
330
47
100
AcDbScale
 70
     0
300
1/64" = 1'-0"
140
0.015625
141
12.0
290
     0
  0
SCALE
  5
5B
102
{ACAD_REACTORS
330
47
102
}
330
47
100
AcDbScale
 70
     0
300
1/32" = 1'-0"
140
0.03125
141
12.0
290
     0
  0
SCALE
  5
5C
102
{ACAD_REACTORS
330
47
102
}
330
47
100
AcDbScale
 70
     0
300
1/16" = 1'-0"
140
0.0625
141
12.0
290
     0
  0
SCALE
  5
5D
102
{ACAD_REACTORS
330
47
102
}
330
47
100
AcDbScale
 70
     0
300
3/32" = 1'-0"
140
0.09375
141
12.0
290
     0
  0
SCALE
  5
5E
102
{ACAD_REACTORS
330
47
102
}
330
47
100
AcDbScale
 70
     0
300
1/8" = 1'-0"
140
0.125
141
12.0
290
     0
  0
SCALE
  5
5F
102
{ACAD_REACTORS
330
47
102
}
330
47
100
AcDbScale
 70
     0
300
3/16" = 1'-0"
140
0.1875
141
12.0
290
     0
  0
SCALE
  5
60
102
{ACAD_REACTORS
330
47
102
}
330
47
100
AcDbScale
 70
     0
300
1/4" = 1'-0"
140
0.25
141
12.0
290
     0
  0
SCALE
  5
61
102
{ACAD_REACTORS
330
47
102
}
330
47
100
AcDbScale
 70
     0
300
3/8" = 1'-0"
140
0.375
141
12.0
290
     0
  0
SCALE
  5
62
102
{ACAD_REACTORS
330
47
102
}
330
47
100
AcDbScale
 70
     0
300
1/2" = 1'-0"
140
0.5
141
12.0
290
     0
  0
SCALE
  5
63
102
{ACAD_REACTORS
330
47
102
}
330
47
100
AcDbScale
 70
     0
300
3/4" = 1'-0"
140
0.75
141
12.0
290
     0
  0
SCALE
  5
64
102
{ACAD_REACTORS
330
47
102
}
330
47
100
AcDbScale
 70
     0
300
1" = 1'-0"
140
1.0
141
12.0
290
     0
  0
SCALE
  5
65
102
{ACAD_REACTORS
330
47
102
}
330
47
100
AcDbScale
 70
     0
300
1-1/2" = 1'-0"
140
1.5
141
12.0
290
     0
  0
SCALE
  5
66
102
{ACAD_REACTORS
330
47
102
}
330
47
100
AcDbScale
 70
     0
300
3" = 1'-0"
140
3.0
141
12.0
290
     0
  0
SCALE
  5
67
102
{ACAD_REACTORS
330
47
102
}
330
47
100
AcDbScale
 70
     0
300
6" = 1'-0"
140
6.0
141
12.0
290
     0
  0
SCALE
  5
68
102
{ACAD_REACTORS
330
47
102
}
330
47
100
AcDbScale
 70
     0
300
1'-0" = 1'-0"
140
12.0
141
12.0
290
     0
  0
ENDSEC
  0
EOF
