  0
SECTION
  2
HEADER
  9
$ACADVER
  1
AC1015
  9
$ACADMAINTVER
 70
     6
  9
$DWGCODEPAGE
  3
ANSI_949
  9
$INSBASE
 10
0.0
 20
0.0
 30
0.0
  9
$EXTMIN
 10
-147.3845821335639
 20
-49.97180738881174
 30
0.0
  9
$EXTMAX
 10
83.35551157455592
 20
27.76413260158162
 30
0.0
  9
$LIMMIN
 10
0.0
 20
0.0
  9
$LIMMAX
 10
420.0
 20
297.0
  9
$ORTHOMODE
 70
     0
  9
$REGENMODE
 70
     1
  9
$FILLMODE
 70
     1
  9
$QTEXTMODE
 70
     0
  9
$MIRRTEXT
 70
     1
  9
$LTSCALE
 40
1.0
  9
$ATTMODE
 70
     1
  9
$TEXTSIZE
 40
3.5
  9
$TRACEWID
 40
1.0
  9
$TEXTSTYLE
  7
Standard
  9
$CLAYER
  8
0
  9
$CELTYPE
  6
ByLayer
  9
$CECOLOR
 62
   256
  9
$CELTSCALE
 40
1.0
  9
$DISPSILH
 70
     0
  9
$DIMSCALE
 40
1.0
  9
$DIMASZ
 40
3.302
  9
$DIMEXO
 40
1.0
  9
$DIMDLI
 40
3.75
  9
$DIMRND
 40
0.0
  9
$DIMDLE
 40
0.0
  9
$DIMEXE
 40
1.0
  9
$DIMTP
 40
0.0
  9
$DIMTM
 40
0.0
  9
$DIMTXT
 40
3.5
  9
$DIMCEN
 40
2.5
  9
$DIMTSZ
 40
0.0
  9
$DIMTOL
 70
     0
  9
$DIMLIM
 70
     0
  9
$DIMTIH
 70
     1
  9
$DIMTOH
 70
     1
  9
$DIMSE1
 70
     0
  9
$DIMSE2
 70
     0
  9
$DIMTAD
 70
     1
  9
$DIMZIN
 70
     0
  9
$DIMBLK
  1

  9
$DIMASO
 70
     1
  9
$DIMSHO
 70
     1
  9
$DIMPOST
  1

  9
$DIMAPOST
  1

  9
$DIMALT
 70
     0
  9
$DIMALTD
 70
     3
  9
$DIMALTF
 40
0.0393700787401575
  9
$DIMLFAC
 40
1.0
  9
$DIMTOFL
 70
     1
  9
$DIMTVP
 40
0.0
  9
$DIMTIX
 70
     0
  9
$DIMSOXD
 70
     0
  9
$DIMSAH
 70
     0
  9
$DIMBLK1
  1

  9
$DIMBLK2
  1

  9
$DIMSTYLE
  2
ISO-25
  9
$DIMCLRD
 70
     0
  9
$DIMCLRE
 70
     0
  9
$DIMCLRT
 70
     0
  9
$DIMTFAC
 40
1.0
  9
$DIMGAP
 40
1.524
  9
$DIMJUST
 70
     0
  9
$DIMSD1
 70
     0
  9
$DIMSD2
 70
     0
  9
$DIMTOLJ
 70
     0
  9
$DIMTZIN
 70
     0
  9
$DIMALTZ
 70
     0
  9
$DIMALTTZ
 70
     0
  9
$DIMUPT
 70
     0
  9
$DIMDEC
 70
     2
  9
$DIMTDEC
 70
     2
  9
$DIMALTU
 70
     2
  9
$DIMALTTD
 70
     3
  9
$DIMTXSTY
  7
Standard
  9
$DIMAUNIT
 70
     0
  9
$DIMADEC
 70
     2
  9
$DIMALTRND
 40
0.0
  9
$DIMAZIN
 70
     0
  9
$DIMDSEP
 70
    44
  9
$DIMATFIT
 70
     3
  9
$DIMFRAC
 70
     0
  9
$DIMLDRBLK
  1

  9
$DIMLUNIT
 70
     2
  9
$DIMLWD
 70
    -2
  9
$DIMLWE
 70
    -2
  9
$DIMTMOVE
 70
     0
  9
$LUNITS
 70
     2
  9
$LUPREC
 70
     2
  9
$SKETCHINC
 40
1.0
  9
$FILLETRAD
 40
10.0
  9
$AUNITS
 70
     0
  9
$AUPREC
 70
     2
  9
$MENU
  1
.
  9
$ELEVATION
 40
0.0
  9
$PELEVATION
 40
0.0
  9
$THICKNESS
 40
0.0
  9
$LIMCHECK
 70
     0
  9
$CHAMFERA
 40
0.0
  9
$CHAMFERB
 40
0.0
  9
$CHAMFERC
 40
0.0
  9
$CHAMFERD
 40
0.0
  9
$SKPOLY
 70
     0
  9
$TDCREATE
 40
2458260.581372558
  9
$TDUCREATE
 40
2458260.206372558
  9
$TDUPDATE
 40
2458268.656439907
  9
$TDUUPDATE
 40
2458268.281439907
  9
$TDINDWG
 40
0.0006226042
  9
$TDUSRTIMER
 40
2458268.280817326
  9
$USRTIMER
 70
     1
  9
$ANGBASE
 50
0.0
  9
$ANGDIR
 70
     0
  9
$PDMODE
 70
     0
  9
$PDSIZE
 40
-1.0
  9
$PLINEWID
 40
0.0
  9
$SPLFRAME
 70
     0
  9
$SPLINETYPE
 70
     6
  9
$SPLINESEGS
 70
     8
  9
$HANDSEED
  5
149
  9
$SURFTAB1
 70
     6
  9
$SURFTAB2
 70
     6
  9
$SURFTYPE
 70
     6
  9
$SURFU
 70
     6
  9
$SURFV
 70
     6
  9
$UCSBASE
  2

  9
$UCSNAME
  2

  9
$UCSORG
 10
0.0
 20
0.0
 30
0.0
  9
$UCSXDIR
 10
1.0
 20
0.0
 30
0.0
  9
$UCSYDIR
 10
0.0
 20
1.0
 30
0.0
  9
$UCSORTHOREF
  2

  9
$UCSORTHOVIEW
 70
     0
  9
$UCSORGTOP
 10
0.0
 20
0.0
 30
0.0
  9
$UCSORGBOTTOM
 10
0.0
 20
0.0
 30
0.0
  9
$UCSORGLEFT
 10
0.0
 20
0.0
 30
0.0
  9
$UCSORGRIGHT
 10
0.0
 20
0.0
 30
0.0
  9
$UCSORGFRONT
 10
0.0
 20
0.0
 30
0.0
  9
$UCSORGBACK
 10
0.0
 20
0.0
 30
0.0
  9
$PUCSBASE
  2

  9
$PUCSNAME
  2

  9
$PUCSORG
 10
0.0
 20
0.0
 30
0.0
  9
$PUCSXDIR
 10
1.0
 20
0.0
 30
0.0
  9
$PUCSYDIR
 10
0.0
 20
1.0
 30
0.0
  9
$PUCSORTHOREF
  2

  9
$PUCSORTHOVIEW
 70
     0
  9
$PUCSORGTOP
 10
0.0
 20
0.0
 30
0.0
  9
$PUCSORGBOTTOM
 10
0.0
 20
0.0
 30
0.0
  9
$PUCSORGLEFT
 10
0.0
 20
0.0
 30
0.0
  9
$PUCSORGRIGHT
 10
0.0
 20
0.0
 30
0.0
  9
$PUCSORGFRONT
 10
0.0
 20
0.0
 30
0.0
  9
$PUCSORGBACK
 10
0.0
 20
0.0
 30
0.0
  9
$USERI1
 70
     0
  9
$USERI2
 70
     0
  9
$USERI3
 70
     0
  9
$USERI4
 70
     0
  9
$USERI5
 70
     0
  9
$USERR1
 40
0.0
  9
$USERR2
 40
0.0
  9
$USERR3
 40
0.0
  9
$USERR4
 40
0.0
  9
$USERR5
 40
0.0
  9
$WORLDVIEW
 70
     1
  9
$SHADEDGE
 70
     3
  9
$SHADEDIF
 70
    70
  9
$TILEMODE
 70
     1
  9
$MAXACTVP
 70
    64
  9
$PINSBASE
 10
0.0
 20
0.0
 30
0.0
  9
$PLIMCHECK
 70
     0
  9
$PEXTMIN
 10
1.000000000000000E+20
 20
1.000000000000000E+20
 30
1.000000000000000E+20
  9
$PEXTMAX
 10
-1.000000000000000E+20
 20
-1.000000000000000E+20
 30
-1.000000000000000E+20
  9
$PLIMMIN
 10
0.0
 20
0.0
  9
$PLIMMAX
 10
0.0
 20
0.0
  9
$UNITMODE
 70
     0
  9
$VISRETAIN
 70
     1
  9
$PLINEGEN
 70
     0
  9
$PSLTSCALE
 70
     1
  9
$TREEDEPTH
 70
  3020
  9
$CMLSTYLE
  2
Standard
  9
$CMLJUST
 70
     0
  9
$CMLSCALE
 40
20.0
  9
$PROXYGRAPHICS
 70
     1
  9
$MEASUREMENT
 70
     1
  9
$CELWEIGHT
370
    -1
  9
$ENDCAPS
280
     0
  9
$JOINSTYLE
280
     0
  9
$LWDISPLAY
290
     1
  9
$INSUNITS
 70
     4
  9
$HYPERLINKBASE
  1

  9
$STYLESHEET
  1

  9
$XEDIT
290
     1
  9
$CEPSNTYPE
380
     0
  9
$PSTYLEMODE
290
     1
  9
$FINGERPRINTGUID
  2
{C4D79B77-E0C2-4026-8FCB-267D765DF8CC}
  9
$VERSIONGUID
  2
{FAEB1C32-E019-11D5-929B-00C0DF256EC4}
  9
$EXTNAMES
290
     1
  9
$PSVPSCALE
 40
0.0
  9
$OLESTARTUP
290
     0
  0
ENDSEC
  0
SECTION
  2
CLASSES
  0
CLASS
  1
ACDBDICTIONARYWDFLT
  2
AcDbDictionaryWithDefault
  3
ObjectDBX Classes
 90
        0
280
     0
281
     0
  0
CLASS
  1
VISUALSTYLE
  2
AcDbVisualStyle
  3
ObjectDBX Classes
 90
     4095
280
     0
281
     0
  0
CLASS
  1
MATERIAL
  2
AcDbMaterial
  3
ObjectDBX Classes
 90
     1153
280
     0
281
     0
  0
CLASS
  1
SCALE
  2
AcDbScale
  3
ObjectDBX Classes
 90
     1153
280
     0
281
     0
  0
CLASS
  1
TABLESTYLE
  2
AcDbTableStyle
  3
ObjectDBX Classes
 90
     4095
280
     0
281
     0
  0
CLASS
  1
MLEADERSTYLE
  2
AcDbMLeaderStyle
  3
ACDB_MLEADERSTYLE_CLASS
 90
     4095
280
     0
281
     0
  0
CLASS
  1
SUN
  2
AcDbSun
  3
SCENEOE
 90
     1153
280
     0
281
     0
  0
CLASS
  1
ACDBPLACEHOLDER
  2
AcDbPlaceHolder
  3
ObjectDBX Classes
 90
        0
280
     0
281
     0
  0
CLASS
  1
LAYOUT
  2
AcDbLayout
  3
ObjectDBX Classes
 90
        0
280
     0
281
     0
  0
CLASS
  1
RASTERVARIABLES
  2
AcDbRasterVariables
  3
ISM
 90
        0
280
     0
281
     0
  0
ENDSEC
  0
SECTION
  2
TABLES
  0
TABLE
  2
VPORT
  5
8
330
0
100
AcDbSymbolTable
 70
     1
  0
VPORT
  5
29
330
8
100
AcDbSymbolTableRecord
100
AcDbViewportTableRecord
  2
*Active
 70
     0
 10
0.0
 20
0.0
 11
1.0
 21
1.0
 12
-32.01453527950397
 22
-11.10383739361506
 13
0.0
 23
0.0
 14
10.0
 24
10.0
 15
10.0
 25
10.0
 16
0.0
 26
0.0
 36
1.0
 17
0.0
 27
0.0
 37
0.0
 40
135.842422953532
 41
1.732558139534884
 42
50.0
 43
0.0
 44
0.0
 50
0.0
 51
0.0
 71
    16
 72
  2000
 73
     1
 74
     3
 75
     0
 76
     0
 77
     0
 78
     0
281
     0
 65
     1
110
0.0
120
0.0
130
0.0
111
1.0
121
0.0
131
0.0
112
0.0
122
1.0
132
0.0
 79
     0
146
0.0
  0
ENDTAB
  0
TABLE
  2
LTYPE
  5
5
330
0
100
AcDbSymbolTable
 70
     6
  0
LTYPE
  5
14
330
5
100
AcDbSymbolTableRecord
100
AcDbLinetypeTableRecord
  2
ByBlock
 70
     0
  3

 72
    65
 73
     0
 40
0.0
  0
LTYPE
  5
15
330
5
100
AcDbSymbolTableRecord
100
AcDbLinetypeTableRecord
  2
ByLayer
 70
     0
  3

 72
    65
 73
     0
 40
0.0
  0
LTYPE
  5
16
330
5
100
AcDbSymbolTableRecord
100
AcDbLinetypeTableRecord
  2
Continuous
 70
     0
  3
Solid line
 72
    65
 73
     0
 40
0.0
  0
LTYPE
  5
6E
330
5
100
AcDbSymbolTableRecord
100
AcDbLinetypeTableRecord
  2
HIDDEN
 70
     0
  3
Hidden __ __ __ __ __ __ __ __ __ __ __ __ __ __
 72
    65
 73
     2
 40
1.905
 49
1.27
 74
     0
 49
-0.635
 74
     0
  0
LTYPE
  5
6F
330
5
100
AcDbSymbolTableRecord
100
AcDbLinetypeTableRecord
  2
PHANTOM
 70
     0
  3
Phantom ______  __  __  ______  __  __  ______
 72
    65
 73
     6
 40
12.7
 49
6.35
 74
     0
 49
-1.27
 74
     0
 49
1.27
 74
     0
 49
-1.27
 74
     0
 49
1.27
 74
     0
 49
-1.27
 74
     0
  0
LTYPE
  5
70
330
5
100
AcDbSymbolTableRecord
100
AcDbLinetypeTableRecord
  2
CENTER
 70
     0
  3
Center ____ _ ____ _ ____ _ ____ _ ____ _ ____
 72
    65
 73
     4
 40
10.16
 49
6.35
 74
     0
 49
-1.27
 74
     0
 49
1.27
 74
     0
 49
-1.27
 74
     0
  0
LTYPE
  5
71
330
5
100
AcDbSymbolTableRecord
100
AcDbLinetypeTableRecord
  2
CENTERX2
 70
     0
  3
Center (2x) ________  __  ________  __  _____
 72
    65
 73
     4
 40
20.32
 49
12.7
 74
     0
 49
-2.54
 74
     0
 49
2.54
 74
     0
 49
-2.54
 74
     0
  0
LTYPE
  5
72
330
5
100
AcDbSymbolTableRecord
100
AcDbLinetypeTableRecord
  2
DOT2
 70
     0
  3
Dot (.5x) ........................................
 72
    65
 73
     2
 40
0.635
 49
0.0
 74
     0
 49
-0.635
 74
     0
  0
ENDTAB
  0
TABLE
  2
LAYER
  5
2
330
0
100
AcDbSymbolTable
 70
    17
  0
LAYER
  5
10
330
2
100
AcDbSymbolTableRecord
100
AcDbLayerTableRecord
  2
0
 70
     0
 62
     7
  6
Continuous
370
    -3
390
F
  0
LAYER
  5
73
330
2
100
AcDbSymbolTableRecord
100
AcDbLayerTableRecord
  2
FORMAT
 70
     0
 62
     2
  6
Continuous
370
    -3
390
F
  0
LAYER
  5
74
330
2
100
AcDbSymbolTableRecord
100
AcDbLayerTableRecord
  2
외형선
 70
     0
 62
   100
  6
Continuous
370
    35
390
F
  0
LAYER
  5
75
330
2
100
AcDbSymbolTableRecord
100
AcDbLayerTableRecord
  2
숨은선
 70
     0
 62
     2
  6
HIDDEN
370
    25
390
F
  0
LAYER
  5
76
330
2
100
AcDbSymbolTableRecord
100
AcDbLayerTableRecord
  2
중심선
 70
     0
 62
     1
  6
CENTERX2
370
    -3
390
F
  0
LAYER
  5
77
330
2
100
AcDbSymbolTableRecord
100
AcDbLayerTableRecord
  2
파단선
 70
     0
 62
     4
  6
Continuous
370
    -3
390
F
  0
LAYER
  5
78
330
2
100
AcDbSymbolTableRecord
100
AcDbLayerTableRecord
  2
해칭선
 70
     0
 62
   100
  6
Continuous
370
    -3
390
F
  0
LAYER
  5
79
330
2
100
AcDbSymbolTableRecord
100
AcDbLayerTableRecord
  2
가는실선
 70
     0
 62
     4
  6
Continuous
370
    -3
390
F
  0
LAYER
  5
7A
330
2
100
AcDbSymbolTableRecord
100
AcDbLayerTableRecord
  2
치수_보조선
 70
     0
 62
     4
  6
Continuous
370
    -3
390
F
  0
LAYER
  5
7B
330
2
100
AcDbSymbolTableRecord
100
AcDbLayerTableRecord
  2
치수문자_일반주서
 70
     0
 62
     7
  6
Continuous
370
    25
390
F
  0
LAYER
  5
7C
330
2
100
AcDbSymbolTableRecord
100
AcDbLayerTableRecord
  2
개별주서
 70
     0
 62
   100
  6
Continuous
370
    35
390
F
  0
LAYER
  5
7D
330
2
100
AcDbSymbolTableRecord
100
AcDbLayerTableRecord
  2
중간선
 70
     0
 62
     2
  6
Continuous
370
    25
390
F
  0
LAYER
  5
7E
330
2
100
AcDbSymbolTableRecord
100
AcDbLayerTableRecord
  2
윤곽선
 70
     0
 62
     3
  6
Continuous
370
    50
390
F
  0
LAYER
  5
7F
330
2
100
AcDbSymbolTableRecord
100
AcDbLayerTableRecord
  2
중심마크
 70
     0
 62
   100
  6
Continuous
370
    35
390
F
  0
LAYER
  5
80
330
2
100
AcDbSymbolTableRecord
100
AcDbLayerTableRecord
  2
가상선
 70
     0
 62
     4
  6
PHANTOM
370
    -3
390
F
  0
LAYER
  5
81
330
2
100
AcDbSymbolTableRecord
100
AcDbLayerTableRecord
  2
특수지정선
 70
     0
 62
     5
  6
CENTERX2
370
    70
390
F
  0
LAYER
  5
139
330
2
100
AcDbSymbolTableRecord
100
AcDbLayerTableRecord
  2
Defpoints
 70
     0
 62
     7
  6
Continuous
290
     0
370
    -3
390
F
  0
ENDTAB
  0
TABLE
  2
STYLE
  5
3
330
0
100
AcDbSymbolTable
 70
     2
  0
STYLE
  5
11
330
3
100
AcDbSymbolTableRecord
100
AcDbTextStyleTableRecord
  2
Standard
 70
     0
 40
0.0
 41
1.0
 50
0.0
 71
     0
 42
3.5
  3
txt
  4

  0
STYLE
  5
97
330
3
100
AcDbSymbolTableRecord
100
AcDbTextStyleTableRecord
  2
SLDTEXTSTYLE0
 70
     0
 40
0.0
 41
0.75
 50
0.0
 71
     0
 42
3.5
  3
TXT
  4

  0
ENDTAB
  0
TABLE
  2
VIEW
  5
6
330
0
100
AcDbSymbolTable
 70
     0
  0
ENDTAB
  0
TABLE
  2
UCS
  5
7
330
0
100
AcDbSymbolTable
 70
     0
  0
ENDTAB
  0
TABLE
  2
APPID
  5
9
330
0
100
AcDbSymbolTable
 70
     1
  0
APPID
  5
12
330
9
100
AcDbSymbolTableRecord
100
AcDbRegAppTableRecord
  2
ACAD
 70
     0
  0
ENDTAB
  0
TABLE
  2
DIMSTYLE
  5
A
330
0
100
AcDbSymbolTable
 70
     4
100
AcDbDimStyleTable
  0
DIMSTYLE
105
27
330
A
100
AcDbSymbolTableRecord
100
AcDbDimStyleTableRecord
  2
ISO-25
 70
     0
 41
2.5
 42
0.625
 43
3.75
 44
1.25
 73
     0
 74
     0
 77
     1
 78
     8
140
2.5
141
2.5
143
0.03937007874016
147
0.625
171
     3
172
     1
178
     0
271
     2
272
     2
274
     3
278
    44
283
     0
284
     8
340
11
  0
DIMSTYLE
105
DE
102
{ACAD_REACTORS
330
DD
102
}
330
A
100
AcDbSymbolTableRecord
100
AcDbDimStyleTableRecord
  2
SLDDIMSTYLE0
 70
     0
 41
3.302
 44
0.0
 45
0.000000001
 73
     0
 74
     0
 77
     1
 78
    12
 79
     3
140
3.5
147
0.875
172
     1
173
     1
178
     0
271
     1
272
     1
276
     2
284
    12
289
     0
340
97
  0
DIMSTYLE
105
EC
102
{ACAD_REACTORS
330
EB
330
104
102
}
330
A
100
AcDbSymbolTableRecord
100
AcDbDimStyleTableRecord
  2
SLDDIMSTYLE1
 70
     0
 41
3.302
 44
0.0
 45
0.000000001
 73
     0
 74
     0
 77
     1
 78
    12
 79
     3
140
3.5
147
0.875
173
     1
178
     0
271
     2
272
     2
276
     2
284
    12
340
97
  0
DIMSTYLE
105
F7
102
{ACAD_REACTORS
330
F6
102
}
330
A
100
AcDbSymbolTableRecord
100
AcDbDimStyleTableRecord
  2
SLDDIMSTYLE2
 70
     0
 41
3.302
 44
0.0
 45
0.000000001
 73
     0
 74
     0
 77
     1
 78
    12
 79
     3
140
3.5
147
0.875
172
     1
173
     1
178
     0
271
     2
272
     2
276
     2
284
    12
289
     0
340
97
  0
ENDTAB
  0
TABLE
  2
BLOCK_RECORD
  5
1
330
0
100
AcDbSymbolTable
 70
     7
  0
BLOCK_RECORD
  5
1F
330
1
100
AcDbSymbolTableRecord
100
AcDbBlockTableRecord
  2
*Model_Space
340
22
  0
BLOCK_RECORD
  5
1B
330
1
100
AcDbSymbolTableRecord
100
AcDbBlockTableRecord
  2
*Paper_Space
340
1E
  0
BLOCK_RECORD
  5
23
330
1
100
AcDbSymbolTableRecord
100
AcDbBlockTableRecord
  2
*Paper_Space0
340
26
  0
BLOCK_RECORD
  5
82
330
1
100
AcDbSymbolTableRecord
100
AcDbBlockTableRecord
  2
블럭10
340
0
102
{BLKREFS
331
D6
102
}
  0
BLOCK_RECORD
  5
DF
330
1
100
AcDbSymbolTableRecord
100
AcDbBlockTableRecord
  2
_D
340
0
  0
BLOCK_RECORD
  5
ED
330
1
100
AcDbSymbolTableRecord
100
AcDbBlockTableRecord
  2
_D_1
340
0
  0
BLOCK_RECORD
  5
F8
330
1
100
AcDbSymbolTableRecord
100
AcDbBlockTableRecord
  2
_D_2
340
0
  0
BLOCK_RECORD
  5
105
330
1
100
AcDbSymbolTableRecord
100
AcDbBlockTableRecord
  2
_D_3
340
0
  0
BLOCK_RECORD
  5
10E
330
1
100
AcDbSymbolTableRecord
100
AcDbBlockTableRecord
  2
SW_DOWELSYMBOL_0
340
0
102
{BLKREFS
331
114
102
}
  0
ENDTAB
  0
ENDSEC
  0
SECTION
  2
BLOCKS
  0
BLOCK
  5
20
330
1F
100
AcDbEntity
  8
0
100
AcDbBlockBegin
  2
*Model_Space
 70
     0
 10
0.0
 20
0.0
 30
0.0
  3
*Model_Space
  1

  0
ENDBLK
  5
21
330
1F
100
AcDbEntity
  8
0
100
AcDbBlockEnd
  0
BLOCK
  5
1C
330
1B
100
AcDbEntity
 67
     1
  8
0
100
AcDbBlockBegin
  2
*Paper_Space
 70
     0
 10
0.0
 20
0.0
 30
0.0
  3
*Paper_Space
  1

  0
ENDBLK
  5
1D
330
1B
100
AcDbEntity
 67
     1
  8
0
100
AcDbBlockEnd
  0
BLOCK
  5
24
330
23
100
AcDbEntity
  8
0
100
AcDbBlockBegin
  2
*Paper_Space0
 70
     0
 10
0.0
 20
0.0
 30
0.0
  3
*Paper_Space0
  1

  0
ENDBLK
  5
25
330
23
100
AcDbEntity
  8
0
100
AcDbBlockEnd
  0
BLOCK
  5
83
330
82
100
AcDbEntity
  8
0
100
AcDbBlockBegin
  2
블럭10
 70
     2
 10
0.0
 20
0.0
 30
0.0
  3
블럭10
  1

  0
ELLIPSE
  5
85
330
82
100
AcDbEntity
  8
중심선
100
AcDbEllipse
 10
20.54032771741204
 20
12.0471743016438
 30
0.0
 11
6.600054785286829
 21
-1.261213355974178E-13
 31
0.0
210
0.0
220
0.0
230
1.0
 40
0.636358354079598
 41
0.9219305317359503
 42
6.513795318482858
  0
ELLIPSE
  5
86
330
82
100
AcDbEntity
  8
중심선
100
AcDbEllipse
 10
20.54032771746488
 20
12.04717430159265
 30
0.0
 11
3.960054785062283
 21
1.540847449632565E-10
 31
0.0
210
0.0
220
0.0
230
1.0
 40
0.3939339440162632
 41
1.131841032648279
 42
5.62031148352944
  0
LINE
  5
87
330
82
100
AcDbEntity
  8
중심선
100
AcDbLine
 10
2.268634060543552
 20
16.24717430164393
 30
0.0
 11
5.714909304380834
 21
16.24717430164393
 31
0.0
  0
LINE
  5
88
330
82
100
AcDbEntity
  8
중심선
100
AcDbLine
 10
5.245725140726316
 20
7.84717430164391
 30
0.0
 11
8.692000384563599
 21
7.84717430164391
 31
0.0
  0
LINE
  5
89
330
82
100
AcDbEntity
  8
중심선
100
AcDbLine
 10
15.74043728645272
 20
16.24717430164393
 30
0.0
 11
8.692000384563599
 21
7.84717430164391
 31
0.0
  0
LINE
  5
8A
330
82
100
AcDbEntity
  8
중심선
100
AcDbLine
 10
0.1404042013395286
 20
13.71084872107135
 30
0.0
 11
3.58671253028996
 21
13.71088815037384
 31
0.0
  0
LINE
  5
8B
330
82
100
AcDbEntity
  8
중심선
100
AcDbLine
 10
2.750260043222114
 20
10.84717430164391
 30
0.0
 11
6.196535287059397
 21
10.84717430164391
 31
0.0
  0
LINE
  5
8C
330
82
100
AcDbEntity
  8
중심선
100
AcDbLine
 10
12.29416204261559
 20
16.24717430164393
 30
0.0
 11
5.245725140726316
 21
7.84717430164391
 31
0.0
  0
LINE
  5
8D
330
82
100
AcDbEntity
  8
중심선
100
AcDbLine
 10
10.72767329541681
 20
16.24717430164393
 30
0.0
 11
6.196535287059397
 21
10.84717430164391
 31
0.0
  0
LINE
  5
8E
330
82
100
AcDbEntity
  8
중심선
100
AcDbLine
 10
7.28139805157953
 20
16.24717430164393
 30
0.0
 11
2.750260043222114
 21
10.84717430164391
 31
0.0
  0
LINE
  5
8F
330
82
100
AcDbEntity
  8
중심선
100
AcDbLine
 10
5.714909304380834
 20
16.24717430164393
 30
0.0
 11
3.58671253028996
 21
13.71088815037384
 31
0.0
  0
LINE
  5
90
330
82
100
AcDbEntity
  8
중심선
100
AcDbLine
 10
2.268634060543552
 20
16.24717430164393
 30
0.0
 11
0.1404042013395286
 21
13.71084872107135
 31
0.0
  0
LINE
  5
91
330
82
100
AcDbEntity
  8
중심선
100
AcDbLine
 10
7.28139805157953
 20
16.24717430164393
 30
0.0
 11
10.72767329541681
 21
16.24717430164393
 31
0.0
  0
LINE
  5
92
330
82
100
AcDbEntity
  8
중심선
100
AcDbLine
 10
12.29416204261559
 20
16.24717430164393
 30
0.0
 11
15.74043728645272
 21
16.24717430164393
 31
0.0
  0
LINE
  5
93
330
82
100
AcDbEntity
  8
중심선
100
AcDbLine
 10
19.22036997980202
 20
11.08717430171403
 30
0.0
 11
23.66174974927406
 21
11.08717430171406
 31
0.0
  0
LINE
  5
94
330
82
100
AcDbEntity
  8
중심선
100
AcDbLine
 10
19.22039502424796
 20
13.00717430171391
 30
0.0
 11
19.22036997980202
 21
11.08717430171403
 31
0.0
  0
LINE
  5
95
330
82
100
AcDbEntity
  8
중심선
100
AcDbLine
 10
19.22039502424796
 20
13.00717430171391
 30
0.0
 11
26.96566020931264
 21
13.00717430171391
 31
0.0
  0
LINE
  5
96
330
82
100
AcDbEntity
  8
중심선
100
AcDbLine
 10
22.22332737316547
 20
13.45928029700563
 30
0.0
 11
24.52862924686651
 21
15.39360700705356
 31
0.0
  0
ATTDEF
  5
98
330
82
100
AcDbEntity
  8
FORMAT
 62
     2
100
AcDbText
 10
-20.85824753159254
 20
2.075366912832191
 30
0.0
 40
4.233333333333333
  1
SEME7212060200E [ 4 FLUTE ]
 41
0.75
  7
SLDTEXTSTYLE0
 11
-20.85824753159254
 21
-0.0412997538344756
 31
0.0
100
AcDbAttributeDefinition
  3

  2
AUTOATTR0
 70
     0
 74
     1
  0
ENDBLK
  5
84
330
82
100
AcDbEntity
  8
0
100
AcDbBlockEnd
  0
BLOCK
  5
E0
330
DF
100
AcDbEntity
  8
0
100
AcDbBlockBegin
  2
_D
 70
     0
 10
0.0
 20
0.0
 30
0.0
  3
_D
  1

  0
LINE
  5
E2
330
DF
100
AcDbEntity
  8
치수문자_일반주서
 62
     0
370
    -2
100
AcDbLine
 10
70.0625
 20
-6.000000000000012
 30
0.0
 11
82.80517824122256
 21
-5.999999999999964
 31
0.0
  0
LINE
  5
E3
330
DF
100
AcDbEntity
  8
치수문자_일반주서
 62
     0
370
    -2
100
AcDbLine
 10
70.0625
 20
5.999999999999994
 30
0.0
 11
82.80517824122252
 21
6.000000000000041
 31
0.0
  0
LINE
  5
E4
330
DF
100
AcDbEntity
  8
치수문자_일반주서
 62
     0
370
    -2
100
AcDbLine
 10
82.80517824122256
 20
-5.999999999999964
 30
0.0
 11
82.80517824122246
 21
20.47900000000004
 31
0.0
  0
LINE
  5
E5
330
DF
100
AcDbEntity
  8
치수문자_일반주서
 62
     0
370
    -2
100
AcDbLine
 10
82.80517824122256
 20
-5.999999999999964
 30
0.0
 11
82.80517824122252
 21
6.000000000000041
 31
0.0
  0
LINE
  5
E6
330
DF
100
AcDbEntity
  8
치수문자_일반주서
 62
     0
370
    -2
100
AcDbLine
 10
82.80517824122258
 20
-9.301999999999964
 30
0.0
 11
82.80517824122259
 21
-12.60399999999996
 31
0.0
  0
LINE
  5
E7
330
DF
100
AcDbEntity
  8
치수문자_일반주서
 62
     0
370
    -2
100
AcDbLine
 10
82.8051782412225
 20
9.30200000000004
 30
0.0
 11
82.80517824122249
 21
12.60400000000004
 31
0.0
  0
SOLID
  5
E8
330
DF
100
AcDbEntity
  8
치수문자_일반주서
 62
     0
100
AcDbTrace
 10
83.3555115745559
 20
-9.301999999999962
 30
0.0
 11
82.25484490788925
 21
-9.301999999999966
 31
0.0
 12
82.80517824122256
 22
-5.999999999999964
 32
0.0
 13
82.80517824122256
 23
-5.999999999999964
 33
0.0
  0
SOLID
  5
E9
330
DF
100
AcDbEntity
  8
치수문자_일반주서
 62
     0
100
AcDbTrace
 10
82.25484490788918
 20
9.302000000000039
 30
0.0
 11
83.35551157455583
 21
9.302000000000042
 31
0.0
 12
82.80517824122252
 22
6.000000000000041
 32
0.0
 13
82.80517824122252
 23
6.000000000000041
 33
0.0
  0
MTEXT
  5
EA
330
DF
100
AcDbEntity
  8
치수문자_일반주서
 62
     0
100
AcDbMText
 10
78.43017824122248
 20
16.54150000000002
 30
0.0
 40
3.5
 41
0.0
 71
     2
 72
     1
  1
\A1;%%c12
  7
SLDTEXTSTYLE0
 11
-3.552713678800499E-15
 21
1.0
 31
0.0
 73
     1
 44
1.0
  0
POINT
  5
143
330
DF
100
AcDbEntity
  8
Defpoints
 62
     0
100
AcDbPoint
 10
70.0
 20
-6.000000000000012
 30
0.0
  0
POINT
  5
144
330
DF
100
AcDbEntity
  8
Defpoints
 62
     0
100
AcDbPoint
 10
70.0
 20
5.999999999999994
 30
0.0
  0
POINT
  5
145
330
DF
100
AcDbEntity
  8
Defpoints
 62
     0
100
AcDbPoint
 10
82.80517824122252
 20
6.000000000000042
 30
0.0
  0
ENDBLK
  5
E1
330
DF
100
AcDbEntity
  8
0
100
AcDbBlockEnd
  0
BLOCK
  5
EE
330
ED
100
AcDbEntity
  8
0
100
AcDbBlockBegin
  2
_D_1
 70
     0
 10
0.0
 20
0.0
 30
0.0
  3
_D_1
  1

  0
LINE
  5
F0
330
ED
100
AcDbEntity
  8
치수문자_일반주서
 62
     0
370
    -2
100
AcDbLine
 10
-130.0
 20
5.562499999999976
 30
0.0
 11
-130.0
 21
23.38913260158163
 31
0.0
  0
LINE
  5
F1
330
ED
100
AcDbEntity
  8
치수문자_일반주서
 62
     0
370
    -2
100
AcDbLine
 10
70.0
 20
6.062500000000004
 30
0.0
 11
70.0
 21
23.38913260158163
 31
0.0
  0
LINE
  5
F2
330
ED
100
AcDbEntity
  8
치수문자_일반주서
 62
     0
370
    -2
100
AcDbLine
 10
-126.698
 20
23.38913260158163
 30
0.0
 11
66.69800000000001
 21
23.38913260158163
 31
0.0
  0
SOLID
  5
F3
330
ED
100
AcDbEntity
  8
치수문자_일반주서
 62
     0
100
AcDbTrace
 10
-126.698
 20
23.93946593491496
 30
0.0
 11
-126.698
 21
22.83879926824829
 31
0.0
 12
-130.0
 22
23.38913260158163
 32
0.0
 13
-130.0
 23
23.38913260158163
 33
0.0
  0
SOLID
  5
F4
330
ED
100
AcDbEntity
  8
치수문자_일반주서
 62
     0
100
AcDbTrace
 10
66.69800000000001
 20
22.83879926824829
 30
0.0
 11
66.69800000000001
 21
23.93946593491496
 31
0.0
 12
70.0
 22
23.38913260158163
 32
0.0
 13
70.0
 23
23.38913260158163
 33
0.0
  0
MTEXT
  5
F5
330
ED
100
AcDbEntity
  8
치수문자_일반주서
 62
     0
100
AcDbMText
 10
-30.00000000000001
 20
27.76413260158163
 30
0.0
 40
3.5
 41
0.0
 71
     2
 72
     1
  1
\A1;200
  7
SLDTEXTSTYLE0
 73
     1
 44
1.0
  0
POINT
  5
13A
330
ED
100
AcDbEntity
  8
Defpoints
 62
     0
100
AcDbPoint
 10
-130.0
 20
5.499999999999976
 30
0.0
  0
POINT
  5
13B
330
ED
100
AcDbEntity
  8
Defpoints
 62
     0
100
AcDbPoint
 10
70.0
 20
6.000000000000004
 30
0.0
  0
POINT
  5
13C
330
ED
100
AcDbEntity
  8
Defpoints
 62
     0
100
AcDbPoint
 10
70.0
 20
23.38913260158163
 30
0.0
  0
ENDBLK
  5
EF
330
ED
100
AcDbEntity
  8
0
100
AcDbBlockEnd
  0
BLOCK
  5
F9
330
F8
100
AcDbEntity
  8
0
100
AcDbBlockBegin
  2
_D_2
 70
     0
 10
0.0
 20
0.0
 30
0.0
  3
_D_2
  1

  0
LINE
  5
FB
330
F8
100
AcDbEntity
  8
치수문자_일반주서
 62
     0
370
    -2
100
AcDbLine
 10
-129.5625
 20
5.99999999999997
 30
0.0
 11
-143.0095821335638
 21
5.99999999999992
 31
0.0
  0
LINE
  5
FC
330
F8
100
AcDbEntity
  8
치수문자_일반주서
 62
     0
370
    -2
100
AcDbLine
 10
-129.5625
 20
-6.000000000000013
 30
0.0
 11
-143.0095821335638
 21
-6.000000000000064
 31
0.0
  0
LINE
  5
FD
330
F8
100
AcDbEntity
  8
치수문자_일반주서
 62
     0
370
    -2
100
AcDbLine
 10
-143.0095821335638
 20
5.99999999999992
 30
0.0
 11
-143.0095821335639
 21
20.47899999999992
 31
0.0
  0
LINE
  5
FE
330
F8
100
AcDbEntity
  8
치수문자_일반주서
 62
     0
370
    -2
100
AcDbLine
 10
-143.0095821335638
 20
5.99999999999992
 30
0.0
 11
-143.0095821335638
 21
-6.000000000000064
 31
0.0
  0
LINE
  5
FF
330
F8
100
AcDbEntity
  8
치수문자_일반주서
 62
     0
370
    -2
100
AcDbLine
 10
-143.0095821335638
 20
9.30199999999992
 30
0.0
 11
-143.0095821335638
 21
12.60399999999992
 31
0.0
  0
LINE
  5
100
330
F8
100
AcDbEntity
  8
치수문자_일반주서
 62
     0
370
    -2
100
AcDbLine
 10
-143.0095821335638
 20
-9.302000000000064
 30
0.0
 11
-143.0095821335638
 21
-12.60400000000006
 31
0.0
  0
SOLID
  5
101
330
F8
100
AcDbEntity
  8
치수문자_일반주서
 62
     0
100
AcDbTrace
 10
-143.5599154668972
 20
9.301999999999918
 30
0.0
 11
-142.4592488002305
 21
9.301999999999921
 31
0.0
 12
-143.0095821335638
 22
5.99999999999992
 32
0.0
 13
-143.0095821335638
 23
5.99999999999992
 33
0.0
  0
SOLID
  5
102
330
F8
100
AcDbEntity
  8
치수문자_일반주서
 62
     0
100
AcDbTrace
 10
-142.4592488002305
 20
-9.302000000000062
 30
0.0
 11
-143.5599154668971
 21
-9.302000000000065
 31
0.0
 12
-143.0095821335638
 22
-6.000000000000064
 32
0.0
 13
-143.0095821335638
 23
-6.000000000000064
 33
0.0
  0
MTEXT
  5
103
330
F8
100
AcDbEntity
  8
치수문자_일반주서
 62
     0
100
AcDbMText
 10
-147.3845821335639
 20
16.54149999999991
 30
0.0
 40
3.5
 41
0.0
 71
     2
 72
     1
  1
\A1;%%c12
  7
SLDTEXTSTYLE0
 11
-2.368475785867004E-15
 21
1.0
 31
0.0
 73
     1
 44
1.0
  0
POINT
  5
140
330
F8
100
AcDbEntity
  8
Defpoints
 62
     0
100
AcDbPoint
 10
-129.5
 20
5.99999999999997
 30
0.0
  0
POINT
  5
141
330
F8
100
AcDbEntity
  8
Defpoints
 62
     0
100
AcDbPoint
 10
-129.5
 20
-6.000000000000013
 30
0.0
  0
POINT
  5
142
330
F8
100
AcDbEntity
  8
Defpoints
 62
     0
100
AcDbPoint
 10
-143.0095821335638
 20
-6.000000000000064
 30
0.0
  0
ENDBLK
  5
FA
330
F8
100
AcDbEntity
  8
0
100
AcDbBlockEnd
  0
BLOCK
  5
106
330
105
100
AcDbEntity
  8
0
100
AcDbBlockBegin
  2
_D_3
 70
     0
 10
0.0
 20
0.0
 30
0.0
  3
_D_3
  1

  0
LINE
  5
108
330
105
100
AcDbEntity
  8
치수문자_일반주서
 62
     0
370
    -2
100
AcDbLine
 10
9.999999999999995
 20
5.818137757292764
 30
0.0
 11
9.999999999999993
 21
16.60155605988041
 31
0.0
  0
LINE
  5
109
330
105
100
AcDbEntity
  8
치수문자_일반주서
 62
     0
370
    -2
100
AcDbLine
 10
70.0
 20
6.062500000000004
 30
0.0
 11
70.0
 21
16.60155605988041
 31
0.0
  0
LINE
  5
10A
330
105
100
AcDbEntity
  8
치수문자_일반주서
 62
     0
370
    -2
100
AcDbLine
 10
13.30199999999999
 20
16.60155605988041
 30
0.0
 11
66.69800000000001
 21
16.60155605988041
 31
0.0
  0
SOLID
  5
10B
330
105
100
AcDbEntity
  8
치수문자_일반주서
 62
     0
100
AcDbTrace
 10
13.30199999999999
 20
17.15188939321375
 30
0.0
 11
13.30199999999999
 21
16.05122272654708
 31
0.0
 12
9.999999999999993
 22
16.60155605988041
 32
0.0
 13
9.999999999999993
 23
16.60155605988041
 33
0.0
  0
SOLID
  5
10C
330
105
100
AcDbEntity
  8
치수문자_일반주서
 62
     0
100
AcDbTrace
 10
66.69800000000001
 20
16.05122272654708
 30
0.0
 11
66.69800000000001
 21
17.15188939321375
 31
0.0
 12
70.0
 22
16.60155605988041
 32
0.0
 13
70.0
 23
16.60155605988041
 33
0.0
  0
MTEXT
  5
10D
330
105
100
AcDbEntity
  8
치수문자_일반주서
 62
     0
100
AcDbMText
 10
39.99999999999999
 20
20.97655605988041
 30
0.0
 40
3.5
 41
0.0
 71
     2
 72
     1
  1
\A1;60
  7
SLDTEXTSTYLE0
 73
     1
 44
1.0
  0
POINT
  5
13D
330
105
100
AcDbEntity
  8
Defpoints
 62
     0
100
AcDbPoint
 10
9.999999999999995
 20
5.755637757292764
 30
0.0
  0
POINT
  5
13E
330
105
100
AcDbEntity
  8
Defpoints
 62
     0
100
AcDbPoint
 10
70.0
 20
6.000000000000004
 30
0.0
  0
POINT
  5
13F
330
105
100
AcDbEntity
  8
Defpoints
 62
     0
100
AcDbPoint
 10
70.0
 20
16.60155605988041
 30
0.0
  0
ENDBLK
  5
107
330
105
100
AcDbEntity
  8
0
100
AcDbBlockEnd
  0
BLOCK
  5
10F
330
10E
100
AcDbEntity
  8
0
100
AcDbBlockBegin
  2
SW_DOWELSYMBOL_0
 70
     0
 10
0.0
 20
0.0
 30
0.0
  3
SW_DOWELSYMBOL_0
  1

  0
CIRCLE
  5
111
330
10E
100
AcDbEntity
  8
해칭선
 62
     0
100
AcDbCircle
 10
0.0
 20
0.0
 30
0.0
 40
3.000000000000003
  0
HATCH
  5
112
330
10E
100
AcDbEntity
  8
0
  6
Continuous
 62
     0
370
    18
100
AcDbHatch
 10
0.0
 20
0.0
 30
0.0
210
0.0
220
0.0
230
1.0
  2
SOLID
 70
     1
 71
     0
 91
        1
 92
        0
 93
        3
 72
     2
 10
0.0
 20
0.0
 40
3.000000000000003
 50
0.0
 51
90.0
 73
     1
 72
     1
 10
0.0
 20
3.000000000000003
 11
0.0
 21
0.0
 72
     1
 10
0.0
 20
0.0
 11
3.000000000000003
 21
0.0
 97
        0
 75
     0
 76
     1
 98
        1
 10
0.0
 20
0.0
  0
HATCH
  5
113
330
10E
100
AcDbEntity
  8
0
  6
Continuous
 62
     0
370
    18
100
AcDbHatch
 10
0.0
 20
0.0
 30
0.0
210
0.0
220
0.0
230
1.0
  2
SOLID
 70
     1
 71
     0
 91
        1
 92
        0
 93
        3
 72
     2
 10
0.0
 20
0.0
 40
3.000000000000003
 50
180.0
 51
270.0000000000008
 73
     1
 72
     1
 10
0.0
 20
-3.000000000000003
 11
0.0
 21
0.0
 72
     1
 10
0.0
 20
0.0
 11
-3.000000000000003
 21
0.0
 97
        0
 75
     0
 76
     1
 98
        1
 10
0.0
 20
0.0
  0
ENDBLK
  5
110
330
10E
100
AcDbEntity
  8
0
100
AcDbBlockEnd
  0
ENDSEC
  0
SECTION
  2
ENTITIES
  0
LINE
  5
99
330
1F
100
AcDbEntity
  8
0
  6
Continuous
 62
     4
370
    25
100
AcDbLine
 10
8.500169802310724
 20
5.999999999999992
 30
0.0
 11
-129.5
 21
5.999999999999983
 31
0.0
  0
LINE
  5
9A
330
1F
100
AcDbEntity
  8
0
  6
Continuous
 62
     4
370
    25
100
AcDbLine
 10
-129.5
 20
-6.000000000000017
 30
0.0
 11
8.500169802310735
 21
-6.000000000000008
 31
0.0
  0
LINE
  5
9B
330
1F
100
AcDbEntity
  8
0
  6
Continuous
 62
     4
370
    25
100
AcDbLine
 10
-129.5
 20
5.999999999999975
 30
0.0
 11
-130.0
 21
5.499999999999976
 31
0.0
  0
LINE
  5
9C
330
1F
100
AcDbEntity
  8
0
  6
Continuous
 62
     4
370
    25
100
AcDbLine
 10
-130.0
 20
-5.50000000000001
 30
0.0
 11
-129.5
 21
-6.000000000000008
 31
0.0
  0
LINE
  5
9D
330
1F
100
AcDbEntity
  8
0
  6
Continuous
 62
     1
370
    25
100
AcDbLine
 10
67.67844050780363
 20
-6.000000000000013
 30
0.0
 11
70.0
 21
-6.000000000000013
 31
0.0
  0
LINE
  5
9E
330
1F
100
AcDbEntity
  8
0
  6
Continuous
 62
     1
370
    25
100
AcDbLine
 10
39.67180535202267
 20
5.999999999999997
 30
0.0
 11
35.03012139549667
 21
5.999999999999997
 31
0.0
  0
LINE
  5
9F
330
1F
100
AcDbEntity
  8
0
  6
Continuous
 62
     1
370
    25
100
AcDbLine
 10
51.35670703420304
 20
-6.000000000000013
 30
0.0
 11
55.99679296867052
 21
-6.000000000000013
 31
0.0
  0
LINE
  5
A0
330
1F
100
AcDbEntity
  8
0
  6
Continuous
 62
     1
370
    25
100
AcDbLine
 10
23.35053136357804
 20
5.999999999999997
 30
0.0
 11
18.70448084351356
 21
5.999999999999997
 31
0.0
  0
LINE
  5
A1
330
1F
100
AcDbEntity
  8
0
  6
Continuous
 62
     1
370
    25
100
AcDbLine
 10
18.70448084351367
 20
-6.000000000000013
 30
0.0
 11
23.35053136357802
 21
-6.000000000000013
 31
0.0
  0
LINE
  5
A2
330
1F
100
AcDbEntity
  8
0
  6
Continuous
 62
     1
370
    25
100
AcDbLine
 10
55.99679296867052
 20
5.999999999999997
 30
0.0
 11
51.3567070342031
 21
5.999999999999997
 31
0.0
  0
LINE
  5
A3
330
1F
100
AcDbEntity
  8
0
  6
Continuous
 62
     1
370
    25
100
AcDbLine
 10
35.03012139549664
 20
-6.000000000000013
 30
0.0
 11
39.67180535202256
 21
-6.000000000000013
 31
0.0
  0
LINE
  5
A4
330
1F
100
AcDbEntity
  8
0
  6
Continuous
 62
     1
370
    25
100
AcDbLine
 10
70.0
 20
5.999999999999997
 30
0.0
 11
67.67844050780366
 21
5.999999999999997
 31
0.0
  0
SPLINE
  5
A5
330
1F
100
AcDbEntity
  8
0
  6
Continuous
 62
     4
370
    25
100
AcDbSpline
210
0.0
220
0.0
230
1.0
 70
    24
 71
     3
 72
    12
 73
     8
 74
     0
 42
0.000000001
 43
0.00000001
 40
0.0
 40
0.0
 40
0.0
 40
0.0
 40
0.5
 40
0.5
 40
0.75
 40
0.75
 40
1.0
 40
1.0
 40
1.0
 40
1.0
 10
9.999999999999995
 20
4.425787593338844
 30
0.0
 10
9.999999999999995
 20
4.133870062039339
 30
0.0
 10
9.999999999999993
 20
3.820876157916318
 30
0.0
 10
9.999999999999995
 20
3.318538225124986
 30
0.0
 10
9.999999999999995
 20
3.145834105028176
 30
0.0
 10
9.999999999999995
 20
2.797548826809123
 30
0.0
 10
9.999999999999995
 20
2.620947847021031
 30
0.0
 10
9.999999999999995
 20
2.441755841818745
 30
0.0
  0
SPLINE
  5
A6
330
1F
100
AcDbEntity
  8
0
  6
Continuous
 62
     4
370
    25
100
AcDbSpline
210
0.0
220
0.0
230
1.0
 70
     8
 71
     3
 72
    14
 73
    10
 74
     0
 42
0.000000001
 43
0.00000001
 40
0.0
 40
0.0
 40
0.0
 40
0.0
 40
0.2499999999999998
 40
0.2499999999999998
 40
0.4999999999999999
 40
0.4999999999999999
 40
0.7499999999999999
 40
0.7499999999999999
 40
1.0
 40
1.0
 40
1.0
 40
1.0
 10
9.103367180411562
 20
-1.192552669523405
 30
0.0
 10
9.008893588803701
 20
-1.13892533596973
 30
0.0
 10
8.92401532345433
 20
-1.073855742777921
 30
0.0
 10
8.772882865030217
 20
-0.9211008623644098
 30
0.0
 10
8.707778342503685
 20
-0.8338576807744554
 30
0.0
 10
8.604018835724794
 20
-0.6464701759667405
 30
0.0
 10
8.564312266822546
 20
-0.5440960609947283
 30
0.0
 10
8.51279119739674
 20
-0.3353885138817325
 30
0.0
 10
8.500169802310724
 20
-0.2270888878763075
 30
0.0
 10
8.500169802310724
 20
-0.1180502103269249
 30
0.0
  0
SPLINE
  5
A7
330
1F
100
AcDbEntity
  8
0
  6
Continuous
 62
     4
370
    25
100
AcDbSpline
210
0.0
220
0.0
230
1.0
 70
     8
 71
     3
 72
    18
 73
    14
 74
     0
 42
0.000000001
 43
0.00000001
 40
0.0
 40
0.0
 40
0.0
 40
0.0
 40
0.1249999999999999
 40
0.1249999999999999
 40
0.2499999999999997
 40
0.2499999999999997
 40
0.4999999999999994
 40
0.4999999999999994
 40
0.6249999999999996
 40
0.6249999999999996
 40
0.7499999999999996
 40
0.7499999999999996
 40
1.0
 40
1.0
 40
1.0
 40
1.0
 10
8.500169802310724
 20
3.529069804419314
 30
0.0
 10
8.500169802310724
 20
3.604705802033708
 30
0.0
 10
8.50929932819752
 20
3.677814740562502
 30
0.0
 10
8.546878259488318
 20
3.819103351166508
 30
0.0
 10
8.575905944937443
 20
3.887981441966806
 30
0.0
 10
8.690429232484872
 20
4.077947795001376
 30
0.0
 10
8.80651552402655
 20
4.18704850106067
 30
0.0
 10
9.021614703569536
 20
4.309808012010654
 30
0.0
 10
9.101473414305968
 20
4.344764288434889
 30
0.0
 10
9.268314549904428
 20
4.399588422294031
 30
0.0
 10
9.355811649678387
 20
4.419957339245943
 30
0.0
 10
9.630281209196374
 20
4.460100082099764
 30
0.0
 10
9.81870501849216
 20
4.457601296257645
 30
0.0
 10
9.999999999999961
 20
4.425787593338655
 30
0.0
  0
SPLINE
  5
A8
330
1F
100
AcDbEntity
  8
0
  6
Continuous
 62
     4
370
    25
100
AcDbSpline
210
0.0
220
0.0
230
1.0
 70
     8
 71
     3
 72
    14
 73
    10
 74
     0
 42
0.000000001
 43
0.00000001
 40
0.0
 40
0.0
 40
0.0
 40
0.0
 40
0.2499999999999999
 40
0.2499999999999999
 40
0.5
 40
0.5
 40
0.75
 40
0.75
 40
1.0
 40
1.0
 40
1.0
 40
1.0
 10
9.103367180411562
 20
5.880290650163078
 30
0.0
 10
9.008893588803701
 20
5.891166544501242
 30
0.0
 10
8.92401532345433
 20
5.903628813322635
 30
0.0
 10
8.772882865030217
 20
5.929382136710522
 30
0.0
 10
8.707778342503685
 20
5.942524340886017
 30
0.0
 10
8.604018835724794
 20
5.965818509257126
 30
0.0
 10
8.564312266822546
 20
5.976195110287177
 30
0.0
 10
8.51279119739674
 20
5.991532613995068
 30
0.0
 10
8.500169802310724
 20
5.996692811414467
 30
0.0
 10
8.500169802310724
 20
5.998838566576172
 30
0.0
  0
SPLINE
  5
A9
330
1F
100
AcDbEntity
  8
0
  6
Continuous
 62
     4
370
    25
100
AcDbSpline
210
0.0
220
0.0
230
1.0
 70
     8
 71
     3
 72
     8
 73
     4
 74
     0
 42
0.000000001
 43
0.00000001
 40
0.0
 40
0.0
 40
0.0
 40
0.0
 40
1.0
 40
1.0
 40
1.0
 40
1.0
 10
9.999999999999995
 20
5.755637757292763
 30
0.0
 10
9.700295815718865
 20
5.804432038880682
 30
0.0
 10
9.400864228119037
 20
5.846042492538118
 30
0.0
 10
9.103367180411558
 20
5.880290650163076
 30
0.0
  0
LINE
  5
AA
330
1F
100
AcDbEntity
  8
0
  6
Continuous
 62
     4
370
    25
100
AcDbLine
 10
9.999999999999995
 20
5.755637757292764
 30
0.0
 11
9.999999999999993
 21
4.425787593338843
 31
0.0
  0
SPLINE
  5
AB
330
1F
100
AcDbEntity
  8
0
  6
Continuous
 62
     4
370
    25
100
AcDbSpline
210
0.0
220
0.0
230
1.0
 70
     8
 71
     3
 72
     8
 73
     4
 74
     0
 42
0.000000001
 43
0.00000001
 40
0.0
 40
0.0
 40
0.0
 40
0.0
 40
1.0
 40
1.0
 40
1.0
 40
1.0
 10
9.999999999999995
 20
-1.694884658851029
 30
0.0
 10
9.700295815718865
 20
-1.529184764182219
 30
0.0
 10
9.40086422811904
 20
-1.361424976981178
 30
0.0
 10
9.103367180411558
 20
-1.192552669523405
 30
0.0
  0
LINE
  5
AC
330
1F
100
AcDbEntity
  8
0
  6
Continuous
 62
     4
370
    25
100
AcDbLine
 10
9.999999999999995
 20
-1.694884658851029
 30
0.0
 11
9.999999999999995
 21
-4.051222553581583
 31
0.0
  0
SPLINE
  5
AD
330
1F
100
AcDbEntity
  8
0
  6
Continuous
 62
     4
370
    25
100
AcDbSpline
210
0.0
220
0.0
230
1.0
 70
     8
 71
     3
 72
    18
 73
    14
 74
     0
 42
0.000000001
 43
0.00000001
 40
0.0
 40
0.0
 40
0.0
 40
0.0
 40
0.1249999999999998
 40
0.1249999999999998
 40
0.2499999999999997
 40
0.2499999999999997
 40
0.4999999999999994
 40
0.4999999999999994
 40
0.6249999999999996
 40
0.6249999999999996
 40
0.7499999999999998
 40
0.7499999999999998
 40
1.0
 40
1.0
 40
1.0
 40
1.0
 10
8.500169802310724
 20
-4.852387692212562
 30
0.0
 10
8.500169802310724
 20
-4.797378749762133
 30
0.0
 10
8.509299328197523
 20
-4.74150441891817
 30
0.0
 10
8.546878259488318
 20
-4.628459248349079
 30
0.0
 10
8.57590594493745
 20
-4.570632415105001
 30
0.0
 10
8.69042923248488
 20
-4.404391359721606
 30
0.0
 10
8.80651552402655
 20
-4.299091608806823
 30
0.0
 10
9.021614703569536
 20
-4.174798899635258
 30
0.0
 10
9.101473414305968
 20
-4.138191084132879
 30
0.0
 10
9.268314549904428
 20
-4.079855865747257
 30
0.0
 10
9.355811649678387
 20
-4.057631262637241
 30
0.0
 10
9.630281209196374
 20
-4.013612417111785
 30
0.0
 10
9.81870501849216
 20
-4.01646744205316
 30
0.0
 10
9.999999999999961
 20
-4.051222553581789
 30
0.0
  0
LINE
  5
AE
330
1F
100
AcDbEntity
  8
0
  6
Continuous
 62
     4
370
    25
100
AcDbLine
 10
8.500169802310724
 20
-4.852387692212563
 30
0.0
 11
8.500169802310724
 21
-6.000000000000008
 31
0.0
  0
SPLINE
  5
AF
330
1F
100
AcDbEntity
  8
0
  6
Continuous
 62
     4
370
    25
100
AcDbSpline
210
0.0
220
0.0
230
1.0
 70
     8
 71
     3
 72
    14
 73
    10
 74
     0
 42
0.000000001
 43
0.00000001
 40
0.0
 40
0.0
 40
0.0
 40
0.0
 40
0.25
 40
0.25
 40
0.5
 40
0.5
 40
0.75
 40
0.75
 40
1.0
 40
1.0
 40
1.0
 40
1.0
 10
9.103367180411562
 20
-5.880290650163096
 30
0.0
 10
9.008893588803701
 20
-5.891166544501257
 30
0.0
 10
8.92401532345433
 20
-5.903628813322655
 30
0.0
 10
8.772882865030217
 20
-5.929382136710546
 30
0.0
 10
8.707778342503685
 20
-5.94252434088604
 30
0.0
 10
8.604018835724794
 20
-5.965818509257145
 30
0.0
 10
8.564312266822546
 20
-5.976195110287195
 30
0.0
 10
8.51279119739674
 20
-5.991532613995084
 30
0.0
 10
8.500169802310724
 20
-5.996692811414483
 30
0.0
 10
8.500169802310724
 20
-5.998838566576189
 30
0.0
  0
SPLINE
  5
B0
330
1F
100
AcDbEntity
  8
0
  6
Continuous
 62
     4
370
    25
100
AcDbSpline
210
0.0
220
0.0
230
1.0
 70
     8
 71
     3
 72
     8
 73
     4
 74
     0
 42
0.000000001
 43
0.00000001
 40
0.0
 40
0.0
 40
0.0
 40
0.0
 40
1.0
 40
1.0
 40
1.0
 40
1.0
 10
9.999999999999995
 20
-5.755637757292791
 30
0.0
 10
9.700295815718865
 20
-5.80443203888071
 30
0.0
 10
9.40086422811904
 20
-5.846042492538142
 30
0.0
 10
9.103367180411558
 20
-5.880290650163099
 30
0.0
  0
LINE
  5
B1
330
1F
100
AcDbEntity
  8
0
  6
Continuous
 62
     4
370
    25
100
AcDbLine
 10
8.500169802310724
 20
5.999999999999992
 30
0.0
 11
8.500169802310724
 21
5.998838566576172
 31
0.0
  0
LINE
  5
B2
330
1F
100
AcDbEntity
  8
0
  6
Continuous
 62
     4
370
    25
100
AcDbLine
 10
-129.5
 20
5.999999999999975
 30
0.0
 11
-129.5
 21
-6.000000000000008
 31
0.0
  0
LINE
  5
B3
330
1F
100
AcDbEntity
  8
0
  6
Continuous
 62
     4
370
    25
100
AcDbLine
 10
8.500169802310724
 20
3.529069804419315
 30
0.0
 11
8.500169802310724
 21
-0.1180502103269249
 31
0.0
  0
LINE
  5
B4
330
1F
100
AcDbEntity
  8
0
  6
Continuous
 62
     4
370
    25
100
AcDbLine
 10
-130.0
 20
5.499999999999976
 30
0.0
 11
-130.0
 21
-5.50000000000001
 31
0.0
  0
SPLINE
  5
B5
330
1F
100
AcDbEntity
  8
0
  6
Continuous
 62
     4
370
    25
100
AcDbSpline
210
0.0
220
0.0
230
1.0
 70
    24
 71
     3
 72
    14
 73
    10
 74
     0
 42
0.000000001
 43
0.00000001
 40
0.0
 40
0.0
 40
0.0
 40
0.0
 40
0.25
 40
0.25
 40
0.5
 40
0.5
 40
0.75
 40
0.75
 40
1.0
 40
1.0
 40
1.0
 40
1.0
 10
9.999999999999995
 20
2.441755841816442
 30
0.0
 10
9.999999999999995
 20
2.105256000773136
 30
0.0
 10
9.999999999999995
 20
1.738623780210821
 30
0.0
 10
9.999999999999995
 20
0.9727748518280152
 30
0.0
 10
9.999999999999995
 20
0.5735882388401415
 30
0.0
 10
9.999999999999995
 20
-0.200366340733036
 30
0.0
 10
9.999999999999995
 20
-0.5742099078681041
 30
0.0
 10
9.999999999999995
 20
-1.22331538145138
 30
0.0
 10
9.999999999999995
 20
-1.497220255887823
 30
0.0
 10
9.999999999999995
 20
-1.694884658851029
 30
0.0
  0
SPLINE
  5
B6
330
1F
100
AcDbEntity
  8
0
  6
Continuous
 62
     4
370
    25
100
AcDbSpline
210
0.0
220
0.0
230
1.0
 70
    24
 71
     3
 72
    11
 73
     7
 74
     0
 42
0.000000001
 43
0.00000001
 40
0.0
 40
0.0
 40
0.0
 40
0.0
 40
0.2956156780549833
 40
0.6299385599713485
 40
0.9739568281119219
 40
1.0
 40
1.0
 40
1.0
 40
1.0
 10
9.999999999999995
 20
-4.151796658621675
 30
0.0
 10
9.999999999999995
 20
-4.279997841354717
 30
0.0
 10
9.999999999999995
 20
-4.553186560467427
 30
0.0
 10
9.999999999999995
 20
-5.082140961919277
 30
0.0
 10
9.999999999999995
 20
-5.505681764274591
 30
0.0
 10
9.999999999999995
 20
-5.739203596480755
 30
0.0
 10
9.999999999999995
 20
-5.755637757292791
 30
0.0
  0
SPLINE
  5
B7
330
1F
100
AcDbEntity
  8
0
  6
Continuous
 62
     1
370
    25
100
AcDbSpline
210
0.0
220
0.0
230
1.0
 70
     8
 71
     3
 72
    22
 73
    18
 74
     0
 42
0.000000001
 43
0.00000001
 40
0.0
 40
0.0
 40
0.0
 40
0.0
 40
0.0615999399341455
 40
0.1282056413702388
 40
0.1948096476702706
 40
0.2613946193937273
 40
0.3279470997224386
 40
0.3945180974563214
 40
0.4611157911534847
 40
0.5277228837539677
 40
0.5943220150822948
 40
0.6608958784303042
 40
0.7373426349192237
 40
0.8138646371616902
 40
0.8903320941530302
 40
0.9667952554639831
 40
1.0
 40
1.0
 40
1.0
 40
1.0
 10
29.19032433293467
 20
5.06626593831732
 30
0.0
 10
29.98055799839053
 20
5.28834204445818
 30
0.0
 10
31.62524164614136
 20
5.750540703275573
 30
0.0
 10
34.12454002476512
 20
6.033613737837805
 30
0.0
 10
36.68775069641926
 20
5.985486927019491
 30
0.0
 10
39.25017316022009
 20
5.568240209222653
 30
0.0
 10
41.81175901496599
 20
4.815852152367202
 30
0.0
 10
44.37376745075473
 20
3.771776504530644
 30
0.0
 10
46.93670627146923
 20
2.499700025644908
 30
0.0
 10
49.50005876236612
 20
1.076253987696084
 30
0.0
 10
52.06309823307231
 20
-0.4121263553226608
 30
0.0
 10
54.75196379330572
 20
-1.948365048735702
 30
0.0
 10
57.56859090325072
 20
-3.422441857990095
 30
0.0
 10
60.51309313147366
 20
-4.695791183460909
 30
0.0
 10
63.45696188152134
 20
-5.568273137228284
 30
0.0
 10
65.845003743564
 20
-6.000028971699944
 30
0.0
 10
67.25233516702409
 20
-5.954672767618504
 30
0.0
 10
67.67844050780363
 20
-5.940940024588385
 30
0.0
  0
SPLINE
  5
B8
330
1F
100
AcDbEntity
  8
0
  6
Continuous
 62
     1
370
    25
100
AcDbSpline
210
0.0
220
0.0
230
1.0
 70
     8
 71
     3
 72
    19
 73
    15
 74
     0
 42
0.000000001
 43
0.00000001
 40
0.0
 40
0.0
 40
0.0
 40
0.0
 40
0.0844623821111041
 40
0.1689647100817946
 40
0.2534850831605818
 40
0.3380014794792912
 40
0.4224919038835668
 40
0.5069425623559627
 40
0.5914218751721877
 40
0.6759332519472429
 40
0.7604547312275012
 40
0.8449642837116608
 40
0.9294399601892385
 40
1.0
 40
1.0
 40
1.0
 40
1.0
 10
70.0
 20
-5.850994190131571
 30
0.0
 10
69.1462140248401
 20
-5.707373451389916
 30
0.0
 10
67.43823828275137
 20
-5.420064049539331
 30
0.0
 10
64.87554852869556
 20
-4.566513042532611
 30
0.0
 10
62.31222784149289
 20
-3.462058185879202
 30
0.0
 10
59.74905291857665
 20
-2.141357484303934
 30
0.0
 10
57.18671051023729
 20
-0.6931201724773222
 30
0.0
 10
54.62515057787148
 20
0.7979585285752923
 30
0.0
 10
52.06306627771558
 20
2.240419710377054
 30
0.0
 10
49.50006704053247
 20
3.546738928377003
 30
0.0
 10
46.93670512398993
 20
4.641259202187713
 30
0.0
 10
44.37376376443916
 20
5.444822783639021
 30
0.0
 10
41.95220998810888
 20
5.928742536896372
 30
0.0
 10
40.38505211113372
 20
5.960541989291993
 30
0.0
 10
39.67180535202267
 20
5.975014593932476
 30
0.0
  0
SPLINE
  5
B9
330
1F
100
AcDbEntity
  8
0
  6
Continuous
 62
     1
370
    25
100
AcDbSpline
210
0.0
220
0.0
230
1.0
 70
     8
 71
     3
 72
     9
 73
     5
 74
     0
 42
0.000000001
 43
0.00000001
 40
0.0
 40
0.0
 40
0.0
 40
0.0
 40
0.0316617839737495
 40
1.0
 40
1.0
 40
1.0
 40
1.0
 10
12.86696084053331
 20
-5.071227538550105
 30
0.0
 10
12.83670717886164
 20
-5.08233620503514
 30
0.0
 10
11.8811810563679
 20
-5.433190297598137
 30
0.0
 10
10.92546062120524
 20
-5.5970073982725
 30
0.0
 10
9.999999999999995
 20
-5.755637757294104
 30
0.0
  0
LINE
  5
BA
330
1F
100
AcDbEntity
  8
0
  6
Continuous
 62
     1
370
    25
100
AcDbLine
 10
70.0
 20
-6.00000000000002
 30
0.0
 11
70.0
 21
-5.850994190131581
 31
0.0
  0
SPLINE
  5
BB
330
1F
100
AcDbEntity
  8
0
  6
Continuous
 62
     1
370
    25
100
AcDbSpline
210
0.0
220
0.0
230
1.0
 70
     8
 71
     3
 72
    23
 73
    19
 74
     0
 42
0.000000001
 43
0.00000001
 40
0.0
 40
0.0
 40
0.0
 40
0.0
 40
0.0554294244053522
 40
0.1219270434075248
 40
0.1883933649010619
 40
0.2548822386027591
 40
0.32139634802712
 40
0.3879184085601028
 40
0.4544310821886113
 40
0.5209170939344877
 40
0.5873846119149169
 40
0.6538845798108681
 40
0.720403557983438
 40
0.7869242291280222
 40
0.8534292645671627
 40
0.9199017734820696
 40
0.9863805775500345
 40
1.0
 40
1.0
 40
1.0
 40
1.0
 10
61.88487349632953
 20
-5.040286471518271
 30
0.0
 10
61.17284717530514
 20
-5.249146811590873
 30
0.0
 10
59.60661651203924
 20
-5.708572902035425
 30
0.0
 10
57.18671139715739
 20
-6.015904115166382
 30
0.0
 10
54.62515036065937
 20
-6.009815690885793
 30
0.0
 10
52.06306625948407
 20
-5.631482186915523
 30
0.0
 10
49.50006733093009
 20
-4.914834894856816
 30
0.0
 10
46.93670398058057
 20
-3.900186002818856
 30
0.0
 10
44.37376804623957
 20
-2.649832506425957
 30
0.0
 10
41.81175892281513
 20
-1.239178934338285
 30
0.0
 10
39.25017293367554
 20
0.2468225692344659
 30
0.0
 10
36.68775169549877
 20
1.717265545061559
 30
0.0
 10
34.12453625396891
 20
3.084684462979904
 30
0.0
 10
31.5612354735762
 20
4.263029326746564
 30
0.0
 10
28.99864582851626
 20
5.192562432942982
 30
0.0
 10
26.43687932213858
 20
5.773910301437065
 30
0.0
 10
24.55454332264846
 20
6.038256094509516
 30
0.0
 10
23.52550318250414
 20
5.977612591408809
 30
0.0
 10
23.35053136357804
 20
5.967301133546639
 30
0.0
  0
SPLINE
  5
BC
330
1F
100
AcDbEntity
  8
0
  6
Continuous
 62
     1
370
    25
100
AcDbSpline
210
0.0
220
0.0
230
1.0
 70
     8
 71
     3
 72
    13
 73
     9
 74
     0
 42
0.000000001
 43
0.00000001
 40
0.0
 40
0.0
 40
0.0
 40
0.0
 40
0.1829301209917114
 40
0.365946757432604
 40
0.5490024762877611
 40
0.732049582205608
 40
0.915040437691831
 40
1.0
 40
1.0
 40
1.0
 40
1.0
 10
70.0
 20
1.328859280378003
 30
0.0
 10
69.14621401246421
 20
1.801983697218038
 30
0.0
 10
67.43823824561787
 20
2.748456291595469
 30
0.0
 10
64.87554867732487
 20
3.978686912433305
 30
0.0
 10
62.31222728401994
 20
4.979521904089507
 30
0.0
 10
59.7490549994126
 20
5.657397442543465
 30
0.0
 10
57.64389076509426
 20
5.99520752280925
 30
0.0
 10
56.39331535611402
 20
5.964455561655623
 30
0.0
 10
55.99679296867052
 20
5.954704977270513
 30
0.0
  0
SPLINE
  5
BD
330
1F
100
AcDbEntity
  8
0
  6
Continuous
 62
     1
370
    25
100
AcDbSpline
210
0.0
220
0.0
230
1.0
 70
     8
 71
     3
 72
    15
 73
    11
 74
     0
 42
0.000000001
 43
0.00000001
 40
0.0
 40
0.0
 40
0.0
 40
0.0
 40
0.0100081542254096
 40
0.1434958048790079
 40
0.2769960972277365
 40
0.4216245956678512
 40
0.5662687070947081
 40
0.7107999660916643
 40
0.8553509001874424
 40
1.0
 40
1.0
 40
1.0
 40
1.0
 10
29.19032433293468
 20
-5.066265938317334
 30
0.0
 10
29.12630786501446
 20
-5.089308841331123
 30
0.0
 10
28.20844685060273
 20
-5.419695428132275
 30
0.0
 10
26.43692796626864
 20
-5.775586652241932
 30
0.0
 10
23.80440273833656
 20
-6.066340572466938
 30
0.0
 10
21.09961396416467
 20
-5.928380905531233
 30
0.0
 10
18.32423228079226
 20
-5.377042819260618
 30
0.0
 10
15.55003914454545
 20
-4.43935369696762
 30
0.0
 10
12.77565927600323
 20
-3.196343391727717
 30
0.0
 10
10.92542910531322
 20
-2.195484146635672
 30
0.0
 10
9.999999999999995
 20
-1.694884658851631
 30
0.0
  0
SPLINE
  5
BE
330
1F
100
AcDbEntity
  8
0
  6
Continuous
 62
     4
370
    25
100
AcDbSpline
210
0.0
220
0.0
230
1.0
 70
    24
 71
     3
 72
    24
 73
    20
 74
     0
 42
0.000000001
 43
0.00000001
 40
0.0
 40
0.0
 40
0.0
 40
0.0
 40
0.0624999999999999
 40
0.0624999999999999
 40
0.1249999999999997
 40
0.1249999999999997
 40
0.2499999999999997
 40
0.2499999999999997
 40
0.3749999999999996
 40
0.3749999999999996
 40
0.4999999999999994
 40
0.4999999999999994
 40
0.6249999999999996
 40
0.6249999999999996
 40
0.7499999999999998
 40
0.7499999999999998
 40
0.8749999999999999
 40
0.8749999999999999
 40
1.0
 40
1.0
 40
1.0
 40
1.0
 10
9.999999999999995
 20
4.458878332285248
 30
0.0
 10
9.999999999999995
 20
4.371160747970475
 30
0.0
 10
9.999999999999995
 20
4.284295965705315
 30
0.0
 10
9.999999999999995
 20
4.113145469097214
 30
0.0
 10
9.999999999999995
 20
4.025193972177286
 30
0.0
 10
9.999999999999995
 20
3.743445922356341
 30
0.0
 10
9.999999999999995
 20
3.535728801814106
 30
0.0
 10
9.999999999999995
 20
3.077265057425087
 30
0.0
 10
9.999999999999995
 20
2.826385865794415
 30
0.0
 10
9.999999999999995
 20
2.283688896210271
 30
0.0
 10
9.999999999999995
 20
1.991723003332458
 30
0.0
 10
9.999999999999995
 20
1.378858492457417
 30
0.0
 10
9.999999999999995
 20
1.057899435597266
 30
0.0
 10
9.999999999999995
 20
0.4125799066386809
 30
0.0
 10
9.999999999999995
 20
0.0883987846747587
 30
0.0
 10
9.999999999999995
 20
-0.5255182742410118
 30
0.0
 10
9.999999999999995
 20
-0.8147940058858588
 30
0.0
 10
9.999999999999995
 20
-1.318418596237524
 30
0.0
 10
9.999999999999995
 20
-1.532272786147989
 30
0.0
 10
9.999999999999995
 20
-1.694884658851628
 30
0.0
  0
SPLINE
  5
BF
330
1F
100
AcDbEntity
  8
0
  6
Continuous
 62
     1
370
    25
100
AcDbSpline
210
0.0
220
0.0
230
1.0
 70
     8
 71
     3
 72
    17
 73
    13
 74
     0
 42
0.000000001
 43
0.00000001
 40
0.0
 40
0.0
 40
0.0
 40
0.0
 40
0.1109001259545716
 40
0.2217249898413579
 40
0.3325347691480097
 40
0.4434310705879239
 40
0.554315401803354
 40
0.6566679173435925
 40
0.7590107407005812
 40
0.8614036427499255
 40
0.963820617942685
 40
1.0
 40
1.0
 40
1.0
 40
1.0
 10
9.999999999999995
 20
4.458878332285219
 30
0.0
 10
10.92542911365276
 20
4.070774807424633
 30
0.0
 10
12.77565930101619
 20
3.294831143101307
 30
0.0
 10
15.5500390445784
 20
1.812273021312899
 30
0.0
 10
18.32423265574367
 20
0.2235944022764457
 30
0.0
 10
21.09961256318417
 20
-1.385900186523535
 30
0.0
 10
23.80440779622397
 20
-2.858000541811207
 30
0.0
 10
26.43691069994026
 20
-4.103022666868436
 30
0.0
 10
28.99863802610281
 20
-5.072837415988457
 30
0.0
 10
31.56123528924377
 20
-5.71129963654543
 30
0.0
 10
33.5719166350741
 20
-6.012386146470306
 30
0.0
 10
34.72826630191106
 20
-5.969561672524903
 30
0.0
 10
35.03012139549664
 20
-5.958382713459776
 30
0.0
  0
SPLINE
  5
C0
330
1F
100
AcDbEntity
  8
0
  6
Continuous
 62
     1
370
    25
100
AcDbSpline
210
0.0
220
0.0
230
1.0
 70
     8
 71
     3
 72
    10
 73
     6
 74
     0
 42
0.000000001
 43
0.00000001
 40
0.0
 40
0.0
 40
0.0
 40
0.0
 40
0.210719188626579
 40
0.605206801119877
 40
0.9999999999999999
 40
0.9999999999999999
 40
0.9999999999999999
 40
0.9999999999999999
 10
61.88487349632953
 20
5.040286471518261
 30
0.0
 10
62.40892162035487
 20
5.208208685392568
 30
0.0
 10
63.91404078316776
 20
5.690498250753107
 30
0.0
 10
66.40078852609389
 20
6.044957366447251
 30
0.0
 10
68.36403801148191
 20
5.963690382638537
 30
0.0
 10
69.34604281049303
 20
5.923041158637572
 30
0.0
  0
SPLINE
  5
C1
330
1F
100
AcDbEntity
  8
0
  6
Continuous
 62
     1
370
    25
100
AcDbSpline
210
0.0
220
0.0
230
1.0
 70
     8
 71
     3
 72
    20
 73
    16
 74
     0
 42
0.000000001
 43
0.00000001
 40
0.0
 40
0.0
 40
0.0
 40
0.0
 40
0.2499999999999997
 40
0.2499999999999997
 40
0.3749999999999997
 40
0.3749999999999997
 40
0.4999999999999998
 40
0.4999999999999998
 40
0.6249999999999998
 40
0.6249999999999998
 40
0.7499999999999999
 40
0.7499999999999999
 40
0.8749999999999999
 40
0.8749999999999999
 40
1.0
 40
1.0
 40
1.0
 40
1.0
 10
69.34604281049303
 20
5.923041158637581
 30
0.0
 10
69.35112885140026
 20
5.54253497923388
 30
0.0
 10
69.31712971161332
 20
5.169800947532965
 30
0.0
 10
69.18707733190624
 20
4.626419842655086
 30
0.0
 10
69.12953167146964
 20
4.446911123490396
 30
0.0
 10
68.98808935692881
 20
4.110784893826112
 30
0.0
 10
68.90394834380399
 20
3.952221520663266
 30
0.0
 10
68.70565846706188
 20
3.65633694197504
 30
0.0
 10
68.59458529726811
 20
3.523839668565571
 30
0.0
 10
68.35152993231176
 20
3.291097136675004
 30
0.0
 10
68.21750383993009
 20
3.189532317023825
 30
0.0
 10
67.93775629808968
 20
3.024135119926171
 30
0.0
 10
67.79214789655805
 20
2.95966740398535
 30
0.0
 10
67.490480022127
 20
2.863956824433932
 30
0.0
 10
67.3357811584535
 20
2.833394590183149
 30
0.0
 10
67.18130034237637
 20
2.81869965762362
 30
0.0
  0
LINE
  5
C2
330
1F
100
AcDbEntity
  8
0
  6
Continuous
 62
     1
370
    25
100
AcDbLine
 10
70.0
 20
1.3342537985268
 30
0.0
 11
70.0
 21
1.446523558810436
 31
0.0
  0
SPLINE
  5
C3
330
1F
100
AcDbEntity
  8
0
  6
Continuous
 62
     4
370
    25
100
AcDbSpline
210
0.0
220
0.0
230
1.0
 70
    24
 71
     3
 72
    11
 73
     7
 74
     0
 42
0.000000001
 43
0.00000001
 40
0.0
 40
0.0
 40
0.0
 40
0.0
 40
0.2956156780547795
 40
0.6299385599709127
 40
0.9739568281112488
 40
1.0
 40
1.0
 40
1.0
 40
1.0
 10
9.999999999999995
 20
-4.151796658621675
 30
0.0
 10
9.999999999999995
 20
-4.279997841354717
 30
0.0
 10
9.999999999999995
 20
-4.553186560467427
 30
0.0
 10
9.999999999999995
 20
-5.082140961919277
 30
0.0
 10
9.999999999999993
 20
-5.505681764274994
 30
0.0
 10
9.999999999999995
 20
-5.739203596481626
 30
0.0
 10
9.999999999999995
 20
-5.755637757294099
 30
0.0
  0
SPLINE
  5
C4
330
1F
100
AcDbEntity
  8
0
  6
Continuous
 62
     1
370
    25
100
AcDbSpline
210
0.0
220
0.0
230
1.0
 70
     8
 71
     3
 72
    11
 73
     7
 74
     0
 42
0.000000001
 43
0.00000001
 40
0.0
 40
0.0
 40
0.0
 40
0.0
 40
0.318908730165457
 40
0.6376010337916252
 40
0.9562499596104703
 40
1.0
 40
1.0
 40
1.0
 40
1.0
 10
9.999999999999995
 20
-4.014773221226488
 30
0.0
 10
10.9254269352951
 20
-4.386095884474963
 30
0.0
 10
12.77565276742155
 20
-5.128489213859994
 30
0.0
 10
15.55006515678541
 20
-5.764461236521989
 30
0.0
 10
17.52592541134376
 20
-6.050176310083431
 30
0.0
 10
18.57752781169257
 20
-5.982895025175193
 30
0.0
 10
18.70448084351367
 20
-5.974772598770416
 30
0.0
  0
SPLINE
  5
C5
330
1F
100
AcDbEntity
  8
0
  6
Continuous
 62
     1
370
    25
100
AcDbSpline
210
0.0
220
0.0
230
1.0
 70
     8
 71
     3
 72
    16
 73
    12
 74
     0
 42
0.000000001
 43
0.00000001
 40
0.0
 40
0.0
 40
0.0
 40
0.0
 40
0.0597050831615096
 40
0.1672799900933704
 40
0.2748420390385244
 40
0.3823632785064153
 40
0.5058299003550101
 40
0.62941804912542
 40
0.7529181036691581
 40
0.8764112204019249
 40
1.0
 40
1.0
 40
1.0
 40
1.0
 10
45.51383183935162
 20
5.038849794978313
 30
0.0
 10
45.98808348318539
 20
5.190452781486218
 30
0.0
 10
47.31682814078305
 20
5.615209682210486
 30
0.0
 10
49.50006312569024
 20
5.95562128758555
 30
0.0
 10
52.06309701826957
 20
6.049491483754934
 30
0.0
 10
54.75196437577547
 20
5.748897212170049
 30
0.0
 10
57.56858984125992
 20
5.025661031354129
 30
0.0
 10
60.5130967252783
 20
3.868705459602173
 30
0.0
 10
63.4569485803225
 20
2.404069373523073
 30
0.0
 10
66.40080138183825
 20
0.7420392038358876
 30
0.0
 10
68.36404229783597
 20
-0.3911111936916685
 30
0.0
 10
69.34604281049303
 20
-0.9579057537592541
 30
0.0
  0
SPLINE
  5
C6
330
1F
100
AcDbEntity
  8
0
  6
Continuous
 62
     1
370
    25
100
AcDbSpline
210
0.0
220
0.0
230
1.0
 70
     8
 71
     3
 72
     8
 73
     4
 74
     0
 42
0.000000001
 43
0.00000001
 40
0.0
 40
0.0
 40
0.0
 40
0.0
 40
1.0
 40
1.0
 40
1.0
 40
1.0
 10
70.0
 20
-4.474290814540883
 30
0.0
 10
69.0112668397746
 20
-3.91795578000053
 30
0.0
 10
68.07855960571098
 20
-3.235662551569953
 30
0.0
 10
67.18130034237618
 20
-2.473674748217332
 30
0.0
  0
LINE
  5
C7
330
1F
100
AcDbEntity
  8
0
  6
Continuous
 62
     1
370
    25
100
AcDbLine
 10
70.0
 20
-5.850994190131581
 30
0.0
 11
70.0
 21
-4.474290814540883
 31
0.0
  0
LINE
  5
C8
330
1F
100
AcDbEntity
  8
0
  6
Continuous
 62
     1
370
    25
100
AcDbLine
 10
69.34604281049303
 20
-0.9579057537592462
 30
0.0
 11
69.33613205223833
 21
-0.9648453413985688
 31
0.0
  0
SPLINE
  5
C9
330
1F
100
AcDbEntity
  8
0
  6
Continuous
 62
     1
370
    25
100
AcDbSpline
210
0.0
220
0.0
230
1.0
 70
    24
 71
     3
 72
    15
 73
    11
 74
     0
 42
0.000000001
 43
0.00000001
 40
0.0
 40
0.0
 40
0.0
 40
0.0
 40
0.0816921234922088
 40
0.2125452865804597
 40
0.3469710327232245
 40
0.4779324658071942
 40
0.6130886328942782
 40
0.7385325626454345
 40
0.8670190374895121
 40
0.9999999999999999
 40
0.9999999999999999
 40
0.9999999999999999
 40
0.9999999999999999
 10
69.2238808318601
 20
-1.043444492080626
 30
0.0
 10
69.20686679326843
 20
-1.055357850157912
 30
0.0
 10
69.16259993431345
 20
-1.086353838491031
 30
0.0
 10
69.01303221697097
 20
-1.191082281647094
 30
0.0
 10
68.80304792179868
 20
-1.33811486803235
 30
0.0
 10
68.5353016722467
 20
-1.525592810296007
 30
0.0
 10
68.23214807998545
 20
-1.73786324083272
 30
0.0
 10
67.90005726773029
 20
-1.970395730943943
 30
0.0
 10
67.55028439052882
 20
-2.21530933622172
 30
0.0
 10
67.30569647097286
 20
-2.386571641249862
 30
0.0
 10
67.18130034237623
 20
-2.473674748217339
 30
0.0
  0
SPLINE
  5
CA
330
1F
100
AcDbEntity
  8
0
  6
Continuous
 62
     1
370
    25
100
AcDbSpline
210
0.0
220
0.0
230
1.0
 70
     8
 71
     3
 72
    21
 73
    17
 74
     0
 42
0.000000001
 43
0.00000001
 40
0.0
 40
0.0
 40
0.0
 40
0.0
 40
0.0321106043974798
 40
0.1042545613806063
 40
0.176378450782841
 40
0.2485375515813988
 40
0.320717280427009
 40
0.3928988463161862
 40
0.4650634459047641
 40
0.5371927509689224
 40
0.6093288869023042
 40
0.6874780867262579
 40
0.765635722940231
 40
0.8437323799752038
 40
0.9218396683397275
 40
1.0
 40
1.0
 40
1.0
 40
1.0
 10
45.51383183935154
 20
-5.038849794978326
 30
0.0
 10
45.13370516447978
 20
-5.164352508715597
 30
0.0
 10
43.89953531618713
 20
-5.57182632050663
 30
0.0
 10
41.81176434198594
 20
-5.922083931044321
 30
0.0
 10
39.25017144055487
 20
-6.059032313765616
 30
0.0
 10
36.68775224687379
 20
-5.811920132012453
 30
0.0
 10
34.1245355421721
 20
-5.217920681941074
 30
0.0
 10
31.56123776908426
 20
-4.306965813109348
 30
0.0
 10
28.99863736218857
 20
-3.135956413138102
 30
0.0
 10
26.4369108773431
 20
-1.774896362643968
 30
0.0
 10
23.80440774425672
 20
-0.265902919755743
 30
0.0
 10
21.09961257757855
 20
1.30334927420068
 30
0.0
 10
18.32423265189125
 20
2.823007706159098
 30
0.0
 10
15.55003904560554
 20
4.135627356219626
 30
0.0
 10
12.77565930075921
 20
5.184065476081411
 30
0.0
 10
10.92542911356708
 20
5.565070554252453
 30
0.0
 10
9.999999999999995
 20
5.755637757294077
 30
0.0
  0
SPLINE
  5
CB
330
1F
100
AcDbEntity
  8
0
  6
Continuous
 62
     1
370
    25
100
AcDbSpline
210
0.0
220
0.0
230
1.0
 70
     8
 71
     3
 72
    22
 73
    18
 74
     0
 42
0.000000001
 43
0.00000001
 40
0.0
 40
0.0
 40
0.0
 40
0.0
 40
0.0697095938246268
 40
0.1417673748231323
 40
0.2138814197449951
 40
0.2859876806263176
 40
0.35254584178856
 40
0.419097700283092
 40
0.4856821241294282
 40
0.5522822023458661
 40
0.6188805855693552
 40
0.6854599358232728
 40
0.7520067974255473
 40
0.8185721748696522
 40
0.8851642460232174
 40
0.9517657152865953
 40
1.0
 40
1.0
 40
1.0
 40
1.0
 10
12.86696084053324
 20
5.071227538550096
 30
0.0
 10
13.76136923289031
 20
5.316122440452819
 30
0.0
 10
15.58031441457124
 20
5.814161597554501
 30
0.0
 10
18.32422612472459
 20
6.062897382803136
 30
0.0
 10
21.09961433140186
 20
5.912739549615267
 30
0.0
 10
23.8044073149867
 20
5.350745081524752
 30
0.0
 10
26.4369109865137
 20
4.460276180786757
 30
0.0
 10
28.99863734015456
 20
3.323351355252778
 30
0.0
 10
31.56123774797967
 20
1.985783342816297
 30
0.0
 10
34.12453564865887
 20
0.5278761645067702
 30
0.0
 10
36.68775184210146
 20
-0.9618793123421444
 30
0.0
 10
39.25017295238126
 20
-2.393511559048286
 30
0.0
 10
41.811758701589
 20
-3.679849701574242
 30
0.0
 10
44.37376891289791
 20
-4.746645851190345
 30
0.0
 10
46.93670073366586
 20
-5.513724810587314
 30
0.0
 10
49.26452042020919
 20
-5.950228952829311
 30
0.0
 10
50.73786174770206
 20
-5.959675803681222
 30
0.0
 10
51.35670703420304
 20
-5.963643749881396
 30
0.0
  0
LINE
  5
CC
330
1F
100
AcDbEntity
  8
0
  6
Continuous
 62
     4
370
    25
100
AcDbLine
 10
9.999999999999995
 20
-4.014773221226497
 30
0.0
 11
9.999999999999995
 21
-1.694884658851628
 31
0.0
  0
LINE
  5
CD
330
1F
100
AcDbEntity
  8
0
  6
Continuous
 62
     1
370
    25
100
AcDbLine
 10
70.0
 20
-0.5000000000000252
 30
0.0
 11
70.0
 21
1.328859280378005
 31
0.0
  0
LINE
  5
CE
330
1F
100
AcDbEntity
  8
0
  6
Continuous
 62
     1
370
    25
100
AcDbLine
 10
70.0
 20
-0.5000000000000249
 30
0.0
 11
69.34604281049303
 21
-0.9579057537592495
 31
0.0
  0
LINE
  5
CF
330
1F
100
AcDbEntity
  8
0
  6
Continuous
 62
     4
370
    25
100
AcDbLine
 10
9.999999999999995
 20
4.458878332285233
 30
0.0
 11
9.999999999999995
 21
5.755637757294071
 31
0.0
  0
LINE
  5
D0
330
1F
100
AcDbEntity
  8
0
  6
Continuous
 62
     1
370
    25
100
AcDbLine
 10
70.0
 20
5.979130371550703
 30
0.0
 11
70.0
 21
6.000000000000004
 31
0.0
  0
ELLIPSE
  5
D1
330
1F
100
AcDbEntity
  8
0
  6
Continuous
 62
     1
370
    25
100
AcDbEllipse
 10
70.71407400337105
 20
-0.0000000000000081
 30
0.0
 11
8.568888040452663
 21
5.350968460038300E-17
 31
0.0
210
0.0
220
0.0
230
1.0
 40
0.7002075382097125
 41
1.65422641340551
 42
1.731133393454127
  0
LINE
  5
D2
330
1F
100
AcDbEntity
  8
0
  6
Continuous
 62
     1
370
    25
100
AcDbLine
 10
70.0
 20
-0.5000000000000043
 30
0.0
 11
70.0
 21
-4.474290814540883
 31
0.0
  0
LINE
  5
D3
330
1F
100
AcDbEntity
  8
0
  6
Continuous
 62
     1
370
    25
100
AcDbLine
 10
70.0
 20
1.446523558810436
 30
0.0
 11
70.0
 21
5.979130371550703
 31
0.0
  0
LINE
  5
D4
330
1F
100
AcDbEntity
  8
중심선
100
AcDbLine
 10
-133.0
 20
-0.0000000000000133
 30
0.0
 11
73.0
 21
0.0000000000000058
 31
0.0
  0
CIRCLE
  5
D5
330
1F
100
AcDbEntity
  8
해칭선
100
AcDbCircle
 10
0.0003434854941569
 20
-0.0000000000000043
 30
0.0
 40
3.000000000000003
  0
INSERT
  5
D6
330
1F
100
AcDbEntity
  8
0
  6
Continuous
 62
     7
100
AcDbBlockReference
 66
     1
  2
블럭10
 10
-42.44009924894178
 20
-52.04717430164393
 30
0.0
  0
ATTRIB
  5
D7
330
D6
100
AcDbEntity
  8
FORMAT
 62
     2
100
AcDbText
 10
-63.29834678053432
 20
-49.97180738881174
 30
0.0
 40
4.233333333333333
  1
SEME7212060200E [ 4 FLUTE ]
 41
0.75
  7
SLDTEXTSTYLE0
 11
-63.29834678053432
 21
-52.08847405547841
 31
0.0
100
AcDbAttribute
  2
AUTOATTR0
 70
     0
 74
     1
  0
SEQEND
  5
D8
330
D6
100
AcDbEntity
  8
0
  6
Continuous
 62
     7
  0
HATCH
  5
D9
330
1F
100
AcDbEntity
  8
중심선
100
AcDbHatch
 10
0.0
 20
0.0
 30
0.0
210
0.0
220
0.0
230
1.0
  2
SOLID
 70
     1
 71
     0
 91
        1
 92
        0
 93
        4
 72
     1
 10
-36.72518994456095
 20
-35.8
 11
-40.17146518839823
 21
-35.8
 72
     1
 10
-40.17146518839823
 20
-35.8
 11
-42.29969504760226
 21
-38.33632558057259
 72
     1
 10
-42.29969504760226
 20
-38.33632558057259
 11
-38.85338671865182
 21
-38.3362861512701
 72
     1
 10
-38.85338671865182
 20
-38.3362861512701
 11
-36.72518994456095
 21
-35.8
 97
        0
 75
     0
 76
     1
 98
        1
 10
0.0
 20
0.0
  0
HATCH
  5
DA
330
1F
100
AcDbEntity
  8
중심선
100
AcDbHatch
 10
0.0
 20
0.0
 30
0.0
210
0.0
220
0.0
230
1.0
  2
SOLID
 70
     1
 71
     0
 91
        1
 92
        0
 93
        4
 72
     1
 10
-31.71242595352497
 20
-35.8
 11
-35.15870119736228
 21
-35.80000000000003
 72
     1
 10
-35.15870119736228
 20
-35.80000000000003
 11
-39.68983920571966
 21
-41.20000000000002
 72
     1
 10
-39.68983920571966
 20
-41.20000000000002
 11
-36.24356396188239
 21
-41.20000000000002
 72
     1
 10
-36.24356396188239
 20
-41.20000000000002
 11
-31.71242595352497
 21
-35.8
 97
        0
 75
     0
 76
     1
 98
        1
 10
0.0
 20
0.0
  0
HATCH
  5
DB
330
1F
100
AcDbEntity
  8
중심선
100
AcDbHatch
 10
0.0
 20
0.0
 30
0.0
210
0.0
220
0.0
230
1.0
  2
SOLID
 70
     1
 71
     0
 91
        1
 92
        0
 93
        4
 72
     1
 10
-26.6996619624891
 20
-35.79999999999997
 11
-30.14593720632619
 21
-35.79999999999997
 72
     1
 10
-30.14593720632619
 20
-35.79999999999997
 11
-37.19437410821547
 21
-44.20000000000002
 72
     1
 10
-37.19437410821547
 20
-44.20000000000002
 11
-33.74809886437819
 21
-44.20000000000002
 72
     1
 10
-33.74809886437819
 20
-44.20000000000002
 11
-26.6996619624891
 21
-35.79999999999997
 97
        0
 75
     0
 76
     1
 98
        1
 10
0.0
 20
0.0
  0
HATCH
  5
DC
330
1F
100
AcDbEntity
  8
중심선
100
AcDbHatch
 10
0.0
 20
0.0
 30
0.0
210
0.0
220
0.0
230
1.0
  2
SOLID
 70
     1
 71
     0
 91
        1
 92
        0
 93
        6
 72
     3
 10
-21.8997715314769
 20
-40.00000000005127
 11
3.960054785062284
 21
1.540850780301639E-10
 40
0.3939339440162633
 50
17.09539180608434
 51
320.0019657685075
 73
     0
 72
     1
 10
-20.21677187577633
 20
-38.5878940046383
 11
-17.91147000207527
 21
-36.65356729459035
 72
     3
 10
-21.89977153152975
 20
-40.00000000000015
 11
6.600054785286829
 21
-1.249000902703301E-13
 40
0.6363583540795982
 50
39.99873849337433
 51
368.4976242363725
 73
     1
 72
     1
 10
-15.47443903962914
 20
-39.03999999993002
 11
-23.21970422469383
 21
-39.03999999993002
 72
     1
 10
-23.21970422469383
 20
-39.03999999993002
 11
-23.21972926913976
 21
-40.95999999992991
 72
     1
 10
-23.21972926913976
 20
-40.95999999992991
 11
-18.77834949966772
 21
-40.95999999992988
 97
        0
 75
     0
 76
     1
 98
        1
 10
0.0
 20
0.0
  0
DIMENSION
  5
DD
330
1F
100
AcDbEntity
  8
치수문자_일반주서
100
AcDbDimension
  2
_D
 10
82.80517824122252
 20
6.000000000000041
 30
0.0
 11
82.80517824122248
 21
16.54150000000004
 31
0.0
 70
   160
  1
%%c<>
 71
     2
 42
12.00000000000001
 52
-270.0
  3
SLDDIMSTYLE0
100
AcDbAlignedDimension
 13
70.0
 23
-6.000000000000012
 33
0.0
 14
70.0
 24
5.999999999999994
 34
0.0
 50
90.0000000000002
100
AcDbRotatedDimension
  0
DIMENSION
  5
EB
330
1F
100
AcDbEntity
  8
치수문자_일반주서
100
AcDbDimension
  2
_D_1
 10
70.0
 20
23.38913260158163
 30
0.0
 11
-30.00000000000001
 21
23.38913260158163
 31
0.0
 70
   160
  1
<>
 71
     2
 42
200.0
  3
SLDDIMSTYLE1
100
AcDbAlignedDimension
 13
-130.0
 23
5.499999999999976
 33
0.0
 14
70.0
 24
6.000000000000004
 34
0.0
 50
-0.0000000000000041
100
AcDbRotatedDimension
  0
DIMENSION
  5
F6
330
1F
100
AcDbEntity
  8
치수문자_일반주서
100
AcDbDimension
  2
_D_2
 10
-143.0095821335638
 20
-6.000000000000064
 30
0.0
 11
-143.0095821335639
 21
16.54149999999992
 31
0.0
 70
   160
  1
%%c<>
 71
     2
 42
11.99999999999998
 52
-270.0
  3
SLDDIMSTYLE2
100
AcDbAlignedDimension
 13
-129.5
 23
5.99999999999997
 33
0.0
 14
-129.5
 24
-6.000000000000013
 34
0.0
 50
90.0000000000002
100
AcDbRotatedDimension
  0
DIMENSION
  5
104
330
1F
100
AcDbEntity
  8
치수문자_일반주서
100
AcDbDimension
  2
_D_3
 10
70.0
 20
16.60155605988041
 30
0.0
 11
39.99999999999999
 21
16.60155605988041
 31
0.0
 70
   160
  1
<>
 71
     2
 42
60.00000000000001
  3
SLDDIMSTYLE1
100
AcDbAlignedDimension
 13
9.999999999999995
 23
5.755637757292764
 33
0.0
 14
70.0
 24
6.000000000000004
 34
0.0
 50
-0.0000000000000034
100
AcDbRotatedDimension
  0
INSERT
  5
114
330
1F
100
AcDbEntity
  8
해칭선
100
AcDbBlockReference
  2
SW_DOWELSYMBOL_0
 10
0.0003434854941569
 20
-0.0000000000000043
 30
0.0
  0
ENDSEC
  0
SECTION
  2
OBJECTS
  0
DICTIONARY
  5
C
330
0
100
AcDbDictionary
281
     1
  3
ACAD_GROUP
350
D
  3
ACAD_IMAGE_VARS
350
138
  3
ACAD_LAYOUT
350
1A
  3
ACAD_MLINESTYLE
350
17
  3
ACAD_PLOTSETTINGS
350
19
  3
ACAD_PLOTSTYLENAME
350
E
  3
ACAD_SCALELIST
350
47
  3
APPDATA
350
136
  3
DWGPROPS
350
148
  0
DICTIONARY
  5
D
102
{ACAD_REACTORS
330
C
102
}
330
C
100
AcDbDictionary
281
     1
  0
RASTERVARIABLES
  5
138
102
{ACAD_REACTORS
330
C
102
}
330
C
100
AcDbRasterVariables
 90
        0
 70
     1
 71
     1
 72
     1
  0
DICTIONARY
  5
1A
102
{ACAD_REACTORS
330
C
102
}
330
C
100
AcDbDictionary
281
     1
  3
Layout1
350
1E
  3
Layout2
350
26
  3
Model
350
22
  0
DICTIONARY
  5
17
102
{ACAD_REACTORS
330
C
102
}
330
C
100
AcDbDictionary
281
     1
  3
Standard
350
18
  0
DICTIONARY
  5
19
102
{ACAD_REACTORS
330
C
102
}
330
C
100
AcDbDictionary
281
     1
  0
ACDBDICTIONARYWDFLT
  5
E
102
{ACAD_REACTORS
330
C
102
}
330
C
100
AcDbDictionary
281
     1
  3
Normal
350
F
100
AcDbDictionaryWithDefault
340
F
  0
DICTIONARY
  5
47
102
{ACAD_REACTORS
330
C
102
}
330
C
100
AcDbDictionary
281
     1
  3
A0
350
48
  3
A1
350
49
  3
A2
350
4A
  3
A3
350
4B
  3
A4
350
4C
  3
A5
350
4D
  3
A6
350
4E
  3
A7
350
4F
  3
A8
350
50
  3
A9
350
51
  3
B0
350
52
  3
B1
350
53
  3
B2
350
54
  3
B3
350
55
  3
B4
350
56
  3
B5
350
57
  3
B6
350
58
  3
B7
350
59
  3
B8
350
5A
  3
B9
350
5B
  3
C0
350
5C
  3
C1
350
5D
  3
C2
350
5E
  3
C3
350
5F
  3
C4
350
60
  3
C5
350
61
  3
C6
350
62
  3
C7
350
63
  3
C8
350
64
  3
C9
350
65
  3
D0
350
66
  3
D1
350
67
  3
D2
350
68
  0
DICTIONARY
  5
136
102
{ACAD_REACTORS
330
C
102
}
330
C
100
AcDbDictionary
281
     1
  0
XRECORD
  5
148
102
{ACAD_REACTORS
330
C
102
}
330
C
100
AcDbXrecord
280
     1
  1
DWGPROPS COOKIE
  2

  3

  4

  6

  7

  8
12014102
  9

300
=
301
=
302
=
303
=
304
=
305
=
306
=
307
=
308
=
309
=
 40
0.0
 41
2458260.206372558
 42
2458268.281439907
  1

 90
        0
  0
LAYOUT
  5
1E
102
{ACAD_REACTORS
330
1A
102
}
330
1A
100
AcDbPlotSettings
  1

  2
none_device
  4

  6

 40
0.0
 41
0.0
 42
0.0
 43
0.0
 44
0.0
 45
0.0
 46
0.0
 47
0.0
 48
0.0
 49
0.0
140
0.0
141
0.0
142
1.0
143
1.0
 70
   688
 72
     1
 73
     0
 74
     5
  7

 75
    16
147
1.0
148
0.0
149
0.0
100
AcDbLayout
  1
Layout1
 70
     1
 71
     1
 10
0.0
 20
0.0
 11
420.0
 21
297.0
 12
0.0
 22
0.0
 32
0.0
 14
1.000000000000000E+20
 24
1.000000000000000E+20
 34
1.000000000000000E+20
 15
-1.000000000000000E+20
 25
-1.000000000000000E+20
 35
-1.000000000000000E+20
146
0.0
 13
0.0
 23
0.0
 33
0.0
 16
1.0
 26
0.0
 36
0.0
 17
0.0
 27
1.0
 37
0.0
 76
     0
330
1B
  0
LAYOUT
  5
26
102
{ACAD_REACTORS
330
1A
102
}
330
1A
100
AcDbPlotSettings
  1

  2
none_device
  4

  6

 40
0.0
 41
0.0
 42
0.0
 43
0.0
 44
0.0
 45
0.0
 46
0.0
 47
0.0
 48
0.0
 49
0.0
140
0.0
141
0.0
142
1.0
143
1.0
 70
   688
 72
     1
 73
     0
 74
     5
  7

 75
    16
147
1.0
148
0.0
149
0.0
100
AcDbLayout
  1
Layout2
 70
     1
 71
     2
 10
0.0
 20
0.0
 11
0.0
 21
0.0
 12
0.0
 22
0.0
 32
0.0
 14
0.0
 24
0.0
 34
0.0
 15
0.0
 25
0.0
 35
0.0
146
0.0
 13
0.0
 23
0.0
 33
0.0
 16
1.0
 26
0.0
 36
0.0
 17
0.0
 27
1.0
 37
0.0
 76
     0
330
23
  0
LAYOUT
  5
22
102
{ACAD_REACTORS
330
1A
102
}
330
1A
100
AcDbPlotSettings
  1

  2
none_device
  4
ANSI_A_(11.00_x_8.50_Inches)
  6

 40
6.35
 41
19.05
 42
6.35000508
 43
19.05000254
 44
279.4
 45
215.9
 46
167.6530799291851
 47
102.3349523421106
 48
0.0
 49
0.0
140
0.0
141
0.0
142
0.0463675140258003
143
1.0
 70
  1696
 72
     0
 73
     0
 74
     0
  7

 75
     0
147
0.0235690232323232
148
0.0
149
0.0
100
AcDbLayout
  1
Model
 70
     1
 71
     0
 10
0.0
 20
0.0
 11
420.0
 21
297.0
 12
0.0
 22
0.0
 32
0.0
 14
-147.3845821335639
 24
-49.97180738881174
 34
0.0
 15
83.35551157455592
 25
27.76413260158162
 35
0.0
146
0.0
 13
0.0
 23
0.0
 33
0.0
 16
1.0
 26
0.0
 36
0.0
 17
0.0
 27
1.0
 37
0.0
 76
     0
330
1F
331
29
  0
MLINESTYLE
  5
18
102
{ACAD_REACTORS
330
17
102
}
330
17
100
AcDbMlineStyle
  2
Standard
 70
     0
  3

 62
   256
 51
90.0
 52
90.0
 71
     2
 49
0.5
 62
   256
  6
BYLAYER
 49
-0.5
 62
   256
  6
BYLAYER
  0
ACDBPLACEHOLDER
  5
F
102
{ACAD_REACTORS
330
E
102
}
330
E
  0
SCALE
  5
48
102
{ACAD_REACTORS
330
47
102
}
330
47
100
AcDbScale
 70
     0
300
1:1
140
1.0
141
1.0
290
     1
  0
SCALE
  5
49
102
{ACAD_REACTORS
330
47
102
}
330
47
100
AcDbScale
 70
     0
300
1:2
140
1.0
141
2.0
290
     0
  0
SCALE
  5
4A
102
{ACAD_REACTORS
330
47
102
}
330
47
100
AcDbScale
 70
     0
300
1:4
140
1.0
141
4.0
290
     0
  0
SCALE
  5
4B
102
{ACAD_REACTORS
330
47
102
}
330
47
100
AcDbScale
 70
     0
300
1:5
140
1.0
141
5.0
290
     0
  0
SCALE
  5
4C
102
{ACAD_REACTORS
330
47
102
}
330
47
100
AcDbScale
 70
     0
300
1:8
140
1.0
141
8.0
290
     0
  0
SCALE
  5
4D
102
{ACAD_REACTORS
330
47
102
}
330
47
100
AcDbScale
 70
     0
300
1:10
140
1.0
141
10.0
290
     0
  0
SCALE
  5
4E
102
{ACAD_REACTORS
330
47
102
}
330
47
100
AcDbScale
 70
     0
300
1:16
140
1.0
141
16.0
290
     0
  0
SCALE
  5
4F
102
{ACAD_REACTORS
330
47
102
}
330
47
100
AcDbScale
 70
     0
300
1:20
140
1.0
141
20.0
290
     0
  0
SCALE
  5
50
102
{ACAD_REACTORS
330
47
102
}
330
47
100
AcDbScale
 70
     0
300
1:30
140
1.0
141
30.0
290
     0
  0
SCALE
  5
51
102
{ACAD_REACTORS
330
47
102
}
330
47
100
AcDbScale
 70
     0
300
1:40
140
1.0
141
40.0
290
     0
  0
SCALE
  5
52
102
{ACAD_REACTORS
330
47
102
}
330
47
100
AcDbScale
 70
     0
300
1:50
140
1.0
141
50.0
290
     0
  0
SCALE
  5
53
102
{ACAD_REACTORS
330
47
102
}
330
47
100
AcDbScale
 70
     0
300
1:100
140
1.0
141
100.0
290
     0
  0
SCALE
  5
54
102
{ACAD_REACTORS
330
47
102
}
330
47
100
AcDbScale
 70
     0
300
2:1
140
2.0
141
1.0
290
     0
  0
SCALE
  5
55
102
{ACAD_REACTORS
330
47
102
}
330
47
100
AcDbScale
 70
     0
300
4:1
140
4.0
141
1.0
290
     0
  0
SCALE
  5
56
102
{ACAD_REACTORS
330
47
102
}
330
47
100
AcDbScale
 70
     0
300
8:1
140
8.0
141
1.0
290
     0
  0
SCALE
  5
57
102
{ACAD_REACTORS
330
47
102
}
330
47
100
AcDbScale
 70
     0
300
10:1
140
10.0
141
1.0
290
     0
  0
SCALE
  5
58
102
{ACAD_REACTORS
330
47
102
}
330
47
100
AcDbScale
 70
     0
300
100:1
140
100.0
141
1.0
290
     0
  0
SCALE
  5
59
102
{ACAD_REACTORS
330
47
102
}
330
47
100
AcDbScale
 70
     0
300
1/128" = 1'-0"
140
0.0078125
141
12.0
290
     0
  0
SCALE
  5
5A
102
{ACAD_REACTORS
330
47
102
}
330
47
100
AcDbScale
 70
     0
300
1/64" = 1'-0"
140
0.015625
141
12.0
290
     0
  0
SCALE
  5
5B
102
{ACAD_REACTORS
330
47
102
}
330
47
100
AcDbScale
 70
     0
300
1/32" = 1'-0"
140
0.03125
141
12.0
290
     0
  0
SCALE
  5
5C
102
{ACAD_REACTORS
330
47
102
}
330
47
100
AcDbScale
 70
     0
300
1/16" = 1'-0"
140
0.0625
141
12.0
290
     0
  0
SCALE
  5
5D
102
{ACAD_REACTORS
330
47
102
}
330
47
100
AcDbScale
 70
     0
300
3/32" = 1'-0"
140
0.09375
141
12.0
290
     0
  0
SCALE
  5
5E
102
{ACAD_REACTORS
330
47
102
}
330
47
100
AcDbScale
 70
     0
300
1/8" = 1'-0"
140
0.125
141
12.0
290
     0
  0
SCALE
  5
5F
102
{ACAD_REACTORS
330
47
102
}
330
47
100
AcDbScale
 70
     0
300
3/16" = 1'-0"
140
0.1875
141
12.0
290
     0
  0
SCALE
  5
60
102
{ACAD_REACTORS
330
47
102
}
330
47
100
AcDbScale
 70
     0
300
1/4" = 1'-0"
140
0.25
141
12.0
290
     0
  0
SCALE
  5
61
102
{ACAD_REACTORS
330
47
102
}
330
47
100
AcDbScale
 70
     0
300
3/8" = 1'-0"
140
0.375
141
12.0
290
     0
  0
SCALE
  5
62
102
{ACAD_REACTORS
330
47
102
}
330
47
100
AcDbScale
 70
     0
300
1/2" = 1'-0"
140
0.5
141
12.0
290
     0
  0
SCALE
  5
63
102
{ACAD_REACTORS
330
47
102
}
330
47
100
AcDbScale
 70
     0
300
3/4" = 1'-0"
140
0.75
141
12.0
290
     0
  0
SCALE
  5
64
102
{ACAD_REACTORS
330
47
102
}
330
47
100
AcDbScale
 70
     0
300
1" = 1'-0"
140
1.0
141
12.0
290
     0
  0
SCALE
  5
65
102
{ACAD_REACTORS
330
47
102
}
330
47
100
AcDbScale
 70
     0
300
1-1/2" = 1'-0"
140
1.5
141
12.0
290
     0
  0
SCALE
  5
66
102
{ACAD_REACTORS
330
47
102
}
330
47
100
AcDbScale
 70
     0
300
3" = 1'-0"
140
3.0
141
12.0
290
     0
  0
SCALE
  5
67
102
{ACAD_REACTORS
330
47
102
}
330
47
100
AcDbScale
 70
     0
300
6" = 1'-0"
140
6.0
141
12.0
290
     0
  0
SCALE
  5
68
102
{ACAD_REACTORS
330
47
102
}
330
47
100
AcDbScale
 70
     0
300
1'-0" = 1'-0"
140
12.0
141
12.0
290
     0
  0
ENDSEC
  0
EOF
