  0
SECTION
  2
HEADER
  9
$ACADVER
  1
AC1015
  9
$ACADMAINTVER
 70
     6
  9
$DWGCODEPAGE
  3
ANSI_949
  9
$INSBASE
 10
0.0
 20
0.0
 30
0.0
  9
$EXTMIN
 10
-60.68899577990139
 20
-49.97180738881174
 30
0.0
  9
$EXTMAX
 10
78.71242880716683
 20
27.76413260158164
 30
0.0
  9
$LIMMIN
 10
0.0
 20
0.0
  9
$LIMMAX
 10
420.0
 20
297.0
  9
$ORTHOMODE
 70
     0
  9
$REGENMODE
 70
     1
  9
$FILLMODE
 70
     1
  9
$QTEXTMODE
 70
     0
  9
$MIRRTEXT
 70
     1
  9
$LTSCALE
 40
1.0
  9
$ATTMODE
 70
     1
  9
$TEXTSIZE
 40
3.5
  9
$TRACEWID
 40
1.0
  9
$TEXTSTYLE
  7
Standard
  9
$CLAYER
  8
0
  9
$CELTYPE
  6
ByLayer
  9
$CECOLOR
 62
   256
  9
$CELTSCALE
 40
1.0
  9
$DISPSILH
 70
     0
  9
$DIMSCALE
 40
1.0
  9
$DIMASZ
 40
3.302
  9
$DIMEXO
 40
1.0
  9
$DIMDLI
 40
3.75
  9
$DIMRND
 40
0.0
  9
$DIMDLE
 40
0.0
  9
$DIMEXE
 40
1.0
  9
$DIMTP
 40
0.0
  9
$DIMTM
 40
0.0
  9
$DIMTXT
 40
3.5
  9
$DIMCEN
 40
2.5
  9
$DIMTSZ
 40
0.0
  9
$DIMTOL
 70
     0
  9
$DIMLIM
 70
     0
  9
$DIMTIH
 70
     1
  9
$DIMTOH
 70
     1
  9
$DIMSE1
 70
     0
  9
$DIMSE2
 70
     0
  9
$DIMTAD
 70
     1
  9
$DIMZIN
 70
     0
  9
$DIMBLK
  1

  9
$DIMASO
 70
     1
  9
$DIMSHO
 70
     1
  9
$DIMPOST
  1

  9
$DIMAPOST
  1

  9
$DIMALT
 70
     0
  9
$DIMALTD
 70
     3
  9
$DIMALTF
 40
0.0393700787401575
  9
$DIMLFAC
 40
1.0
  9
$DIMTOFL
 70
     1
  9
$DIMTVP
 40
0.0
  9
$DIMTIX
 70
     0
  9
$DIMSOXD
 70
     0
  9
$DIMSAH
 70
     0
  9
$DIMBLK1
  1

  9
$DIMBLK2
  1

  9
$DIMSTYLE
  2
ISO-25
  9
$DIMCLRD
 70
     0
  9
$DIMCLRE
 70
     0
  9
$DIMCLRT
 70
     0
  9
$DIMTFAC
 40
1.0
  9
$DIMGAP
 40
1.524
  9
$DIMJUST
 70
     0
  9
$DIMSD1
 70
     0
  9
$DIMSD2
 70
     0
  9
$DIMTOLJ
 70
     0
  9
$DIMTZIN
 70
     0
  9
$DIMALTZ
 70
     0
  9
$DIMALTTZ
 70
     0
  9
$DIMUPT
 70
     0
  9
$DIMDEC
 70
     2
  9
$DIMTDEC
 70
     2
  9
$DIMALTU
 70
     2
  9
$DIMALTTD
 70
     3
  9
$DIMTXSTY
  7
Standard
  9
$DIMAUNIT
 70
     0
  9
$DIMADEC
 70
     2
  9
$DIMALTRND
 40
0.0
  9
$DIMAZIN
 70
     0
  9
$DIMDSEP
 70
    44
  9
$DIMATFIT
 70
     3
  9
$DIMFRAC
 70
     0
  9
$DIMLDRBLK
  1

  9
$DIMLUNIT
 70
     2
  9
$DIMLWD
 70
    -2
  9
$DIMLWE
 70
    -2
  9
$DIMTMOVE
 70
     0
  9
$LUNITS
 70
     2
  9
$LUPREC
 70
     2
  9
$SKETCHINC
 40
1.0
  9
$FILLETRAD
 40
10.0
  9
$AUNITS
 70
     0
  9
$AUPREC
 70
     2
  9
$MENU
  1
.
  9
$ELEVATION
 40
0.0
  9
$PELEVATION
 40
0.0
  9
$THICKNESS
 40
0.0
  9
$LIMCHECK
 70
     0
  9
$CHAMFERA
 40
0.0
  9
$CHAMFERB
 40
0.0
  9
$CHAMFERC
 40
0.0
  9
$CHAMFERD
 40
0.0
  9
$SKPOLY
 70
     0
  9
$TDCREATE
 40
2458260.580994294
  9
$TDUCREATE
 40
2458260.205994294
  9
$TDUPDATE
 40
2458268.588441864
  9
$TDUUPDATE
 40
2458268.213441864
  9
$TDINDWG
 40
0.0005056134
  9
$TDUSRTIMER
 40
2458268.212936285
  9
$USRTIMER
 70
     1
  9
$ANGBASE
 50
0.0
  9
$ANGDIR
 70
     0
  9
$PDMODE
 70
     0
  9
$PDSIZE
 40
-1.0
  9
$PLINEWID
 40
0.0
  9
$SPLFRAME
 70
     0
  9
$SPLINETYPE
 70
     6
  9
$SPLINESEGS
 70
     8
  9
$HANDSEED
  5
14B
  9
$SURFTAB1
 70
     6
  9
$SURFTAB2
 70
     6
  9
$SURFTYPE
 70
     6
  9
$SURFU
 70
     6
  9
$SURFV
 70
     6
  9
$UCSBASE
  2

  9
$UCSNAME
  2

  9
$UCSORG
 10
0.0
 20
0.0
 30
0.0
  9
$UCSXDIR
 10
1.0
 20
0.0
 30
0.0
  9
$UCSYDIR
 10
0.0
 20
1.0
 30
0.0
  9
$UCSORTHOREF
  2

  9
$UCSORTHOVIEW
 70
     0
  9
$UCSORGTOP
 10
0.0
 20
0.0
 30
0.0
  9
$UCSORGBOTTOM
 10
0.0
 20
0.0
 30
0.0
  9
$UCSORGLEFT
 10
0.0
 20
0.0
 30
0.0
  9
$UCSORGRIGHT
 10
0.0
 20
0.0
 30
0.0
  9
$UCSORGFRONT
 10
0.0
 20
0.0
 30
0.0
  9
$UCSORGBACK
 10
0.0
 20
0.0
 30
0.0
  9
$PUCSBASE
  2

  9
$PUCSNAME
  2

  9
$PUCSORG
 10
0.0
 20
0.0
 30
0.0
  9
$PUCSXDIR
 10
1.0
 20
0.0
 30
0.0
  9
$PUCSYDIR
 10
0.0
 20
1.0
 30
0.0
  9
$PUCSORTHOREF
  2

  9
$PUCSORTHOVIEW
 70
     0
  9
$PUCSORGTOP
 10
0.0
 20
0.0
 30
0.0
  9
$PUCSORGBOTTOM
 10
0.0
 20
0.0
 30
0.0
  9
$PUCSORGLEFT
 10
0.0
 20
0.0
 30
0.0
  9
$PUCSORGRIGHT
 10
0.0
 20
0.0
 30
0.0
  9
$PUCSORGFRONT
 10
0.0
 20
0.0
 30
0.0
  9
$PUCSORGBACK
 10
0.0
 20
0.0
 30
0.0
  9
$USERI1
 70
     0
  9
$USERI2
 70
     0
  9
$USERI3
 70
     0
  9
$USERI4
 70
     0
  9
$USERI5
 70
     0
  9
$USERR1
 40
0.0
  9
$USERR2
 40
0.0
  9
$USERR3
 40
0.0
  9
$USERR4
 40
0.0
  9
$USERR5
 40
0.0
  9
$WORLDVIEW
 70
     1
  9
$SHADEDGE
 70
     3
  9
$SHADEDIF
 70
    70
  9
$TILEMODE
 70
     1
  9
$MAXACTVP
 70
    64
  9
$PINSBASE
 10
0.0
 20
0.0
 30
0.0
  9
$PLIMCHECK
 70
     0
  9
$PEXTMIN
 10
1.000000000000000E+20
 20
1.000000000000000E+20
 30
1.000000000000000E+20
  9
$PEXTMAX
 10
-1.000000000000000E+20
 20
-1.000000000000000E+20
 30
-1.000000000000000E+20
  9
$PLIMMIN
 10
0.0
 20
0.0
  9
$PLIMMAX
 10
0.0
 20
0.0
  9
$UNITMODE
 70
     0
  9
$VISRETAIN
 70
     1
  9
$PLINEGEN
 70
     0
  9
$PSLTSCALE
 70
     1
  9
$TREEDEPTH
 70
  3020
  9
$CMLSTYLE
  2
Standard
  9
$CMLJUST
 70
     0
  9
$CMLSCALE
 40
20.0
  9
$PROXYGRAPHICS
 70
     1
  9
$MEASUREMENT
 70
     1
  9
$CELWEIGHT
370
    -1
  9
$ENDCAPS
280
     0
  9
$JOINSTYLE
280
     0
  9
$LWDISPLAY
290
     1
  9
$INSUNITS
 70
     4
  9
$HYPERLINKBASE
  1

  9
$STYLESHEET
  1

  9
$XEDIT
290
     1
  9
$CEPSNTYPE
380
     0
  9
$PSTYLEMODE
290
     1
  9
$FINGERPRINTGUID
  2
{2567A1DA-C82A-4FC5-8D56-AFE1CD5A7028}
  9
$VERSIONGUID
  2
{FAEB1C32-E019-11D5-929B-00C0DF256EC4}
  9
$EXTNAMES
290
     1
  9
$PSVPSCALE
 40
0.0
  9
$OLESTARTUP
290
     0
  0
ENDSEC
  0
SECTION
  2
CLASSES
  0
CLASS
  1
ACDBDICTIONARYWDFLT
  2
AcDbDictionaryWithDefault
  3
ObjectDBX Classes
 90
        0
280
     0
281
     0
  0
CLASS
  1
VISUALSTYLE
  2
AcDbVisualStyle
  3
ObjectDBX Classes
 90
     4095
280
     0
281
     0
  0
CLASS
  1
MATERIAL
  2
AcDbMaterial
  3
ObjectDBX Classes
 90
     1153
280
     0
281
     0
  0
CLASS
  1
SCALE
  2
AcDbScale
  3
ObjectDBX Classes
 90
     1153
280
     0
281
     0
  0
CLASS
  1
TABLESTYLE
  2
AcDbTableStyle
  3
ObjectDBX Classes
 90
     4095
280
     0
281
     0
  0
CLASS
  1
MLEADERSTYLE
  2
AcDbMLeaderStyle
  3
ACDB_MLEADERSTYLE_CLASS
 90
     4095
280
     0
281
     0
  0
CLASS
  1
SUN
  2
AcDbSun
  3
SCENEOE
 90
     1153
280
     0
281
     0
  0
CLASS
  1
ACDBPLACEHOLDER
  2
AcDbPlaceHolder
  3
ObjectDBX Classes
 90
        0
280
     0
281
     0
  0
CLASS
  1
LAYOUT
  2
AcDbLayout
  3
ObjectDBX Classes
 90
        0
280
     0
281
     0
  0
CLASS
  1
RASTERVARIABLES
  2
AcDbRasterVariables
  3
ISM
 90
        0
280
     0
281
     0
  0
ENDSEC
  0
SECTION
  2
TABLES
  0
TABLE
  2
VPORT
  5
8
330
0
100
AcDbSymbolTable
 70
     1
  0
VPORT
  5
29
330
8
100
AcDbSymbolTableRecord
100
AcDbViewportTableRecord
  2
*Active
 70
     0
 10
0.0
 20
0.0
 11
1.0
 21
1.0
 12
9.01171651363272
 22
-11.10383739361505
 13
0.0
 23
0.0
 14
10.0
 24
10.0
 15
10.0
 25
10.0
 16
0.0
 26
0.0
 36
1.0
 17
0.0
 27
0.0
 37
0.0
 40
81.76421744650715
 41
1.739018087855297
 42
50.0
 43
0.0
 44
0.0
 50
0.0
 51
0.0
 71
    16
 72
  2000
 73
     1
 74
     3
 75
     0
 76
     0
 77
     0
 78
     0
281
     0
 65
     1
110
0.0
120
0.0
130
0.0
111
1.0
121
0.0
131
0.0
112
0.0
122
1.0
132
0.0
 79
     0
146
0.0
  0
ENDTAB
  0
TABLE
  2
LTYPE
  5
5
330
0
100
AcDbSymbolTable
 70
     6
  0
LTYPE
  5
14
330
5
100
AcDbSymbolTableRecord
100
AcDbLinetypeTableRecord
  2
ByBlock
 70
     0
  3

 72
    65
 73
     0
 40
0.0
  0
LTYPE
  5
15
330
5
100
AcDbSymbolTableRecord
100
AcDbLinetypeTableRecord
  2
ByLayer
 70
     0
  3

 72
    65
 73
     0
 40
0.0
  0
LTYPE
  5
16
330
5
100
AcDbSymbolTableRecord
100
AcDbLinetypeTableRecord
  2
Continuous
 70
     0
  3
Solid line
 72
    65
 73
     0
 40
0.0
  0
LTYPE
  5
6E
330
5
100
AcDbSymbolTableRecord
100
AcDbLinetypeTableRecord
  2
HIDDEN
 70
     0
  3
Hidden __ __ __ __ __ __ __ __ __ __ __ __ __ __
 72
    65
 73
     2
 40
1.905
 49
1.27
 74
     0
 49
-0.635
 74
     0
  0
LTYPE
  5
6F
330
5
100
AcDbSymbolTableRecord
100
AcDbLinetypeTableRecord
  2
PHANTOM
 70
     0
  3
Phantom ______  __  __  ______  __  __  ______
 72
    65
 73
     6
 40
12.7
 49
6.35
 74
     0
 49
-1.27
 74
     0
 49
1.27
 74
     0
 49
-1.27
 74
     0
 49
1.27
 74
     0
 49
-1.27
 74
     0
  0
LTYPE
  5
70
330
5
100
AcDbSymbolTableRecord
100
AcDbLinetypeTableRecord
  2
CENTER
 70
     0
  3
Center ____ _ ____ _ ____ _ ____ _ ____ _ ____
 72
    65
 73
     4
 40
10.16
 49
6.35
 74
     0
 49
-1.27
 74
     0
 49
1.27
 74
     0
 49
-1.27
 74
     0
  0
LTYPE
  5
71
330
5
100
AcDbSymbolTableRecord
100
AcDbLinetypeTableRecord
  2
CENTERX2
 70
     0
  3
Center (2x) ________  __  ________  __  _____
 72
    65
 73
     4
 40
20.32
 49
12.7
 74
     0
 49
-2.54
 74
     0
 49
2.54
 74
     0
 49
-2.54
 74
     0
  0
LTYPE
  5
72
330
5
100
AcDbSymbolTableRecord
100
AcDbLinetypeTableRecord
  2
DOT2
 70
     0
  3
Dot (.5x) ........................................
 72
    65
 73
     2
 40
0.635
 49
0.0
 74
     0
 49
-0.635
 74
     0
  0
ENDTAB
  0
TABLE
  2
LAYER
  5
2
330
0
100
AcDbSymbolTable
 70
    17
  0
LAYER
  5
10
330
2
100
AcDbSymbolTableRecord
100
AcDbLayerTableRecord
  2
0
 70
     0
 62
     7
  6
Continuous
370
    -3
390
F
  0
LAYER
  5
73
330
2
100
AcDbSymbolTableRecord
100
AcDbLayerTableRecord
  2
FORMAT
 70
     0
 62
     2
  6
Continuous
370
    -3
390
F
  0
LAYER
  5
74
330
2
100
AcDbSymbolTableRecord
100
AcDbLayerTableRecord
  2
외형선
 70
     0
 62
   100
  6
Continuous
370
    35
390
F
  0
LAYER
  5
75
330
2
100
AcDbSymbolTableRecord
100
AcDbLayerTableRecord
  2
숨은선
 70
     0
 62
     2
  6
HIDDEN
370
    25
390
F
  0
LAYER
  5
76
330
2
100
AcDbSymbolTableRecord
100
AcDbLayerTableRecord
  2
중심선
 70
     0
 62
     1
  6
CENTERX2
370
    -3
390
F
  0
LAYER
  5
77
330
2
100
AcDbSymbolTableRecord
100
AcDbLayerTableRecord
  2
파단선
 70
     0
 62
     4
  6
Continuous
370
    -3
390
F
  0
LAYER
  5
78
330
2
100
AcDbSymbolTableRecord
100
AcDbLayerTableRecord
  2
해칭선
 70
     0
 62
   100
  6
Continuous
370
    -3
390
F
  0
LAYER
  5
79
330
2
100
AcDbSymbolTableRecord
100
AcDbLayerTableRecord
  2
가는실선
 70
     0
 62
     4
  6
Continuous
370
    -3
390
F
  0
LAYER
  5
7A
330
2
100
AcDbSymbolTableRecord
100
AcDbLayerTableRecord
  2
치수_보조선
 70
     0
 62
     4
  6
Continuous
370
    -3
390
F
  0
LAYER
  5
7B
330
2
100
AcDbSymbolTableRecord
100
AcDbLayerTableRecord
  2
치수문자_일반주서
 70
     0
 62
     7
  6
Continuous
370
    25
390
F
  0
LAYER
  5
7C
330
2
100
AcDbSymbolTableRecord
100
AcDbLayerTableRecord
  2
개별주서
 70
     0
 62
   100
  6
Continuous
370
    35
390
F
  0
LAYER
  5
7D
330
2
100
AcDbSymbolTableRecord
100
AcDbLayerTableRecord
  2
중간선
 70
     0
 62
     2
  6
Continuous
370
    25
390
F
  0
LAYER
  5
7E
330
2
100
AcDbSymbolTableRecord
100
AcDbLayerTableRecord
  2
윤곽선
 70
     0
 62
     3
  6
Continuous
370
    50
390
F
  0
LAYER
  5
7F
330
2
100
AcDbSymbolTableRecord
100
AcDbLayerTableRecord
  2
중심마크
 70
     0
 62
   100
  6
Continuous
370
    35
390
F
  0
LAYER
  5
80
330
2
100
AcDbSymbolTableRecord
100
AcDbLayerTableRecord
  2
가상선
 70
     0
 62
     4
  6
PHANTOM
370
    -3
390
F
  0
LAYER
  5
81
330
2
100
AcDbSymbolTableRecord
100
AcDbLayerTableRecord
  2
특수지정선
 70
     0
 62
     5
  6
CENTERX2
370
    70
390
F
  0
LAYER
  5
13C
330
2
100
AcDbSymbolTableRecord
100
AcDbLayerTableRecord
  2
Defpoints
 70
     0
 62
     7
  6
Continuous
290
     0
370
    -3
390
F
  0
ENDTAB
  0
TABLE
  2
STYLE
  5
3
330
0
100
AcDbSymbolTable
 70
     2
  0
STYLE
  5
11
330
3
100
AcDbSymbolTableRecord
100
AcDbTextStyleTableRecord
  2
Standard
 70
     0
 40
0.0
 41
1.0
 50
0.0
 71
     0
 42
3.5
  3
txt
  4

  0
STYLE
  5
97
330
3
100
AcDbSymbolTableRecord
100
AcDbTextStyleTableRecord
  2
SLDTEXTSTYLE0
 70
     0
 40
0.0
 41
0.75
 50
0.0
 71
     0
 42
3.5
  3
TXT
  4

  0
ENDTAB
  0
TABLE
  2
VIEW
  5
6
330
0
100
AcDbSymbolTable
 70
     0
  0
ENDTAB
  0
TABLE
  2
UCS
  5
7
330
0
100
AcDbSymbolTable
 70
     0
  0
ENDTAB
  0
TABLE
  2
APPID
  5
9
330
0
100
AcDbSymbolTable
 70
     1
  0
APPID
  5
12
330
9
100
AcDbSymbolTableRecord
100
AcDbRegAppTableRecord
  2
ACAD
 70
     0
  0
ENDTAB
  0
TABLE
  2
DIMSTYLE
  5
A
330
0
100
AcDbSymbolTable
 70
     4
100
AcDbDimStyleTable
  0
DIMSTYLE
105
27
330
A
100
AcDbSymbolTableRecord
100
AcDbDimStyleTableRecord
  2
ISO-25
 70
     0
 41
2.5
 42
0.625
 43
3.75
 44
1.25
 73
     0
 74
     0
 77
     1
 78
     8
140
2.5
141
2.5
143
0.03937007874016
147
0.625
171
     3
172
     1
178
     0
271
     2
272
     2
274
     3
278
    44
283
     0
284
     8
340
11
  0
DIMSTYLE
105
E1
102
{ACAD_REACTORS
330
E0
102
}
330
A
100
AcDbSymbolTableRecord
100
AcDbDimStyleTableRecord
  2
SLDDIMSTYLE0
 70
     0
 41
3.302
 44
0.0
 45
0.000000001
 73
     0
 74
     0
 77
     1
 78
    12
 79
     3
140
3.5
147
0.875
172
     1
173
     1
178
     0
271
     1
272
     1
276
     2
284
    12
289
     0
340
97
  0
DIMSTYLE
105
EF
102
{ACAD_REACTORS
330
EE
330
107
102
}
330
A
100
AcDbSymbolTableRecord
100
AcDbDimStyleTableRecord
  2
SLDDIMSTYLE1
 70
     0
 41
3.302
 44
0.0
 45
0.000000001
 73
     0
 74
     0
 77
     1
 78
    12
 79
     3
140
3.5
147
0.875
173
     1
178
     0
271
     2
272
     2
276
     2
284
    12
340
97
  0
DIMSTYLE
105
FA
102
{ACAD_REACTORS
330
F9
102
}
330
A
100
AcDbSymbolTableRecord
100
AcDbDimStyleTableRecord
  2
SLDDIMSTYLE2
 70
     0
 41
3.302
 44
0.0
 45
0.000000001
 73
     0
 74
     0
 77
     1
 78
    12
 79
     3
140
3.5
147
0.875
172
     1
173
     1
178
     0
271
     2
272
     2
276
     2
284
    12
289
     0
340
97
  0
ENDTAB
  0
TABLE
  2
BLOCK_RECORD
  5
1
330
0
100
AcDbSymbolTable
 70
     7
  0
BLOCK_RECORD
  5
1F
330
1
100
AcDbSymbolTableRecord
100
AcDbBlockTableRecord
  2
*Model_Space
340
22
  0
BLOCK_RECORD
  5
1B
330
1
100
AcDbSymbolTableRecord
100
AcDbBlockTableRecord
  2
*Paper_Space
340
1E
  0
BLOCK_RECORD
  5
23
330
1
100
AcDbSymbolTableRecord
100
AcDbBlockTableRecord
  2
*Paper_Space0
340
26
  0
BLOCK_RECORD
  5
82
330
1
100
AcDbSymbolTableRecord
100
AcDbBlockTableRecord
  2
블럭10
340
0
102
{BLKREFS
331
D9
102
}
  0
BLOCK_RECORD
  5
E2
330
1
100
AcDbSymbolTableRecord
100
AcDbBlockTableRecord
  2
_D
340
0
  0
BLOCK_RECORD
  5
F0
330
1
100
AcDbSymbolTableRecord
100
AcDbBlockTableRecord
  2
_D_1
340
0
  0
BLOCK_RECORD
  5
FB
330
1
100
AcDbSymbolTableRecord
100
AcDbBlockTableRecord
  2
_D_2
340
0
  0
BLOCK_RECORD
  5
108
330
1
100
AcDbSymbolTableRecord
100
AcDbBlockTableRecord
  2
_D_3
340
0
  0
BLOCK_RECORD
  5
111
330
1
100
AcDbSymbolTableRecord
100
AcDbBlockTableRecord
  2
SW_DOWELSYMBOL_0
340
0
102
{BLKREFS
331
117
102
}
  0
ENDTAB
  0
ENDSEC
  0
SECTION
  2
BLOCKS
  0
BLOCK
  5
20
330
1F
100
AcDbEntity
  8
0
100
AcDbBlockBegin
  2
*Model_Space
 70
     0
 10
0.0
 20
0.0
 30
0.0
  3
*Model_Space
  1

  0
ENDBLK
  5
21
330
1F
100
AcDbEntity
  8
0
100
AcDbBlockEnd
  0
BLOCK
  5
1C
330
1B
100
AcDbEntity
 67
     1
  8
0
100
AcDbBlockBegin
  2
*Paper_Space
 70
     0
 10
0.0
 20
0.0
 30
0.0
  3
*Paper_Space
  1

  0
ENDBLK
  5
1D
330
1B
100
AcDbEntity
 67
     1
  8
0
100
AcDbBlockEnd
  0
BLOCK
  5
24
330
23
100
AcDbEntity
  8
0
100
AcDbBlockBegin
  2
*Paper_Space0
 70
     0
 10
0.0
 20
0.0
 30
0.0
  3
*Paper_Space0
  1

  0
ENDBLK
  5
25
330
23
100
AcDbEntity
  8
0
100
AcDbBlockEnd
  0
BLOCK
  5
83
330
82
100
AcDbEntity
  8
0
100
AcDbBlockBegin
  2
블럭10
 70
     2
 10
0.0
 20
0.0
 30
0.0
  3
블럭10
  1

  0
ELLIPSE
  5
85
330
82
100
AcDbEntity
  8
중심선
100
AcDbEllipse
 10
20.54032771741204
 20
12.0471743016438
 30
0.0
 11
6.600054785286829
 21
-1.261213355974178E-13
 31
0.0
210
0.0
220
0.0
230
1.0
 40
0.636358354079598
 41
0.9219305317359503
 42
6.513795318482858
  0
ELLIPSE
  5
86
330
82
100
AcDbEntity
  8
중심선
100
AcDbEllipse
 10
20.54032771746488
 20
12.04717430159265
 30
0.0
 11
3.960054785062283
 21
1.540847449632565E-10
 31
0.0
210
0.0
220
0.0
230
1.0
 40
0.3939339440162632
 41
1.131841032648279
 42
5.62031148352944
  0
LINE
  5
87
330
82
100
AcDbEntity
  8
중심선
100
AcDbLine
 10
2.268634060543552
 20
16.24717430164393
 30
0.0
 11
5.714909304380834
 21
16.24717430164393
 31
0.0
  0
LINE
  5
88
330
82
100
AcDbEntity
  8
중심선
100
AcDbLine
 10
5.245725140726316
 20
7.84717430164391
 30
0.0
 11
8.692000384563599
 21
7.84717430164391
 31
0.0
  0
LINE
  5
89
330
82
100
AcDbEntity
  8
중심선
100
AcDbLine
 10
15.74043728645272
 20
16.24717430164393
 30
0.0
 11
8.692000384563599
 21
7.84717430164391
 31
0.0
  0
LINE
  5
8A
330
82
100
AcDbEntity
  8
중심선
100
AcDbLine
 10
0.1404042013395286
 20
13.71084872107135
 30
0.0
 11
3.58671253028996
 21
13.71088815037384
 31
0.0
  0
LINE
  5
8B
330
82
100
AcDbEntity
  8
중심선
100
AcDbLine
 10
2.750260043222114
 20
10.84717430164391
 30
0.0
 11
6.196535287059397
 21
10.84717430164391
 31
0.0
  0
LINE
  5
8C
330
82
100
AcDbEntity
  8
중심선
100
AcDbLine
 10
12.29416204261559
 20
16.24717430164393
 30
0.0
 11
5.245725140726316
 21
7.84717430164391
 31
0.0
  0
LINE
  5
8D
330
82
100
AcDbEntity
  8
중심선
100
AcDbLine
 10
10.72767329541681
 20
16.24717430164393
 30
0.0
 11
6.196535287059397
 21
10.84717430164391
 31
0.0
  0
LINE
  5
8E
330
82
100
AcDbEntity
  8
중심선
100
AcDbLine
 10
7.28139805157953
 20
16.24717430164393
 30
0.0
 11
2.750260043222114
 21
10.84717430164391
 31
0.0
  0
LINE
  5
8F
330
82
100
AcDbEntity
  8
중심선
100
AcDbLine
 10
5.714909304380834
 20
16.24717430164393
 30
0.0
 11
3.58671253028996
 21
13.71088815037384
 31
0.0
  0
LINE
  5
90
330
82
100
AcDbEntity
  8
중심선
100
AcDbLine
 10
2.268634060543552
 20
16.24717430164393
 30
0.0
 11
0.1404042013395286
 21
13.71084872107135
 31
0.0
  0
LINE
  5
91
330
82
100
AcDbEntity
  8
중심선
100
AcDbLine
 10
7.28139805157953
 20
16.24717430164393
 30
0.0
 11
10.72767329541681
 21
16.24717430164393
 31
0.0
  0
LINE
  5
92
330
82
100
AcDbEntity
  8
중심선
100
AcDbLine
 10
12.29416204261559
 20
16.24717430164393
 30
0.0
 11
15.74043728645272
 21
16.24717430164393
 31
0.0
  0
LINE
  5
93
330
82
100
AcDbEntity
  8
중심선
100
AcDbLine
 10
19.22036997980202
 20
11.08717430171403
 30
0.0
 11
23.66174974927406
 21
11.08717430171406
 31
0.0
  0
LINE
  5
94
330
82
100
AcDbEntity
  8
중심선
100
AcDbLine
 10
19.22039502424796
 20
13.00717430171391
 30
0.0
 11
19.22036997980202
 21
11.08717430171403
 31
0.0
  0
LINE
  5
95
330
82
100
AcDbEntity
  8
중심선
100
AcDbLine
 10
19.22039502424796
 20
13.00717430171391
 30
0.0
 11
26.96566020931264
 21
13.00717430171391
 31
0.0
  0
LINE
  5
96
330
82
100
AcDbEntity
  8
중심선
100
AcDbLine
 10
22.22332737316547
 20
13.45928029700563
 30
0.0
 11
24.52862924686651
 21
15.39360700705356
 31
0.0
  0
ATTDEF
  5
98
330
82
100
AcDbEntity
  8
FORMAT
 62
     2
100
AcDbText
 10
-16.11926103943555
 20
2.075366912832191
 30
0.0
 40
4.233333333333333
  1
SEME7212055E [ 4 FLUTE ]
 41
0.75
  7
SLDTEXTSTYLE0
 11
-16.11926103943555
 21
-0.0412997538344756
 31
0.0
100
AcDbAttributeDefinition
  3

  2
AUTOATTR0
 70
     0
 74
     1
  0
ENDBLK
  5
84
330
82
100
AcDbEntity
  8
0
100
AcDbBlockEnd
  0
BLOCK
  5
E3
330
E2
100
AcDbEntity
  8
0
100
AcDbBlockBegin
  2
_D
 70
     0
 10
0.0
 20
0.0
 30
0.0
  3
_D
  1

  0
LINE
  5
E5
330
E2
100
AcDbEntity
  8
치수문자_일반주서
 62
     0
370
    -2
100
AcDbLine
 10
65.0625
 20
-6.000000000000005
 30
0.0
 11
78.1620954738335
 21
-5.999999999999957
 31
0.0
  0
LINE
  5
E6
330
E2
100
AcDbEntity
  8
치수문자_일반주서
 62
     0
370
    -2
100
AcDbLine
 10
65.0625
 20
6.0
 30
0.0
 11
78.16209547383346
 21
6.00000000000005
 31
0.0
  0
LINE
  5
E7
330
E2
100
AcDbEntity
  8
치수문자_일반주서
 62
     0
370
    -2
100
AcDbLine
 10
78.1620954738335
 20
-5.999999999999957
 30
0.0
 11
78.1620954738334
 21
20.47900000000005
 31
0.0
  0
LINE
  5
E8
330
E2
100
AcDbEntity
  8
치수문자_일반주서
 62
     0
370
    -2
100
AcDbLine
 10
78.1620954738335
 20
-5.999999999999957
 30
0.0
 11
78.16209547383346
 21
6.00000000000005
 31
0.0
  0
LINE
  5
E9
330
E2
100
AcDbEntity
  8
치수문자_일반주서
 62
     0
370
    -2
100
AcDbLine
 10
78.16209547383352
 20
-9.301999999999957
 30
0.0
 11
78.16209547383353
 21
-12.60399999999996
 31
0.0
  0
LINE
  5
EA
330
E2
100
AcDbEntity
  8
치수문자_일반주서
 62
     0
370
    -2
100
AcDbLine
 10
78.16209547383345
 20
9.30200000000005
 30
0.0
 11
78.16209547383343
 21
12.60400000000005
 31
0.0
  0
SOLID
  5
EB
330
E2
100
AcDbEntity
  8
치수문자_일반주서
 62
     0
100
AcDbTrace
 10
78.71242880716684
 20
-9.301999999999955
 30
0.0
 11
77.61176214050019
 21
-9.301999999999959
 31
0.0
 12
78.1620954738335
 22
-5.999999999999957
 32
0.0
 13
78.1620954738335
 23
-5.999999999999957
 33
0.0
  0
SOLID
  5
EC
330
E2
100
AcDbEntity
  8
치수문자_일반주서
 62
     0
100
AcDbTrace
 10
77.61176214050012
 20
9.302000000000048
 30
0.0
 11
78.71242880716677
 21
9.302000000000051
 31
0.0
 12
78.16209547383346
 22
6.00000000000005
 32
0.0
 13
78.16209547383346
 23
6.00000000000005
 33
0.0
  0
MTEXT
  5
ED
330
E2
100
AcDbEntity
  8
치수문자_일반주서
 62
     0
100
AcDbMText
 10
73.78709547383342
 20
16.54150000000003
 30
0.0
 40
3.5
 41
0.0
 71
     2
 72
     1
  1
\A1;%%c12
  7
SLDTEXTSTYLE0
 11
-3.552713678800500E-15
 21
1.0
 31
0.0
 73
     1
 44
1.0
  0
POINT
  5
146
330
E2
100
AcDbEntity
  8
Defpoints
 62
     0
100
AcDbPoint
 10
65.0
 20
-6.000000000000005
 30
0.0
  0
POINT
  5
147
330
E2
100
AcDbEntity
  8
Defpoints
 62
     0
100
AcDbPoint
 10
65.0
 20
6.0
 30
0.0
  0
POINT
  5
148
330
E2
100
AcDbEntity
  8
Defpoints
 62
     0
100
AcDbPoint
 10
78.16209547383346
 20
6.000000000000049
 30
0.0
  0
ENDBLK
  5
E4
330
E2
100
AcDbEntity
  8
0
100
AcDbBlockEnd
  0
BLOCK
  5
F1
330
F0
100
AcDbEntity
  8
0
100
AcDbBlockBegin
  2
_D_1
 70
     0
 10
0.0
 20
0.0
 30
0.0
  3
_D_1
  1

  0
LINE
  5
F3
330
F0
100
AcDbEntity
  8
치수문자_일반주서
 62
     0
370
    -2
100
AcDbLine
 10
-45.00000000000001
 20
5.562499999999993
 30
0.0
 11
-45.0
 21
23.38913260158164
 31
0.0
  0
LINE
  5
F4
330
F0
100
AcDbEntity
  8
치수문자_일반주서
 62
     0
370
    -2
100
AcDbLine
 10
65.0
 20
6.062500000000004
 30
0.0
 11
65.0
 21
23.38913260158164
 31
0.0
  0
LINE
  5
F5
330
F0
100
AcDbEntity
  8
치수문자_일반주서
 62
     0
370
    -2
100
AcDbLine
 10
-41.698
 20
23.38913260158164
 30
0.0
 11
61.698
 21
23.38913260158164
 31
0.0
  0
SOLID
  5
F6
330
F0
100
AcDbEntity
  8
치수문자_일반주서
 62
     0
100
AcDbTrace
 10
-41.698
 20
23.93946593491498
 30
0.0
 11
-41.698
 21
22.83879926824831
 31
0.0
 12
-45.0
 22
23.38913260158164
 32
0.0
 13
-45.0
 23
23.38913260158164
 33
0.0
  0
SOLID
  5
F7
330
F0
100
AcDbEntity
  8
치수문자_일반주서
 62
     0
100
AcDbTrace
 10
61.698
 20
22.83879926824831
 30
0.0
 11
61.698
 21
23.93946593491498
 31
0.0
 12
65.0
 22
23.38913260158164
 32
0.0
 13
65.0
 23
23.38913260158164
 33
0.0
  0
MTEXT
  5
F8
330
F0
100
AcDbEntity
  8
치수문자_일반주서
 62
     0
100
AcDbMText
 10
9.999999999999996
 20
27.76413260158164
 30
0.0
 40
3.5
 41
0.0
 71
     2
 72
     1
  1
\A1;110
  7
SLDTEXTSTYLE0
 73
     1
 44
1.0
  0
POINT
  5
13D
330
F0
100
AcDbEntity
  8
Defpoints
 62
     0
100
AcDbPoint
 10
-45.00000000000001
 20
5.499999999999993
 30
0.0
  0
POINT
  5
13E
330
F0
100
AcDbEntity
  8
Defpoints
 62
     0
100
AcDbPoint
 10
65.0
 20
6.000000000000004
 30
0.0
  0
POINT
  5
13F
330
F0
100
AcDbEntity
  8
Defpoints
 62
     0
100
AcDbPoint
 10
65.0
 20
23.38913260158164
 30
0.0
  0
ENDBLK
  5
F2
330
F0
100
AcDbEntity
  8
0
100
AcDbBlockEnd
  0
BLOCK
  5
FC
330
FB
100
AcDbEntity
  8
0
100
AcDbBlockBegin
  2
_D_2
 70
     0
 10
0.0
 20
0.0
 30
0.0
  3
_D_2
  1

  0
LINE
  5
FE
330
FB
100
AcDbEntity
  8
치수문자_일반주서
 62
     0
370
    -2
100
AcDbLine
 10
-44.5625
 20
6.000000000000004
 30
0.0
 11
-56.31399577990134
 21
5.999999999999959
 31
0.0
  0
LINE
  5
FF
330
FB
100
AcDbEntity
  8
치수문자_일반주서
 62
     0
370
    -2
100
AcDbLine
 10
-44.5625
 20
-6.000000000000007
 30
0.0
 11
-56.3139957799013
 21
-6.000000000000053
 31
0.0
  0
LINE
  5
100
330
FB
100
AcDbEntity
  8
치수문자_일반주서
 62
     0
370
    -2
100
AcDbLine
 10
-56.31399577990134
 20
5.999999999999959
 30
0.0
 11
-56.31399577990139
 21
20.47899999999996
 31
0.0
  0
LINE
  5
101
330
FB
100
AcDbEntity
  8
치수문자_일반주서
 62
     0
370
    -2
100
AcDbLine
 10
-56.31399577990134
 20
5.999999999999959
 30
0.0
 11
-56.3139957799013
 21
-6.000000000000053
 31
0.0
  0
LINE
  5
102
330
FB
100
AcDbEntity
  8
치수문자_일반주서
 62
     0
370
    -2
100
AcDbLine
 10
-56.31399577990135
 20
9.301999999999959
 30
0.0
 11
-56.31399577990137
 21
12.60399999999996
 31
0.0
  0
LINE
  5
103
330
FB
100
AcDbEntity
  8
치수문자_일반주서
 62
     0
370
    -2
100
AcDbLine
 10
-56.31399577990128
 20
-9.302000000000053
 30
0.0
 11
-56.31399577990127
 21
-12.60400000000005
 31
0.0
  0
SOLID
  5
104
330
FB
100
AcDbEntity
  8
치수문자_일반주서
 62
     0
100
AcDbTrace
 10
-56.86432911323469
 20
9.301999999999957
 30
0.0
 11
-55.76366244656802
 21
9.30199999999996
 31
0.0
 12
-56.31399577990134
 22
5.999999999999959
 32
0.0
 13
-56.31399577990134
 23
5.999999999999959
 33
0.0
  0
SOLID
  5
105
330
FB
100
AcDbEntity
  8
치수문자_일반주서
 62
     0
100
AcDbTrace
 10
-55.76366244656795
 20
-9.302000000000051
 30
0.0
 11
-56.86432911323462
 21
-9.302000000000055
 31
0.0
 12
-56.3139957799013
 22
-6.000000000000053
 32
0.0
 13
-56.3139957799013
 23
-6.000000000000053
 33
0.0
  0
MTEXT
  5
106
330
FB
100
AcDbEntity
  8
치수문자_일반주서
 62
     0
100
AcDbMText
 10
-60.68899577990138
 20
16.54149999999994
 30
0.0
 40
3.5
 41
0.0
 71
     2
 72
     1
  1
\A1;%%c12
  7
SLDTEXTSTYLE0
 11
-3.552713678800498E-15
 21
1.0
 31
0.0
 73
     1
 44
1.0
  0
POINT
  5
143
330
FB
100
AcDbEntity
  8
Defpoints
 62
     0
100
AcDbPoint
 10
-44.5
 20
6.000000000000004
 30
0.0
  0
POINT
  5
144
330
FB
100
AcDbEntity
  8
Defpoints
 62
     0
100
AcDbPoint
 10
-44.5
 20
-6.000000000000007
 30
0.0
  0
POINT
  5
145
330
FB
100
AcDbEntity
  8
Defpoints
 62
     0
100
AcDbPoint
 10
-56.31399577990129
 20
-6.000000000000052
 30
0.0
  0
ENDBLK
  5
FD
330
FB
100
AcDbEntity
  8
0
100
AcDbBlockEnd
  0
BLOCK
  5
109
330
108
100
AcDbEntity
  8
0
100
AcDbBlockBegin
  2
_D_3
 70
     0
 10
0.0
 20
0.0
 30
0.0
  3
_D_3
  1

  0
LINE
  5
10B
330
108
100
AcDbEntity
  8
치수문자_일반주서
 62
     0
370
    -2
100
AcDbLine
 10
9.999999999999995
 20
5.684763198623416
 30
0.0
 11
9.999999999999993
 21
16.46818150121106
 31
0.0
  0
LINE
  5
10C
330
108
100
AcDbEntity
  8
치수문자_일반주서
 62
     0
370
    -2
100
AcDbLine
 10
65.0
 20
6.062500000000004
 30
0.0
 11
65.0
 21
16.46818150121106
 31
0.0
  0
LINE
  5
10D
330
108
100
AcDbEntity
  8
치수문자_일반주서
 62
     0
370
    -2
100
AcDbLine
 10
13.30199999999999
 20
16.46818150121106
 30
0.0
 11
61.698
 21
16.46818150121106
 31
0.0
  0
SOLID
  5
10E
330
108
100
AcDbEntity
  8
치수문자_일반주서
 62
     0
100
AcDbTrace
 10
13.30199999999999
 20
17.0185148345444
 30
0.0
 11
13.30199999999999
 21
15.91784816787773
 31
0.0
 12
9.999999999999993
 22
16.46818150121106
 32
0.0
 13
9.999999999999993
 23
16.46818150121106
 33
0.0
  0
SOLID
  5
10F
330
108
100
AcDbEntity
  8
치수문자_일반주서
 62
     0
100
AcDbTrace
 10
61.698
 20
15.91784816787773
 30
0.0
 11
61.698
 21
17.0185148345444
 31
0.0
 12
65.0
 22
16.46818150121106
 32
0.0
 13
65.0
 23
16.46818150121106
 33
0.0
  0
MTEXT
  5
110
330
108
100
AcDbEntity
  8
치수문자_일반주서
 62
     0
100
AcDbMText
 10
37.5
 20
20.84318150121106
 30
0.0
 40
3.5
 41
0.0
 71
     2
 72
     1
  1
\A1;55
  7
SLDTEXTSTYLE0
 73
     1
 44
1.0
  0
POINT
  5
140
330
108
100
AcDbEntity
  8
Defpoints
 62
     0
100
AcDbPoint
 10
9.999999999999995
 20
5.622263198623416
 30
0.0
  0
POINT
  5
141
330
108
100
AcDbEntity
  8
Defpoints
 62
     0
100
AcDbPoint
 10
65.0
 20
6.000000000000004
 30
0.0
  0
POINT
  5
142
330
108
100
AcDbEntity
  8
Defpoints
 62
     0
100
AcDbPoint
 10
65.0
 20
16.46818150121106
 30
0.0
  0
ENDBLK
  5
10A
330
108
100
AcDbEntity
  8
0
100
AcDbBlockEnd
  0
BLOCK
  5
112
330
111
100
AcDbEntity
  8
0
100
AcDbBlockBegin
  2
SW_DOWELSYMBOL_0
 70
     0
 10
0.0
 20
0.0
 30
0.0
  3
SW_DOWELSYMBOL_0
  1

  0
CIRCLE
  5
114
330
111
100
AcDbEntity
  8
해칭선
 62
     0
100
AcDbCircle
 10
0.0
 20
0.0
 30
0.0
 40
3.0
  0
HATCH
  5
115
330
111
100
AcDbEntity
  8
0
  6
Continuous
 62
     0
370
    18
100
AcDbHatch
 10
0.0
 20
0.0
 30
0.0
210
0.0
220
0.0
230
1.0
  2
SOLID
 70
     1
 71
     0
 91
        1
 92
        0
 93
        3
 72
     2
 10
0.0
 20
0.0
 40
3.0
 50
0.0
 51
90.0
 73
     1
 72
     1
 10
0.0
 20
3.0
 11
0.0
 21
0.0
 72
     1
 10
0.0
 20
0.0
 11
3.0
 21
0.0
 97
        0
 75
     0
 76
     1
 98
        1
 10
0.0
 20
0.0
  0
HATCH
  5
116
330
111
100
AcDbEntity
  8
0
  6
Continuous
 62
     0
370
    18
100
AcDbHatch
 10
0.0
 20
0.0
 30
0.0
210
0.0
220
0.0
230
1.0
  2
SOLID
 70
     1
 71
     0
 91
        1
 92
        0
 93
        3
 72
     2
 10
0.0
 20
0.0
 40
3.0
 50
180.0
 51
270.0000000000008
 73
     1
 72
     1
 10
0.0
 20
-3.0
 11
0.0
 21
0.0
 72
     1
 10
0.0
 20
0.0
 11
-3.0
 21
0.0
 97
        0
 75
     0
 76
     1
 98
        1
 10
0.0
 20
0.0
  0
ENDBLK
  5
113
330
111
100
AcDbEntity
  8
0
100
AcDbBlockEnd
  0
ENDSEC
  0
SECTION
  2
ENTITIES
  0
LINE
  5
99
330
1F
100
AcDbEntity
  8
0
  6
Continuous
 62
     4
370
    25
100
AcDbLine
 10
8.499932947983353
 20
5.999999999999998
 30
0.0
 11
-44.50000000000001
 21
5.999999999999995
 31
0.0
  0
LINE
  5
9A
330
1F
100
AcDbEntity
  8
0
  6
Continuous
 62
     4
370
    25
100
AcDbLine
 10
-44.50000000000001
 20
-6.000000000000005
 30
0.0
 11
8.499932947983353
 21
-6.000000000000002
 31
0.0
  0
LINE
  5
9B
330
1F
100
AcDbEntity
  8
0
  6
Continuous
 62
     4
370
    25
100
AcDbLine
 10
-44.50000000000001
 20
5.999999999999991
 30
0.0
 11
-45.00000000000001
 21
5.499999999999993
 31
0.0
  0
LINE
  5
9C
330
1F
100
AcDbEntity
  8
0
  6
Continuous
 62
     4
370
    25
100
AcDbLine
 10
-45.00000000000001
 20
-5.500000000000004
 30
0.0
 11
-44.50000000000001
 21
-6.000000000000002
 31
0.0
  0
LINE
  5
9D
330
1F
100
AcDbEntity
  8
0
  6
Continuous
 62
     1
370
    25
100
AcDbLine
 10
62.67890557672828
 20
-6.000000000000007
 30
0.0
 11
65.0
 21
-6.000000000000007
 31
0.0
  0
LINE
  5
9E
330
1F
100
AcDbEntity
  8
0
  6
Continuous
 62
     1
370
    25
100
AcDbLine
 10
34.67212387851177
 20
6.000000000000004
 30
0.0
 11
30.03047405411251
 21
6.000000000000004
 31
0.0
  0
LINE
  5
9F
330
1F
100
AcDbEntity
  8
0
  6
Continuous
 62
     1
370
    25
100
AcDbLine
 10
47.90991971424959
 20
-0.8935590431961753
 30
0.0
 11
47.84395692602077
 21
-0.8571254434302356
 31
0.0
  0
LINE
  5
A0
330
1F
100
AcDbEntity
  8
0
  6
Continuous
 62
     1
370
    25
100
AcDbLine
 10
48.09938078473142
 20
-0.9982051474393047
 30
0.0
 11
47.97646611806302
 21
-0.930314994657623
 31
0.0
  0
LINE
  5
A1
330
1F
100
AcDbEntity
  8
0
  6
Continuous
 62
     1
370
    25
100
AcDbLine
 10
33.06710655177304
 20
0.9209629391374025
 30
0.0
 11
33.18228815280737
 21
0.8571792782975675
 31
0.0
  0
LINE
  5
A2
330
1F
100
AcDbEntity
  8
0
  6
Continuous
 62
     1
370
    25
100
AcDbLine
 10
15.44407883659944
 20
-0.993602232345573
 30
0.0
 11
15.19555436653314
 21
-0.8571174305560325
 31
0.0
  0
LINE
  5
A3
330
1F
100
AcDbEntity
  8
0
  6
Continuous
 62
     1
370
    25
100
AcDbLine
 10
64.91409651695727
 20
1.375846715163629
 30
0.0
 11
65.0
 21
1.333249498610847
 31
0.0
  0
LINE
  5
A4
330
1F
100
AcDbEntity
  8
0
  6
Continuous
 62
     1
370
    25
100
AcDbLine
 10
46.35611120914072
 20
-6.000000000000007
 30
0.0
 11
50.99641059545336
 21
-6.000000000000007
 31
0.0
  0
LINE
  5
A5
330
1F
100
AcDbEntity
  8
0
  6
Continuous
 62
     1
370
    25
100
AcDbLine
 10
18.34890302230532
 20
6.000000000000004
 30
0.0
 11
13.70780684233372
 21
6.000000000000004
 31
0.0
  0
LINE
  5
A6
330
1F
100
AcDbEntity
  8
0
  6
Continuous
 62
     1
370
    25
100
AcDbLine
 10
13.70780684233381
 20
-6.000000000000007
 30
0.0
 11
18.34890302230533
 21
-6.000000000000007
 31
0.0
  0
LINE
  5
A7
330
1F
100
AcDbEntity
  8
0
  6
Continuous
 62
     1
370
    25
100
AcDbLine
 10
50.99641059545336
 20
6.000000000000004
 30
0.0
 11
46.35611120914081
 21
6.000000000000004
 31
0.0
  0
LINE
  5
A8
330
1F
100
AcDbEntity
  8
0
  6
Continuous
 62
     1
370
    25
100
AcDbLine
 10
30.03047405411245
 20
-6.000000000000007
 30
0.0
 11
34.67212387851168
 21
-6.000000000000007
 31
0.0
  0
LINE
  5
A9
330
1F
100
AcDbEntity
  8
0
  6
Continuous
 62
     1
370
    25
100
AcDbLine
 10
65.0
 20
6.000000000000004
 30
0.0
 11
62.67890557672828
 21
6.000000000000004
 31
0.0
  0
SPLINE
  5
AA
330
1F
100
AcDbEntity
  8
0
  6
Continuous
 62
     4
370
    25
100
AcDbSpline
210
0.0
220
0.0
230
1.0
 70
    24
 71
     3
 72
    12
 73
     8
 74
     0
 42
0.000000001
 43
0.00000001
 40
0.0
 40
0.0
 40
0.0
 40
0.0
 40
0.5
 40
0.5
 40
0.75
 40
0.75
 40
1.0
 40
1.0
 40
1.0
 40
1.0
 10
9.999999999999995
 20
2.048825422815009
 30
0.0
 10
9.999999999999995
 20
1.886879537063817
 30
0.0
 10
9.999999999999995
 20
1.687133071806207
 30
0.0
 10
9.999999999999995
 20
1.32858494083329
 30
0.0
 10
9.999999999999995
 20
1.199228019028118
 30
0.0
 10
9.999999999999995
 20
0.9262592046847069
 30
0.0
 10
9.999999999999995
 20
0.7819390209303311
 30
0.0
 10
9.999999999999995
 20
0.6293598555474548
 30
0.0
  0
SPLINE
  5
AB
330
1F
100
AcDbEntity
  8
0
  6
Continuous
 62
     4
370
    25
100
AcDbSpline
210
0.0
220
0.0
230
1.0
 70
     8
 71
     3
 72
    14
 73
    10
 74
     0
 42
0.000000001
 43
0.00000001
 40
0.0
 40
0.0
 40
0.0
 40
0.0
 40
0.25
 40
0.25
 40
0.5
 40
0.5
 40
0.75
 40
0.75
 40
1.0
 40
1.0
 40
1.0
 40
1.0
 10
9.105067305809515
 20
-3.779400763403751
 30
0.0
 10
9.01032437647565
 20
-3.736964102687796
 30
0.0
 10
8.92518841730802
 20
-3.685076114010935
 30
0.0
 10
8.773566905931782
 20
-3.561543012267729
 30
0.0
 10
8.708254286285245
 20
-3.490238528819753
 30
0.0
 10
8.604139520222164
 20
-3.334718940901965
 30
0.0
 10
8.564297757902008
 20
-3.248646602207605
 30
0.0
 10
8.51260034397218
 20
-3.070451591863017
 30
0.0
 10
8.499932947983353
 20
-2.976650431245167
 30
0.0
 10
8.499932947983353
 20
-2.880814327089441
 30
0.0
  0
SPLINE
  5
AC
330
1F
100
AcDbEntity
  8
0
  6
Continuous
 62
     4
370
    25
100
AcDbSpline
210
0.0
220
0.0
230
1.0
 70
     8
 71
     3
 72
    18
 73
    14
 74
     0
 42
0.000000001
 43
0.00000001
 40
0.0
 40
0.0
 40
0.0
 40
0.0
 40
0.1249999999999999
 40
0.1249999999999999
 40
0.2499999999999998
 40
0.2499999999999998
 40
0.4999999999999998
 40
0.4999999999999998
 40
0.6249999999999998
 40
0.6249999999999998
 40
0.7499999999999998
 40
0.7499999999999998
 40
1.0
 40
1.0
 40
1.0
 40
1.0
 10
8.499932947983353
 20
0.8832779654195096
 30
0.0
 10
8.499932947983353
 20
0.975791407424524
 30
0.0
 10
8.509065639796296
 20
1.066464400778567
 30
0.0
 10
8.546656459742536
 20
1.244039377022581
 30
0.0
 10
8.575692986912038
 20
1.331863443772845
 30
0.0
 10
8.690247120759334
 20
1.577202523443508
 30
0.0
 10
8.80636121549091
 20
1.722645016796523
 30
0.0
 10
9.021503942032446
 20
1.888972184352372
 30
0.0
 10
9.101377499900865
 20
1.936893600007345
 30
0.0
 10
9.268243200472492
 20
2.012469963724569
 30
0.0
 10
9.355759498166636
 20
2.04080203485257
 30
0.0
 10
9.63025346603575
 20
2.096716389967445
 30
0.0
 10
9.81869887314025
 20
2.093148622697794
 30
0.0
 10
9.999999999999961
 20
2.048825422814743
 30
0.0
  0
SPLINE
  5
AD
330
1F
100
AcDbEntity
  8
0
  6
Continuous
 62
     4
370
    25
100
AcDbSpline
210
0.0
220
0.0
230
1.0
 70
     8
 71
     3
 72
    14
 73
    10
 74
     0
 42
0.000000001
 43
0.00000001
 40
0.0
 40
0.0
 40
0.0
 40
0.0
 40
0.25
 40
0.25
 40
0.5
 40
0.5
 40
0.75
 40
0.75
 40
1.0
 40
1.0
 40
1.0
 40
1.0
 10
9.105067305809515
 20
4.660056852612725
 30
0.0
 10
9.01032437647565
 20
4.694473846434648
 30
0.0
 10
8.92518841730802
 20
4.735632906139025
 30
0.0
 10
8.773566905931782
 20
4.829225233878367
 30
0.0
 10
8.708254286285245
 20
4.881308501953463
 30
0.0
 10
8.604139520222164
 20
4.988846285915282
 30
0.0
 10
8.564297757902008
 20
5.045520741154184
 30
0.0
 10
8.51260034397218
 20
5.155900631070965
 30
0.0
 10
8.499932947983353
 20
5.210709014073146
 30
0.0
 10
8.499932947983353
 20
5.263165284582643
 30
0.0
  0
SPLINE
  5
AE
330
1F
100
AcDbEntity
  8
0
  6
Continuous
 62
     4
370
    25
100
AcDbSpline
210
0.0
220
0.0
230
1.0
 70
     8
 71
     3
 72
     8
 73
     4
 74
     0
 42
0.000000001
 43
0.00000001
 40
0.0
 40
0.0
 40
0.0
 40
0.0
 40
1.0
 40
1.0
 40
1.0
 40
1.0
 10
9.999999999998746
 20
4.318267807439098
 30
0.0
 10
9.702066039390113
 20
4.437612152430895
 30
0.0
 10
9.403203856925751
 20
4.551753637692078
 30
0.0
 10
9.105067305809515
 20
4.660056852612724
 30
0.0
  0
LINE
  5
AF
330
1F
100
AcDbEntity
  8
0
  6
Continuous
 62
     4
370
    25
100
AcDbLine
 10
9.999999999999995
 20
4.318267807438597
 30
0.0
 11
9.999999999999993
 21
2.048825422815008
 31
0.0
  0
SPLINE
  5
B0
330
1F
100
AcDbEntity
  8
0
  6
Continuous
 62
     4
370
    25
100
AcDbSpline
210
0.0
220
0.0
230
1.0
 70
     8
 71
     3
 72
     8
 73
     4
 74
     0
 42
0.000000001
 43
0.00000001
 40
0.0
 40
0.0
 40
0.0
 40
0.0
 40
1.0
 40
1.0
 40
1.0
 40
1.0
 10
9.99999999999875
 20
-4.165640784229336
 30
0.0
 10
9.702066039390115
 20
-4.04192372131573
 30
0.0
 10
9.403203856925755
 20
-3.912940223875367
 30
0.0
 10
9.105067305809515
 20
-3.779400763403751
 30
0.0
  0
LINE
  5
B1
330
1F
100
AcDbEntity
  8
0
  6
Continuous
 62
     4
370
    25
100
AcDbLine
 10
9.999999999999995
 20
-4.165640784229854
 30
0.0
 11
9.999999999999995
 21
-5.639354075319885
 31
0.0
  0
SPLINE
  5
B2
330
1F
100
AcDbEntity
  8
0
  6
Continuous
 62
     4
370
    25
100
AcDbSpline
210
0.0
220
0.0
230
1.0
 70
     8
 71
     3
 72
    18
 73
    14
 74
     0
 42
0.000000001
 43
0.00000001
 40
0.0
 40
0.0
 40
0.0
 40
0.0
 40
0.1249999999999999
 40
0.1249999999999999
 40
0.2499999999999999
 40
0.2499999999999999
 40
0.4999999999999998
 40
0.4999999999999998
 40
0.6249999999999999
 40
0.6249999999999999
 40
0.75
 40
0.75
 40
1.0
 40
1.0
 40
1.0
 40
1.0
 10
8.499932947983353
 20
-5.934628887791083
 30
0.0
 10
8.499932947983353
 20
-5.920859689013338
 30
0.0
 10
8.5090656397963
 20
-5.905153715304921
 30
0.0
 10
8.546656459742536
 20
-5.870311128715815
 30
0.0
 10
8.575692986912038
 20
-5.850916232212893
 30
0.0
 10
8.690247120759334
 20
-5.791438176909628
 30
0.0
 10
8.806361215490913
 20
-5.748569913258477
 30
0.0
 10
9.02150394203245
 20
-5.695188720500991
 30
0.0
 10
9.101377499900869
 20
-5.67891227140226
 30
0.0
 10
9.268243200472492
 20
-5.652571631491193
 30
0.0
 10
9.35575949816664
 20
-5.64229747759132
 30
0.0
 10
9.630253466035754
 20
-5.621864056023466
 30
0.0
 10
9.81869887314025
 20
-5.623251078854779
 30
0.0
 10
9.999999999999961
 20
-5.63935407531998
 30
0.0
  0
LINE
  5
B3
330
1F
100
AcDbEntity
  8
0
  6
Continuous
 62
     4
370
    25
100
AcDbLine
 10
8.499932947983353
 20
-5.934628887791082
 30
0.0
 11
8.499932947983353
 21
-6.000000000000002
 31
0.0
  0
SPLINE
  5
B4
330
1F
100
AcDbEntity
  8
0
  6
Continuous
 62
     4
370
    25
100
AcDbSpline
210
0.0
220
0.0
230
1.0
 70
     8
 71
     3
 72
    18
 73
    14
 74
     0
 42
0.000000001
 43
0.00000001
 40
0.0
 40
0.0
 40
0.0
 40
0.0
 40
0.1250000000000002
 40
0.1250000000000002
 40
0.2500000000000004
 40
0.2500000000000004
 40
0.5000000000000007
 40
0.5000000000000007
 40
0.6250000000000007
 40
0.6250000000000007
 40
0.7500000000000006
 40
0.7500000000000006
 40
1.0
 40
1.0
 40
1.0
 40
1.0
 10
8.499932947983353
 20
5.934628887791085
 30
0.0
 10
8.499932947983353
 20
5.920859689013342
 30
0.0
 10
8.509065639796296
 20
5.905153715304925
 30
0.0
 10
8.546656459742536
 20
5.870311128715822
 30
0.0
 10
8.575692986912038
 20
5.850916232212898
 30
0.0
 10
8.690247120759334
 20
5.791438176909637
 30
0.0
 10
8.80636121549091
 20
5.748569913258487
 30
0.0
 10
9.021503942032446
 20
5.695188720501002
 30
0.0
 10
9.101377499900865
 20
5.678912271402272
 30
0.0
 10
9.268243200472492
 20
5.652571631491206
 30
0.0
 10
9.35575949816664
 20
5.642297477591331
 30
0.0
 10
9.630253466035754
 20
5.621864056023478
 30
0.0
 10
9.81869887314025
 20
5.623251078854793
 30
0.0
 10
9.999999999999961
 20
5.639354075319992
 30
0.0
  0
LINE
  5
B5
330
1F
100
AcDbEntity
  8
0
  6
Continuous
 62
     4
370
    25
100
AcDbLine
 10
8.499932947983353
 20
5.999999999999998
 30
0.0
 11
8.499932947983353
 21
5.263165284582643
 31
0.0
  0
LINE
  5
B6
330
1F
100
AcDbEntity
  8
0
  6
Continuous
 62
     4
370
    25
100
AcDbLine
 10
-44.50000000000001
 20
5.999999999999991
 30
0.0
 11
-44.50000000000001
 21
-6.000000000000002
 31
0.0
  0
LINE
  5
B7
330
1F
100
AcDbEntity
  8
0
  6
Continuous
 62
     4
370
    25
100
AcDbLine
 10
8.499932947983353
 20
0.8832779654195099
 30
0.0
 11
8.499932947983353
 21
-2.880814327089441
 31
0.0
  0
LINE
  5
B8
330
1F
100
AcDbEntity
  8
0
  6
Continuous
 62
     4
370
    25
100
AcDbLine
 10
-45.00000000000001
 20
5.499999999999993
 30
0.0
 11
-45.00000000000001
 21
-5.500000000000004
 31
0.0
  0
SPLINE
  5
B9
330
1F
100
AcDbEntity
  8
0
  6
Continuous
 62
     4
370
    25
100
AcDbSpline
210
0.0
220
0.0
230
1.0
 70
    24
 71
     3
 72
    14
 73
    10
 74
     0
 42
0.000000001
 43
0.00000001
 40
0.0
 40
0.0
 40
0.0
 40
0.0
 40
0.25
 40
0.25
 40
0.5
 40
0.5
 40
0.75
 40
0.75
 40
1.0
 40
1.0
 40
1.0
 40
1.0
 10
9.999999999999995
 20
0.6293598555453125
 30
0.0
 10
9.999999999999995
 20
0.3428824759912771
 30
0.0
 10
9.999999999999995
 20
0.0118194677912907
 30
0.0
 10
9.999999999999995
 20
-0.7329644521409472
 30
0.0
 10
9.999999999999995
 20
-1.147047921512542
 30
0.0
 10
9.999999999999995
 20
-2.019198526840027
 30
0.0
 10
9.999999999999995
 20
-2.476775428138847
 30
0.0
 10
9.999999999999995
 20
-3.363313221668413
 30
0.0
 10
9.999999999999995
 20
-3.790876542134852
 30
0.0
 10
9.999999999999995
 20
-4.165640784229852
 30
0.0
  0
SPLINE
  5
BA
330
1F
100
AcDbEntity
  8
0
  6
Continuous
 62
     4
370
    25
100
AcDbSpline
210
0.0
220
0.0
230
1.0
 70
    24
 71
     3
 72
    10
 73
     6
 74
     0
 42
0.000000001
 43
0.00000001
 40
0.0
 40
0.0
 40
0.0
 40
0.0
 40
0.3448257199821362
 40
0.6975849158682261
 40
1.0
 40
1.0
 40
1.0
 40
1.0
 10
9.999999999999993
 20
5.639354075319895
 30
0.0
 10
9.999999999999993
 20
5.464830694509806
 30
0.0
 10
9.999999999999995
 20
5.111768637753276
 30
0.0
 10
9.999999999999993
 20
4.65187553758493
 30
0.0
 10
9.999999999999995
 20
4.423624042121482
 30
0.0
 10
9.999999999999995
 20
4.31826780743855
 30
0.0
  0
SPLINE
  5
BB
330
1F
100
AcDbEntity
  8
0
  6
Continuous
 62
     1
370
    25
100
AcDbSpline
210
0.0
220
0.0
230
1.0
 70
     8
 71
     3
 72
    27
 73
    23
 74
     0
 42
0.000000001
 43
0.00000001
 40
0.0
 40
0.0
 40
0.0
 40
0.0
 40
0.0118134866664823
 40
0.0642307121052202
 40
0.1166498331145417
 40
0.1690720543684416
 40
0.2214985770941165
 40
0.2739305977426208
 40
0.3263693066708104
 40
0.3788117066300419
 40
0.4312474130664813
 40
0.4836769389251867
 40
0.5361014773269264
 40
0.5885222269251604
 40
0.6409403905827835
 40
0.6933571740389077
 40
0.7516832498361601
 40
0.810009196692409
 40
0.8683349178425801
 40
0.926660316568802
 40
0.9849852962206158
 40
0.9999999999999999
 40
0.9999999999999999
 40
0.9999999999999999
 40
0.9999999999999999
 10
24.18819674845284
 20
5.06024256832645
 30
0.0
 10
24.33975609571246
 20
5.111864931288334
 30
0.0
 10
25.1637943390795
 20
5.39253914942611
 30
0.0
 10
26.66033908526117
 20
5.713382681290502
 30
0.0
 10
28.67788271654586
 20
5.989395727698001
 30
0.0
 10
30.69556957690358
 20
6.024737324487099
 30
0.0
 10
32.713455235334
 20
5.837831336582428
 30
0.0
 10
34.73159387939133
 20
5.430377031484667
 30
0.0
 10
36.74999083376598
 20
4.819094213822219
 30
0.0
 10
38.76848363265171
 20
4.026632052733158
 30
0.0
 10
40.78677989341661
 20
3.082792310515136
 30
0.0
 10
42.80480477655534
 20
2.023123268304645
 30
0.0
 10
44.82260023351588
 20
0.88745865924532
 30
0.0
 10
46.84021205983271
 20
-0.2815198962663021
 30
0.0
 10
48.85773839515142
 20
-1.439911947696712
 30
0.0
 10
50.95088488615359
 20
-2.585618346179853
 30
0.0
 10
53.12035742476156
 20
-3.664483730153463
 30
0.0
 10
55.36549492851337
 20
-4.60914143997717
 30
0.0
 10
57.61066413752322
 20
-5.345423164485357
 30
0.0
 10
59.85580682221281
 20
-5.8111950522388
 30
0.0
 10
61.54522069891036
 20
-6.020220202973699
 30
0.0
 10
62.48625025810744
 20
-5.981257553558872
 30
0.0
 10
62.67890557672828
 20
-5.973280799200881
 30
0.0
  0
SPLINE
  5
BC
330
1F
100
AcDbEntity
  8
0
  6
Continuous
 62
     1
370
    25
100
AcDbSpline
210
0.0
220
0.0
230
1.0
 70
     8
 71
     3
 72
    23
 73
    19
 74
     0
 42
0.000000001
 43
0.00000001
 40
0.0
 40
0.0
 40
0.0
 40
0.0
 40
0.0665535366566285
 40
0.133098154107088
 40
0.1996353605321305
 40
0.2661666723226398
 40
0.332693612411688
 40
0.3992177085911442
 40
0.4657404918167846
 40
0.5322634945059032
 40
0.5987882488314625
 40
0.6653162850168172
 40
0.7318491296350662
 40
0.7983883039170463
 40
0.8649353220719638
 40
0.9314908350868354
 40
0.9980416637534556
 40
1.0
 40
1.0
 40
1.0
 40
1.0
 10
65.0
 20
-5.850994190131565
 30
0.0
 10
64.32715175274171
 20
-5.743683957704473
 30
0.0
 10
62.98154543032633
 20
-5.529077874085833
 30
0.0
 10
60.9633268542642
 20
-4.940399421211463
 30
0.0
 10
58.94537334822876
 20
-4.18184941404811
 30
0.0
 10
56.92763550276847
 20
-3.261933132083128
 30
0.0
 10
54.91005638621357
 20
-2.220590056135042
 30
0.0
 10
52.89258082923647
 20
-1.095514954911107
 30
0.0
 10
50.87515302235489
 20
0.0706397492337022
 30
0.0
 10
48.85771723043914
 20
1.234153527432963
 30
0.0
 10
46.84021772654931
 20
2.351332593296481
 30
0.0
 10
44.82259873255635
 20
3.38003646667763
 30
0.0
 10
42.80480511316781
 20
4.282250238726773
 30
0.0
 10
40.78678004814721
 20
5.021654744559661
 30
0.0
 10
38.76848267688614
 20
5.579421769315055
 30
0.0
 10
36.74999450246877
 20
5.901014776492668
 30
0.0
 10
35.3845134992836
 20
6.03527289590575
 30
0.0
 10
34.6919216348258
 20
5.99784811363202
 30
0.0
 10
34.67212387851177
 20
5.996778325265185
 30
0.0
  0
LINE
  5
BD
330
1F
100
AcDbEntity
  8
0
  6
Continuous
 62
     1
370
    25
100
AcDbLine
 10
65.0
 20
-6.000000000000012
 30
0.0
 11
65.0
 21
-5.850994190131574
 31
0.0
  0
SPLINE
  5
BE
330
1F
100
AcDbEntity
  8
0
  6
Continuous
 62
     1
370
    25
100
AcDbSpline
210
0.0
220
0.0
230
1.0
 70
     8
 71
     3
 72
    27
 73
    23
 74
     0
 42
0.000000001
 43
0.00000001
 40
0.0
 40
0.0
 40
0.0
 40
0.0
 40
0.0510162367144422
 40
0.1033831934616866
 40
0.1557491166677085
 40
0.2081152126327024
 40
0.260482687464528
 40
0.3128527457363374
 40
0.3652265891478458
 40
0.4176054151934053
 40
0.4699904158400256
 40
0.5223821035367426
 40
0.5747701037716771
 40
0.6271514221945519
 40
0.6795272480111368
 40
0.731898776515508
 40
0.7842672077732648
 40
0.8366337452934711
 40
0.8889995946924465
 40
0.9436152676336366
 40
0.9982311611128056
 40
0.9999999999999999
 40
0.9999999999999999
 40
0.9999999999999999
 40
0.9999999999999999
 10
56.87547185784461
 20
-5.062630157357893
 30
0.0
 10
56.22032344533478
 20
-5.248936186852632
 30
0.0
 10
54.89268072923758
 20
-5.626480935951711
 30
0.0
 10
52.8925811578338
 20
-5.935145725403781
 30
0.0
 10
50.87515293464647
 20
-6.038057270972529
 30
0.0
 10
48.8577172526781
 20
-5.910159353672705
 30
0.0
 10
46.84021772530427
 20
-5.561212791277955
 30
0.0
 10
44.8225987152947
 20
-5.002988878594735
 30
0.0
 10
42.80480518346798
 20
-4.256801456632942
 30
0.0
 10
40.78677978416975
 20
-3.350578030189597
 30
0.0
 10
38.7684836626643
 20
-2.318369340671854
 30
0.0
 10
36.74999082298356
 20
-1.199081059251933
 30
0.0
 10
34.73159389250704
 20
-0.0346669476379367
 30
0.0
 10
32.71345519365957
 20
1.131017540497294
 30
0.0
 10
30.69556973046539
 20
2.254179488580035
 30
0.0
 10
28.67788214403139
 20
3.292450222328792
 30
0.0
 10
26.66034122160769
 20
4.207483624198872
 30
0.0
 10
24.64287450996099
 20
4.962463157155401
 30
0.0
 10
22.59660489264957
 20
5.546403444431815
 30
0.0
 10
20.52125079394186
 20
5.891676057572631
 30
0.0
 10
19.09574034827027
 20
6.038088366927309
 30
0.0
 10
18.37161933836466
 20
5.997432563630148
 30
0.0
 10
18.34890302230532
 20
5.996157155149093
 30
0.0
  0
SPLINE
  5
BF
330
1F
100
AcDbEntity
  8
0
  6
Continuous
 62
     1
370
    25
100
AcDbSpline
210
0.0
220
0.0
230
1.0
 70
     8
 71
     3
 72
    14
 73
    10
 74
     0
 42
0.000000001
 43
0.00000001
 40
0.0
 40
0.0
 40
0.0
 40
0.0
 40
0.144135710715623
 40
0.2882521050104397
 40
0.4323524491677391
 40
0.5764400272515806
 40
0.720518137494511
 40
0.8645900886518264
 40
0.9999999999999999
 40
0.9999999999999999
 40
0.9999999999999999
 40
0.9999999999999999
 10
65.0
 20
1.328859280378009
 30
0.0
 10
64.32715175273432
 20
1.702741521869011
 30
0.0
 10
62.98154543030403
 20
2.450455898831673
 30
0.0
 10
60.96332685435337
 20
3.466676250528074
 30
0.0
 10
58.94537334789448
 20
4.355774599777497
 30
0.0
 10
56.92763550401627
 20
5.081524901031017
 30
0.0
 10
54.91005638155698
 20
5.611536025301796
 30
0.0
 10
52.93299949992641
 20
5.942531089122514
 30
0.0
 10
51.62846297247891
 20
5.976951400703213
 30
0.0
 10
50.99641059545336
 20
5.99362815853621
 30
0.0
  0
SPLINE
  5
C0
330
1F
100
AcDbEntity
  8
0
  6
Continuous
 62
     1
370
    25
100
AcDbSpline
210
0.0
220
0.0
230
1.0
 70
     8
 71
     3
 72
    14
 73
    10
 74
     0
 42
0.000000001
 43
0.00000001
 40
0.0
 40
0.0
 40
0.0
 40
0.0
 40
0.110148841140081
 40
0.2584548452110564
 40
0.4067614481413819
 40
0.5550689576866837
 40
0.7033776813930614
 40
0.8516879265260971
 40
1.0
 40
1.0
 40
1.0
 40
1.0
 10
24.18819674845284
 20
-5.06024256832645
 30
0.0
 10
23.66729254995446
 20
-5.216208455501049
 30
0.0
 10
22.44503535142912
 20
-5.582169084870287
 30
0.0
 10
20.52125117606431
 20
-5.90557825943706
 30
0.0
 10
18.41705066101896
 20
-6.041951519230932
 30
0.0
 10
16.31281937668563
 20
-5.925836737731341
 30
0.0
 10
14.20857142037793
 20
-5.566037355032406
 30
0.0
 10
12.10429689933719
 20
-4.990549953249411
 30
0.0
 10
10.70143518212979
 20
-4.440611637151787
 30
0.0
 10
9.99999999999875
 20
-4.165640784229338
 30
0.0
  0
SPLINE
  5
C1
330
1F
100
AcDbEntity
  8
0
  6
Continuous
 62
     4
370
    25
100
AcDbSpline
210
0.0
220
0.0
230
1.0
 70
    24
 71
     3
 72
    24
 73
    20
 74
     0
 42
0.000000001
 43
0.00000001
 40
0.0
 40
0.0
 40
0.0
 40
0.0
 40
0.0624999999999999
 40
0.0624999999999999
 40
0.1249999999999999
 40
0.1249999999999999
 40
0.2499999999999999
 40
0.2499999999999999
 40
0.375
 40
0.375
 40
0.5
 40
0.5
 40
0.625
 40
0.625
 40
0.7500000000000001
 40
0.7500000000000001
 40
0.875
 40
0.875
 40
1.0
 40
1.0
 40
1.0
 40
1.0
 10
9.999999999999995
 20
2.095270036393126
 30
0.0
 10
9.999999999999995
 20
2.044663265287906
 30
0.0
 10
9.999999999999995
 20
1.992338718631381
 30
0.0
 10
9.999999999999995
 20
1.88562316716861
 30
0.0
 10
9.999999999999995
 20
1.828992900437969
 30
0.0
 10
9.999999999999995
 20
1.641392958206614
 30
0.0
 10
9.999999999999995
 20
1.495222827101372
 30
0.0
 10
9.999999999999995
 20
1.151070962149761
 30
0.0
 10
9.999999999999995
 20
0.9529601744561471
 30
0.0
 10
9.999999999999995
 20
0.4978017443651779
 30
0.0
 10
9.999999999999995
 20
0.2405608077820084
 30
0.0
 10
9.999999999999995
 20
-0.3324863423464584
 30
0.0
 10
9.999999999999995
 20
-0.6484753756260087
 30
0.0
 10
9.999999999999995
 20
-1.325113308368868
 30
0.0
 10
9.999999999999995
 20
-1.685762082058457
 30
0.0
 10
9.999999999999995
 20
-2.420802951934802
 30
0.0
 10
9.999999999999995
 20
-2.794860330926716
 30
0.0
 10
9.999999999999995
 20
-3.513390808834088
 30
0.0
 10
9.999999999999995
 20
-3.857308281019256
 30
0.0
 10
9.999999999999995
 20
-4.165640784229851
 30
0.0
  0
SPLINE
  5
C2
330
1F
100
AcDbEntity
  8
0
  6
Continuous
 62
     1
370
    25
100
AcDbSpline
210
0.0
220
0.0
230
1.0
 70
     8
 71
     3
 72
    17
 73
    13
 74
     0
 42
0.000000001
 43
0.00000001
 40
0.0
 40
0.0
 40
0.0
 40
0.0
 40
0.105052669200182
 40
0.2101040433467393
 40
0.3151543398336855
 40
0.420203776303919
 40
0.5252525705990352
 40
0.6303009407090413
 40
0.7310219761288884
 40
0.8317443350884792
 40
0.9324703364831508
 40
1.0
 40
1.0
 40
1.0
 40
1.0
 10
9.999999999998739
 20
2.09527003639372
 30
0.0
 10
10.70143518280377
 20
1.707490103180026
 30
0.0
 10
12.10429690135913
 20
0.9319350171719435
 30
0.0
 10
14.2085714122903
 20
-0.2924223169322858
 30
0.0
 10
16.31281940701383
 20
-1.498690686695751
 30
0.0
 10
18.41705054779498
 20
-2.645313321590367
 30
0.0
 10
20.52125159862889
 20
-3.683580772174363
 30
0.0
 10
22.59660473810138
 20
-4.558583816951054
 30
0.0
 10
24.642874369106
 20
-5.245896506405654
 30
0.0
 10
26.66034193940622
 20
-5.717697135583869
 30
0.0
 10
28.45620093055913
 20
-5.975306231791566
 30
0.0
 10
29.57959725433112
 20
-5.975113285045984
 30
0.0
 10
30.03047405411245
 20
-5.9750358455802
 30
0.0
  0
SPLINE
  5
C3
330
1F
100
AcDbEntity
  8
0
  6
Continuous
 62
     1
370
    25
100
AcDbSpline
210
0.0
220
0.0
230
1.0
 70
     8
 71
     3
 72
    11
 73
     7
 74
     0
 42
0.000000001
 43
0.00000001
 40
0.0
 40
0.0
 40
0.0
 40
0.0
 40
0.0984117962575938
 40
0.3989435227108896
 40
0.6994730898106585
 40
1.0
 40
1.0
 40
1.0
 40
1.0
 10
56.87547185784461
 20
5.062630157357895
 30
0.0
 10
57.12053657421486
 20
5.14475987712578
 30
0.0
 10
58.11398436156135
 20
5.477698823161222
 30
0.0
 10
59.85580740283413
 20
5.811363297788696
 30
0.0
 10
62.100933790723
 20
6.052445402681786
 30
0.0
 10
63.59767534263543
 20
5.966175779536881
 30
0.0
 10
64.34604281049303
 20
5.923041158637576
 30
0.0
  0
SPLINE
  5
C4
330
1F
100
AcDbEntity
  8
0
  6
Continuous
 62
     1
370
    25
100
AcDbSpline
210
0.0
220
0.0
230
1.0
 70
     8
 71
     3
 72
    20
 73
    16
 74
     0
 42
0.000000001
 43
0.00000001
 40
0.0
 40
0.0
 40
0.0
 40
0.0
 40
0.2500000000000008
 40
0.2500000000000008
 40
0.3750000000000007
 40
0.3750000000000007
 40
0.5000000000000006
 40
0.5000000000000006
 40
0.6250000000000004
 40
0.6250000000000004
 40
0.7500000000000002
 40
0.7500000000000002
 40
0.8750000000000001
 40
0.8750000000000001
 40
1.0
 40
1.0
 40
1.0
 40
1.0
 10
64.34604281049303
 20
5.923041158637585
 30
0.0
 10
64.35112885140026
 20
5.542534979233885
 30
0.0
 10
64.31712971161332
 20
5.169800947532972
 30
0.0
 10
64.18707733190627
 20
4.626419842655091
 30
0.0
 10
64.12953167146964
 20
4.446911123490399
 30
0.0
 10
63.98808935692879
 20
4.110784893826115
 30
0.0
 10
63.90394834380401
 20
3.952221520663266
 30
0.0
 10
63.7056584670619
 20
3.656336941975042
 30
0.0
 10
63.5945852972681
 20
3.523839668565572
 30
0.0
 10
63.35152993231176
 20
3.291097136675006
 30
0.0
 10
63.21750383993007
 20
3.189532317023827
 30
0.0
 10
62.93775629808969
 20
3.024135119926173
 30
0.0
 10
62.79214789655807
 20
2.959667403985352
 30
0.0
 10
62.49048002212703
 20
2.863956824433937
 30
0.0
 10
62.33578115845353
 20
2.833394590183154
 30
0.0
 10
62.1813003423764
 20
2.818699657623625
 30
0.0
  0
SPLINE
  5
C5
330
1F
100
AcDbEntity
  8
0
  6
Continuous
 62
     1
370
    25
100
AcDbSpline
210
0.0
220
0.0
230
1.0
 70
     8
 71
     3
 72
     9
 73
     5
 74
     0
 42
0.000000001
 43
0.00000001
 40
0.0
 40
0.0
 40
0.0
 40
0.0
 40
0.576499232216523
 40
1.0
 40
1.0
 40
1.0
 40
1.0
 10
65.0
 20
1.446523558810442
 30
0.0
 10
64.516958890893
 20
1.700873756113936
 30
0.0
 10
63.67907206969146
 20
2.142071563655791
 30
0.0
 10
62.89421152613719
 20
2.494322972853239
 30
0.0
 10
62.56182248333902
 20
2.643501715101171
 30
0.0
  0
LINE
  5
C6
330
1F
100
AcDbEntity
  8
0
  6
Continuous
 62
     1
370
    25
100
AcDbLine
 10
65.0
 20
1.333844941728304
 30
0.0
 11
65.0
 21
1.446523558810442
 31
0.0
  0
SPLINE
  5
C7
330
1F
100
AcDbEntity
  8
0
  6
Continuous
 62
     1
370
    25
100
AcDbSpline
210
0.0
220
0.0
230
1.0
 70
     8
 71
     3
 72
     9
 73
     5
 74
     0
 42
0.000000001
 43
0.00000001
 40
0.0
 40
0.0
 40
0.0
 40
0.0
 40
0.5675328579047632
 40
1.0
 40
1.0
 40
1.0
 40
1.0
 10
9.999999999998739
 20
-5.622263198623004
 30
0.0
 10
10.7014353096793
 20
-5.74734934594113
 30
0.0
 10
11.93737310589808
 20
-5.967752703343064
 30
0.0
 10
13.17330633215426
 20
-5.974716250751126
 30
0.0
 10
13.70780684233381
 20
-5.977727756197537
 30
0.0
  0
SPLINE
  5
C8
330
1F
100
AcDbEntity
  8
0
  6
Continuous
 62
     1
370
    25
100
AcDbSpline
210
0.0
220
0.0
230
1.0
 70
     8
 71
     3
 72
    19
 73
    15
 74
     0
 42
0.000000001
 43
0.00000001
 40
0.0
 40
0.0
 40
0.0
 40
0.0
 40
0.0114808166972842
 40
0.0961577982540556
 40
0.1808267247541662
 40
0.2654895320983371
 40
0.3501481629857913
 40
0.4348045647610242
 40
0.5290048453028082
 40
0.623204917596763
 40
0.7174046253612073
 40
0.8116038123906965
 40
0.905802322588661
 40
1.0
 40
1.0
 40
1.0
 40
1.0
 10
40.51323644557668
 20
5.065729008439244
 30
0.0
 10
40.60444180271227
 20
5.097280568047222
 30
0.0
 10
41.36833400327377
 20
5.361541254667395
 30
0.0
 10
42.80480139554685
 20
5.677496839224388
 30
0.0
 10
44.82260113931618
 20
5.97526439761194
 30
0.0
 10
46.84021181725834
 20
6.030439776067277
 30
0.0
 10
48.85773845972197
 20
5.8638221488319
 30
0.0
 10
50.95088486741655
 20
5.460983777137474
 30
0.0
 10
53.12035742682441
 20
4.81019965749659
 30
0.0
 10
55.36549493972586
 20
3.912971104383177
 30
0.0
 10
57.61066409061071
 20
2.833648340707442
 30
0.0
 10
59.8558069986488
 20
1.62344500153739
 30
0.0
 10
62.10093389176799
 20
0.3345819241886459
 30
0.0
 10
63.59767537631701
 20
-0.527077797403663
 30
0.0
 10
64.34604281049303
 20
-0.9579057537592313
 30
0.0
  0
SPLINE
  5
C9
330
1F
100
AcDbEntity
  8
0
  6
Continuous
 62
     1
370
    25
100
AcDbSpline
210
0.0
220
0.0
230
1.0
 70
     8
 71
     3
 72
     8
 73
     4
 74
     0
 42
0.000000001
 43
0.00000001
 40
0.0
 40
0.0
 40
0.0
 40
0.0
 40
1.0
 40
1.0
 40
1.0
 40
1.0
 10
65.0
 20
-4.474290814540882
 30
0.0
 10
64.0112668397746
 20
-3.917955780000535
 30
0.0
 10
63.07855960571099
 20
-3.235662551569951
 30
0.0
 10
62.18130034237618
 20
-2.473674748217331
 30
0.0
  0
LINE
  5
CA
330
1F
100
AcDbEntity
  8
0
  6
Continuous
 62
     1
370
    25
100
AcDbLine
 10
65.0
 20
-5.850994190131574
 30
0.0
 11
65.0
 21
-4.474290814540884
 31
0.0
  0
SPLINE
  5
CB
330
1F
100
AcDbEntity
  8
0
  6
Continuous
 62
     1
370
    25
100
AcDbSpline
210
0.0
220
0.0
230
1.0
 70
    24
 71
     3
 72
    16
 73
    12
 74
     0
 42
0.000000001
 43
0.00000001
 40
0.0
 40
0.0
 40
0.0
 40
0.0
 40
0.1302327929002326
 40
0.2876653868331618
 40
0.389168640474629
 40
0.493443159214917
 40
0.5950303982685612
 40
0.6998715070753595
 40
0.7971787996069613
 40
0.8968462049474094
 40
1.0
 40
1.0
 40
1.0
 40
1.0
 10
64.34084631831595
 20
-0.9615443767538727
 30
0.0
 10
64.33606889916132
 20
-0.9648895616591381
 30
0.0
 10
64.32551627183469
 20
-0.9722785908611674
 30
0.0
 10
64.2024411226109
 20
-1.058456738113924
 30
0.0
 10
64.01581966471116
 20
-1.189130489726997
 30
0.0
 10
63.80231482021009
 20
-1.338628191290979
 30
0.0
 10
63.53550335022708
 20
-1.525451593853864
 30
0.0
 10
63.23209774523655
 20
-1.737898485603318
 30
0.0
 10
62.90007060401469
 20
-1.970386392777091
 30
0.0
 10
62.55028088559627
 20
-2.215311790401893
 30
0.0
 10
62.30569528934983
 20
-2.386572468631186
 30
0.0
 10
62.1813003423762
 20
-2.473674748217333
 30
0.0
  0
SPLINE
  5
CC
330
1F
100
AcDbEntity
  8
0
  6
Continuous
 62
     1
370
    25
100
AcDbSpline
210
0.0
220
0.0
230
1.0
 70
     8
 71
     3
 72
    22
 73
    18
 74
     0
 42
0.000000001
 43
0.00000001
 40
0.0
 40
0.0
 40
0.0
 40
0.0
 40
0.0571764390543874
 40
0.1233282216803418
 40
0.1894753483736281
 40
0.2556140383511229
 40
0.321745793150285
 40
0.3878721219959049
 40
0.4539945401374839
 40
0.5201145671723761
 40
0.5862337253586383
 40
0.6551935982547009
 40
0.7241537496105935
 40
0.7931143225276625
 40
0.8620754600098276
 40
0.9310373049305731
 40
1.0
 40
1.0
 40
1.0
 40
1.0
 10
40.51323644557661
 20
-5.065729008439241
 30
0.0
 10
39.93168045842618
 20
-5.23547821199088
 30
0.0
 10
38.67727800019343
 20
-5.601623214231475
 30
0.0
 10
36.74999001062423
 20
-5.91439106494526
 30
0.0
 10
34.73159411007074
 20
-6.03857535364118
 30
0.0
 10
32.71345513563736
 20
-5.930714744067068
 30
0.0
 10
30.69556974502515
 20
-5.601314119028547
 30
0.0
 10
28.67788214380679
 20
-5.061053822408836
 30
0.0
 10
26.66034120794879
 20
-4.33071117294956
 30
0.0
 10
24.64287456481885
 20
-3.437609652946342
 30
0.0
 10
22.59660468314664
 20
-2.40071172327908
 30
0.0
 10
20.52125161361491
 20
-1.253787741698526
 30
0.0
 10
18.41705054377955
 20
-0.0398889873172697
 30
0.0
 10
16.31281940808941
 20
1.17654776969741
 30
0.0
 10
14.20857141200347
 20
2.341518324775192
 30
0.0
 10
12.10429690143084
 20
3.423481558537887
 30
0.0
 10
10.70143518282768
 20
4.020004498842442
 30
0.0
 10
9.999999999998746
 20
4.3182678074391
 30
0.0
  0
SPLINE
  5
CD
330
1F
100
AcDbEntity
  8
0
  6
Continuous
 62
     4
370
    25
100
AcDbSpline
210
0.0
220
0.0
230
1.0
 70
    24
 71
     3
 72
    10
 73
     6
 74
     0
 42
0.000000001
 43
0.00000001
 40
0.0
 40
0.0
 40
0.0
 40
0.0
 40
0.543415421337161
 40
0.9781947699719705
 40
1.0
 40
1.0
 40
1.0
 40
1.0
 10
9.999999999999995
 20
5.622263198623416
 30
0.0
 10
9.999999999999995
 20
5.377811710740833
 30
0.0
 10
9.999999999999998
 20
4.937777884740433
 30
0.0
 10
9.999999999999995
 20
4.54034431767932
 30
0.0
 10
9.999999999999998
 20
4.400947538023429
 30
0.0
 10
9.999999999999998
 20
4.39429032928794
 30
0.0
  0
SPLINE
  5
CE
330
1F
100
AcDbEntity
  8
0
  6
Continuous
 62
     1
370
    25
100
AcDbSpline
210
0.0
220
0.0
230
1.0
 70
     8
 71
     3
 72
    25
 73
    21
 74
     0
 42
0.000000001
 43
0.00000001
 40
0.0
 40
0.0
 40
0.0
 40
0.0
 40
0.0578794123563673
 40
0.1157581111949979
 40
0.1736362162904567
 40
0.2315138475544334
 40
0.2893911250080909
 40
0.3472681687543606
 40
0.4027610409146761
 40
0.4582546422873303
 40
0.5137502504819303
 40
0.5692491408749935
 40
0.6247525851939467
 40
0.6802618501097611
 40
0.7357781958415407
 40
0.7912984492316057
 40
0.8468116162548803
 40
0.9023182399612555
 40
0.957819583495962
 40
1.0
 40
1.0
 40
1.0
 40
1.0
 10
9.999999999998739
 20
5.622263198623015
 30
0.0
 10
10.70143518282771
 20
5.741428593037887
 30
0.0
 10
12.10429690143095
 20
5.979757912837126
 30
0.0
 10
14.20857141200303
 20
6.031343423561132
 30
0.0
 10
16.31281940809107
 20
5.852965644321154
 30
0.0
 10
18.41705054377333
 20
5.431003067429183
 30
0.0
 10
20.52125161363814
 20
4.788300945702252
 30
0.0
 10
22.59660468306146
 20
3.961145503558009
 30
0.0
 10
24.64287456512215
 20
2.991831794266338
 30
0.0
 10
26.66034120681522
 20
1.923761555681293
 30
0.0
 10
28.67788214803801
 20
0.7833836790948696
 30
0.0
 10
30.6955697292323
 20
-0.3864593941730514
 30
0.0
 10
32.71345519458497
 20
-1.541826537146626
 30
0.0
 10
34.73159389003826
 20
-2.639255602825629
 30
0.0
 10
36.7499908319346
 20
-3.637641285106811
 30
0.0
 10
38.76848362932871
 20
-4.49872987121085
 30
0.0
 10
40.78677990853667
 20
-5.192735534289668
 30
0.0
 10
42.80480471940709
 20
-5.684189902579615
 30
0.0
 10
44.66121930177863
 20
-5.964969203458226
 30
0.0
 10
45.8449562396627
 20
-5.975050376161179
 30
0.0
 10
46.35611120914072
 20
-5.97940357437639
 30
0.0
  0
LINE
  5
CF
330
1F
100
AcDbEntity
  8
0
  6
Continuous
 62
     4
370
    25
100
AcDbLine
 10
9.999999999999998
 20
-5.622263198623405
 30
0.0
 11
9.999999999999995
 21
-4.165640784229851
 31
0.0
  0
LINE
  5
D0
330
1F
100
AcDbEntity
  8
0
  6
Continuous
 62
     1
370
    25
100
AcDbLine
 10
65.0
 20
-0.5000000000000194
 30
0.0
 11
65.0
 21
1.328859280378009
 31
0.0
  0
LINE
  5
D1
330
1F
100
AcDbEntity
  8
0
  6
Continuous
 62
     1
370
    25
100
AcDbLine
 10
65.0
 20
-0.500000000000019
 30
0.0
 11
64.34604281049303
 21
-0.9579057537592476
 31
0.0
  0
LINE
  5
D2
330
1F
100
AcDbEntity
  8
0
  6
Continuous
 62
     4
370
    25
100
AcDbLine
 10
9.999999999999995
 20
2.095270036393122
 30
0.0
 11
9.999999999999995
 21
4.318267807438595
 31
0.0
  0
LINE
  5
D3
330
1F
100
AcDbEntity
  8
0
  6
Continuous
 62
     1
370
    25
100
AcDbLine
 10
65.0
 20
5.979130371550708
 30
0.0
 11
65.0
 21
6.000000000000009
 31
0.0
  0
ELLIPSE
  5
D4
330
1F
100
AcDbEntity
  8
0
  6
Continuous
 62
     1
370
    25
100
AcDbEllipse
 10
65.71407400337105
 20
-0.0000000000000019
 30
0.0
 11
8.568888040452663
 21
-5.350968460038300E-17
 31
0.0
210
0.0
220
0.0
230
1.0
 40
0.7002075382097125
 41
1.654226413405513
 42
1.731133393454129
  0
LINE
  5
D5
330
1F
100
AcDbEntity
  8
0
  6
Continuous
 62
     1
370
    25
100
AcDbLine
 10
65.0
 20
-0.4999999999999984
 30
0.0
 11
65.0
 21
-4.474290814540876
 31
0.0
  0
LINE
  5
D6
330
1F
100
AcDbEntity
  8
0
  6
Continuous
 62
     1
370
    25
100
AcDbLine
 10
65.0
 20
1.446523558810442
 30
0.0
 11
65.0
 21
5.979130371550708
 31
0.0
  0
LINE
  5
D7
330
1F
100
AcDbEntity
  8
중심선
100
AcDbLine
 10
-48.0
 20
-0.0000000000000071
 30
0.0
 11
68.0
 21
0.0000000000000071
 31
0.0
  0
CIRCLE
  5
D8
330
1F
100
AcDbEntity
  8
해칭선
100
AcDbCircle
 10
0.000106631166787
 20
-0.0000000000000043
 30
0.0
 40
3.0
  0
INSERT
  5
D9
330
1F
100
AcDbEntity
  8
0
  6
Continuous
 62
     7
100
AcDbBlockReference
 66
     1
  2
블럭10
 10
-2.440099248941783
 20
-52.04717430164393
 30
0.0
  0
ATTRIB
  5
DA
330
D9
100
AcDbEntity
  8
FORMAT
 62
     2
100
AcDbText
 10
-18.55936028837734
 20
-49.97180738881174
 30
0.0
 40
4.233333333333333
  1
SEME7212055E [ 4 FLUTE ]
 41
0.75
  7
SLDTEXTSTYLE0
 11
-18.55936028837734
 21
-52.08847405547841
 31
0.0
100
AcDbAttribute
  2
AUTOATTR0
 70
     0
 74
     1
  0
SEQEND
  5
DB
330
D9
100
AcDbEntity
  8
0
  6
Continuous
 62
     7
  0
HATCH
  5
DC
330
1F
100
AcDbEntity
  8
중심선
100
AcDbHatch
 10
0.0
 20
0.0
 30
0.0
210
0.0
220
0.0
230
1.0
  2
SOLID
 70
     1
 71
     0
 91
        1
 92
        0
 93
        4
 72
     1
 10
3.274810055439059
 20
-35.8
 11
-0.1714651883982232
 21
-35.8
 72
     1
 10
-0.1714651883982232
 20
-35.8
 11
-2.299695047602246
 21
-38.33632558057257
 72
     1
 10
-2.299695047602246
 20
-38.33632558057257
 11
1.146613281348186
 21
-38.33628615127008
 72
     1
 10
1.146613281348186
 20
-38.33628615127008
 11
3.274810055439059
 21
-35.8
 97
        0
 75
     0
 76
     1
 98
        1
 10
0.0
 20
0.0
  0
HATCH
  5
DD
330
1F
100
AcDbEntity
  8
중심선
100
AcDbHatch
 10
0.0
 20
0.0
 30
0.0
210
0.0
220
0.0
230
1.0
  2
SOLID
 70
     1
 71
     0
 91
        1
 92
        0
 93
        4
 72
     1
 10
8.287574046475065
 20
-35.79999999999997
 11
4.841298802637755
 21
-35.79999999999997
 72
     1
 10
4.841298802637755
 20
-35.79999999999997
 11
0.3101607942803399
 21
-41.20000000000002
 72
     1
 10
0.3101607942803397
 20
-41.20000000000002
 11
3.756436038117622
 21
-41.20000000000002
 72
     1
 10
3.756436038117622
 20
-41.20000000000002
 11
8.287574046475065
 21
-35.79999999999997
 97
        0
 75
     0
 76
     1
 98
        1
 10
0.0
 20
0.0
  0
HATCH
  5
DE
330
1F
100
AcDbEntity
  8
중심선
100
AcDbHatch
 10
0.0
 20
0.0
 30
0.0
210
0.0
220
0.0
230
1.0
  2
SOLID
 70
     1
 71
     0
 91
        1
 92
        0
 93
        4
 72
     1
 10
13.30033803751093
 20
-35.79999999999997
 11
9.854062793673817
 21
-35.79999999999997
 72
     1
 10
9.854062793673817
 20
-35.79999999999997
 11
2.805625891784541
 21
-44.20000000000002
 72
     1
 10
2.805625891784541
 20
-44.20000000000002
 11
6.251901135621823
 21
-44.20000000000002
 72
     1
 10
6.251901135621823
 20
-44.20000000000002
 11
13.30033803751093
 21
-35.79999999999997
 97
        0
 75
     0
 76
     1
 98
        1
 10
0.0
 20
0.0
  0
HATCH
  5
DF
330
1F
100
AcDbEntity
  8
중심선
100
AcDbHatch
 10
0.0
 20
0.0
 30
0.0
210
0.0
220
0.0
230
1.0
  2
SOLID
 70
     1
 71
     0
 91
        1
 92
        0
 93
        6
 72
     3
 10
18.10022846852311
 20
-40.00000000005127
 11
3.960054785062284
 21
1.540850780301639E-10
 40
0.3939339440162633
 50
17.09539180608434
 51
320.0019657685081
 73
     0
 72
     1
 10
19.78322812422367
 20
-38.58789400463833
 11
22.08852999792474
 21
-36.65356729459038
 72
     3
 10
18.10022846847026
 20
-40.00000000000015
 11
6.600054785286829
 21
-1.249000902703301E-13
 40
0.6363583540795982
 50
39.9987384933741
 51
368.4976242363725
 73
     1
 72
     1
 10
24.52556096037087
 20
-39.03999999993002
 11
16.78029577530618
 21
-39.03999999993002
 72
     1
 10
16.78029577530618
 20
-39.03999999993002
 11
16.78027073086025
 21
-40.95999999992991
 72
     1
 10
16.78027073086025
 20
-40.95999999992991
 11
21.22165050033228
 21
-40.95999999992988
 97
        0
 75
     0
 76
     1
 98
        1
 10
0.0
 20
0.0
  0
DIMENSION
  5
E0
330
1F
100
AcDbEntity
  8
치수문자_일반주서
100
AcDbDimension
  2
_D
 10
78.16209547383346
 20
6.00000000000005
 30
0.0
 11
78.16209547383342
 21
16.54150000000005
 31
0.0
 70
   160
  1
%%c<>
 71
     2
 42
12.00000000000001
 52
-270.0
  3
SLDDIMSTYLE0
100
AcDbAlignedDimension
 13
65.0
 23
-6.000000000000005
 33
0.0
 14
65.0
 24
6.0
 34
0.0
 50
90.0000000000002
100
AcDbRotatedDimension
  0
DIMENSION
  5
EE
330
1F
100
AcDbEntity
  8
치수문자_일반주서
100
AcDbDimension
  2
_D_1
 10
65.0
 20
23.38913260158164
 30
0.0
 11
9.999999999999996
 21
23.38913260158164
 31
0.0
 70
   160
  1
<>
 71
     2
 42
110.0
  3
SLDDIMSTYLE1
100
AcDbAlignedDimension
 13
-45.00000000000001
 23
5.499999999999993
 33
0.0
 14
65.0
 24
6.000000000000004
 34
0.0
 50
-0.0000000000000037
100
AcDbRotatedDimension
  0
DIMENSION
  5
F9
330
1F
100
AcDbEntity
  8
치수문자_일반주서
100
AcDbDimension
  2
_D_2
 10
-56.3139957799013
 20
-6.000000000000053
 30
0.0
 11
-56.31399577990138
 21
16.54149999999996
 31
0.0
 70
   160
  1
%%c<>
 71
     2
 42
12.00000000000001
 52
-270.0
  3
SLDDIMSTYLE2
100
AcDbAlignedDimension
 13
-44.5
 23
6.000000000000004
 33
0.0
 14
-44.5
 24
-6.000000000000007
 34
0.0
 50
90.0000000000002
100
AcDbRotatedDimension
  0
DIMENSION
  5
107
330
1F
100
AcDbEntity
  8
치수문자_일반주서
100
AcDbDimension
  2
_D_3
 10
65.0
 20
16.46818150121106
 30
0.0
 11
37.5
 21
16.46818150121106
 31
0.0
 70
   160
  1
<>
 71
     2
 42
55.00000000000001
  3
SLDDIMSTYLE1
100
AcDbAlignedDimension
 13
9.999999999999995
 23
5.622263198623416
 33
0.0
 14
65.0
 24
6.000000000000004
 34
0.0
 50
-0.0000000000000037
100
AcDbRotatedDimension
  0
INSERT
  5
117
330
1F
100
AcDbEntity
  8
해칭선
100
AcDbBlockReference
  2
SW_DOWELSYMBOL_0
 10
0.000106631166787
 20
-0.0000000000000043
 30
0.0
  0
ENDSEC
  0
SECTION
  2
OBJECTS
  0
DICTIONARY
  5
C
330
0
100
AcDbDictionary
281
     1
  3
ACAD_GROUP
350
D
  3
ACAD_IMAGE_VARS
350
13B
  3
ACAD_LAYOUT
350
1A
  3
ACAD_MLINESTYLE
350
17
  3
ACAD_PLOTSETTINGS
350
19
  3
ACAD_PLOTSTYLENAME
350
E
  3
ACAD_SCALELIST
350
47
  3
APPDATA
350
139
  3
DWGPROPS
350
14A
  0
DICTIONARY
  5
D
102
{ACAD_REACTORS
330
C
102
}
330
C
100
AcDbDictionary
281
     1
  0
RASTERVARIABLES
  5
13B
102
{ACAD_REACTORS
330
C
102
}
330
C
100
AcDbRasterVariables
 90
        0
 70
     1
 71
     1
 72
     1
  0
DICTIONARY
  5
1A
102
{ACAD_REACTORS
330
C
102
}
330
C
100
AcDbDictionary
281
     1
  3
Layout1
350
1E
  3
Layout2
350
26
  3
Model
350
22
  0
DICTIONARY
  5
17
102
{ACAD_REACTORS
330
C
102
}
330
C
100
AcDbDictionary
281
     1
  3
Standard
350
18
  0
DICTIONARY
  5
19
102
{ACAD_REACTORS
330
C
102
}
330
C
100
AcDbDictionary
281
     1
  0
ACDBDICTIONARYWDFLT
  5
E
102
{ACAD_REACTORS
330
C
102
}
330
C
100
AcDbDictionary
281
     1
  3
Normal
350
F
100
AcDbDictionaryWithDefault
340
F
  0
DICTIONARY
  5
47
102
{ACAD_REACTORS
330
C
102
}
330
C
100
AcDbDictionary
281
     1
  3
A0
350
48
  3
A1
350
49
  3
A2
350
4A
  3
A3
350
4B
  3
A4
350
4C
  3
A5
350
4D
  3
A6
350
4E
  3
A7
350
4F
  3
A8
350
50
  3
A9
350
51
  3
B0
350
52
  3
B1
350
53
  3
B2
350
54
  3
B3
350
55
  3
B4
350
56
  3
B5
350
57
  3
B6
350
58
  3
B7
350
59
  3
B8
350
5A
  3
B9
350
5B
  3
C0
350
5C
  3
C1
350
5D
  3
C2
350
5E
  3
C3
350
5F
  3
C4
350
60
  3
C5
350
61
  3
C6
350
62
  3
C7
350
63
  3
C8
350
64
  3
C9
350
65
  3
D0
350
66
  3
D1
350
67
  3
D2
350
68
  0
DICTIONARY
  5
139
102
{ACAD_REACTORS
330
C
102
}
330
C
100
AcDbDictionary
281
     1
  0
XRECORD
  5
14A
102
{ACAD_REACTORS
330
C
102
}
330
C
100
AcDbXrecord
280
     1
  1
DWGPROPS COOKIE
  2

  3

  4

  6

  7

  8
12014102
  9

300
=
301
=
302
=
303
=
304
=
305
=
306
=
307
=
308
=
309
=
 40
0.0
 41
2458260.205994294
 42
2458268.213441864
  1

 90
        0
  0
LAYOUT
  5
1E
102
{ACAD_REACTORS
330
1A
102
}
330
1A
100
AcDbPlotSettings
  1

  2
none_device
  4

  6

 40
0.0
 41
0.0
 42
0.0
 43
0.0
 44
0.0
 45
0.0
 46
0.0
 47
0.0
 48
0.0
 49
0.0
140
0.0
141
0.0
142
1.0
143
1.0
 70
   688
 72
     1
 73
     0
 74
     5
  7

 75
    16
147
1.0
148
0.0
149
0.0
100
AcDbLayout
  1
Layout1
 70
     1
 71
     1
 10
0.0
 20
0.0
 11
420.0
 21
297.0
 12
0.0
 22
0.0
 32
0.0
 14
1.000000000000000E+20
 24
1.000000000000000E+20
 34
1.000000000000000E+20
 15
-1.000000000000000E+20
 25
-1.000000000000000E+20
 35
-1.000000000000000E+20
146
0.0
 13
0.0
 23
0.0
 33
0.0
 16
1.0
 26
0.0
 36
0.0
 17
0.0
 27
1.0
 37
0.0
 76
     0
330
1B
  0
LAYOUT
  5
26
102
{ACAD_REACTORS
330
1A
102
}
330
1A
100
AcDbPlotSettings
  1

  2
none_device
  4

  6

 40
0.0
 41
0.0
 42
0.0
 43
0.0
 44
0.0
 45
0.0
 46
0.0
 47
0.0
 48
0.0
 49
0.0
140
0.0
141
0.0
142
1.0
143
1.0
 70
   688
 72
     1
 73
     0
 74
     5
  7

 75
    16
147
1.0
148
0.0
149
0.0
100
AcDbLayout
  1
Layout2
 70
     1
 71
     2
 10
0.0
 20
0.0
 11
0.0
 21
0.0
 12
0.0
 22
0.0
 32
0.0
 14
0.0
 24
0.0
 34
0.0
 15
0.0
 25
0.0
 35
0.0
146
0.0
 13
0.0
 23
0.0
 33
0.0
 16
1.0
 26
0.0
 36
0.0
 17
0.0
 27
1.0
 37
0.0
 76
     0
330
23
  0
LAYOUT
  5
22
102
{ACAD_REACTORS
330
1A
102
}
330
1A
100
AcDbPlotSettings
  1

  2
none_device
  4
ANSI_A_(11.00_x_8.50_Inches)
  6

 40
6.35
 41
19.05
 42
6.35000508
 43
19.05000254
 44
279.4
 45
215.9
 46
112.5874072115648
 47
110.6817920850727
 48
0.0
 49
0.0
140
0.0
141
0.0
142
0.0751746256859428
143
1.0
 70
  1696
 72
     0
 73
     0
 74
     0
  7

 75
     0
147
0.0235690232323232
148
0.0
149
0.0
100
AcDbLayout
  1
Model
 70
     1
 71
     0
 10
0.0
 20
0.0
 11
420.0
 21
297.0
 12
0.0
 22
0.0
 32
0.0
 14
-60.68899577990139
 24
-49.97180738881174
 34
0.0
 15
78.71242880716683
 25
27.76413260158164
 35
0.0
146
0.0
 13
0.0
 23
0.0
 33
0.0
 16
1.0
 26
0.0
 36
0.0
 17
0.0
 27
1.0
 37
0.0
 76
     0
330
1F
331
29
  0
MLINESTYLE
  5
18
102
{ACAD_REACTORS
330
17
102
}
330
17
100
AcDbMlineStyle
  2
Standard
 70
     0
  3

 62
   256
 51
90.0
 52
90.0
 71
     2
 49
0.5
 62
   256
  6
BYLAYER
 49
-0.5
 62
   256
  6
BYLAYER
  0
ACDBPLACEHOLDER
  5
F
102
{ACAD_REACTORS
330
E
102
}
330
E
  0
SCALE
  5
48
102
{ACAD_REACTORS
330
47
102
}
330
47
100
AcDbScale
 70
     0
300
1:1
140
1.0
141
1.0
290
     1
  0
SCALE
  5
49
102
{ACAD_REACTORS
330
47
102
}
330
47
100
AcDbScale
 70
     0
300
1:2
140
1.0
141
2.0
290
     0
  0
SCALE
  5
4A
102
{ACAD_REACTORS
330
47
102
}
330
47
100
AcDbScale
 70
     0
300
1:4
140
1.0
141
4.0
290
     0
  0
SCALE
  5
4B
102
{ACAD_REACTORS
330
47
102
}
330
47
100
AcDbScale
 70
     0
300
1:5
140
1.0
141
5.0
290
     0
  0
SCALE
  5
4C
102
{ACAD_REACTORS
330
47
102
}
330
47
100
AcDbScale
 70
     0
300
1:8
140
1.0
141
8.0
290
     0
  0
SCALE
  5
4D
102
{ACAD_REACTORS
330
47
102
}
330
47
100
AcDbScale
 70
     0
300
1:10
140
1.0
141
10.0
290
     0
  0
SCALE
  5
4E
102
{ACAD_REACTORS
330
47
102
}
330
47
100
AcDbScale
 70
     0
300
1:16
140
1.0
141
16.0
290
     0
  0
SCALE
  5
4F
102
{ACAD_REACTORS
330
47
102
}
330
47
100
AcDbScale
 70
     0
300
1:20
140
1.0
141
20.0
290
     0
  0
SCALE
  5
50
102
{ACAD_REACTORS
330
47
102
}
330
47
100
AcDbScale
 70
     0
300
1:30
140
1.0
141
30.0
290
     0
  0
SCALE
  5
51
102
{ACAD_REACTORS
330
47
102
}
330
47
100
AcDbScale
 70
     0
300
1:40
140
1.0
141
40.0
290
     0
  0
SCALE
  5
52
102
{ACAD_REACTORS
330
47
102
}
330
47
100
AcDbScale
 70
     0
300
1:50
140
1.0
141
50.0
290
     0
  0
SCALE
  5
53
102
{ACAD_REACTORS
330
47
102
}
330
47
100
AcDbScale
 70
     0
300
1:100
140
1.0
141
100.0
290
     0
  0
SCALE
  5
54
102
{ACAD_REACTORS
330
47
102
}
330
47
100
AcDbScale
 70
     0
300
2:1
140
2.0
141
1.0
290
     0
  0
SCALE
  5
55
102
{ACAD_REACTORS
330
47
102
}
330
47
100
AcDbScale
 70
     0
300
4:1
140
4.0
141
1.0
290
     0
  0
SCALE
  5
56
102
{ACAD_REACTORS
330
47
102
}
330
47
100
AcDbScale
 70
     0
300
8:1
140
8.0
141
1.0
290
     0
  0
SCALE
  5
57
102
{ACAD_REACTORS
330
47
102
}
330
47
100
AcDbScale
 70
     0
300
10:1
140
10.0
141
1.0
290
     0
  0
SCALE
  5
58
102
{ACAD_REACTORS
330
47
102
}
330
47
100
AcDbScale
 70
     0
300
100:1
140
100.0
141
1.0
290
     0
  0
SCALE
  5
59
102
{ACAD_REACTORS
330
47
102
}
330
47
100
AcDbScale
 70
     0
300
1/128" = 1'-0"
140
0.0078125
141
12.0
290
     0
  0
SCALE
  5
5A
102
{ACAD_REACTORS
330
47
102
}
330
47
100
AcDbScale
 70
     0
300
1/64" = 1'-0"
140
0.015625
141
12.0
290
     0
  0
SCALE
  5
5B
102
{ACAD_REACTORS
330
47
102
}
330
47
100
AcDbScale
 70
     0
300
1/32" = 1'-0"
140
0.03125
141
12.0
290
     0
  0
SCALE
  5
5C
102
{ACAD_REACTORS
330
47
102
}
330
47
100
AcDbScale
 70
     0
300
1/16" = 1'-0"
140
0.0625
141
12.0
290
     0
  0
SCALE
  5
5D
102
{ACAD_REACTORS
330
47
102
}
330
47
100
AcDbScale
 70
     0
300
3/32" = 1'-0"
140
0.09375
141
12.0
290
     0
  0
SCALE
  5
5E
102
{ACAD_REACTORS
330
47
102
}
330
47
100
AcDbScale
 70
     0
300
1/8" = 1'-0"
140
0.125
141
12.0
290
     0
  0
SCALE
  5
5F
102
{ACAD_REACTORS
330
47
102
}
330
47
100
AcDbScale
 70
     0
300
3/16" = 1'-0"
140
0.1875
141
12.0
290
     0
  0
SCALE
  5
60
102
{ACAD_REACTORS
330
47
102
}
330
47
100
AcDbScale
 70
     0
300
1/4" = 1'-0"
140
0.25
141
12.0
290
     0
  0
SCALE
  5
61
102
{ACAD_REACTORS
330
47
102
}
330
47
100
AcDbScale
 70
     0
300
3/8" = 1'-0"
140
0.375
141
12.0
290
     0
  0
SCALE
  5
62
102
{ACAD_REACTORS
330
47
102
}
330
47
100
AcDbScale
 70
     0
300
1/2" = 1'-0"
140
0.5
141
12.0
290
     0
  0
SCALE
  5
63
102
{ACAD_REACTORS
330
47
102
}
330
47
100
AcDbScale
 70
     0
300
3/4" = 1'-0"
140
0.75
141
12.0
290
     0
  0
SCALE
  5
64
102
{ACAD_REACTORS
330
47
102
}
330
47
100
AcDbScale
 70
     0
300
1" = 1'-0"
140
1.0
141
12.0
290
     0
  0
SCALE
  5
65
102
{ACAD_REACTORS
330
47
102
}
330
47
100
AcDbScale
 70
     0
300
1-1/2" = 1'-0"
140
1.5
141
12.0
290
     0
  0
SCALE
  5
66
102
{ACAD_REACTORS
330
47
102
}
330
47
100
AcDbScale
 70
     0
300
3" = 1'-0"
140
3.0
141
12.0
290
     0
  0
SCALE
  5
67
102
{ACAD_REACTORS
330
47
102
}
330
47
100
AcDbScale
 70
     0
300
6" = 1'-0"
140
6.0
141
12.0
290
     0
  0
SCALE
  5
68
102
{ACAD_REACTORS
330
47
102
}
330
47
100
AcDbScale
 70
     0
300
1'-0" = 1'-0"
140
12.0
141
12.0
290
     0
  0
ENDSEC
  0
EOF
